osu file format v14

[General]
AudioFilename: audio.mp3
AudioLeadIn: 0
PreviewTime: 147394
Countdown: 0
SampleSet: Normal
StackLeniency: 0.7
Mode: 1
LetterboxInBreaks: 0
WidescreenStoryboard: 1

[Editor]
Bookmarks: 15371,30609,45847,57275,61085,76323,91561,102990,118228,133466,148704,175371,190609,205847,221085,236323,247752,262990,278228,293466
DistanceSpacing: 2.1
BeatDivisor: 4
GridSize: 32
TimelineZoom: 3.399998

[Metadata]
Title:Nothing is Safe
TitleUnicode:Nothing is Safe
Artist:clipping.
ArtistUnicode:clipping.
Creator:vrnl
Version:Oni
Source:
Tags:there existed an addiction to blood clppng hip hop trap rap english
BeatmapID:4182595
BeatmapSetID:1107377

[Difficulty]
HPDrainRate:5
CircleSize:5
OverallDifficulty:5
ApproachRate:5
SliderMultiplier:1.4
SliderTickRate:1

[Events]
//Background and Video events
0,0,"maxresdefault.jpg",0,0
//Break Periods
//Storyboard Layer 0 (Background)
//Storyboard Layer 1 (Fail)
//Storyboard Layer 2 (Pass)
//Storyboard Layer 3 (Foreground)
//Storyboard Layer 4 (Overlay)
//Storyboard Sound Samples

[TimingPoints]
133,476.190476190476,4,1,0,30,1,0
133,-100,4,1,0,30,0,0
8218,-100,4,1,0,30,0,0
8694,-100,4,1,0,30,0,0
9170,-100,4,1,0,30,0,0
9646,-100,4,1,0,30,0,0
10122,-100,4,1,0,30,0,0
10599,-100,4,1,0,30,0,0
11075,-100,4,1,0,30,0,0
11551,-100,4,1,0,30,0,0
12027,-100,4,1,0,30,0,0
12503,-100,4,1,0,30,0,0
12980,-100,4,1,0,30,0,0
13456,-100,4,1,0,30,0,0
13932,-100,4,1,0,30,0,0
14170,-100,4,1,0,30,0,0
14408,-100,4,1,0,30,0,0
14884,-100,4,1,0,30,0,0
15122,-100,4,1,0,30,0,0
15361,-100,4,1,0,30,0,0
27265,-100,4,1,0,30,0,0
27742,-100,4,1,0,30,0,0
28218,-100,4,1,0,30,0,0
28694,-100,4,1,0,30,0,0
29170,-100,4,1,0,30,0,0
29408,-100,4,1,0,30,0,0
29646,-100,4,1,0,30,0,0
30122,-100,4,1,0,30,0,0
30361,-100,4,1,0,30,0,0
30599,-100,4,1,0,30,0,0
30956,-100,4,1,0,40,0,0
43932,-100,4,1,0,40,0,0
44170,-100,4,1,0,40,0,0
44289,-100,4,1,0,40,0,0
44408,-100,4,1,0,40,0,0
44527,-100,4,1,0,40,0,0
44646,-100,4,1,0,40,0,0
44884,-100,4,1,0,45,0,0
45122,-100,4,1,0,45,0,0
45242,-100,4,1,0,45,0,0
45361,-100,4,1,0,45,0,0
45480,-100,4,1,0,45,0,0
45599,-100,4,1,0,45,0,0
45837,-100,4,1,0,45,0,0
46313,-100,4,1,0,50,0,0
53337,-100,4,1,0,55,0,0
59170,-100,4,1,0,55,0,0
59408,-100,4,1,0,55,0,0
59527,-100,4,1,0,55,0,0
59646,-100,4,1,0,55,0,0
59765,-100,4,1,0,55,0,0
59884,-100,4,1,0,55,0,0
60122,-100,4,1,0,55,0,0
60242,-100,4,1,0,55,0,0
60361,-100,4,1,0,55,0,0
60480,-100,4,1,0,55,0,0
60718,-100,4,1,0,55,0,0
60837,-100,4,1,0,55,0,0
61075,-100,4,1,0,55,0,0
61313,-100,4,1,0,55,0,0
61432,-100,4,1,0,55,0,0
61670,-100,4,1,0,55,0,0
61789,-100,4,1,0,55,0,0
62027,-100,4,1,0,55,0,0
62503,-100,4,1,0,55,0,0
76313,-100,4,1,0,55,0,0
76432,-100,4,1,0,55,0,0
76551,-100,4,1,0,55,0,0
76670,-100,4,1,0,55,0,0
76789,-100,4,1,0,55,0,0
76908,-100,4,1,0,55,0,0
77027,-100,4,1,0,55,0,0
77146,-100,4,1,0,55,0,0
77265,-100,4,1,0,55,0,0
77384,-100,4,1,0,55,0,0
77503,-100,4,1,0,55,0,0
77622,-100,4,1,0,55,0,0
77741,-100,4,1,0,55,0,0
77860,-100,4,1,0,55,0,0
77979,-100,4,1,0,55,0,0
78098,-100,4,1,0,55,0,0
78218,-100,4,1,0,55,0,0
78337,-100,4,1,0,55,0,0
78456,-100,4,1,0,55,0,0
78575,-100,4,1,0,55,0,0
78694,-100,4,1,0,55,0,0
78813,-100,4,1,0,55,0,0
78932,-100,4,1,0,55,0,0
79051,-100,4,1,0,55,0,0
79170,-100,4,1,0,55,0,0
79884,-100,4,1,0,55,0,0
80122,-100,4,1,0,55,0,0
80242,-100,4,1,0,55,0,0
80361,-100,4,1,0,55,0,0
80480,-100,4,1,0,55,0,0
80599,-100,4,1,0,55,0,0
80718,-100,4,1,0,55,0,0
80837,-100,4,1,0,55,0,0
80956,-100,4,1,0,55,0,0
81075,-100,4,1,0,55,0,0
81194,-100,4,1,0,55,0,0
81313,-100,4,1,0,55,0,0
81432,-100,4,1,0,55,0,0
81551,-100,4,1,0,55,0,0
81670,-100,4,1,0,55,0,0
81789,-100,4,1,0,55,0,0
81908,-100,4,1,0,55,0,0
82027,-100,4,1,0,55,0,0
82146,-100,4,1,0,55,0,0
82265,-100,4,1,0,55,0,0
82384,-100,4,1,0,55,0,0
82503,-100,4,1,0,55,0,0
82622,-100,4,1,0,55,0,0
82742,-100,4,1,0,55,0,0
82861,-100,4,1,0,55,0,0
82980,-100,4,1,0,55,0,0
83099,-100,4,1,0,55,0,0
83218,-100,4,1,0,55,0,0
83337,-100,4,1,0,55,0,0
83456,-100,4,1,0,55,0,0
83694,-100,4,1,0,55,0,0
84170,-100,4,1,0,55,0,0
84408,-100,4,1,0,55,0,0
84646,-100,4,1,0,55,0,0
84884,-100,4,1,0,55,0,0
85122,-100,4,1,0,55,0,0
85242,-100,4,1,0,55,0,0
85361,-100,4,1,0,55,0,0
85480,-100,4,1,0,55,0,0
85599,-100,4,1,0,55,0,0
85718,-100,4,1,0,55,0,0
85837,-100,4,1,0,55,0,0
85956,-100,4,1,0,55,0,0
86075,-100,4,1,0,55,0,0
86194,-100,4,1,0,55,0,0
86313,-100,4,1,0,55,0,0
86432,-100,4,1,0,55,0,0
86551,-100,4,1,0,55,0,0
86670,-100,4,1,0,55,0,0
86789,-100,4,1,0,55,0,0
86908,-100,4,1,0,55,0,0
87027,-100,4,1,0,55,0,0
87146,-100,4,1,0,55,0,0
87265,-100,4,1,0,55,0,0
87503,-100,4,1,0,55,0,0
87622,-100,4,1,0,55,0,0
87742,-100,4,1,0,55,0,0
87861,-100,4,1,0,55,0,0
87980,-100,4,1,0,55,0,0
88099,-100,4,1,0,55,0,0
88218,-100,4,1,0,55,0,0
88337,-100,4,1,0,55,0,0
88456,-100,4,1,0,55,0,0
88575,-100,4,1,0,55,0,0
88694,-100,4,1,0,55,0,0
88813,-100,4,1,0,55,0,0
88932,-100,4,1,0,55,0,0
89051,-100,4,1,0,55,0,0
89170,-100,4,1,0,55,0,0
89289,-100,4,1,0,55,0,0
89408,-100,4,1,0,55,0,0
89527,-100,4,1,0,55,0,0
89646,-100,4,1,0,55,0,0
89765,-100,4,1,0,55,0,0
89884,-100,4,1,0,55,0,0
90003,-100,4,1,0,55,0,0
90122,-100,4,1,0,55,0,0
90242,-100,4,1,0,55,0,0
90361,-100,4,1,0,55,0,0
90480,-100,4,1,0,55,0,0
90599,-100,4,1,0,55,0,0
90757,-100,4,1,0,55,0,0
90916,-100,4,1,0,55,0,0
91075,-100,4,1,0,55,0,0
91313,-100,4,1,0,55,0,0
91551,-100,4,1,0,55,0,0
92027,-100,4,1,0,55,0,0
92186,-100,4,1,0,55,0,0
92345,-100,4,1,0,55,0,0
92980,-100,4,1,0,55,0,0
93138,-100,4,1,0,55,0,0
93297,-100,4,1,0,55,0,0
93456,-100,4,1,0,55,0,0
93932,-100,4,1,0,55,0,0
94170,-100,4,1,0,55,0,0
94408,-100,4,1,0,55,0,0
94567,-100,4,1,0,55,0,0
94726,-100,4,1,0,55,0,0
94884,-100,4,1,0,55,0,0
95122,-100,4,1,0,55,0,0
95361,-100,4,1,0,55,0,0
95837,-100,4,1,0,55,0,0
95996,-100,4,1,0,55,0,0
96154,-100,4,1,0,55,0,0
96313,-100,4,1,0,55,0,0
96551,-100,4,1,0,55,0,0
96789,-100,4,1,0,55,0,0
96948,-100,4,1,0,55,0,0
97107,-100,4,1,0,55,0,0
97265,-100,4,1,0,55,0,0
97583,-100,4,1,0,55,0,0
97742,-100,4,1,0,55,0,0
97900,-100,4,1,0,55,0,0
98059,-100,4,1,0,55,0,0
98218,-100,4,1,0,55,0,0
98694,-100,4,1,0,55,0,0
98853,-100,4,1,0,55,0,0
99011,-100,4,1,0,55,0,0
99170,-100,4,1,0,55,0,0
99408,-100,4,1,0,55,0,0
99646,-100,4,1,0,55,0,0
99884,-100,4,1,0,55,0,0
100122,-100,4,1,0,55,0,0
100361,-100,4,1,0,55,0,0
100599,-100,4,1,0,55,0,0
100757,-100,4,1,0,55,0,0
100916,-100,4,1,0,55,0,0
101075,-100,4,1,0,55,0,0
101789,-100,4,1,0,40,0,0
102900,-100,4,1,0,45,0,0
129765,-100,4,1,0,45,0,0
129884,-100,4,1,0,45,0,0
130003,-100,4,1,0,45,0,0
130122,-100,4,1,0,45,0,0
130242,-100,4,1,0,45,0,0
130361,-100,4,1,0,45,0,0
130480,-100,4,1,0,45,0,0
130599,-100,4,1,0,45,0,0
130718,-100,4,1,0,45,0,0
130837,-100,4,1,0,45,0,0
130956,-100,4,1,0,45,0,0
131075,-100,4,1,0,45,0,0
131194,-100,4,1,0,45,0,0
131313,-100,4,1,0,45,0,0
131432,-100,4,1,0,45,0,0
131551,-100,4,1,0,45,0,0
131789,-100,4,1,0,45,0,0
132027,-100,4,1,0,45,0,0
132146,-100,4,1,0,45,0,0
132265,-100,4,1,0,45,0,0
132384,-100,4,1,0,45,0,0
132503,-100,4,1,0,45,0,0
132742,-100,4,1,0,45,0,0
132861,-100,4,1,0,45,0,0
133099,-100,4,1,0,45,0,0
133218,-100,4,1,0,45,0,0
133337,-100,4,1,0,45,0,0
133456,-100,4,1,0,45,0,0
133694,-100,4,1,0,45,0,0
133813,-100,4,1,0,45,0,0
133932,-100,4,1,0,45,0,0
134051,-100,4,1,0,45,0,0
134170,-100,4,1,0,45,0,0
134408,-100,4,1,0,45,0,0
134527,-100,4,1,0,45,0,0
134646,-100,4,1,0,45,0,0
134765,-100,4,1,0,45,0,0
135003,-100,4,1,0,45,0,0
135122,-100,4,1,0,45,0,0
135361,-100,4,1,0,45,0,0
135480,-100,4,1,0,45,0,0
135599,-100,4,1,0,45,0,0
135718,-100,4,1,0,45,0,0
135956,-100,4,1,0,45,0,0
136075,-100,4,1,0,45,0,0
136313,-100,4,1,0,45,0,0
136432,-100,4,1,0,45,0,0
136551,-100,4,1,0,45,0,0
136670,-100,4,1,0,45,0,0
136908,-100,4,1,0,45,0,0
137027,-100,4,1,0,45,0,0
137265,-100,4,1,0,45,0,0
137384,-100,4,1,0,45,0,0
137503,-100,4,1,0,45,0,0
137622,-100,4,1,0,45,0,0
137742,-100,4,1,0,45,0,0
137861,-100,4,1,0,45,0,0
137980,-100,4,1,0,45,0,0
138218,-100,4,1,0,45,0,0
138337,-100,4,1,0,45,0,0
138456,-100,4,1,0,45,0,0
138575,-100,4,1,0,45,0,0
138694,-100,4,1,0,45,0,0
138813,-100,4,1,0,45,0,0
138932,-100,4,1,0,45,0,0
139170,-100,4,1,0,45,0,0
139289,-100,4,1,0,45,0,0
139408,-100,4,1,0,45,0,0
139527,-100,4,1,0,45,0,0
139646,-100,4,1,0,45,0,0
139765,-100,4,1,0,45,0,0
139884,-100,4,1,0,45,0,0
140122,-100,4,1,0,45,0,0
140242,-100,4,1,0,45,0,0
140361,-100,4,1,0,45,0,0
140480,-100,4,1,0,45,0,0
140837,-100,4,1,0,45,0,0
140956,-100,4,1,0,45,0,0
141075,-100,4,1,0,45,0,0
141313,-100,4,1,0,45,0,0
141432,-100,4,1,0,45,0,0
141551,-100,4,1,0,45,0,0
141670,-100,4,1,0,45,0,0
141789,-100,4,1,0,45,0,0
142027,-100,4,1,0,45,0,0
142146,-100,4,1,0,45,0,0
142265,-100,4,1,0,45,0,0
142384,-100,4,1,0,45,0,0
142503,-100,4,1,0,45,0,0
142622,-100,4,1,0,45,0,0
142742,-100,4,1,0,45,0,0
142980,-100,4,1,0,45,0,0
143099,-100,4,1,0,45,0,0
143218,-100,4,1,0,45,0,0
143337,-100,4,1,0,45,0,0
143456,-100,4,1,0,45,0,0
143575,-100,4,1,0,45,0,0
143694,-100,4,1,0,45,0,0
143932,-100,4,1,0,45,0,0
144051,-100,4,1,0,45,0,0
144170,-100,4,1,0,45,0,0
144289,-100,4,1,0,45,0,0
144527,-100,4,1,0,45,0,0
144646,-100,4,1,0,45,0,0
144884,-100,4,1,0,45,0,0
146789,-100,4,1,0,45,0,0
147384,-100,4,1,0,55,0,0
148704,-100,4,1,0,60,0,1
148753,-100,4,1,0,60,0,1
148813,-100,4,1,0,60,0,1
148872,-100,4,1,0,60,0,1
148932,-100,4,1,0,60,0,1
148992,-100,4,1,0,60,0,1
149051,-100,4,1,0,60,0,1
149170,-100,4,1,0,60,0,1
149289,-100,4,1,0,60,0,1
149408,-100,4,1,0,60,0,1
149527,-100,4,1,0,60,0,1
149646,-100,4,1,0,60,0,1
149765,-100,4,1,0,60,0,1
149884,-100,4,1,0,60,0,1
150003,-100,4,1,0,60,0,1
150122,-100,4,1,0,60,0,1
150242,-100,4,1,0,60,0,1
150361,-100,4,1,0,60,0,1
150480,-100,4,1,0,60,0,1
150599,-100,4,1,0,60,0,1
150718,-100,4,1,0,60,0,1
150837,-100,4,1,0,60,0,1
150956,-100,4,1,0,60,0,1
151075,-100,4,1,0,60,0,1
151194,-100,4,1,0,60,0,1
151313,-100,4,1,0,60,0,1
151432,-100,4,1,0,60,0,1
151551,-100,4,1,0,60,0,1
151789,-100,4,1,0,60,0,1
152027,-100,4,1,0,60,0,1
152146,-100,4,1,0,60,0,1
152265,-100,4,1,0,60,0,1
152503,-100,4,1,0,60,0,1
152563,-100,4,1,0,60,0,1
152622,-100,4,1,0,60,0,1
152682,-100,4,1,0,60,0,1
152742,-100,4,1,0,60,0,1
152801,-100,4,1,0,60,0,1
152861,-100,4,1,0,60,0,1
152920,-100,4,1,0,60,0,1
152980,-100,4,1,0,60,0,1
153099,-100,4,1,0,60,0,1
153218,-100,4,1,0,60,0,1
153337,-100,4,1,0,60,0,1
153456,-100,4,1,0,60,0,1
153575,-100,4,1,0,60,0,1
153694,-100,4,1,0,60,0,1
153813,-100,4,1,0,60,0,1
153932,-100,4,1,0,60,0,1
154051,-100,4,1,0,60,0,1
154170,-100,4,1,0,60,0,1
154289,-100,4,1,0,60,0,1
154408,-100,4,1,0,60,0,1
154527,-100,4,1,0,60,0,1
154646,-100,4,1,0,60,0,1
154765,-100,4,1,0,60,0,1
154884,-100,4,1,0,60,0,1
155003,-100,4,1,0,60,0,1
155122,-100,4,1,0,60,0,1
155242,-100,4,1,0,60,0,1
155361,-100,4,1,0,60,0,1
155480,-100,4,1,0,60,0,1
155599,-100,4,1,0,60,0,1
155718,-100,4,1,0,60,0,1
155837,-100,4,1,0,60,0,1
156372,-100,4,1,0,60,0,1
156432,-100,4,1,0,60,0,1
156492,-100,4,1,0,60,0,1
156551,-100,4,1,0,60,0,1
156611,-100,4,1,0,60,0,1
156670,-100,4,1,0,60,0,1
156789,-100,4,1,0,60,0,1
156908,-100,4,1,0,60,0,1
157027,-100,4,1,0,60,0,1
157146,-100,4,1,0,60,0,1
157265,-100,4,1,0,60,0,1
157503,-100,4,1,0,60,0,1
157622,-100,4,1,0,60,0,1
157742,-100,4,1,0,60,0,1
157861,-100,4,1,0,60,0,1
157980,-100,4,1,0,60,0,1
158099,-100,4,1,0,60,0,1
158218,-100,4,1,0,60,0,1
158337,-100,4,1,0,60,0,1
158456,-100,4,1,0,60,0,1
158575,-100,4,1,0,60,0,1
158694,-100,4,1,0,60,0,1
158813,-100,4,1,0,60,0,1
158932,-100,4,1,0,60,0,1
159051,-100,4,1,0,60,0,1
159170,-100,4,1,0,60,0,1
159289,-100,4,1,0,60,0,1
159408,-100,4,1,0,60,0,1
159527,-100,4,1,0,60,0,1
159646,-100,4,1,0,60,0,1
159884,-100,4,1,0,60,0,1
160003,-100,4,1,0,60,0,1
160122,-100,4,1,0,60,0,1
160182,-100,4,1,0,60,0,1
160242,-100,4,1,0,60,0,1
160301,-100,4,1,0,60,0,1
160361,-100,4,1,0,60,0,1
160420,-100,4,1,0,60,0,1
160480,-100,4,1,0,60,0,1
160539,-100,4,1,0,60,0,1
160599,-100,4,1,0,60,0,1
160718,-100,4,1,0,60,0,1
160837,-100,4,1,0,60,0,1
160956,-100,4,1,0,60,0,1
161075,-100,4,1,0,60,0,1
161194,-100,4,1,0,60,0,1
161313,-100,4,1,0,60,0,1
161432,-100,4,1,0,60,0,1
161551,-100,4,1,0,60,0,1
161670,-100,4,1,0,60,0,1
161789,-100,4,1,0,60,0,1
161908,-100,4,1,0,60,0,1
162027,-100,4,1,0,60,0,1
162146,-100,4,1,0,60,0,1
162265,-100,4,1,0,60,0,1
162384,-100,4,1,0,60,0,1
162503,-100,4,1,0,60,0,1
162622,-100,4,1,0,60,0,1
162742,-100,4,1,0,60,0,1
162861,-100,4,1,0,60,0,1
162980,-100,4,1,0,60,0,1
163138,-100,4,1,0,60,0,1
163297,-100,4,1,0,60,0,1
163456,-100,4,1,0,60,0,1
163694,-100,4,1,0,60,0,1
164408,-100,4,1,0,60,0,1
164567,-100,4,1,0,60,0,1
164726,-100,4,1,0,60,0,1
164884,-100,4,1,0,60,0,1
165122,-100,4,1,0,60,0,1
165361,-100,4,1,0,60,0,1
165519,-100,4,1,0,60,0,1
165678,-100,4,1,0,60,0,1
165837,-100,4,1,0,60,0,1
165956,-100,4,1,0,60,0,1
166075,-100,4,1,0,60,0,1
166194,-100,4,1,0,60,0,1
166313,-100,4,1,0,60,0,1
166551,-100,4,1,0,60,0,1
166789,-100,4,1,0,60,0,1
166948,-100,4,1,0,60,0,1
167107,-100,4,1,0,60,0,1
167265,-100,4,1,0,60,0,1
167503,-100,4,1,0,60,0,1
168218,-100,4,1,0,60,0,1
168376,-100,4,1,0,60,0,1
168535,-100,4,1,0,60,0,1
168694,-100,4,1,0,60,0,1
168932,-100,4,1,0,60,0,1
169170,-100,4,1,0,60,0,1
169329,-100,4,1,0,60,0,1
169488,-100,4,1,0,60,0,1
169646,-100,4,1,0,60,0,1
169765,-100,4,1,0,60,0,1
169884,-100,4,1,0,60,0,1
170003,-100,4,1,0,60,0,1
170122,-100,4,1,0,60,0,1
170281,-100,4,1,0,60,0,1
170440,-100,4,1,0,60,0,1
170599,-100,4,1,0,60,0,1
170837,-100,4,1,0,60,0,1
171075,-100,4,1,0,60,0,1
171234,-100,4,1,0,60,0,1
171392,-100,4,1,0,60,0,1
171561,-100,4,1,0,40,0,0
171789,-100,4,1,0,40,0,0
172027,-100,4,1,0,40,0,0
172265,-100,4,1,0,40,0,0
172503,-100,4,1,0,40,0,0
172742,-100,4,1,0,40,0,0
172980,-100,4,1,0,40,0,0
173138,-100,4,1,0,40,0,0
173297,-100,4,1,0,40,0,0
173456,-100,4,1,0,40,0,0
174091,-100,4,1,0,20,0,0
175361,-100,4,1,0,50,0,0
175837,-100,4,1,0,50,0,0
182980,-100,4,1,0,50,0,0
183099,-100,4,1,0,50,0,0
183337,-100,4,1,0,50,0,0
183456,-100,4,1,0,50,0,0
183694,-100,4,1,0,50,0,0
183813,-100,4,1,0,50,0,0
184051,-100,4,1,0,50,0,0
184249,-100,4,1,0,50,0,0
184408,-100,4,1,0,50,0,0
184884,-100,4,1,0,50,0,0
185003,-100,4,1,0,50,0,0
185242,-100,4,1,0,50,0,0
185361,-100,4,1,0,50,0,0
185599,-100,4,1,0,50,0,0
185718,-100,4,1,0,50,0,0
185956,-100,4,1,0,50,0,0
186154,-100,4,1,0,50,0,0
186313,-100,4,1,0,50,0,0
186789,-100,4,1,0,50,0,0
186908,-100,4,1,0,50,0,0
187146,-100,4,1,0,50,0,0
187265,-100,4,1,0,50,0,0
187503,-100,4,1,0,50,0,0
187622,-100,4,1,0,50,0,0
187861,-100,4,1,0,50,0,0
188059,-100,4,1,0,50,0,0
188218,-100,4,1,0,50,0,0
188694,-100,4,1,0,50,0,0
188813,-100,4,1,0,50,0,0
189051,-100,4,1,0,50,0,0
189170,-100,4,1,0,50,0,0
189408,-100,4,1,0,50,0,0
189527,-100,4,1,0,50,0,0
189765,-100,4,1,0,50,0,0
189884,-100,4,1,0,50,0,0
190003,-100,4,1,0,50,0,0
190122,-100,4,1,0,50,0,0
190361,-100,4,1,0,50,0,0
190599,-100,4,1,0,55,0,0
190837,-100,4,1,0,55,0,0
190956,-100,4,1,0,55,0,0
191075,-100,4,1,0,55,0,0
191194,-100,4,1,0,55,0,0
191313,-100,4,1,0,55,0,0
191432,-100,4,1,0,55,0,0
191551,-100,4,1,0,55,0,0
191789,-100,4,1,0,55,0,0
204884,-100,4,1,0,55,0,0
205122,-100,4,1,0,55,0,0
205242,-100,4,1,0,55,0,0
205361,-100,4,1,0,55,0,0
205480,-100,4,1,0,55,0,0
205599,-100,4,1,0,55,0,0
205837,-100,4,1,0,55,0,0
205956,-100,4,1,0,55,0,0
206075,-100,4,1,0,55,0,0
206194,-100,4,1,0,55,0,0
206313,-100,4,1,0,55,0,0
206432,-100,4,1,0,55,0,0
206551,-100,4,1,0,55,0,0
206789,-100,4,1,0,55,0,0
207265,-100,4,1,0,55,0,0
207503,-100,4,1,0,55,0,0
207622,-100,4,1,0,55,0,0
207742,-100,4,1,0,55,0,0
207861,-100,4,1,0,55,0,0
207980,-100,4,1,0,55,0,0
208099,-100,4,1,0,55,0,0
208337,-100,4,1,0,55,0,0
208456,-100,4,1,0,55,0,0
208575,-100,4,1,0,55,0,0
208694,-100,4,1,0,55,0,0
209170,-100,4,1,0,55,0,0
209289,-100,4,1,0,55,0,0
209408,-100,4,1,0,55,0,0
209527,-100,4,1,0,55,0,0
209646,-100,4,1,0,55,0,0
209765,-100,4,1,0,55,0,0
209884,-100,4,1,0,55,0,0
210003,-100,4,1,0,55,0,0
210122,-100,4,1,0,55,0,0
210242,-100,4,1,0,55,0,0
210361,-100,4,1,0,55,0,0
210599,-100,4,1,0,55,0,0
211075,-100,4,1,0,55,0,0
211313,-100,4,1,0,55,0,0
211432,-100,4,1,0,55,0,0
211551,-100,4,1,0,55,0,0
211670,-100,4,1,0,55,0,0
211789,-100,4,1,0,55,0,0
211908,-100,4,1,0,55,0,0
212146,-100,4,1,0,55,0,0
212265,-100,4,1,0,55,0,0
212384,-100,4,1,0,55,0,0
212503,-100,4,1,0,55,0,0
212980,-100,4,1,0,55,0,0
213218,-100,4,1,0,55,0,0
213337,-100,4,1,0,55,0,0
213456,-100,4,1,0,55,0,0
213694,-100,4,1,0,55,0,0
213813,-100,4,1,0,55,0,0
213932,-100,4,1,0,55,0,0
214051,-100,4,1,0,55,0,0
214170,-100,4,1,0,55,0,0
214289,-100,4,1,0,55,0,0
214408,-100,4,1,0,55,0,0
214646,-100,4,1,0,55,0,0
214765,-100,4,1,0,55,0,0
214884,-100,4,1,0,55,0,0
215003,-100,4,1,0,55,0,0
215122,-100,4,1,0,55,0,0
215242,-100,4,1,0,55,0,0
215361,-100,4,1,0,55,0,0
215599,-100,4,1,0,55,0,0
215718,-100,4,1,0,55,0,0
215837,-100,4,1,0,55,0,0
215956,-100,4,1,0,55,0,0
216075,-100,4,1,0,55,0,0
216313,-100,4,1,0,55,0,0
216670,-100,4,1,0,55,0,0
216789,-100,4,1,0,55,0,0
216908,-100,4,1,0,55,0,0
217027,-100,4,1,0,55,0,0
217146,-100,4,1,0,55,0,0
217265,-100,4,1,0,55,0,0
217503,-100,4,1,0,55,0,0
217622,-100,4,1,0,55,0,0
217742,-100,4,1,0,55,0,0
217861,-100,4,1,0,55,0,0
217980,-100,4,1,0,55,0,0
218218,-100,4,1,0,55,0,0
218456,-100,4,1,0,55,0,0
218575,-100,4,1,0,55,0,0
218813,-100,4,1,0,55,0,0
218932,-100,4,1,0,55,0,0
219170,-100,4,1,0,55,0,0
219884,-100,4,1,0,55,0,0
221085,-100,4,1,0,60,0,1
221134,-100,4,1,0,60,0,1
221194,-100,4,1,0,60,0,1
221253,-100,4,1,0,60,0,1
221313,-100,4,1,0,60,0,1
221373,-100,4,1,0,60,0,1
221432,-100,4,1,0,60,0,1
221551,-100,4,1,0,60,0,1
221670,-100,4,1,0,60,0,1
221789,-100,4,1,0,60,0,1
221908,-100,4,1,0,60,0,1
222027,-100,4,1,0,60,0,1
222146,-100,4,1,0,60,0,1
222265,-100,4,1,0,60,0,1
222384,-100,4,1,0,60,0,1
222503,-100,4,1,0,60,0,1
222623,-100,4,1,0,60,0,1
222742,-100,4,1,0,60,0,1
222861,-100,4,1,0,60,0,1
222980,-100,4,1,0,60,0,1
223099,-100,4,1,0,60,0,1
223218,-100,4,1,0,60,0,1
223337,-100,4,1,0,60,0,1
223456,-100,4,1,0,60,0,1
223575,-100,4,1,0,60,0,1
223694,-100,4,1,0,60,0,1
223813,-100,4,1,0,60,0,1
223932,-100,4,1,0,60,0,1
224170,-100,4,1,0,60,0,1
224408,-100,4,1,0,60,0,1
224527,-100,4,1,0,60,0,1
224646,-100,4,1,0,60,0,1
224884,-100,4,1,0,60,0,1
224944,-100,4,1,0,60,0,1
225003,-100,4,1,0,60,0,1
225063,-100,4,1,0,60,0,1
225123,-100,4,1,0,60,0,1
225182,-100,4,1,0,60,0,1
225242,-100,4,1,0,60,0,1
225301,-100,4,1,0,60,0,1
225361,-100,4,1,0,60,0,1
225480,-100,4,1,0,60,0,1
225599,-100,4,1,0,60,0,1
225718,-100,4,1,0,60,0,1
225837,-100,4,1,0,60,0,1
225956,-100,4,1,0,60,0,1
226075,-100,4,1,0,60,0,1
226194,-100,4,1,0,60,0,1
226313,-100,4,1,0,60,0,1
226432,-100,4,1,0,60,0,1
226551,-100,4,1,0,60,0,1
226670,-100,4,1,0,60,0,1
226789,-100,4,1,0,60,0,1
226908,-100,4,1,0,60,0,1
227027,-100,4,1,0,60,0,1
227146,-100,4,1,0,60,0,1
227265,-100,4,1,0,60,0,1
227384,-100,4,1,0,60,0,1
227503,-100,4,1,0,60,0,1
227623,-100,4,1,0,60,0,1
227742,-100,4,1,0,60,0,1
227861,-100,4,1,0,60,0,1
227980,-100,4,1,0,60,0,1
228099,-100,4,1,0,60,0,1
228218,-100,4,1,0,60,0,1
228753,-100,4,1,0,60,0,1
228813,-100,4,1,0,60,0,1
228873,-100,4,1,0,60,0,1
228932,-100,4,1,0,60,0,1
228992,-100,4,1,0,60,0,1
229051,-100,4,1,0,60,0,1
229170,-100,4,1,0,60,0,1
229289,-100,4,1,0,60,0,1
229408,-100,4,1,0,60,0,1
229527,-100,4,1,0,60,0,1
229646,-100,4,1,0,60,0,1
229884,-100,4,1,0,60,0,1
230003,-100,4,1,0,60,0,1
230123,-100,4,1,0,60,0,1
230242,-100,4,1,0,60,0,1
230361,-100,4,1,0,60,0,1
230480,-100,4,1,0,60,0,1
230599,-100,4,1,0,60,0,1
230718,-100,4,1,0,60,0,1
230837,-100,4,1,0,60,0,1
230956,-100,4,1,0,60,0,1
231075,-100,4,1,0,60,0,1
231194,-100,4,1,0,60,0,1
231313,-100,4,1,0,60,0,1
231432,-100,4,1,0,60,0,1
231551,-100,4,1,0,60,0,1
231670,-100,4,1,0,60,0,1
231789,-100,4,1,0,60,0,1
231908,-100,4,1,0,60,0,1
232027,-100,4,1,0,60,0,1
232265,-100,4,1,0,60,0,1
232384,-100,4,1,0,60,0,1
232503,-100,4,1,0,60,0,1
232563,-100,4,1,0,60,0,1
232623,-100,4,1,0,60,0,1
232682,-100,4,1,0,60,0,1
232742,-100,4,1,0,60,0,1
232801,-100,4,1,0,60,0,1
232861,-100,4,1,0,60,0,1
232920,-100,4,1,0,60,0,1
232980,-100,4,1,0,60,0,1
233099,-100,4,1,0,60,0,1
233218,-100,4,1,0,60,0,1
233337,-100,4,1,0,60,0,1
233456,-100,4,1,0,60,0,1
233575,-100,4,1,0,60,0,1
233694,-100,4,1,0,60,0,1
233813,-100,4,1,0,60,0,1
233932,-100,4,1,0,60,0,1
234051,-100,4,1,0,60,0,1
234170,-100,4,1,0,60,0,1
234289,-100,4,1,0,60,0,1
234408,-100,4,1,0,60,0,1
234527,-100,4,1,0,60,0,1
234646,-100,4,1,0,60,0,1
234765,-100,4,1,0,60,0,1
234884,-100,4,1,0,60,0,1
235003,-100,4,1,0,60,0,1
235123,-100,4,1,0,60,0,1
235242,-100,4,1,0,60,0,1
235361,-100,4,1,0,60,0,1
235519,-100,4,1,0,60,0,1
235678,-100,4,1,0,60,0,1
235837,-100,4,1,0,60,0,1
236075,-100,4,1,0,60,0,1
236789,-100,4,1,0,60,0,1
236948,-100,4,1,0,60,0,1
237107,-100,4,1,0,60,0,1
237265,-100,4,1,0,60,0,1
237503,-100,4,1,0,60,0,1
237742,-100,4,1,0,60,0,1
237900,-100,4,1,0,60,0,1
238059,-100,4,1,0,60,0,1
238218,-100,4,1,0,60,0,1
238337,-100,4,1,0,60,0,1
238456,-100,4,1,0,60,0,1
238575,-100,4,1,0,60,0,1
238694,-100,4,1,0,60,0,1
238932,-100,4,1,0,60,0,1
239170,-100,4,1,0,60,0,1
239329,-100,4,1,0,60,0,1
239488,-100,4,1,0,60,0,1
239646,-100,4,1,0,60,0,1
239884,-100,4,1,0,60,0,1
240599,-100,4,1,0,60,0,1
240757,-100,4,1,0,60,0,1
240916,-100,4,1,0,60,0,1
241075,-100,4,1,0,60,0,1
241313,-100,4,1,0,60,0,1
241551,-100,4,1,0,60,0,1
241710,-100,4,1,0,60,0,1
241869,-100,4,1,0,60,0,1
242027,-100,4,1,0,60,0,1
242146,-100,4,1,0,60,0,1
242265,-100,4,1,0,60,0,1
242384,-100,4,1,0,60,0,1
242503,-100,4,1,0,60,0,1
242662,-100,4,1,0,60,0,1
242821,-100,4,1,0,60,0,1
242980,-100,4,1,0,60,0,1
243218,-100,4,1,0,60,0,1
243456,-100,4,1,0,60,0,1
243615,-100,4,1,0,60,0,1
243773,-100,4,1,0,60,0,1
243942,-100,4,1,0,60,0,0
244170,-100,4,1,0,40,0,0
244408,-100,4,1,0,40,0,0
244646,-100,4,1,0,40,0,0
244884,-100,4,1,0,40,0,0
245123,-100,4,1,0,40,0,0
245361,-100,4,1,0,40,0,0
245519,-100,4,1,0,40,0,0
245678,-100,4,1,0,40,0,0
245837,-100,4,1,0,50,0,0
248218,-100,4,1,0,40,0,0
262980,-100,4,1,0,45,0,0
278694,-100,4,1,0,40,0,0

[HitObjects]
270,193,14180,5,0,0:0:0:0:
270,193,14418,1,2,0:0:0:0:
270,193,14894,1,2,0:0:0:0:
270,193,15132,1,0,0:0:0:0:
270,193,17990,1,0,0:0:0:0:
270,193,18228,1,2,0:0:0:0:
270,193,18704,1,0,0:0:0:0:
270,193,18942,1,0,0:0:0:0:
270,193,21799,1,0,0:0:0:0:
270,193,22037,1,0,0:0:0:0:
270,193,22513,1,2,0:0:0:0:
270,193,22752,1,0,0:0:0:0:
268,197,25609,1,0,0:0:0:0:
268,197,25847,1,2,0:0:0:0:
268,197,26323,1,2,0:0:0:0:
268,197,26561,1,2,0:0:0:0:
266,197,29418,1,0,0:0:0:0:
266,197,29656,1,2,0:0:0:0:
266,197,30132,1,2,0:0:0:0:
266,197,30371,1,0,0:0:0:0:
266,197,31085,1,2,0:0:0:0:
266,197,31323,1,0,0:0:0:0:
266,197,31442,1,2,0:0:0:0:
266,197,31680,1,2,0:0:0:0:
266,197,31799,1,0,0:0:0:0:
266,197,32037,1,0,0:0:0:0:
266,197,32513,1,2,0:0:0:0:
266,197,32752,1,0,0:0:0:0:
266,197,32871,1,2,0:0:0:0:
266,197,33109,1,2,0:0:0:0:
266,197,33228,1,0,0:0:0:0:
266,197,33466,1,0,0:0:0:0:
264,201,34894,1,2,0:0:0:0:
264,201,35132,1,0,0:0:0:0:
264,201,35252,1,2,0:0:0:0:
264,201,35490,1,0,0:0:0:0:
264,201,35609,1,2,0:0:0:0:
264,201,35847,1,0,0:0:0:0:
264,201,36323,1,2,0:0:0:0:
264,201,36561,1,0,0:0:0:0:
264,201,36680,1,2,0:0:0:0:
264,201,36918,1,0,0:0:0:0:
264,201,37037,1,2,0:0:0:0:
264,201,37275,1,0,0:0:0:0:
263,203,38704,1,0,0:0:0:0:
263,203,38942,1,0,0:0:0:0:
263,203,39061,1,2,0:0:0:0:
263,203,39299,1,0,0:0:0:0:
263,203,39418,1,0,0:0:0:0:
263,203,39656,1,0,0:0:0:0:
263,203,40132,1,0,0:0:0:0:
263,203,40371,1,0,0:0:0:0:
263,203,40490,1,2,0:0:0:0:
263,203,40728,1,0,0:0:0:0:
263,203,40847,1,0,0:0:0:0:
263,203,41085,1,0,0:0:0:0:
263,203,42513,1,2,0:0:0:0:
263,203,42752,1,2,0:0:0:0:
263,203,42871,1,0,0:0:0:0:
263,203,43109,1,0,0:0:0:0:
263,203,43228,1,2,0:0:0:0:
263,203,43466,1,2,0:0:0:0:
263,203,43704,1,0,0:0:0:0:
263,203,43942,1,2,0:0:0:0:
263,203,44180,1,0,0:0:0:0:
263,203,44299,1,2,0:0:0:0:
263,203,44537,1,2,0:0:0:0:
263,203,44656,1,0,0:0:0:0:
263,203,44894,1,0,0:0:0:0:
263,203,45132,1,0,0:0:0:0:
263,203,45252,1,2,0:0:0:0:
263,203,45490,1,0,0:0:0:0:
263,203,45609,1,2,0:0:0:0:
263,203,45847,1,0,0:0:0:0:
263,203,46323,1,2,0:0:0:0:
263,203,46561,1,0,0:0:0:0:
263,203,46680,1,2,0:0:0:0:
263,203,46918,1,2,0:0:0:0:
263,203,47037,1,0,0:0:0:0:
263,203,47275,1,0,0:0:0:0:
263,203,47752,1,2,0:0:0:0:
263,203,47990,1,0,0:0:0:0:
263,203,48109,1,2,0:0:0:0:
263,203,48347,1,2,0:0:0:0:
263,203,48466,1,0,0:0:0:0:
263,203,48704,1,0,0:0:0:0:
216,117,50132,1,2,0:0:0:0:
216,117,50371,1,0,0:0:0:0:
216,117,50490,1,0,0:0:0:0:
216,117,50728,1,2,0:0:0:0:
216,117,50847,1,2,0:0:0:0:
216,117,51085,1,0,0:0:0:0:
216,117,51561,1,2,0:0:0:0:
216,117,51799,1,0,0:0:0:0:
216,117,51918,1,0,0:0:0:0:
216,117,52156,1,2,0:0:0:0:
216,117,52275,1,2,0:0:0:0:
216,117,52513,1,0,0:0:0:0:
216,117,53942,1,0,0:0:0:0:
216,117,54180,1,2,0:0:0:0:
216,117,54299,1,2,0:0:0:0:
216,117,54537,1,0,0:0:0:0:
216,117,54656,1,0,0:0:0:0:
216,117,54894,1,0,0:0:0:0:
216,117,55371,1,0,0:0:0:0:
216,117,55609,1,2,0:0:0:0:
216,117,55728,1,2,0:0:0:0:
216,117,55966,1,0,0:0:0:0:
216,117,56085,1,0,0:0:0:0:
216,117,56323,1,0,0:0:0:0:
219,113,57752,1,2,0:0:0:0:
211,117,57871,1,0,0:0:0:0:
219,113,57990,1,0,0:0:0:0:
211,117,58109,1,0,0:0:0:0:
95,106,58228,1,2,0:0:0:0:
210,95,58466,1,0,0:0:0:0:
211,117,58585,1,0,0:0:0:0:
210,95,58823,1,0,0:0:0:0:
211,117,58942,1,2,0:0:0:0:
211,117,59180,1,0,0:0:0:0:
261,117,59418,1,0,0:0:0:0:
211,117,59537,1,2,0:0:0:0:
211,117,59775,1,0,0:0:0:0:
211,117,59894,1,2,0:0:0:0:
211,117,60132,1,0,0:0:0:0:
211,117,60371,1,2,0:0:0:0:
211,117,60490,1,0,0:0:0:0:
211,117,60728,1,2,0:0:0:0:
211,117,60847,1,0,0:0:0:0:
211,117,61085,1,6,0:0:0:0:
210,95,61323,1,0,0:0:0:0:
211,117,61442,1,0,0:0:0:0:
211,117,61680,1,0,0:0:0:0:
211,117,61799,1,0,0:0:0:0:
211,117,62037,1,0,0:0:0:0:
201,160,62513,1,2,0:0:0:0:
201,160,62752,1,0,0:0:0:0:
201,160,62871,1,0,0:0:0:0:
201,160,63109,1,0,0:0:0:0:
201,160,63228,1,0,0:0:0:0:
201,160,63466,1,0,0:0:0:0:
203,160,65371,1,2,0:0:0:0:
203,160,65609,1,2,0:0:0:0:
203,160,65728,1,0,0:0:0:0:
203,160,65966,1,2,0:0:0:0:
203,160,66085,1,0,0:0:0:0:
207,162,66323,1,0,0:0:0:0:
207,162,66799,1,2,0:0:0:0:
207,162,67037,1,2,0:0:0:0:
207,162,67156,1,0,0:0:0:0:
207,162,67394,1,2,0:0:0:0:
207,162,67513,1,0,0:0:0:0:
207,162,67752,1,0,0:0:0:0:
211,163,69180,1,2,0:0:0:0:
211,163,69418,1,0,0:0:0:0:
211,163,69537,1,2,0:0:0:0:
211,163,69775,1,0,0:0:0:0:
211,163,69894,1,2,0:0:0:0:
211,163,70132,1,0,0:0:0:0:
211,163,70609,1,2,0:0:0:0:
211,163,70847,1,0,0:0:0:0:
211,163,70966,1,2,0:0:0:0:
211,163,71204,1,0,0:0:0:0:
211,163,71323,1,2,0:0:0:0:
211,163,71561,1,0,0:0:0:0:
212,163,72990,1,2,0:0:0:0:
214,97,73228,1,0,0:0:0:0:
212,163,73347,1,2,0:0:0:0:
267,103,73704,1,0,0:0:0:0:
212,163,73942,1,2,0:0:0:0:
263,95,74180,1,2,0:0:0:0:
212,163,74418,1,0,0:0:0:0:
232,72,74656,1,2,0:0:0:0:
232,72,74775,1,2,0:0:0:0:
212,163,75013,1,2,0:0:0:0:
40,119,75132,1,2,0:0:0:0:
212,163,75371,1,0,0:0:0:0:
255,113,75609,1,0,0:0:0:0:
255,113,75728,1,0,0:0:0:0:
255,113,75966,1,0,0:0:0:0:
255,113,76085,1,0,0:0:0:0:
212,163,76323,1,2,0:0:0:0:
85,141,76561,1,0,0:0:0:0:
85,141,76680,1,0,0:0:0:0:
85,141,76799,1,2,0:0:0:0:
88,145,76918,1,0,0:0:0:0:
85,141,77037,1,0,0:0:0:0:
88,145,77275,1,2,0:0:0:0:
88,145,77394,1,2,0:0:0:0:
88,145,77513,1,0,0:0:0:0:
88,145,77752,1,2,0:0:0:0:
196,150,77990,1,0,0:0:0:0:
188,143,78109,1,0,0:0:0:0:
196,150,78228,1,2,0:0:0:0:
196,150,78347,1,2,0:0:0:0:
196,150,78466,1,0,0:0:0:0:
196,150,78585,1,2,0:0:0:0:
196,150,78704,1,0,0:0:0:0:
196,150,78942,1,0,0:0:0:0:
196,150,79061,1,0,0:0:0:0:
196,150,79180,1,2,0:0:0:0:
166,140,79656,1,2,0:0:0:0:
166,140,79894,1,0,0:0:0:0:
166,140,80132,1,0,0:0:0:0:
166,140,80252,1,2,0:0:0:0:
166,140,80371,1,0,0:0:0:0:
166,140,80490,1,0,0:0:0:0:
166,140,80609,1,2,0:0:0:0:
163,146,80847,1,0,0:0:0:0:
163,146,80966,1,2,0:0:0:0:
163,146,81085,1,0,0:0:0:0:
168,147,81323,1,0,0:0:0:0:
168,147,81561,1,0,0:0:0:0:
117,138,81799,1,2,0:0:0:0:
117,138,81918,1,2,0:0:0:0:
117,138,82037,1,0,0:0:0:0:
117,138,82156,1,0,0:0:0:0:
117,138,82275,1,0,0:0:0:0:
117,138,82513,1,2,0:0:0:0:
114,144,82752,1,0,0:0:0:0:
111,141,82871,1,0,0:0:0:0:
111,141,82990,1,2,0:0:0:0:
111,141,83109,1,2,0:0:0:0:
113,141,83228,1,0,0:0:0:0:
113,141,83347,1,0,0:0:0:0:
114,144,83466,1,2,0:0:0:0:
142,148,84180,1,2,0:0:0:0:
142,148,84656,1,0,0:0:0:0:
142,148,85132,1,0,0:0:0:0:
144,142,85252,1,2,0:0:0:0:
142,148,85371,1,0,0:0:0:0:
226,109,85609,1,0,0:0:0:0:
226,109,85728,1,0,0:0:0:0:
226,109,85847,1,2,0:0:0:0:
211,102,85966,1,2,0:0:0:0:
211,102,86085,1,0,0:0:0:0:
211,102,86323,1,2,0:0:0:0:
209,102,86561,1,0,0:0:0:0:
211,102,86799,1,2,0:0:0:0:
211,102,86918,1,2,0:0:0:0:
211,102,87037,1,0,0:0:0:0:
211,102,87156,1,0,0:0:0:0:
209,102,87275,1,2,0:0:0:0:
194,104,87513,1,0,0:0:0:0:
194,104,87752,1,2,0:0:0:0:
194,104,87871,1,2,0:0:0:0:
194,104,87990,1,0,0:0:0:0:
194,104,88228,1,0,0:0:0:0:
194,104,88466,1,2,0:0:0:0:
194,104,88585,1,2,0:0:0:0:
194,104,88704,1,0,0:0:0:0:
194,104,88823,1,2,0:0:0:0:
194,104,88942,1,0,0:0:0:0:
194,104,89180,1,2,0:0:0:0:
194,104,89299,1,2,0:0:0:0:
194,104,89418,1,0,0:0:0:0:
189,106,89656,1,2,0:0:0:0:
149,171,89894,1,0,0:0:0:0:
149,171,90013,1,0,0:0:0:0:
149,171,90132,1,0,0:0:0:0:
149,171,90371,1,0,0:0:0:0:
271,121,90609,1,2,0:0:0:0:
271,121,90767,1,0,0:0:0:0:
271,121,90926,1,0,0:0:0:0:
271,121,91085,1,2,0:0:0:0:
275,106,92037,1,2,0:0:0:0:
275,106,92196,1,0,0:0:0:0:
275,106,92355,1,0,0:0:0:0:
275,106,92990,1,2,0:0:0:0:
275,106,93148,1,2,0:0:0:0:
275,106,93307,1,0,0:0:0:0:
275,106,93466,1,0,0:0:0:0:
275,106,94418,1,2,0:0:0:0:
275,106,94577,1,2,0:0:0:0:
275,106,94736,1,0,0:0:0:0:
275,106,94894,1,0,0:0:0:0:
123,115,95132,1,0,0:0:0:0:
275,106,95847,1,2,0:0:0:0:
275,106,96006,1,0,0:0:0:0:
275,106,96164,1,0,0:0:0:0:
275,106,96323,1,2,0:0:0:0:
275,106,96799,1,2,0:0:0:0:
275,106,96958,1,0,0:0:0:0:
275,106,97117,1,0,0:0:0:0:
275,106,97275,1,2,0:0:0:0:
275,106,97752,1,2,0:0:0:0:
275,106,97910,1,2,0:0:0:0:
275,106,98069,1,0,0:0:0:0:
275,106,98228,1,0,0:0:0:0:
275,106,98704,1,2,0:0:0:0:
275,106,98863,1,2,0:0:0:0:
275,106,99021,1,0,0:0:0:0:
275,106,100609,1,2,0:0:0:0:
275,106,100767,1,2,0:0:0:0:
275,106,100926,1,0,0:0:0:0:
275,106,102990,1,0,0:0:0:0:
179,102,103466,1,2,0:0:0:0:
179,102,103704,1,0,0:0:0:0:
179,102,103823,1,2,0:0:0:0:
179,102,104061,1,0,0:0:0:0:
179,102,104180,1,2,0:0:0:0:
179,102,104418,1,0,0:0:0:0:
179,102,104656,1,0,0:0:0:0:
179,102,104894,1,2,0:0:0:0:
179,102,105132,1,0,0:0:0:0:
179,102,105252,1,2,0:0:0:0:
179,102,105490,1,0,0:0:0:0:
179,102,105609,1,2,0:0:0:0:
179,102,105847,1,0,0:0:0:0:
107,132,106085,1,0,0:0:0:0:
210,137,106323,1,2,0:0:0:0:
210,137,106561,1,0,0:0:0:0:
210,137,106680,1,0,0:0:0:0:
179,102,106799,1,0,0:0:0:0:
179,102,107275,1,2,0:0:0:0:
179,102,107513,1,0,0:0:0:0:
179,102,107632,1,2,0:0:0:0:
179,102,107871,1,2,0:0:0:0:
179,102,107990,1,0,0:0:0:0:
183,104,108228,1,0,0:0:0:0:
183,104,108466,1,0,0:0:0:0:
183,104,108704,1,2,0:0:0:0:
183,104,108942,1,0,0:0:0:0:
183,104,109061,1,2,0:0:0:0:
183,104,109299,1,2,0:0:0:0:
183,104,109418,1,0,0:0:0:0:
183,104,109656,1,0,0:0:0:0:
249,146,109894,1,0,0:0:0:0:
249,146,110132,1,2,0:0:0:0:
183,104,110371,1,0,0:0:0:0:
246,150,110490,1,2,0:0:0:0:
183,104,110609,1,0,0:0:0:0:
183,104,111085,1,2,0:0:0:0:
183,104,111323,1,0,0:0:0:0:
183,104,111442,1,0,0:0:0:0:
183,104,111680,1,2,0:0:0:0:
183,104,111799,1,0,0:0:0:0:
183,104,112037,1,0,0:0:0:0:
206,119,112275,1,0,0:0:0:0:
183,104,112513,1,2,0:0:0:0:
183,104,112752,1,0,0:0:0:0:
183,104,112871,1,0,0:0:0:0:
183,104,113109,1,2,0:0:0:0:
183,104,113228,1,0,0:0:0:0:
183,104,113466,1,2,0:0:0:0:
183,104,113704,1,2,0:0:0:0:
183,104,113942,1,0,0:0:0:0:
183,104,114180,1,0,0:0:0:0:
112,104,114299,1,0,0:0:0:0:
183,104,114418,1,0,0:0:0:0:
183,104,114894,1,2,0:0:0:0:
183,104,115132,1,0,0:0:0:0:
183,104,115252,1,2,0:0:0:0:
246,75,115490,1,0,0:0:0:0:
183,104,115609,1,2,0:0:0:0:
183,104,115847,1,0,0:0:0:0:
183,104,116085,1,0,0:0:0:0:
183,104,116323,1,2,0:0:0:0:
183,104,116561,1,0,0:0:0:0:
183,104,116680,1,2,0:0:0:0:
183,104,116918,1,0,0:0:0:0:
183,104,117037,1,2,0:0:0:0:
183,104,117275,1,2,0:0:0:0:
183,104,117513,1,0,0:0:0:0:
183,104,117632,1,0,0:0:0:0:
183,104,117871,1,2,0:0:0:0:
183,104,117990,1,2,0:0:0:0:
183,104,118228,1,0,0:0:0:0:
183,104,118704,1,2,0:0:0:0:
183,104,118942,1,0,0:0:0:0:
183,104,119061,1,2,0:0:0:0:
183,104,119299,1,0,0:0:0:0:
183,104,119418,1,0,0:0:0:0:
183,104,119656,1,0,0:0:0:0:
183,104,119894,1,0,0:0:0:0:
183,104,120132,1,2,0:0:0:0:
183,104,120371,1,0,0:0:0:0:
183,104,120490,1,2,0:0:0:0:
183,104,120728,1,0,0:0:0:0:
183,104,120847,1,0,0:0:0:0:
183,104,121085,1,2,0:0:0:0:
183,104,121323,1,0,0:0:0:0:
183,104,121561,1,2,0:0:0:0:
183,104,121799,1,0,0:0:0:0:
183,104,121918,1,0,0:0:0:0:
183,104,122037,1,0,0:0:0:0:
183,104,122513,1,2,0:0:0:0:
183,104,122752,1,0,0:0:0:0:
183,104,122871,1,0,0:0:0:0:
183,104,123109,1,2,0:0:0:0:
183,104,123228,1,2,0:0:0:0:
183,104,123466,1,0,0:0:0:0:
183,104,123704,1,2,0:0:0:0:
183,104,123942,1,2,0:0:0:0:
183,104,124180,1,0,0:0:0:0:
183,104,124299,1,0,0:0:0:0:
183,104,124537,1,2,0:0:0:0:
183,104,124656,1,2,0:0:0:0:
183,104,124894,1,0,0:0:0:0:
183,104,125132,1,0,0:0:0:0:
183,104,125371,1,2,0:0:0:0:
183,104,125609,1,0,0:0:0:0:
183,104,125728,1,2,0:0:0:0:
183,104,125847,1,0,0:0:0:0:
183,104,126323,1,2,0:0:0:0:
183,104,126561,1,0,0:0:0:0:
183,104,126680,1,2,0:0:0:0:
187,107,126918,1,2,0:0:0:0:
187,107,127037,1,0,0:0:0:0:
186,107,127275,1,0,0:0:0:0:
177,96,127513,1,0,0:0:0:0:
187,107,127752,1,2,0:0:0:0:
186,107,127990,1,0,0:0:0:0:
186,107,128109,1,2,0:0:0:0:
187,107,128347,1,2,0:0:0:0:
187,107,128466,1,0,0:0:0:0:
191,106,128704,1,2,0:0:0:0:
191,106,128942,1,2,0:0:0:0:
192,106,129180,1,0,0:0:0:0:
191,106,129418,1,0,0:0:0:0:
191,106,129537,1,0,0:0:0:0:
191,106,129656,1,0,0:0:0:0:
191,106,130132,1,0,0:0:0:0:
89,132,130252,1,2,0:0:0:0:
196,106,130371,1,0,0:0:0:0:
89,132,130490,1,2,0:0:0:0:
89,132,130609,1,0,0:0:0:0:
97,131,130847,1,0,0:0:0:0:
97,131,131085,1,2,0:0:0:0:
97,131,131204,1,2,0:0:0:0:
97,131,131323,1,0,0:0:0:0:
97,131,131442,1,2,0:0:0:0:
196,108,131561,1,0,0:0:0:0:
196,108,131799,1,0,0:0:0:0:
274,114,132037,1,2,0:0:0:0:
274,114,132156,1,0,0:0:0:0:
274,114,132275,1,2,0:0:0:0:
196,108,132513,1,0,0:0:0:0:
196,108,132752,1,0,0:0:0:0:
196,108,132871,1,2,0:0:0:0:
196,108,133109,1,2,0:0:0:0:
196,108,133347,1,0,0:0:0:0:
196,108,133466,1,2,0:0:0:0:
257,148,133704,1,0,0:0:0:0:
257,148,133823,1,2,0:0:0:0:
257,148,134061,1,2,0:0:0:0:
257,148,134180,1,0,0:0:0:0:
257,148,134418,1,2,0:0:0:0:
257,148,134656,1,0,0:0:0:0:
257,148,134775,1,0,0:0:0:0:
257,148,135013,1,2,0:0:0:0:
261,148,135132,1,0,0:0:0:0:
261,148,135371,1,2,0:0:0:0:
261,148,135609,1,0,0:0:0:0:
261,148,135728,1,2,0:0:0:0:
261,148,135966,1,0,0:0:0:0:
261,148,136085,1,2,0:0:0:0:
261,148,136323,1,0,0:0:0:0:
266,148,136561,1,0,0:0:0:0:
266,148,136680,1,2,0:0:0:0:
157,107,136799,1,0,0:0:0:0:
266,148,137275,1,2,0:0:0:0:
266,148,137513,1,0,0:0:0:0:
267,148,137632,1,0,0:0:0:0:
267,148,137871,1,0,0:0:0:0:
266,148,137990,1,0,0:0:0:0:
266,148,138228,1,2,0:0:0:0:
180,126,138466,1,0,0:0:0:0:
267,148,138585,1,0,0:0:0:0:
180,126,138823,1,0,0:0:0:0:
266,148,138942,1,2,0:0:0:0:
267,148,139180,1,0,0:0:0:0:
171,92,139418,1,2,0:0:0:0:
266,148,139537,1,0,0:0:0:0:
171,92,139775,1,2,0:0:0:0:
267,148,139894,1,0,0:0:0:0:
171,92,140132,1,2,0:0:0:0:
171,92,140371,1,2,0:0:0:0:
171,92,140490,1,2,0:0:0:0:
171,92,140728,1,2,0:0:0:0:
129,140,140966,1,0,0:0:0:0:
267,148,141085,1,2,0:0:0:0:
267,148,141561,1,0,0:0:0:0:
267,148,141680,1,0,0:0:0:0:
173,118,141799,1,0,0:0:0:0:
196,99,142037,1,2,0:0:0:0:
196,99,142275,1,0,0:0:0:0:
267,148,142394,1,2,0:0:0:0:
142,102,142632,1,2,0:0:0:0:
267,148,142752,1,0,0:0:0:0:
267,148,142990,1,0,0:0:0:0:
171,83,143228,1,0,0:0:0:0:
171,83,143347,1,2,0:0:0:0:
171,83,143585,1,2,0:0:0:0:
267,148,143704,1,0,0:0:0:0:
171,83,143942,1,2,0:0:0:0:
171,83,144061,1,2,0:0:0:0:
171,83,144180,1,0,0:0:0:0:
171,83,144299,1,0,0:0:0:0:
171,83,144537,1,2,0:0:0:0:
267,148,144656,1,0,0:0:0:0:
267,148,144894,1,0,0:0:0:0:
163,84,147513,1,4,0:0:0:0:
163,84,147752,1,6,0:0:0:0:
163,84,148228,1,4,0:0:0:0:
163,84,148466,1,6,0:0:0:0:
265,256,148704,1,0,0:0:0:0:
265,256,148783,1,0,0:0:0:0:
265,256,148863,1,0,0:0:0:0:
146,177,148942,1,0,0:0:0:0:
245,186,149180,1,0,0:0:0:0:
245,186,149418,1,0,0:0:0:0:
245,186,149656,1,2,0:0:0:0:
245,186,149775,1,2,0:0:0:0:
245,186,149894,1,0,0:0:0:0:
232,182,150132,1,0,0:0:0:0:
149,123,150252,1,2,0:0:0:0:
232,182,150371,1,0,0:0:0:0:
232,182,150609,1,0,0:0:0:0:
167,156,150728,1,2,0:0:0:0:
167,156,150847,1,0,0:0:0:0:
167,156,150966,1,0,0:0:0:0:
167,156,151085,1,2,0:0:0:0:
157,152,151204,1,2,0:0:0:0:
157,152,151323,1,0,0:0:0:0:
157,152,151561,1,2,0:0:0:0:
246,117,152037,1,2,0:0:0:0:
270,277,152275,1,0,0:0:0:0:
246,117,152513,1,0,0:0:0:0:
246,117,152593,1,0,0:0:0:0:
246,117,152672,1,0,0:0:0:0:
246,117,152752,1,2,0:0:0:0:
104,141,152990,1,0,0:0:0:0:
104,141,153109,1,2,0:0:0:0:
104,141,153228,1,0,0:0:0:0:
223,210,153466,1,2,0:0:0:0:
209,117,153585,1,2,0:0:0:0:
223,210,153704,1,0,0:0:0:0:
209,117,153823,1,0,0:0:0:0:
223,210,153942,1,0,0:0:0:0:
209,117,154180,1,2,0:0:0:0:
209,117,154418,1,0,0:0:0:0:
209,117,154537,1,0,0:0:0:0:
250,121,154656,1,0,0:0:0:0:
250,121,154894,1,2,0:0:0:0:
250,121,155132,1,0,0:0:0:0:
413,126,155252,1,0,0:0:0:0:
250,121,155371,1,2,0:0:0:0:
250,121,155490,1,2,0:0:0:0:
250,121,155609,1,0,0:0:0:0:
250,121,155728,1,0,0:0:0:0:
250,121,155847,1,2,0:0:0:0:
244,111,156323,1,2,0:0:0:0:
244,111,156402,1,0,0:0:0:0:
244,111,156482,1,0,0:0:0:0:
168,134,156561,1,2,0:0:0:0:
168,134,156799,1,0,0:0:0:0:
231,109,157037,1,2,0:0:0:0:
231,109,157156,1,2,0:0:0:0:
231,109,157275,1,0,0:0:0:0:
231,109,157513,1,0,0:0:0:0:
231,109,157632,1,2,0:0:0:0:
231,109,157752,1,0,0:0:0:0:
231,109,157990,1,2,0:0:0:0:
278,84,158228,1,0,0:0:0:0:
278,84,158347,1,2,0:0:0:0:
278,84,158466,1,0,0:0:0:0:
278,84,158585,1,2,0:0:0:0:
278,84,158704,1,0,0:0:0:0:
278,73,158942,1,0,0:0:0:0:
247,172,159061,1,0,0:0:0:0:
278,73,159180,1,2,0:0:0:0:
278,73,159299,1,2,0:0:0:0:
278,73,159418,1,0,0:0:0:0:
278,73,159537,1,0,0:0:0:0:
278,73,159656,1,2,0:0:0:0:
227,174,160132,1,2,0:0:0:0:
124,132,160212,1,2,0:0:0:0:
124,132,160291,1,2,0:0:0:0:
227,174,160371,1,0,0:0:0:0:
227,174,160609,1,0,0:0:0:0:
216,70,160728,1,0,0:0:0:0:
227,174,160847,1,2,0:0:0:0:
227,174,161085,1,0,0:0:0:0:
227,174,161204,1,0,0:0:0:0:
227,174,161323,1,0,0:0:0:0:
227,174,161442,1,0,0:0:0:0:
227,174,161561,1,2,0:0:0:0:
231,165,161799,1,0,0:0:0:0:
231,165,162037,1,2,0:0:0:0:
231,165,162156,1,2,0:0:0:0:
231,165,162275,1,0,0:0:0:0:
231,165,162394,1,0,0:0:0:0:
229,128,162513,1,2,0:0:0:0:
229,128,162632,1,2,0:0:0:0:
231,165,162752,1,0,0:0:0:0:
231,165,162990,1,2,0:0:0:0:
205,160,163148,1,2,0:0:0:0:
205,160,163307,1,2,0:0:0:0:
205,160,163466,1,0,0:0:0:0:
229,100,163942,1,0,0:0:0:0:
279,96,164021,1,0,0:0:0:0:
279,96,164101,1,0,0:0:0:0:
279,96,164180,1,0,0:0:0:0:
152,142,164418,1,2,0:0:0:0:
152,142,164577,1,2,0:0:0:0:
152,142,164736,1,2,0:0:0:0:
152,142,164894,1,0,0:0:0:0:
152,142,165132,1,0,0:0:0:0:
152,142,165371,1,2,0:0:0:0:
152,142,165529,1,0,0:0:0:0:
152,142,165688,1,0,0:0:0:0:
262,136,165847,1,2,0:0:0:0:
262,136,165966,1,2,0:0:0:0:
262,136,166085,1,2,0:0:0:0:
262,136,166323,1,2,0:0:0:0:
225,117,166561,1,0,0:0:0:0:
185,160,166799,1,2,0:0:0:0:
185,160,166958,1,2,0:0:0:0:
185,160,167117,1,0,0:0:0:0:
185,160,167275,1,0,0:0:0:0:
185,160,167513,1,0,0:0:0:0:
283,176,167752,1,0,0:0:0:0:
283,176,167831,1,0,0:0:0:0:
283,176,167910,1,0,0:0:0:0:
283,176,167990,1,0,0:0:0:0:
278,159,168228,1,2,0:0:0:0:
278,159,168386,1,0,0:0:0:0:
278,159,168545,1,0,0:0:0:0:
278,159,168704,1,2,0:0:0:0:
278,159,169180,1,2,0:0:0:0:
278,159,169339,1,0,0:0:0:0:
278,159,169498,1,0,0:0:0:0:
278,159,169656,1,2,0:0:0:0:
192,132,169775,1,2,0:0:0:0:
192,132,169894,1,2,0:0:0:0:
192,132,170132,1,0,0:0:0:0:
269,114,170291,1,0,0:0:0:0:
269,114,170450,1,0,0:0:0:0:
269,114,170609,1,2,0:0:0:0:
156,145,171084,1,2,0:0:0:0:
156,145,171243,1,2,0:0:0:0:
156,145,171402,1,0,0:0:0:0:
244,115,172990,1,2,0:0:0:0:
244,115,173148,1,2,0:0:0:0:
244,115,173307,1,0,0:0:0:0:
241,112,175371,1,4,0:0:0:0:
230,163,175847,1,2,0:0:0:0:
230,163,176085,1,0,0:0:0:0:
230,163,176204,1,2,0:0:0:0:
232,158,176442,1,2,0:0:0:0:
230,163,176561,1,0,0:0:0:0:
230,163,176799,1,0,0:0:0:0:
230,163,177037,1,0,0:0:0:0:
232,158,177275,1,2,0:0:0:0:
230,163,177394,1,0,0:0:0:0:
232,158,177513,1,0,0:0:0:0:
230,163,177632,1,2,0:0:0:0:
133,141,177871,1,0,0:0:0:0:
133,141,177990,1,2,0:0:0:0:
133,141,178228,1,2,0:0:0:0:
133,141,178466,1,0,0:0:0:0:
133,141,178704,1,0,0:0:0:0:
133,141,178942,1,2,0:0:0:0:
133,141,179061,1,2,0:0:0:0:
133,141,179180,1,0,0:0:0:0:
253,142,179656,1,2,0:0:0:0:
303,157,179894,1,0,0:0:0:0:
303,157,180013,1,2,0:0:0:0:
303,157,180252,1,0,0:0:0:0:
303,157,180371,1,2,0:0:0:0:
303,157,180609,1,2,0:0:0:0:
303,157,180847,1,0,0:0:0:0:
314,186,181085,1,2,0:0:0:0:
250,133,181204,1,2,0:0:0:0:
251,141,181323,1,0,0:0:0:0:
251,141,181442,1,0,0:0:0:0:
251,141,181680,1,2,0:0:0:0:
251,141,181799,1,2,0:0:0:0:
251,141,182037,1,0,0:0:0:0:
162,128,182513,1,2,0:0:0:0:
166,130,182632,1,2,0:0:0:0:
162,128,182752,1,0,0:0:0:0:
166,130,182990,1,2,0:0:0:0:
166,130,183109,1,2,0:0:0:0:
166,130,183347,1,0,0:0:0:0:
166,130,183466,1,0,0:0:0:0:
166,130,183704,1,2,0:0:0:0:
166,130,183823,1,2,0:0:0:0:
165,122,184061,1,2,0:0:0:0:
165,122,184418,1,0,0:0:0:0:
199,177,184894,1,2,0:0:0:0:
199,177,185013,1,0,0:0:0:0:
199,177,185252,1,2,0:0:0:0:
203,178,185371,1,2,0:0:0:0:
203,178,185609,1,2,0:0:0:0:
203,178,185728,1,0,0:0:0:0:
199,177,185966,1,2,0:0:0:0:
196,175,186323,1,0,0:0:0:0:
218,159,186799,1,0,0:0:0:0:
218,159,186918,1,2,0:0:0:0:
218,159,187156,1,0,0:0:0:0:
218,159,187275,1,2,0:0:0:0:
223,161,187513,1,0,0:0:0:0:
223,161,187632,1,2,0:0:0:0:
178,139,187871,1,2,0:0:0:0:
178,139,188228,1,0,0:0:0:0:
178,139,188704,1,2,0:0:0:0:
178,139,188823,1,0,0:0:0:0:
178,139,189061,1,0,0:0:0:0:
178,139,189180,1,0,0:0:0:0:
178,139,189418,1,2,0:0:0:0:
178,139,189537,1,0,0:0:0:0:
178,139,189775,1,0,0:0:0:0:
178,139,189894,1,2,0:0:0:0:
178,139,190132,1,2,0:0:0:0:
178,139,190371,1,2,0:0:0:0:
65,226,190609,1,4,0:0:0:0:
233,172,190847,1,2,0:0:0:0:
225,81,190966,1,0,0:0:0:0:
233,172,191204,1,2,0:0:0:0:
233,172,191442,1,2,0:0:0:0:
233,172,191561,1,0,0:0:0:0:
165,131,192037,1,2,0:0:0:0:
165,131,192156,1,0,0:0:0:0:
167,137,192275,1,0,0:0:0:0:
167,137,192513,1,2,0:0:0:0:
231,104,192752,1,0,0:0:0:0:
231,104,192871,1,2,0:0:0:0:
231,104,192990,1,2,0:0:0:0:
231,104,193109,1,2,0:0:0:0:
231,104,193228,1,0,0:0:0:0:
231,104,193466,1,2,0:0:0:0:
182,159,193942,1,0,0:0:0:0:
182,159,194061,1,0,0:0:0:0:
182,159,194180,1,2,0:0:0:0:
182,159,194418,1,0,0:0:0:0:
181,164,194656,1,0,0:0:0:0:
181,164,194775,1,2,0:0:0:0:
181,164,194894,1,0,0:0:0:0:
181,164,195013,1,2,0:0:0:0:
181,164,195132,1,0,0:0:0:0:
183,154,195371,1,2,0:0:0:0:
183,154,195609,1,0,0:0:0:0:
183,154,195847,1,2,0:0:0:0:
201,110,195966,1,0,0:0:0:0:
197,157,196085,1,0,0:0:0:0:
196,157,196323,1,2,0:0:0:0:
196,157,196561,1,0,0:0:0:0:
196,157,196680,1,2,0:0:0:0:
197,157,196799,1,2,0:0:0:0:
197,157,196918,1,0,0:0:0:0:
196,157,197037,1,2,0:0:0:0:
196,157,197275,1,0,0:0:0:0:
197,157,197752,1,2,0:0:0:0:
200,158,197871,1,2,0:0:0:0:
200,158,197990,1,2,0:0:0:0:
214,155,198228,1,0,0:0:0:0:
215,155,198466,1,0,0:0:0:0:
215,155,198585,1,2,0:0:0:0:
215,155,198704,1,0,0:0:0:0:
215,155,198823,1,2,0:0:0:0:
219,155,198942,1,2,0:0:0:0:
195,150,199180,1,0,0:0:0:0:
195,150,199299,1,2,0:0:0:0:
195,150,199418,1,0,0:0:0:0:
190,152,199656,1,2,0:0:0:0:
190,152,199775,1,0,0:0:0:0:
190,152,199894,1,0,0:0:0:0:
172,145,200132,1,2,0:0:0:0:
172,145,200371,1,0,0:0:0:0:
172,145,200490,1,2,0:0:0:0:
172,145,200609,1,0,0:0:0:0:
185,145,200728,1,0,0:0:0:0:
185,145,200847,1,0,0:0:0:0:
106,154,201085,1,2,0:0:0:0:
199,155,201204,1,2,0:0:0:0:
200,155,201323,1,0,0:0:0:0:
201,155,201442,1,2,0:0:0:0:
202,155,201680,1,0,0:0:0:0:
199,155,201799,1,2,0:0:0:0:
223,92,201918,1,0,0:0:0:0:
194,150,202037,1,2,0:0:0:0:
116,141,202394,1,2,0:0:0:0:
126,137,202632,1,0,0:0:0:0:
126,137,202752,1,2,0:0:0:0:
126,134,202990,1,0,0:0:0:0:
158,134,203228,1,0,0:0:0:0:
168,140,203347,1,2,0:0:0:0:
158,134,203585,1,2,0:0:0:0:
158,134,203704,1,0,0:0:0:0:
158,134,203942,1,2,0:0:0:0:
150,132,204180,1,0,0:0:0:0:
149,134,204299,1,2,0:0:0:0:
150,134,204537,1,2,0:0:0:0:
150,134,204656,1,2,0:0:0:0:
150,132,204894,1,0,0:0:0:0:
150,134,205371,1,2,0:0:0:0:
149,137,205609,1,2,0:0:0:0:
150,134,205847,1,4,0:0:0:0:
254,149,206085,1,0,0:0:0:0:
254,149,206204,1,2,0:0:0:0:
254,149,206323,1,2,0:0:0:0:
254,149,206442,1,0,0:0:0:0:
254,149,206561,1,2,0:0:0:0:
254,149,206799,1,0,0:0:0:0:
246,148,207275,1,2,0:0:0:0:
246,148,207513,1,2,0:0:0:0:
246,148,207632,1,0,0:0:0:0:
246,148,207752,1,2,0:0:0:0:
246,148,207990,1,2,0:0:0:0:
246,148,208109,1,0,0:0:0:0:
246,148,208347,1,2,0:0:0:0:
246,148,208585,1,0,0:0:0:0:
246,148,208704,1,2,0:0:0:0:
246,168,209180,1,2,0:0:0:0:
246,168,209299,1,2,0:0:0:0:
246,168,209418,1,0,0:0:0:0:
246,168,209537,1,0,0:0:0:0:
246,168,209656,1,2,0:0:0:0:
211,144,209894,1,0,0:0:0:0:
246,168,210013,1,2,0:0:0:0:
246,168,210132,1,2,0:0:0:0:
246,168,210371,1,2,0:0:0:0:
246,168,210609,1,0,0:0:0:0:
184,155,211085,1,2,0:0:0:0:
184,155,211323,1,0,0:0:0:0:
184,155,211442,1,0,0:0:0:0:
184,155,211561,1,2,0:0:0:0:
184,155,211799,1,0,0:0:0:0:
184,155,211918,1,2,0:0:0:0:
243,170,212156,1,2,0:0:0:0:
243,170,212394,1,2,0:0:0:0:
243,170,212513,1,0,0:0:0:0:
243,170,212990,1,2,0:0:0:0:
243,170,213228,1,2,0:0:0:0:
256,121,213347,1,2,0:0:0:0:
243,170,213466,1,0,0:0:0:0:
256,121,213704,1,0,0:0:0:0:
164,160,213823,1,2,0:0:0:0:
164,160,214061,1,2,0:0:0:0:
164,160,214299,1,0,0:0:0:0:
164,160,214418,1,2,0:0:0:0:
171,160,214656,1,2,0:0:0:0:
171,160,214775,1,0,0:0:0:0:
171,160,214894,1,0,0:0:0:0:
175,161,215013,1,2,0:0:0:0:
175,161,215132,1,0,0:0:0:0:
118,128,215371,1,0,0:0:0:0:
248,125,215609,1,0,0:0:0:0:
248,125,215728,1,2,0:0:0:0:
248,125,215847,1,0,0:0:0:0:
248,125,215966,1,0,0:0:0:0:
248,125,216085,1,2,0:0:0:0:
248,125,216323,1,0,0:0:0:0:
253,127,216680,1,2,0:0:0:0:
253,127,216799,1,0,0:0:0:0:
253,127,217037,1,2,0:0:0:0:
253,127,217275,1,0,0:0:0:0:
253,127,217513,1,0,0:0:0:0:
253,127,217632,1,2,0:0:0:0:
253,127,217871,1,0,0:0:0:0:
253,127,217990,1,2,0:0:0:0:
253,127,218228,1,0,0:0:0:0:
253,127,218466,1,0,0:0:0:0:
253,127,218585,1,2,0:0:0:0:
253,127,218823,1,2,0:0:0:0:
253,127,218942,1,2,0:0:0:0:
253,127,219180,1,0,0:0:0:0:
243,122,219894,1,4,0:0:0:0:
243,122,220132,1,6,0:0:0:0:
243,122,220609,1,4,0:0:0:0:
243,122,220847,1,6,0:0:0:0:
265,256,221085,1,2,0:0:0:0:
265,256,221164,1,2,0:0:0:0:
265,256,221244,1,2,0:0:0:0:
146,177,221323,1,2,0:0:0:0:
245,186,221561,1,0,0:0:0:0:
245,186,221799,1,0,0:0:0:0:
245,186,222037,1,2,0:0:0:0:
245,186,222156,1,2,0:0:0:0:
245,186,222275,1,0,0:0:0:0:
232,182,222513,1,2,0:0:0:0:
149,123,222633,1,0,0:0:0:0:
232,182,222752,1,0,0:0:0:0:
232,182,222990,1,2,0:0:0:0:
167,156,223109,1,2,0:0:0:0:
167,156,223228,1,0,0:0:0:0:
167,156,223347,1,0,0:0:0:0:
167,156,223466,1,2,0:0:0:0:
157,152,223585,1,0,0:0:0:0:
157,152,223704,1,2,0:0:0:0:
157,152,223942,1,2,0:0:0:0:
246,117,224418,1,2,0:0:0:0:
270,277,224656,1,0,0:0:0:0:
246,117,224894,1,2,0:0:0:0:
246,117,224974,1,0,0:0:0:0:
246,117,225053,1,0,0:0:0:0:
246,117,225133,1,2,0:0:0:0:
104,141,225371,1,0,0:0:0:0:
104,141,225490,1,2,0:0:0:0:
104,141,225609,1,0,0:0:0:0:
223,210,225847,1,2,0:0:0:0:
209,117,225966,1,2,0:0:0:0:
223,210,226085,1,0,0:0:0:0:
209,117,226204,1,0,0:0:0:0:
223,210,226323,1,0,0:0:0:0:
209,117,226561,1,2,0:0:0:0:
209,117,226799,1,0,0:0:0:0:
209,117,226918,1,2,0:0:0:0:
250,121,227037,1,0,0:0:0:0:
250,121,227275,1,2,0:0:0:0:
250,121,227513,1,0,0:0:0:0:
413,126,227633,1,0,0:0:0:0:
250,121,227752,1,2,0:0:0:0:
250,121,227871,1,2,0:0:0:0:
250,121,227990,1,0,0:0:0:0:
250,121,228109,1,0,0:0:0:0:
250,121,228228,1,2,0:0:0:0:
244,111,228704,1,2,0:0:0:0:
244,111,228783,1,0,0:0:0:0:
244,111,228863,1,0,0:0:0:0:
168,134,228942,1,2,0:0:0:0:
168,134,229180,1,0,0:0:0:0:
231,109,229418,1,2,0:0:0:0:
231,109,229537,1,0,0:0:0:0:
231,109,229656,1,0,0:0:0:0:
231,109,229894,1,2,0:0:0:0:
231,109,230013,1,2,0:0:0:0:
231,109,230133,1,0,0:0:0:0:
231,109,230371,1,2,0:0:0:0:
278,84,230609,1,0,0:0:0:0:
278,84,230728,1,2,0:0:0:0:
278,84,230847,1,0,0:0:0:0:
278,84,230966,1,2,0:0:0:0:
278,84,231085,1,0,0:0:0:0:
278,73,231323,1,0,0:0:0:0:
247,172,231442,1,0,0:0:0:0:
278,73,231561,1,2,0:0:0:0:
278,73,231680,1,2,0:0:0:0:
278,73,231799,1,0,0:0:0:0:
278,73,231918,1,0,0:0:0:0:
278,73,232037,1,2,0:0:0:0:
227,174,232513,1,2,0:0:0:0:
149,132,232593,1,2,0:0:0:0:
149,132,232672,1,2,0:0:0:0:
149,132,232752,1,0,0:0:0:0:
227,174,232990,1,0,0:0:0:0:
227,174,233109,1,0,0:0:0:0:
227,174,233228,1,2,0:0:0:0:
227,174,233466,1,0,0:0:0:0:
227,174,233585,1,0,0:0:0:0:
227,174,233704,1,0,0:0:0:0:
227,174,233823,1,0,0:0:0:0:
227,174,233942,1,2,0:0:0:0:
231,165,234180,1,0,0:0:0:0:
231,165,234418,1,2,0:0:0:0:
231,165,234537,1,2,0:0:0:0:
231,165,234656,1,0,0:0:0:0:
231,165,234775,1,0,0:0:0:0:
229,128,234894,1,2,0:0:0:0:
229,128,235013,1,2,0:0:0:0:
231,165,235133,1,0,0:0:0:0:
231,165,235371,1,2,0:0:0:0:
205,160,235529,1,2,0:0:0:0:
205,160,235688,1,2,0:0:0:0:
205,160,235847,1,0,0:0:0:0:
229,100,236323,1,0,0:0:0:0:
279,96,236402,1,0,0:0:0:0:
279,96,236482,1,0,0:0:0:0:
279,96,236561,1,0,0:0:0:0:
152,142,236799,1,2,0:0:0:0:
152,142,236958,1,2,0:0:0:0:
152,142,237117,1,2,0:0:0:0:
152,142,237275,1,0,0:0:0:0:
152,142,237513,1,0,0:0:0:0:
152,142,237752,1,2,0:0:0:0:
152,142,237910,1,0,0:0:0:0:
152,142,238069,1,0,0:0:0:0:
262,136,238228,1,2,0:0:0:0:
262,136,238347,1,2,0:0:0:0:
262,136,238466,1,2,0:0:0:0:
262,136,238704,1,2,0:0:0:0:
225,117,238942,1,0,0:0:0:0:
185,160,239180,1,2,0:0:0:0:
185,160,239339,1,2,0:0:0:0:
185,160,239498,1,0,0:0:0:0:
185,160,239656,1,0,0:0:0:0:
185,160,239894,1,0,0:0:0:0:
283,176,240133,1,0,0:0:0:0:
283,176,240212,1,0,0:0:0:0:
283,176,240291,1,0,0:0:0:0:
283,176,240371,1,0,0:0:0:0:
278,159,240609,1,2,0:0:0:0:
278,159,240767,1,0,0:0:0:0:
278,159,240926,1,0,0:0:0:0:
278,159,241085,1,2,0:0:0:0:
278,159,241561,1,2,0:0:0:0:
278,159,241720,1,0,0:0:0:0:
278,159,241879,1,0,0:0:0:0:
278,159,242037,1,2,0:0:0:0:
192,132,242156,1,2,0:0:0:0:
192,132,242275,1,2,0:0:0:0:
192,132,242513,1,0,0:0:0:0:
269,114,242672,1,0,0:0:0:0:
269,114,242831,1,0,0:0:0:0:
269,114,242990,1,2,0:0:0:0:
156,145,243465,1,2,0:0:0:0:
156,145,243624,1,2,0:0:0:0:
156,145,243783,1,0,0:0:0:0:
244,115,245371,1,2,0:0:0:0:
244,115,245529,1,2,0:0:0:0:
244,115,245688,1,0,0:0:0:0:
192,137,247752,1,4,0:0:0:0:
192,137,248228,1,0,0:0:0:0:
192,137,248466,1,0,0:0:0:0:
192,137,248704,1,2,0:0:0:0:
192,137,249180,1,2,0:0:0:0:
192,137,249418,1,2,0:0:0:0:
192,137,249656,1,2,0:0:0:0:
192,137,249894,1,0,0:0:0:0:
192,137,250132,1,0,0:0:0:0:
192,137,250371,1,0,0:0:0:0:
192,137,250609,1,2,0:0:0:0:
192,137,251085,1,0,0:0:0:0:
192,137,251323,1,2,0:0:0:0:
192,137,251561,1,0,0:0:0:0:
192,137,252037,1,0,0:0:0:0:
192,137,252275,1,0,0:0:0:0:
192,137,252513,1,2,0:0:0:0:
192,137,252990,1,2,0:0:0:0:
192,137,253228,1,2,0:0:0:0:
192,137,253466,1,2,0:0:0:0:
192,137,253704,1,0,0:0:0:0:
192,137,253942,1,0,0:0:0:0:
192,137,254180,1,0,0:0:0:0:
192,137,254418,1,2,0:0:0:0:
192,137,254894,1,2,0:0:0:0:
192,137,255132,1,2,0:0:0:0:
192,137,255371,1,0,0:0:0:0:
192,137,255847,1,0,0:0:0:0:
192,137,256085,1,0,0:0:0:0:
192,137,256323,1,2,0:0:0:0:
192,137,256799,1,2,0:0:0:0:
192,137,257037,1,2,0:0:0:0:
192,137,257275,1,2,0:0:0:0:
192,137,257513,1,0,0:0:0:0:
192,137,257752,1,0,0:0:0:0:
192,137,257990,1,0,0:0:0:0:
192,137,258228,1,2,0:0:0:0:
192,137,258704,1,0,0:0:0:0:
192,137,258942,1,2,0:0:0:0:
192,137,259180,1,0,0:0:0:0:
192,137,259656,1,0,0:0:0:0:
192,137,259894,1,0,0:0:0:0:
192,137,260132,1,2,0:0:0:0:
192,137,260609,1,2,0:0:0:0:
192,137,260847,1,2,0:0:0:0:
192,137,261085,1,2,0:0:0:0:
192,137,261323,1,0,0:0:0:0:
192,137,261561,1,0,0:0:0:0:
192,137,261799,1,0,0:0:0:0:
192,137,262037,1,2,0:0:0:0:
192,137,262513,1,2,0:0:0:0:
192,137,262752,1,2,0:0:0:0:
192,137,262990,1,4,0:0:0:0:
192,137,263228,1,2,0:0:0:0:
204,89,263347,1,2,0:0:0:0:
192,137,263466,1,2,0:0:0:0:
192,137,263704,1,0,0:0:0:0:
192,137,263942,1,2,0:0:0:0:
192,137,264418,1,2,0:0:0:0:
192,137,264656,1,2,0:0:0:0:
192,137,264894,1,2,0:0:0:0:
192,137,265132,1,0,0:0:0:0:
204,89,265252,1,0,0:0:0:0:
192,137,265371,1,0,0:0:0:0:
192,137,265609,1,0,0:0:0:0:
192,137,265847,1,2,0:0:0:0:
192,137,266323,1,0,0:0:0:0:
192,137,266561,1,2,0:0:0:0:
192,137,266799,1,0,0:0:0:0:
204,89,267037,1,2,0:0:0:0:
204,89,267156,1,2,0:0:0:0:
204,89,267275,1,2,0:0:0:0:
192,137,267513,1,0,0:0:0:0:
192,137,267752,1,2,0:0:0:0:
192,137,268228,1,2,0:0:0:0:
192,137,268466,1,2,0:0:0:0:
192,137,268704,1,2,0:0:0:0:
192,137,268942,1,0,0:0:0:0:
202,88,269061,1,0,0:0:0:0:
192,137,269180,1,0,0:0:0:0:
192,137,269418,1,0,0:0:0:0:
192,137,269656,1,2,0:0:0:0:
192,137,270132,1,2,0:0:0:0:
192,137,270371,1,2,0:0:0:0:
192,137,270609,1,0,0:0:0:0:
202,88,270847,1,2,0:0:0:0:
202,88,270966,1,2,0:0:0:0:
202,88,271085,1,2,0:0:0:0:
192,137,271323,1,0,0:0:0:0:
192,137,271561,1,2,0:0:0:0:
192,137,272037,1,2,0:0:0:0:
192,137,272275,1,2,0:0:0:0:
192,137,272513,1,2,0:0:0:0:
192,137,272752,1,0,0:0:0:0:
201,88,272871,1,0,0:0:0:0:
192,137,272990,1,0,0:0:0:0:
192,137,273228,1,0,0:0:0:0:
192,137,273466,1,2,0:0:0:0:
192,137,273942,1,0,0:0:0:0:
192,137,274180,1,2,0:0:0:0:
192,137,274418,1,0,0:0:0:0:
201,88,274656,1,2,0:0:0:0:
201,88,274775,1,2,0:0:0:0:
201,88,274894,1,2,0:0:0:0:
192,137,275132,1,0,0:0:0:0:
192,137,275371,1,2,0:0:0:0:
192,137,275847,1,2,0:0:0:0:
192,137,276085,1,2,0:0:0:0:
192,137,276323,1,2,0:0:0:0:
192,137,276561,1,0,0:0:0:0:
201,88,276680,1,0,0:0:0:0:
192,137,276799,1,0,0:0:0:0:
192,137,277037,1,0,0:0:0:0:
192,137,277275,1,2,0:0:0:0:
192,137,277752,1,2,0:0:0:0:
192,137,277990,1,2,0:0:0:0:
192,137,278228,1,4,0:0:0:0:
192,137,278704,1,0,0:0:0:0:
192,137,278942,1,0,0:0:0:0:
192,137,279180,1,2,0:0:0:0:
192,137,279656,1,2,0:0:0:0:
192,137,280132,1,2,0:0:0:0:
192,137,280371,1,0,0:0:0:0:
192,137,280609,1,0,0:0:0:0:
192,137,280847,1,0,0:0:0:0:
192,137,281085,1,2,0:0:0:0:
192,137,281561,1,0,0:0:0:0:
192,137,281799,1,2,0:0:0:0:
192,137,282037,1,0,0:0:0:0:
192,137,282513,1,0,0:0:0:0:
192,137,282752,1,0,0:0:0:0:
192,137,282990,1,2,0:0:0:0:
192,137,283466,1,2,0:0:0:0:
192,137,283942,1,2,0:0:0:0:
192,137,284180,1,0,0:0:0:0:
192,137,284418,1,0,0:0:0:0:
192,137,284656,1,0,0:0:0:0:
192,137,284894,1,2,0:0:0:0:
192,137,285371,1,2,0:0:0:0:
192,137,285609,1,2,0:0:0:0:
192,137,285847,1,0,0:0:0:0:
192,137,286323,1,0,0:0:0:0:
192,137,286561,1,0,0:0:0:0:
192,137,286799,1,2,0:0:0:0:
192,137,287275,1,2,0:0:0:0:
192,137,287752,1,2,0:0:0:0:
192,137,287990,1,0,0:0:0:0:
192,137,288228,1,0,0:0:0:0:
192,137,288466,1,0,0:0:0:0:
192,137,288704,1,2,0:0:0:0:
192,137,289180,1,0,0:0:0:0:
192,137,289418,1,2,0:0:0:0:
192,137,289656,1,0,0:0:0:0:
192,137,290132,1,0,0:0:0:0:
192,137,290371,1,0,0:0:0:0:
192,137,290609,1,2,0:0:0:0:
192,137,291085,1,2,0:0:0:0:
192,137,291561,1,2,0:0:0:0:
192,137,291799,1,0,0:0:0:0:
192,137,292037,1,0,0:0:0:0:
192,137,292275,1,0,0:0:0:0:
192,137,292513,1,2,0:0:0:0:
192,137,292990,1,2,0:0:0:0:
192,137,293228,1,2,0:0:0:0:
