osu file format v14

[General]
AudioFilename: audio.mp3
AudioLeadIn: 0
PreviewTime: 116067
Countdown: 0
SampleSet: Normal
StackLeniency: 1
Mode: 1
LetterboxInBreaks: 0
WidescreenStoryboard: 1

[Editor]
Bookmarks: 780,13302,19563,44606,53998,57128,82171,94693,105127,116083,128604,130169,141126,152865
DistanceSpacing: 2.1
BeatDivisor: 4
GridSize: 32
TimelineZoom: 3.249999

[Metadata]
Title:Atropos and Seeker of the End.
TitleUnicode:アトロポスと最果の探究者
Artist:CK
ArtistUnicode:しーけー
Creator:Rycy
Version:tzechi's Oni
Source:G2R2018 Climax -GO BACK 2 YOUR ROOTS 2018 climax-
Tags:C5H10 tzechi instrumental electronic waltz storia ストーリア Atropos to saihate no tankyuusha shiike せゆーら seura nue se-u-ra yoshimo sega maimai でらっくす deluxe PLUS dx+ noxy games lanota video game videogame ultimate bms of fighters bof bofu2018
BeatmapID:4425410
BeatmapSetID:2108601

[Difficulty]
HPDrainRate:5
CircleSize:5
OverallDifficulty:6
ApproachRate:10
SliderMultiplier:1.35
SliderTickRate:1

[Events]
//Background and Video events
0,0,"atropos4.jpg",0,50
//Break Periods
2,116288,121898
//Storyboard Layer 0 (Background)
//Storyboard Layer 1 (Fail)
//Storyboard Layer 2 (Pass)
//Storyboard Layer 3 (Foreground)
//Storyboard Layer 4 (Overlay)
//Storyboard Sound Samples

[TimingPoints]
-5475,260.869565217391,6,1,0,90,1,0
13372,-105.263157894737,6,1,0,75,0,0
19568,-111.111111111111,6,1,0,80,0,0
32090,-105.263157894737,6,1,0,85,0,0
50938,-111.111111111111,6,1,0,75,0,0
54003,-105.263157894737,6,1,0,85,0,0
57133,-100,6,1,0,90,0,0
69655,-100,6,1,0,100,0,1
82177,-100,6,1,0,90,0,0
94698,260.869565217391,5,1,0,90,1,0
94763,-103.092783505155,5,1,0,90,0,0
105197,-105.263157894737,5,1,0,80,0,0
112958,260.869565217391,6,1,0,80,1,0
112958,-105.263157894737,6,1,0,80,0,0
116088,260.869565217391,6,1,0,75,1,0
116088,-105.263157894737,6,1,0,75,0,0
122348,-108.695652173913,6,1,0,85,0,0
125479,-105.263157894737,6,1,0,90,0,0
128674,-111.111111111111,6,1,0,75,0,0
130174,-100,6,1,0,100,0,1
141131,-100,6,1,0,75,0,0
141587,-101.010101010101,6,1,0,75,0,0
141848,-102.040816326531,6,1,0,75,0,0
142631,-103.092783505155,6,1,0,75,0,0
142892,-104.166666666667,6,1,0,75,0,0
143153,-105.263157894737,6,1,0,75,0,0
143414,-106.382978723404,6,1,0,75,0,0
143805,-107.52688172043,6,1,0,75,0,0
144196,-108.695652173913,6,1,0,75,0,0
144718,-109.89010989011,6,1,0,75,0,0
144979,-111.111111111111,6,1,0,75,0,0

[HitObjects]
254,188,785,5,12,0:0:0:0:
254,188,916,1,0,0:0:0:0:
254,188,1046,1,0,0:0:0:0:
254,188,1177,1,8,0:0:0:0:
274,199,1438,1,8,0:0:0:0:
274,199,1568,1,0,0:0:0:0:
273,198,1698,1,0,0:0:0:0:
260,194,1829,1,8,0:0:0:0:
254,188,1959,1,0,0:0:0:0:
254,188,2024,1,0,0:0:0:0:
254,188,2090,1,8,0:0:0:0:
253,165,2220,1,0,0:0:0:0:
244,182,2351,5,8,0:0:0:0:
248,183,2611,1,0,0:0:0:0:
232,181,2677,1,0,0:0:0:0:
249,183,2742,1,8,0:0:0:0:
240,164,3003,1,8,0:0:0:0:
240,164,3133,1,0,0:0:0:0:
240,163,3264,1,0,0:0:0:0:
237,161,3394,1,8,0:0:0:0:
237,161,3524,1,0,0:0:0:0:
233,159,3655,1,8,0:0:0:0:
185,157,3916,5,0,0:0:0:0:
220,153,4177,1,8,0:0:0:0:
219,152,4438,1,8,0:0:0:0:
219,152,4568,1,0,0:0:0:0:
220,153,4698,1,8,0:0:0:0:
209,154,4959,1,8,0:0:0:0:
223,141,5090,1,0,0:0:0:0:
222,141,5220,1,8,0:0:0:0:
222,140,5481,5,0,0:0:0:0:
209,144,5742,1,0,0:0:0:0:
203,141,5872,1,8,0:0:0:0:
203,141,6003,1,8,0:0:0:0:
203,141,6133,1,0,0:0:0:0:
204,141,6264,1,8,0:0:0:0:
204,141,6329,1,8,0:0:0:0:
204,141,6394,1,0,0:0:0:0:
204,141,6524,1,0,0:0:0:0:
204,141,6655,1,8,0:0:0:0:
203,141,6785,1,0,0:0:0:0:
198,151,7046,5,12,0:0:0:0:
203,153,7307,1,0,0:0:0:0:
203,153,7438,1,8,0:0:0:0:
201,154,7503,1,8,0:0:0:0:
202,154,7568,1,8,0:0:0:0:
203,154,7698,1,8,0:0:0:0:
190,150,7829,1,0,0:0:0:0:
190,150,8090,1,8,0:0:0:0:
190,150,8220,1,0,0:0:0:0:
196,152,8285,1,0,0:0:0:0:
193,154,8351,1,8,0:0:0:0:
193,154,8481,1,8,0:0:0:0:
195,150,8611,5,4,0:0:0:0:
192,141,8872,1,8,0:0:0:0:
212,138,8938,1,8,0:0:0:0:
192,141,9003,1,0,0:0:0:0:
192,140,9133,1,8,0:0:0:0:
213,180,9264,1,8,0:0:0:0:
184,134,9394,1,0,0:0:0:0:
184,134,9524,1,8,0:0:0:0:
184,140,9590,1,8,0:0:0:0:
184,134,9655,1,8,0:0:0:0:
180,132,9785,1,0,0:0:0:0:
179,129,9851,1,8,0:0:0:0:
178,129,9916,1,0,0:0:0:0:
182,133,10046,1,8,0:0:0:0:
180,132,10177,5,4,0:0:0:0:
178,131,10438,1,8,0:0:0:0:
184,112,10568,1,0,0:0:0:0:
188,113,10698,1,8,0:0:0:0:
183,110,10829,1,8,0:0:0:0:
183,110,10959,1,0,0:0:0:0:
184,109,11220,1,8,0:0:0:0:
184,109,11351,1,8,0:0:0:0:
180,91,11481,1,0,0:0:0:0:
170,92,11611,1,8,0:0:0:0:
171,94,11742,5,0,0:0:0:0:
166,93,12003,1,8,0:0:0:0:
163,91,12133,1,0,0:0:0:0:
163,91,12264,1,8,0:0:0:0:
162,91,12394,1,8,0:0:0:0:
162,91,12524,1,0,0:0:0:0:
158,89,12655,1,8,0:0:0:0:
170,89,12720,1,8,0:0:0:0:
170,89,12785,1,0,0:0:0:0:
169,89,12916,1,0,0:0:0:0:
169,89,12981,1,8,0:0:0:0:
169,89,13046,1,0,0:0:0:0:
169,89,13177,1,8,0:0:0:0:
147,77,13307,5,4,0:0:0:0:
157,87,13698,1,0,0:0:0:0:
157,87,13829,1,0,0:0:0:0:
157,87,13959,1,8,0:0:0:0:
157,87,14090,1,8,0:0:0:0:
160,76,14351,1,0,0:0:0:0:
170,82,14611,1,8,0:0:0:0:
170,82,14742,1,0,0:0:0:0:
170,82,14872,5,8,0:0:0:0:
185,93,15264,1,0,0:0:0:0:
185,93,15394,1,8,0:0:0:0:
185,93,15524,1,0,0:0:0:0:
181,90,15655,1,8,0:0:0:0:
181,90,15785,1,8,0:0:0:0:
182,93,15916,1,8,0:0:0:0:
182,93,16046,1,0,0:0:0:0:
185,73,16177,1,8,0:0:0:0:
185,73,16307,1,8,0:0:0:0:
185,73,16438,5,0,0:0:0:0:
178,72,16829,1,8,0:0:0:0:
178,72,16959,1,8,0:0:0:0:
178,72,17090,1,0,0:0:0:0:
178,72,17220,1,8,0:0:0:0:
173,70,17481,1,0,0:0:0:0:
184,70,17742,1,8,0:0:0:0:
201,89,17872,1,0,0:0:0:0:
185,70,18003,5,12,0:0:0:0:
266,185,19568,5,0,0:0:0:0:
217,142,20090,1,0,0:0:0:0:
217,142,20220,1,0,0:0:0:0:
217,142,20351,1,8,0:0:0:0:
217,124,20872,1,8,0:0:0:0:
219,125,21133,1,0,0:0:0:0:
212,109,21524,1,8,0:0:0:0:
176,89,21916,1,0,0:0:0:0:
176,89,22438,1,0,0:0:0:0:
176,89,22568,1,8,0:0:0:0:
176,89,22698,1,8,0:0:0:0:
181,75,23220,1,8,0:0:0:0:
185,72,23481,1,0,0:0:0:0:
185,72,23872,1,8,0:0:0:0:
207,57,24133,1,8,0:0:0:0:
199,65,24264,1,0,0:0:0:0:
184,60,24524,1,0,0:0:0:0:
182,61,24785,1,8,0:0:0:0:
180,60,25046,1,0,0:0:0:0:
177,63,25568,1,0,0:0:0:0:
182,61,25698,1,0,0:0:0:0:
180,60,25829,1,8,0:0:0:0:
190,63,26351,1,8,0:0:0:0:
186,63,26611,1,0,0:0:0:0:
190,63,26872,1,0,0:0:0:0:
190,63,27133,1,8,0:0:0:0:
186,63,27394,1,0,0:0:0:0:
190,63,27655,1,8,0:0:0:0:
190,63,27916,1,8,0:0:0:0:
198,64,28177,1,8,0:0:0:0:
177,59,28698,1,8,0:0:0:0:
174,59,28959,1,0,0:0:0:0:
170,60,29481,1,8,0:0:0:0:
199,63,29742,1,0,0:0:0:0:
188,68,30003,1,8,0:0:0:0:
188,68,30264,1,0,0:0:0:0:
179,57,30394,1,8,0:0:0:0:
179,57,30524,1,8,0:0:0:0:
195,63,30916,1,0,0:0:0:0:
201,59,31307,1,8,0:0:0:0:
216,154,31698,1,0,0:0:0:0:
236,146,31829,1,0,0:0:0:0:
236,146,31894,1,0,0:0:0:0:
236,146,31959,1,0,0:0:0:0:
196,61,32090,5,12,0:0:0:0:
198,98,32481,1,0,0:0:0:0:
198,98,32611,1,0,0:0:0:0:
187,92,32742,1,8,0:0:0:0:
186,90,32872,1,8,0:0:0:0:
189,106,33264,1,0,0:0:0:0:
191,95,33394,1,8,0:0:0:0:
202,131,33524,1,0,0:0:0:0:
202,131,33590,1,0,0:0:0:0:
202,131,33655,1,8,0:0:0:0:
198,98,33916,1,0,0:0:0:0:
191,95,34046,1,8,0:0:0:0:
196,93,34307,1,8,0:0:0:0:
198,93,34372,1,8,0:0:0:0:
198,93,34438,1,0,0:0:0:0:
193,94,34698,1,8,0:0:0:0:
192,93,34829,1,8,0:0:0:0:
191,95,34959,1,0,0:0:0:0:
190,92,35090,1,0,0:0:0:0:
190,92,35220,5,8,0:0:0:0:
204,93,35611,1,0,0:0:0:0:
192,93,35742,1,8,0:0:0:0:
179,89,36003,1,0,0:0:0:0:
209,120,36394,1,8,0:0:0:0:
207,76,36655,1,8,0:0:0:0:
207,76,36720,1,8,0:0:0:0:
207,76,36785,1,0,0:0:0:0:
220,84,37046,1,8,0:0:0:0:
220,84,37177,1,0,0:0:0:0:
221,84,37307,1,8,0:0:0:0:
215,81,37568,1,8,0:0:0:0:
215,81,37698,1,8,0:0:0:0:
215,81,37829,1,0,0:0:0:0:
215,81,37959,1,8,0:0:0:0:
214,81,38090,1,0,0:0:0:0:
207,59,38220,1,0,0:0:0:0:
207,64,38351,5,12,0:0:0:0:
222,105,38481,1,8,0:0:0:0:
223,83,38742,1,0,0:0:0:0:
223,86,38872,1,8,0:0:0:0:
220,84,39133,1,8,0:0:0:0:
221,87,39264,1,0,0:0:0:0:
129,239,39329,1,0,0:0:0:0:
220,86,39394,1,0,0:0:0:0:
220,75,39524,1,8,0:0:0:0:
223,66,39785,1,0,0:0:0:0:
224,92,39851,1,0,0:0:0:0:
223,86,39916,5,8,0:0:0:0:
206,61,40046,1,8,0:0:0:0:
207,68,40307,1,8,0:0:0:0:
204,69,40438,1,8,0:0:0:0:
204,69,40568,1,0,0:0:0:0:
203,69,40698,1,8,0:0:0:0:
191,70,40959,1,8,0:0:0:0:
210,64,41090,1,0,0:0:0:0:
212,66,41155,1,0,0:0:0:0:
207,68,41220,1,0,0:0:0:0:
209,66,41351,1,0,0:0:0:0:
192,63,41481,5,12,0:0:0:0:
191,70,41742,1,8,0:0:0:0:
189,66,41872,1,0,0:0:0:0:
202,68,42003,1,8,0:0:0:0:
174,66,42264,1,8,0:0:0:0:
174,68,42394,1,0,0:0:0:0:
174,68,42459,1,0,0:0:0:0:
174,68,42524,1,8,0:0:0:0:
174,68,42655,1,8,0:0:0:0:
199,68,42785,1,0,0:0:0:0:
199,68,43046,1,8,0:0:0:0:
187,55,43307,1,8,0:0:0:0:
187,56,43372,1,8,0:0:0:0:
176,63,43438,1,8,0:0:0:0:
183,56,43568,1,0,0:0:0:0:
182,96,43633,1,0,0:0:0:0:
173,56,43698,1,0,0:0:0:0:
176,62,43829,1,8,0:0:0:0:
176,62,43959,1,8,0:0:0:0:
176,62,44090,1,8,0:0:0:0:
175,62,44220,1,0,0:0:0:0:
189,87,44481,1,0,0:0:0:0:
189,87,44611,5,12,0:0:0:0:
189,87,44872,1,8,0:0:0:0:
179,83,45133,1,0,0:0:0:0:
179,83,45264,1,0,0:0:0:0:
176,82,45394,1,8,0:0:0:0:
188,68,45655,1,8,0:0:0:0:
174,82,45785,1,0,0:0:0:0:
179,83,45916,1,8,0:0:0:0:
203,110,46046,1,8,0:0:0:0:
187,69,46177,5,0,0:0:0:0:
188,68,46438,1,0,0:0:0:0:
188,68,46568,1,8,0:0:0:0:
188,68,46698,1,8,0:0:0:0:
188,75,46829,1,0,0:0:0:0:
187,76,46959,1,8,0:0:0:0:
185,92,47220,1,8,0:0:0:0:
164,54,47285,1,8,0:0:0:0:
164,54,47351,1,8,0:0:0:0:
163,54,47481,1,0,0:0:0:0:
193,129,47546,1,0,0:0:0:0:
164,54,47611,1,0,0:0:0:0:
163,55,47742,5,12,0:0:0:0:
197,65,48003,1,0,0:0:0:0:
172,59,48133,1,0,0:0:0:0:
171,58,48264,1,8,0:0:0:0:
192,66,48394,1,0,0:0:0:0:
192,66,48524,1,8,0:0:0:0:
162,56,48785,1,8,0:0:0:0:
144,47,48916,1,0,0:0:0:0:
143,46,49046,1,8,0:0:0:0:
142,46,49177,1,8,0:0:0:0:
142,46,49307,5,0,0:0:0:0:
160,44,49568,1,8,0:0:0:0:
159,44,49698,1,8,0:0:0:0:
153,42,49829,1,0,0:0:0:0:
153,42,49959,1,0,0:0:0:0:
153,42,50024,1,0,0:0:0:0:
153,42,50090,1,8,0:0:0:0:
153,44,50220,1,8,0:0:0:0:
153,44,50351,1,0,0:0:0:0:
148,38,50481,1,0,0:0:0:0:
150,47,50611,1,8,0:0:0:0:
89,282,50742,1,0,0:0:0:0:
149,49,50872,5,12,0:0:0:0:
173,100,52177,1,0,0:0:0:0:
173,100,52307,1,0,0:0:0:0:
173,100,52438,1,8,0:0:0:0:
190,98,53742,1,0,0:0:0:0:
190,98,53872,1,0,0:0:0:0:
190,98,54003,1,12,0:0:0:0:
190,98,54133,1,12,0:0:0:0:
181,96,54394,1,12,0:0:0:0:
175,95,54655,1,12,0:0:0:0:
174,95,54916,1,12,0:0:0:0:
190,98,55046,1,4,0:0:0:0:
189,84,55307,1,4,0:0:0:0:
184,83,55568,1,12,0:0:0:0:
184,84,55698,1,12,0:0:0:0:
172,83,55959,1,12,0:0:0:0:
171,84,56220,1,4,0:0:0:0:
170,89,56351,1,8,0:0:0:0:
170,89,56611,1,8,0:0:0:0:
170,89,56872,1,8,0:0:0:0:
162,88,57133,5,4,0:0:0:0:
153,136,57655,1,0,0:0:0:0:
153,136,57916,1,8,0:0:0:0:
168,127,58438,1,8,0:0:0:0:
168,127,58698,1,0,0:0:0:0:
168,127,58959,1,0,0:0:0:0:
168,127,59220,1,0,0:0:0:0:
168,127,59481,1,8,0:0:0:0:
174,118,60003,1,8,0:0:0:0:
174,118,60133,1,8,0:0:0:0:
173,124,60264,1,0,0:0:0:0:
173,124,60785,1,0,0:0:0:0:
172,123,61046,1,8,0:0:0:0:
181,122,61568,1,8,0:0:0:0:
177,122,61829,1,0,0:0:0:0:
195,108,62090,1,0,0:0:0:0:
181,122,62351,1,0,0:0:0:0:
170,119,62611,1,8,0:0:0:0:
170,119,63394,1,4,0:0:0:0:
181,126,63916,1,0,0:0:0:0:
177,124,64177,1,8,0:0:0:0:
181,126,64698,1,8,0:0:0:0:
177,124,64959,1,0,0:0:0:0:
158,124,65220,1,8,0:0:0:0:
159,123,65481,1,8,0:0:0:0:
159,122,65742,1,0,0:0:0:0:
139,123,66264,1,8,0:0:0:0:
138,123,66524,1,0,0:0:0:0:
138,123,66655,1,0,0:0:0:0:
143,130,66916,1,0,0:0:0:0:
143,130,67046,1,8,0:0:0:0:
170,122,67177,1,0,0:0:0:0:
138,123,67307,1,8,0:0:0:0:
170,122,67438,1,8,0:0:0:0:
159,117,67568,1,0,0:0:0:0:
159,117,67698,1,0,0:0:0:0:
159,117,67829,1,8,0:0:0:0:
175,92,67959,1,0,0:0:0:0:
198,220,68024,1,0,0:0:0:0:
175,92,68090,1,8,0:0:0:0:
166,89,68351,1,8,0:0:0:0:
162,92,68481,1,0,0:0:0:0:
162,92,68546,1,0,0:0:0:0:
162,92,68611,1,8,0:0:0:0:
163,92,68742,1,0,0:0:0:0:
163,92,68872,1,8,0:0:0:0:
166,89,69133,1,0,0:0:0:0:
140,92,69198,1,0,0:0:0:0:
163,80,69264,1,0,0:0:0:0:
162,81,69394,1,8,0:0:0:0:
162,81,69459,1,8,0:0:0:0:
162,81,69524,1,8,0:0:0:0:
160,80,69655,5,4,0:0:0:0:
171,144,69916,1,8,0:0:0:0:
171,144,70046,1,0,0:0:0:0:
171,144,70111,1,0,0:0:0:0:
171,144,70177,1,8,0:0:0:0:
171,144,70307,1,0,0:0:0:0:
171,144,70438,1,8,0:0:0:0:
171,144,70698,1,0,0:0:0:0:
172,148,70829,1,8,0:0:0:0:
172,148,70959,1,8,0:0:0:0:
172,148,71024,1,8,0:0:0:0:
172,148,71090,1,0,0:0:0:0:
172,148,71220,5,8,0:0:0:0:
163,185,71481,1,8,0:0:0:0:
163,185,71611,1,0,0:0:0:0:
163,185,71677,1,0,0:0:0:0:
163,185,71742,1,8,0:0:0:0:
163,185,71872,1,0,0:0:0:0:
163,185,72003,1,8,0:0:0:0:
163,185,72264,1,0,0:0:0:0:
163,185,72394,1,8,0:0:0:0:
163,185,72459,1,0,0:0:0:0:
163,185,72524,1,8,0:0:0:0:
163,185,72655,1,0,0:0:0:0:
163,185,72785,5,8,0:0:0:0:
151,184,73046,1,0,0:0:0:0:
148,179,73177,1,0,0:0:0:0:
148,179,73242,1,0,0:0:0:0:
148,179,73307,1,8,0:0:0:0:
139,173,73438,1,0,0:0:0:0:
139,173,73568,1,8,0:0:0:0:
139,173,73633,1,8,0:0:0:0:
139,173,73698,1,0,0:0:0:0:
139,173,73829,1,8,0:0:0:0:
139,173,73959,1,0,0:0:0:0:
139,173,74090,1,8,0:0:0:0:
139,173,74351,5,8,0:0:0:0:
129,171,74481,1,0,0:0:0:0:
129,171,74611,1,8,0:0:0:0:
129,171,74742,1,8,0:0:0:0:
129,171,74872,1,0,0:0:0:0:
129,171,75003,1,8,0:0:0:0:
123,171,75133,1,0,0:0:0:0:
123,171,75198,1,0,0:0:0:0:
123,171,75264,1,0,0:0:0:0:
123,171,75394,1,8,0:0:0:0:
123,171,75524,1,0,0:0:0:0:
123,171,75655,1,8,0:0:0:0:
123,171,75720,1,8,0:0:0:0:
123,171,75785,1,0,0:0:0:0:
123,171,75916,5,12,0:0:0:0:
123,171,76177,1,8,0:0:0:0:
123,171,76307,1,0,0:0:0:0:
123,171,76372,1,0,0:0:0:0:
123,171,76438,1,8,0:0:0:0:
123,171,76568,1,0,0:0:0:0:
123,171,76698,1,8,0:0:0:0:
123,171,76764,1,8,0:0:0:0:
123,171,76829,1,0,0:0:0:0:
146,84,76959,1,8,0:0:0:0:
146,84,77090,1,0,0:0:0:0:
146,84,77220,1,8,0:0:0:0:
134,221,77351,1,8,0:0:0:0:
123,171,77481,5,0,0:0:0:0:
114,175,77742,1,8,0:0:0:0:
116,176,77872,1,0,0:0:0:0:
116,176,77938,1,0,0:0:0:0:
116,176,78003,1,8,0:0:0:0:
116,176,78133,1,0,0:0:0:0:
116,176,78264,1,8,0:0:0:0:
114,175,78524,1,0,0:0:0:0:
114,175,78655,1,8,0:0:0:0:
116,176,78785,1,0,0:0:0:0:
116,176,78851,1,0,0:0:0:0:
116,176,78916,1,0,0:0:0:0:
116,176,79046,5,12,0:0:0:0:
116,176,79307,1,8,0:0:0:0:
114,175,79372,1,8,0:0:0:0:
114,175,79438,1,8,0:0:0:0:
114,175,79568,1,0,0:0:0:0:
116,176,79698,1,0,0:0:0:0:
116,176,79829,1,4,0:0:0:0:
110,174,80090,1,8,0:0:0:0:
110,174,80220,1,0,0:0:0:0:
114,175,80351,1,8,0:0:0:0:
114,175,80481,1,8,0:0:0:0:
110,173,80611,5,0,0:0:0:0:
111,167,80872,1,8,0:0:0:0:
110,164,81003,1,0,0:0:0:0:
110,164,81133,1,8,0:0:0:0:
110,164,81264,1,8,0:0:0:0:
110,164,81394,1,0,0:0:0:0:
139,127,81655,1,8,0:0:0:0:
139,127,81720,1,8,0:0:0:0:
139,127,81785,1,8,0:0:0:0:
139,127,81916,1,0,0:0:0:0:
139,127,81981,1,0,0:0:0:0:
139,127,82046,1,0,0:0:0:0:
139,127,82177,5,12,0:0:0:0:
140,137,82307,1,0,0:0:0:0:
110,164,82438,1,8,0:0:0:0:
134,90,82568,1,8,0:0:0:0:
134,90,82698,1,0,0:0:0:0:
110,164,82829,1,8,0:0:0:0:
110,164,82959,1,0,0:0:0:0:
110,164,83090,1,8,0:0:0:0:
110,164,83220,1,8,0:0:0:0:
110,164,83351,1,0,0:0:0:0:
104,163,83481,1,8,0:0:0:0:
193,165,83611,1,8,0:0:0:0:
150,142,83742,1,0,0:0:0:0:
164,151,84003,1,8,0:0:0:0:
159,140,84068,1,8,0:0:0:0:
160,139,84133,1,8,0:0:0:0:
160,138,84264,1,0,0:0:0:0:
154,135,84394,1,8,0:0:0:0:
154,135,84459,1,8,0:0:0:0:
154,134,84524,1,0,0:0:0:0:
156,127,84655,1,0,0:0:0:0:
153,132,84785,1,8,0:0:0:0:
153,132,84916,1,0,0:0:0:0:
153,131,85046,1,8,0:0:0:0:
138,170,85307,5,0,0:0:0:0:
137,170,85372,1,0,0:0:0:0:
136,170,85438,1,0,0:0:0:0:
135,169,85568,1,8,0:0:0:0:
135,169,85698,1,0,0:0:0:0:
135,169,85829,1,8,0:0:0:0:
134,169,85959,1,8,0:0:0:0:
138,170,86090,1,0,0:0:0:0:
138,170,86155,1,0,0:0:0:0:
138,170,86220,1,0,0:0:0:0:
136,170,86351,1,8,0:0:0:0:
135,169,86481,1,0,0:0:0:0:
135,169,86611,1,8,0:0:0:0:
156,196,86742,1,0,0:0:0:0:
134,169,86872,5,8,0:0:0:0:
131,166,87133,1,0,0:0:0:0:
138,150,87264,1,8,0:0:0:0:
127,143,87394,1,8,0:0:0:0:
123,134,87524,1,8,0:0:0:0:
137,145,87655,1,0,0:0:0:0:
137,145,87785,1,8,0:0:0:0:
137,145,87916,1,8,0:0:0:0:
137,145,88046,1,0,0:0:0:0:
138,150,88177,1,8,0:0:0:0:
147,149,88438,5,4,0:0:0:0:
144,148,88568,1,0,0:0:0:0:
144,148,88698,1,8,0:0:0:0:
144,148,88829,1,0,0:0:0:0:
142,155,88894,1,0,0:0:0:0:
141,151,88959,1,8,0:0:0:0:
138,150,89090,1,8,0:0:0:0:
138,150,89220,1,0,0:0:0:0:
138,150,89351,1,8,0:0:0:0:
138,150,89481,1,8,0:0:0:0:
126,149,89611,1,0,0:0:0:0:
148,131,89677,1,8,0:0:0:0:
148,131,89742,1,0,0:0:0:0:
144,169,89872,1,8,0:0:0:0:
138,130,90003,1,0,0:0:0:0:
138,130,90264,1,8,0:0:0:0:
135,158,90329,1,8,0:0:0:0:
138,130,90394,1,0,0:0:0:0:
130,205,90524,1,0,0:0:0:0:
137,130,90655,1,8,0:0:0:0:
151,206,90720,1,8,0:0:0:0:
138,130,90785,1,0,0:0:0:0:
130,130,90916,1,0,0:0:0:0:
130,130,91046,1,8,0:0:0:0:
130,130,91177,1,8,0:0:0:0:
130,130,91242,1,8,0:0:0:0:
130,130,91372,1,8,0:0:0:0:
130,130,91438,1,8,0:0:0:0:
129,130,91568,5,0,0:0:0:0:
147,115,91829,1,8,0:0:0:0:
147,115,91959,1,0,0:0:0:0:
147,115,92090,1,8,0:0:0:0:
147,115,92220,1,8,0:0:0:0:
173,71,92351,1,0,0:0:0:0:
162,110,92611,1,8,0:0:0:0:
161,109,92742,1,0,0:0:0:0:
169,78,92807,1,0,0:0:0:0:
168,92,92872,1,8,0:0:0:0:
169,78,93003,1,0,0:0:0:0:
164,93,93133,5,8,0:0:0:0:
161,93,93394,1,8,0:0:0:0:
161,93,93524,1,0,0:0:0:0:
161,93,93655,1,8,0:0:0:0:
155,92,93785,1,8,0:0:0:0:
155,92,93916,1,0,0:0:0:0:
155,92,93981,1,0,0:0:0:0:
155,92,94046,1,0,0:0:0:0:
155,92,94177,1,8,0:0:0:0:
151,90,94307,1,8,0:0:0:0:
151,90,94372,1,8,0:0:0:0:
151,90,94503,1,8,0:0:0:0:
151,90,94568,1,8,0:0:0:0:
155,92,94698,5,4,0:0:0:0:
177,177,94958,1,8,0:0:0:0:
171,192,95045,1,8,0:0:0:0:
171,192,95132,1,8,0:0:0:0:
177,177,95219,1,8,0:0:0:0:
175,169,95480,1,0,0:0:0:0:
175,169,95611,1,0,0:0:0:0:
175,169,95741,1,8,0:0:0:0:
175,169,95871,1,8,0:0:0:0:
164,164,96002,5,0,0:0:0:0:
162,154,96263,1,8,0:0:0:0:
162,154,96350,1,8,0:0:0:0:
162,154,96437,1,8,0:0:0:0:
162,154,96524,1,0,0:0:0:0:
153,152,96654,1,8,0:0:0:0:
189,164,96784,1,0,0:0:0:0:
168,156,97045,1,0,0:0:0:0:
168,156,97176,1,8,0:0:0:0:
168,156,97306,5,0,0:0:0:0:
168,156,97437,1,8,0:0:0:0:
184,198,97567,1,8,0:0:0:0:
209,165,97698,1,0,0:0:0:0:
182,172,97828,1,0,0:0:0:0:
173,179,97958,1,8,0:0:0:0:
173,179,98089,1,0,0:0:0:0:
193,124,98219,1,0,0:0:0:0:
171,178,98350,1,8,0:0:0:0:
182,172,98480,1,8,0:0:0:0:
171,178,98611,5,0,0:0:0:0:
146,154,98871,1,8,0:0:0:0:
169,147,99002,1,8,0:0:0:0:
147,168,99132,1,0,0:0:0:0:
181,157,99393,1,8,0:0:0:0:
181,157,99480,1,8,0:0:0:0:
181,157,99567,1,8,0:0:0:0:
181,157,99654,1,0,0:0:0:0:
216,108,99784,1,0,0:0:0:0:
180,142,99915,5,12,0:0:0:0:
180,120,100176,1,8,0:0:0:0:
204,116,100263,1,8,0:0:0:0:
204,118,100350,1,8,0:0:0:0:
180,120,100437,1,8,0:0:0:0:
177,124,100698,1,0,0:0:0:0:
177,124,100828,1,0,0:0:0:0:
180,120,100958,1,8,0:0:0:0:
180,120,101089,1,0,0:0:0:0:
174,119,101219,5,8,0:0:0:0:
194,106,101480,1,8,0:0:0:0:
194,106,101545,1,8,0:0:0:0:
194,106,101611,1,8,0:0:0:0:
194,106,101741,1,0,0:0:0:0:
184,101,101871,1,0,0:0:0:0:
177,99,102002,1,8,0:0:0:0:
174,98,102263,1,8,0:0:0:0:
173,98,102524,5,0,0:0:0:0:
173,98,102784,1,8,0:0:0:0:
187,127,102958,1,8,0:0:0:0:
181,106,103045,1,0,0:0:0:0:
178,105,103306,1,0,0:0:0:0:
208,90,103480,1,0,0:0:0:0:
208,90,103567,1,8,0:0:0:0:
219,123,103828,5,0,0:0:0:0:
228,115,104089,1,8,0:0:0:0:
228,115,104350,1,8,0:0:0:0:
218,106,104611,1,0,0:0:0:0:
225,101,104697,1,0,0:0:0:0:
225,101,104784,1,0,0:0:0:0:
225,101,104871,1,8,0:0:0:0:
249,125,105045,1,0,0:0:0:0:
217,102,105132,5,8,0:0:0:0:
209,84,105524,1,8,0:0:0:0:
204,81,105654,1,8,0:0:0:0:
204,81,105784,1,0,0:0:0:0:
204,81,105915,1,8,0:0:0:0:
191,70,106176,1,8,0:0:0:0:
191,70,106437,1,0,0:0:0:0:
176,70,106697,1,0,0:0:0:0:
169,68,106958,1,8,0:0:0:0:
169,68,107219,1,8,0:0:0:0:
184,111,107741,1,8,0:0:0:0:
195,105,108132,1,8,0:0:0:0:
195,105,108263,1,0,0:0:0:0:
195,105,108393,1,0,0:0:0:0:
211,88,108524,1,8,0:0:0:0:
249,132,108784,1,8,0:0:0:0:
240,127,109045,1,0,0:0:0:0:
205,110,109567,1,0,0:0:0:0:
205,110,109697,1,0,0:0:0:0:
205,110,109828,1,12,0:0:0:0:
182,95,110002,1,0,0:0:0:0:
213,133,110089,1,0,0:0:0:0:
213,133,110176,1,0,0:0:0:0:
206,129,110350,1,12,0:0:0:0:
194,128,110611,1,0,0:0:0:0:
196,128,110741,1,8,0:0:0:0:
194,128,110871,1,0,0:0:0:0:
207,127,110937,1,0,0:0:0:0:
194,128,111002,1,0,0:0:0:0:
194,128,111132,1,8,0:0:0:0:
207,130,111393,1,8,0:0:0:0:
194,128,111524,1,8,0:0:0:0:
196,128,111654,1,0,0:0:0:0:
200,121,111915,1,8,0:0:0:0:
204,121,112045,1,0,0:0:0:0:
204,121,112111,1,0,0:0:0:0:
204,121,112176,1,8,0:0:0:0:
211,134,112437,1,8,0:0:0:0:
210,134,112697,1,0,0:0:0:0:
210,134,112828,1,8,0:0:0:0:
209,134,112958,1,8,0:0:0:0:
202,131,113218,1,0,0:0:0:0:
202,131,113349,1,8,0:0:0:0:
202,131,113610,1,8,0:0:0:0:
202,131,113740,1,0,0:0:0:0:
183,121,114001,1,0,0:0:0:0:
183,121,114131,1,8,0:0:0:0:
183,121,114262,1,8,0:0:0:0:
183,121,114392,1,0,0:0:0:0:
198,126,114523,1,12,0:0:0:0:
198,126,114914,1,0,0:0:0:0:
184,105,115044,1,0,0:0:0:0:
181,114,115305,1,8,0:0:0:0:
181,114,115436,1,8,0:0:0:0:
184,105,115501,1,8,0:0:0:0:
181,114,115566,1,0,0:0:0:0:
189,108,115697,1,0,0:0:0:0:
174,136,115762,1,0,0:0:0:0:
166,119,115827,1,0,0:0:0:0:
166,119,115958,1,0,0:0:0:0:
166,119,116088,1,12,0:0:0:0:
254,198,122348,5,4,0:0:0:0:
267,185,122479,1,0,0:0:0:0:
236,177,122740,1,8,0:0:0:0:
236,177,122870,1,0,0:0:0:0:
236,177,122935,1,0,0:0:0:0:
236,177,123001,1,0,0:0:0:0:
242,165,123131,1,8,0:0:0:0:
247,171,123392,1,0,0:0:0:0:
236,164,123522,1,8,0:0:0:0:
217,165,123653,1,0,0:0:0:0:
217,165,123783,1,0,0:0:0:0:
217,165,123914,1,8,0:0:0:0:
217,165,124174,1,8,0:0:0:0:
217,165,124305,1,0,0:0:0:0:
214,165,124435,1,8,0:0:0:0:
217,165,124566,1,8,0:0:0:0:
217,165,124696,1,0,0:0:0:0:
217,165,124827,1,8,0:0:0:0:
217,165,124957,1,8,0:0:0:0:
225,145,125087,1,0,0:0:0:0:
223,146,125218,1,8,0:0:0:0:
223,146,125479,1,0,0:0:0:0:
216,149,125609,1,8,0:0:0:0:
214,149,125674,1,8,0:0:0:0:
214,149,125740,1,8,0:0:0:0:
212,149,125870,1,0,0:0:0:0:
212,149,126001,1,8,0:0:0:0:
209,148,126261,1,0,0:0:0:0:
207,148,126392,1,8,0:0:0:0:
207,148,126457,1,8,0:0:0:0:
216,149,126522,1,0,0:0:0:0:
214,149,126653,1,0,0:0:0:0:
212,149,126783,1,8,0:0:0:0:
205,161,127044,1,0,0:0:0:0:
204,139,127174,1,8,0:0:0:0:
204,139,127305,1,8,0:0:0:0:
204,139,127435,1,0,0:0:0:0:
195,105,127566,1,8,0:0:0:0:
195,105,127827,1,0,0:0:0:0:
195,105,127957,1,8,0:0:0:0:
195,105,128022,1,8,0:0:0:0:
195,105,128087,1,8,0:0:0:0:
187,106,128218,1,0,0:0:0:0:
214,146,128348,1,8,0:0:0:0:
214,146,128414,1,8,0:0:0:0:
214,146,128479,1,0,0:0:0:0:
214,146,128609,1,8,0:0:0:0:
193,241,129001,1,0,0:0:0:0:
193,241,129131,1,8,0:0:0:0:
193,241,129392,1,0,0:0:0:0:
193,241,129783,1,8,0:0:0:0:
193,241,129914,1,8,0:0:0:0:
283,212,130174,1,4,0:0:0:0:
236,239,130305,1,8,0:0:0:0:
226,199,130370,1,8,0:0:0:0:
210,208,130435,1,0,0:0:0:0:
210,208,130566,1,0,0:0:0:0:
178,201,130696,1,8,0:0:0:0:
164,176,130957,1,0,0:0:0:0:
164,176,131087,1,8,0:0:0:0:
164,176,131153,1,8,0:0:0:0:
164,176,131218,1,0,0:0:0:0:
164,176,131348,1,0,0:0:0:0:
145,182,131414,1,8,0:0:0:0:
144,181,131479,1,0,0:0:0:0:
150,219,131609,1,8,0:0:0:0:
182,158,131740,1,0,0:0:0:0:
162,133,131870,1,8,0:0:0:0:
174,156,132001,1,0,0:0:0:0:
174,156,132066,1,0,0:0:0:0:
174,156,132131,1,0,0:0:0:0:
174,156,132261,1,8,0:0:0:0:
171,156,132522,1,0,0:0:0:0:
171,156,132653,1,8,0:0:0:0:
171,156,132783,1,8,0:0:0:0:
161,114,132914,1,0,0:0:0:0:
161,114,132979,1,0,0:0:0:0:
161,114,133044,1,8,0:0:0:0:
132,92,133174,1,8,0:0:0:0:
132,92,133305,1,0,0:0:0:0:
203,139,133566,1,8,0:0:0:0:
148,255,133631,1,8,0:0:0:0:
191,141,133696,1,0,0:0:0:0:
191,141,133827,1,8,0:0:0:0:
176,122,133957,1,8,0:0:0:0:
200,139,134087,1,0,0:0:0:0:
200,139,134218,1,8,0:0:0:0:
203,139,134348,1,0,0:0:0:0:
203,139,134414,1,0,0:0:0:0:
211,137,134544,1,8,0:0:0:0:
200,139,134609,1,8,0:0:0:0:
200,139,134740,1,8,0:0:0:0:
200,139,134870,1,4,0:0:0:0:
196,117,135131,1,8,0:0:0:0:
196,117,135261,1,0,0:0:0:0:
196,117,135327,1,0,0:0:0:0:
196,117,135392,1,8,0:0:0:0:
193,111,135653,1,8,0:0:0:0:
185,106,135783,1,8,0:0:0:0:
185,106,135914,1,0,0:0:0:0:
180,104,136044,1,8,0:0:0:0:
180,104,136109,1,8,0:0:0:0:
180,104,136174,1,0,0:0:0:0:
180,97,136305,1,8,0:0:0:0:
180,104,136435,1,0,0:0:0:0:
180,104,136566,1,8,0:0:0:0:
176,106,136631,1,8,0:0:0:0:
185,106,136696,1,8,0:0:0:0:
180,104,136827,1,0,0:0:0:0:
180,104,136957,1,8,0:0:0:0:
191,181,137087,1,8,0:0:0:0:
180,104,137218,1,0,0:0:0:0:
180,104,137348,1,0,0:0:0:0:
184,105,137414,1,0,0:0:0:0:
185,106,137479,1,8,0:0:0:0:
172,104,137609,1,0,0:0:0:0:
168,93,137740,1,8,0:0:0:0:
122,128,137805,1,8,0:0:0:0:
164,87,137870,1,8,0:0:0:0:
160,85,138001,1,4,0:0:0:0:
171,94,138261,1,8,0:0:0:0:
168,93,138348,1,8,0:0:0:0:
168,93,138435,1,8,0:0:0:0:
168,93,138522,1,0,0:0:0:0:
192,96,138783,1,4,0:0:0:0:
182,112,139044,1,8,0:0:0:0:
182,112,139174,1,0,0:0:0:0:
182,112,139305,1,8,0:0:0:0:
182,112,139435,1,8,0:0:0:0:
182,112,139566,1,4,0:0:0:0:
182,112,139827,1,8,0:0:0:0:
182,112,139892,1,8,0:0:0:0:
182,112,139957,1,0,0:0:0:0:
182,112,140087,1,8,0:0:0:0:
182,112,140218,1,0,0:0:0:0:
182,112,140348,1,8,0:0:0:0:
182,112,140414,1,8,0:0:0:0:
182,112,140479,1,0,0:0:0:0:
182,112,140609,1,8,0:0:0:0:
182,112,140740,1,0,0:0:0:0:
182,112,140805,1,0,0:0:0:0:
182,112,140870,1,8,0:0:0:0:
182,112,141001,1,8,0:0:0:0:
182,112,141131,5,4,0:0:0:0:
173,103,141653,1,0,0:0:0:0:
174,97,141914,1,8,0:0:0:0:
170,87,142696,1,0,0:0:0:0:
170,87,142957,1,0,0:0:0:0:
168,86,143218,1,8,0:0:0:0:
170,87,143479,1,8,0:0:0:0:
204,188,143870,1,0,0:0:0:0:
170,87,144261,1,0,0:0:0:0:
170,87,144783,1,8,0:0:0:0:
170,87,145044,1,8,0:0:0:0:
170,87,145566,1,8,0:0:0:0:
170,87,145827,1,0,0:0:0:0:
170,87,146087,1,8,0:0:0:0:
170,87,146348,1,8,0:0:0:0:
170,87,146609,1,0,0:0:0:0:
170,87,146870,1,8,0:0:0:0:
194,83,147131,1,8,0:0:0:0:
194,83,147392,1,0,0:0:0:0:
194,83,147914,1,0,0:0:0:0:
194,83,148174,1,8,0:0:0:0:
184,85,148957,1,0,0:0:0:0:
184,85,149218,1,0,0:0:0:0:
184,85,149479,1,8,0:0:0:0:
191,110,149609,1,8,0:0:0:0:
184,85,149740,1,8,0:0:0:0:
187,80,150001,1,0,0:0:0:0:
187,80,150131,1,8,0:0:0:0:
187,80,150522,1,0,0:0:0:0:
187,80,150783,1,0,0:0:0:0:
187,80,151044,1,8,0:0:0:0:
187,80,151305,1,0,0:0:0:0:
187,80,151566,1,0,0:0:0:0:
187,80,151827,1,8,0:0:0:0:
187,80,152087,1,0,0:0:0:0:
187,80,152348,1,8,0:0:0:0:
187,80,152609,1,0,0:0:0:0:
187,80,152740,1,0,0:0:0:0:
187,80,152870,1,8,0:0:0:0:
