osu file format v14

[General]
AudioFilename: audio.mp3
AudioLeadIn: 0
PreviewTime: 116067
Countdown: 0
SampleSet: Normal
StackLeniency: 1
Mode: 1
LetterboxInBreaks: 0
WidescreenStoryboard: 0

[Editor]
Bookmarks: 780,13302,19568,44606,54003,57133,82171,94693,105127,116083,128604,130174,141126,152865
DistanceSpacing: 2.2
BeatDivisor: 4
GridSize: 32
TimelineZoom: 2.849999

[Metadata]
Title:Atropos and Seeker of the End.
TitleUnicode:アトロポスと最果の探究者
Artist:CK
ArtistUnicode:しーけー
Creator:Rycy
Version:Destiny
Source:G2R2018 Climax -GO BACK 2 YOUR ROOTS 2018 climax-
Tags:C5H10 tzechi instrumental electronic waltz storia ストーリア Atropos to saihate no tankyuusha shiike せゆーら seura nue se-u-ra yoshimo sega maimai でらっくす deluxe PLUS dx+ noxy games lanota video game videogame ultimate bms of fighters bof bofu2018
BeatmapID:4425406
BeatmapSetID:2108601

[Difficulty]
HPDrainRate:6
CircleSize:5
OverallDifficulty:7
ApproachRate:10
SliderMultiplier:1.4
SliderTickRate:1

[Events]
//Background and Video events
0,0,"atropos5.jpg",0,0
//Break Periods
2,116288,121898
//Storyboard Layer 0 (Background)
//Storyboard Layer 1 (Fail)
//Storyboard Layer 2 (Pass)
//Storyboard Layer 3 (Foreground)
//Storyboard Layer 4 (Overlay)
//Storyboard Sound Samples

[TimingPoints]
-5475,260.869565217391,6,1,0,90,1,0
785,-105.263157894737,6,1,0,90,0,0
13372,-106.382978723404,6,1,0,75,0,0
14611,-107.52688172043,6,1,0,75,0,0
14872,-108.695652173913,6,1,0,75,0,0
16177,-109.89010989011,6,1,0,75,0,0
16438,-111.111111111111,6,1,0,75,0,0
19563,-111.111111111111,6,1,0,80,0,0
32085,-108.108108108108,6,1,0,85,0,0
50938,-111.111111111111,6,1,0,75,0,0
53998,-110.611614802668,4,1,0,85,0,0
54133,-110.114363963284,4,1,0,85,0,0
54394,-109.619348498528,4,1,0,85,0,0
54655,-109.126558359347,4,1,0,85,0,0
54916,-108.635983541864,4,1,0,85,0,0
55046,-108.147614087175,4,1,0,85,0,0
55307,-107.661440081144,4,1,0,85,0,0
55568,-107.177451654204,4,1,0,85,0,0
55698,-106.695638981157,4,1,0,85,0,0
55959,-106.215992280974,4,1,0,85,0,0
56220,-105.738501816596,4,1,0,85,0,0
56351,-104.712041884817,4,1,0,85,0,0
56481,-105.263157894737,4,1,0,85,0,0
56611,-106.382978723404,4,1,0,85,0,0
56742,-107.52688172043,4,1,0,85,0,0
56872,-108.695652173913,4,1,0,85,0,0
57003,-109.89010989011,4,1,0,85,0,0
57128,-111.111111111111,6,1,0,90,0,0
63394,-105.263157894737,6,1,0,90,0,0
68089,-105.038427540031,4,1,0,90,0,0
68154,-104.814176970783,4,1,0,90,0,0
68220,-104.590405162679,4,1,0,90,0,0
68285,-104.367111093595,4,1,0,90,0,0
68350,-104.144293743586,4,1,0,90,0,0
68415,-103.921952094888,4,1,0,90,0,0
68481,-103.700085131906,4,1,0,90,0,0
68546,-103.478691841217,4,1,0,90,0,0
68611,-103.257771211558,4,1,0,90,0,0
68676,-103.037322233829,4,1,0,90,0,0
68741,-102.817343901081,4,1,0,90,0,0
68807,-102.597835208515,4,1,0,90,0,0
68872,-102.37879515348,4,1,0,90,0,0
68937,-102.160222735463,4,1,0,90,0,0
69002,-101.942116956088,4,1,0,90,0,0
69067,-101.72447681911,4,1,0,90,0,0
69133,-101.507301330411,4,1,0,90,0,0
69198,-101.290589497996,4,1,0,90,0,0
69263,-101.074340331987,4,1,0,90,0,0
69328,-100.85855284462,4,1,0,90,0,0
69394,-100.643226050239,4,1,0,90,0,0
69459,-100.428358965294,4,1,0,90,0,0
69524,-100.213950608333,4,1,0,90,0,0
69589,-99.9999999999998,4,1,0,90,0,0
69650,-100,6,1,0,100,0,0
69655,-100,6,1,0,100,0,1
82172,-101.010101010101,6,1,0,90,0,1
82177,-101.010101010101,6,1,0,90,0,0
82307,-102.040816326531,6,1,0,90,0,0
82438,-103.092783505155,6,1,0,90,0,0
82568,-104.166666666667,6,1,0,90,0,0
82698,-105.263157894737,6,1,0,90,0,0
94698,260.869565217391,5,1,0,90,1,0
94698,-105.263157894737,5,1,0,90,0,0
104611,-106.079346834671,4,1,0,90,0,0
104696,-106.901864336268,4,1,0,90,0,0
104783,-107.730759469899,4,1,0,90,0,0
104870,-108.566081686414,4,1,0,90,0,0
104957,-109.407880820096,4,1,0,90,0,0
105044,-110.256207091632,4,1,0,90,0,0
105127,-111.111111111111,5,1,0,80,0,0
105132,-111.111111111111,5,1,0,80,0,0
112958,260.869565217391,6,1,0,80,1,0
112958,-111.111111111111,6,1,0,80,0,0
116083,-111.111111111111,6,1,0,75,0,0
116088,260.869565217391,6,1,0,75,1,0
116088,-111.111111111111,6,1,0,75,0,0
122343,-108.108108108108,6,1,0,85,0,0
125476,-107.94920095883,4,1,0,85,0,0
125541,-107.790527385762,4,1,0,85,0,0
125607,-107.632087045572,4,1,0,85,0,0
125672,-107.473879595432,4,1,0,85,0,0
125737,-107.31590469302,4,1,0,85,0,0
125802,-107.158161996516,4,1,0,85,0,0
125868,-107.000651164602,4,1,0,85,0,0
125933,-106.843371856464,4,1,0,85,0,0
125998,-106.686323731785,4,1,0,85,0,0
126063,-106.529506450752,4,1,0,85,0,0
126128,-106.37291967405,4,1,0,85,0,0
126194,-106.216563062862,4,1,0,85,0,0
126259,-106.06043627887,4,1,0,85,0,0
126324,-105.904538984253,4,1,0,85,0,0
126389,-105.748870841686,4,1,0,85,0,0
126454,-105.593431514342,4,1,0,85,0,0
126520,-105.438220665886,4,1,0,85,0,0
126585,-105.28323796048,4,1,0,85,0,0
126650,-105.128483062778,4,1,0,85,0,0
126715,-104.973955637928,4,1,0,85,0,0
126781,-104.819655351569,4,1,0,85,0,0
126846,-104.665581869832,4,1,0,85,0,0
126911,-104.51173485934,4,1,0,85,0,0
126976,-104.358113987204,4,1,0,85,0,0
127041,-104.204718921025,4,1,0,85,0,0
127107,-104.051549328894,4,1,0,85,0,0
127172,-103.898604879387,4,1,0,85,0,0
127237,-103.74588524157,4,1,0,85,0,0
127302,-103.593390084995,4,1,0,85,0,0
127368,-103.441119079698,4,1,0,85,0,0
127433,-103.2890718962,4,1,0,85,0,0
127498,-103.13724820551,4,1,0,85,0,0
127563,-102.985647679116,4,1,0,85,0,0
127628,-102.83426998899,4,1,0,85,0,0
127694,-102.683114807589,4,1,0,85,0,0
127759,-102.532181807849,4,1,0,85,0,0
127824,-102.381470663186,4,1,0,85,0,0
127889,-102.230981047498,4,1,0,85,0,0
127954,-102.080712635162,4,1,0,85,0,0
128020,-101.930665101032,4,1,0,85,0,0
128085,-101.780838120441,4,1,0,85,0,0
128150,-101.631231369201,4,1,0,85,0,0
128215,-101.481844523597,4,1,0,85,0,0
128281,-101.332677260393,4,1,0,85,0,0
128346,-101.183729256825,4,1,0,85,0,0
128411,-101.035000190608,4,1,0,85,0,0
128476,-100.886489739925,4,1,0,85,0,0
128541,-100.738197583437,4,1,0,85,0,0
128607,-100.590123400275,4,1,0,85,0,0
128674,-100,6,1,0,75,0,0
129131,-111.111111111111,6,1,0,75,0,0
130169,-100,6,1,0,100,0,0
130174,-100,6,1,0,100,0,1
141126,-100,6,1,0,75,0,1
141131,-100,6,1,0,75,0,0
141196,-111.111111111111,6,1,0,75,0,0

[HitObjects]
320,192,785,5,12,0:0:0:0:
256,192,916,1,0,0:0:0:0:
256,192,1046,1,0,0:0:0:0:
256,192,1177,1,8,0:0:0:0:
256,192,1438,1,8,0:0:0:0:
256,192,1568,1,0,0:0:0:0:
256,192,1698,1,8,0:0:0:0:
256,192,1829,1,0,0:0:0:0:
256,192,1959,1,8,0:0:0:0:
256,192,2024,1,0,0:0:0:0:
256,192,2090,1,8,0:0:0:0:
256,192,2220,1,0,0:0:0:0:
256,192,2351,5,8,0:0:0:0:
256,192,2611,1,0,0:0:0:0:
256,192,2677,1,8,0:0:0:0:
256,192,2742,1,8,0:0:0:0:
256,192,3003,1,8,0:0:0:0:
256,192,3133,1,0,0:0:0:0:
256,192,3394,1,0,0:0:0:0:
256,192,3459,1,0,0:0:0:0:
256,192,3524,1,8,0:0:0:0:
256,192,3655,1,8,0:0:0:0:
256,192,3720,1,0,0:0:0:0:
256,192,3785,1,8,0:0:0:0:
256,192,3916,5,0,0:0:0:0:
256,192,4177,1,8,0:0:0:0:
256,192,4307,1,0,0:0:0:0:
256,192,4372,1,0,0:0:0:0:
256,192,4438,1,8,0:0:0:0:
256,192,4698,1,0,0:0:0:0:
256,192,4959,1,8,0:0:0:0:
256,192,5090,1,8,0:0:0:0:
256,192,5220,1,0,0:0:0:0:
256,192,5351,1,0,0:0:0:0:
256,192,5481,5,8,0:0:0:0:
256,192,5742,1,0,0:0:0:0:
256,192,5872,1,8,0:0:0:0:
256,192,5938,1,0,0:0:0:0:
256,192,6003,1,8,0:0:0:0:
256,192,6133,1,8,0:0:0:0:
256,192,6264,1,0,0:0:0:0:
256,192,6394,1,8,0:0:0:0:
256,192,6524,1,0,0:0:0:0:
256,192,6655,1,8,0:0:0:0:
256,192,6785,1,0,0:0:0:0:
320,192,7046,5,12,0:0:0:0:
256,192,7307,1,0,0:0:0:0:
256,192,7438,1,8,0:0:0:0:
256,192,7503,1,8,0:0:0:0:
256,192,7568,1,8,0:0:0:0:
256,192,7698,1,8,0:0:0:0:
256,192,7829,1,0,0:0:0:0:
256,192,8090,1,0,0:0:0:0:
256,192,8220,1,8,0:0:0:0:
256,192,8285,1,0,0:0:0:0:
256,192,8351,1,8,0:0:0:0:
256,192,8481,1,0,0:0:0:0:
256,192,8611,5,8,0:0:0:0:
256,192,8872,1,8,0:0:0:0:
256,192,8938,1,8,0:0:0:0:
256,192,9003,1,0,0:0:0:0:
256,192,9133,1,0,0:0:0:0:
256,192,9198,1,0,0:0:0:0:
256,192,9264,1,8,0:0:0:0:
256,192,9329,1,8,0:0:0:0:
256,192,9394,1,0,0:0:0:0:
256,192,9655,1,8,0:0:0:0:
256,192,9720,1,0,0:0:0:0:
256,192,9785,1,8,0:0:0:0:
256,192,9851,1,8,0:0:0:0:
256,192,9916,1,0,0:0:0:0:
256,192,10046,1,8,0:0:0:0:
256,192,10177,5,0,0:0:0:0:
256,192,10438,1,8,0:0:0:0:
256,192,10568,1,8,0:0:0:0:
256,192,10633,1,8,0:0:0:0:
256,192,10698,1,0,0:0:0:0:
256,192,10829,1,0,0:0:0:0:
256,192,10959,1,8,0:0:0:0:
256,192,11090,1,0,0:0:0:0:
256,192,11220,1,8,0:0:0:0:
256,192,11351,1,0,0:0:0:0:
256,192,11416,1,8,0:0:0:0:
256,192,11481,1,0,0:0:0:0:
256,192,11611,1,0,0:0:0:0:
256,192,11742,5,8,0:0:0:0:
256,192,12003,1,0,0:0:0:0:
256,192,12133,1,8,0:0:0:0:
256,192,12198,1,8,0:0:0:0:
256,192,12264,1,8,0:0:0:0:
256,192,12394,1,8,0:0:0:0:
256,192,12524,1,0,0:0:0:0:
256,192,12655,1,8,0:0:0:0:
256,192,12720,1,8,0:0:0:0:
256,192,12785,1,0,0:0:0:0:
256,192,12916,1,8,0:0:0:0:
256,192,12981,1,8,0:0:0:0:
256,192,13046,1,0,0:0:0:0:
256,192,13111,1,0,0:0:0:0:
256,192,13177,1,8,0:0:0:0:
320,192,13307,5,4,0:0:0:0:
256,192,13568,1,8,0:0:0:0:
256,192,14611,1,0,0:0:0:0:
256,192,14872,1,8,0:0:0:0:
256,192,16177,1,8,0:0:0:0:
256,192,16438,1,0,0:0:0:0:
256,192,18003,1,0,0:0:0:0:
256,192,18133,12,0,19438,0:0:0:0:
256,192,19568,5,0,0:0:0:0:
256,192,20090,1,0,0:0:0:0:
256,192,20220,1,8,0:0:0:0:
256,192,20351,1,0,0:0:0:0:
256,192,20872,1,8,0:0:0:0:
256,192,21133,1,0,0:0:0:0:
256,192,21524,1,8,0:0:0:0:
256,192,21916,1,0,0:0:0:0:
256,192,22438,1,0,0:0:0:0:
256,192,22568,1,8,0:0:0:0:
256,192,22698,5,0,0:0:0:0:
256,192,23220,1,8,0:0:0:0:
256,192,23481,1,0,0:0:0:0:
256,192,23872,1,0,0:0:0:0:
256,192,24133,1,8,0:0:0:0:
256,192,24264,1,0,0:0:0:0:
256,192,25568,1,0,0:0:0:0:
256,192,25698,1,8,0:0:0:0:
256,192,25829,5,0,0:0:0:0:
256,192,26351,1,8,0:0:0:0:
256,192,26611,1,0,0:0:0:0:
256,192,26872,1,8,0:0:0:0:
256,192,27133,1,0,0:0:0:0:
256,192,27394,1,8,0:0:0:0:
256,192,27655,1,8,0:0:0:0:
256,192,27916,1,0,0:0:0:0:
256,192,28177,1,8,0:0:0:0:
256,192,28698,1,8,0:0:0:0:
256,192,28959,5,0,0:0:0:0:
256,192,29481,1,8,0:0:0:0:
256,192,29742,1,0,0:0:0:0:
256,192,30003,1,0,0:0:0:0:
256,192,30264,1,8,0:0:0:0:
256,192,30394,1,0,0:0:0:0:
256,192,30524,1,8,0:0:0:0:
256,192,31307,1,0,0:0:0:0:
320,192,32090,5,4,0:0:0:0:
256,192,32481,1,0,0:0:0:0:
256,192,32611,1,0,0:0:0:0:
256,192,32742,1,8,0:0:0:0:
256,192,32872,1,8,0:0:0:0:
256,192,33394,1,8,0:0:0:0:
256,192,33655,5,0,0:0:0:0:
256,192,34046,1,8,0:0:0:0:
256,192,34177,1,8,0:0:0:0:
256,192,34307,1,8,0:0:0:0:
256,192,34438,1,0,0:0:0:0:
256,192,34698,1,8,0:0:0:0:
256,192,34829,1,8,0:0:0:0:
256,192,34959,1,0,0:0:0:0:
256,192,35090,1,0,0:0:0:0:
256,192,35220,5,8,0:0:0:0:
256,192,35742,1,8,0:0:0:0:
256,192,36003,1,0,0:0:0:0:
256,192,36394,1,0,0:0:0:0:
256,192,36524,1,0,0:0:0:0:
256,192,36655,1,0,0:0:0:0:
256,192,36785,5,8,0:0:0:0:
256,192,37046,1,0,0:0:0:0:
256,192,37177,1,8,0:0:0:0:
256,192,37307,1,0,0:0:0:0:
256,192,37438,1,0,0:0:0:0:
256,192,37568,1,8,0:0:0:0:
256,192,37698,1,8,0:0:0:0:
256,192,37959,1,8,0:0:0:0:
256,192,38024,1,8,0:0:0:0:
256,192,38090,1,0,0:0:0:0:
256,192,38220,1,0,0:0:0:0:
320,192,38351,5,12,0:0:0:0:
256,192,38481,1,8,0:0:0:0:
256,192,38742,1,0,0:0:0:0:
256,192,38872,1,8,0:0:0:0:
256,192,39003,1,8,0:0:0:0:
256,192,39133,1,0,0:0:0:0:
256,192,39524,1,0,0:0:0:0:
256,192,39655,1,0,0:0:0:0:
256,192,39785,1,0,0:0:0:0:
256,192,39916,5,8,0:0:0:0:
256,192,40307,1,0,0:0:0:0:
256,192,40438,1,8,0:0:0:0:
256,192,40568,1,8,0:0:0:0:
256,192,40698,1,0,0:0:0:0:
256,192,40829,1,0,0:0:0:0:
256,192,41090,1,0,0:0:0:0:
256,192,41155,1,0,0:0:0:0:
256,192,41220,1,0,0:0:0:0:
256,192,41351,1,0,0:0:0:0:
320,192,41481,5,12,0:0:0:0:
256,192,41742,1,0,0:0:0:0:
256,192,42003,1,8,0:0:0:0:
256,192,42264,1,8,0:0:0:0:
256,192,42524,1,0,0:0:0:0:
256,192,42655,1,8,0:0:0:0:
256,192,42785,1,0,0:0:0:0:
256,192,42916,1,0,0:0:0:0:
256,192,43046,5,8,0:0:0:0:
256,192,43307,1,0,0:0:0:0:
256,192,43372,1,8,0:0:0:0:
256,192,43438,1,0,0:0:0:0:
256,192,43503,1,0,0:0:0:0:
256,192,43568,1,8,0:0:0:0:
256,192,43633,1,8,0:0:0:0:
256,192,43698,1,0,0:0:0:0:
256,192,43764,1,0,0:0:0:0:
256,192,43829,1,8,0:0:0:0:
256,192,43959,1,8,0:0:0:0:
256,192,44090,1,0,0:0:0:0:
256,192,44220,1,8,0:0:0:0:
256,192,44481,1,0,0:0:0:0:
320,192,44611,5,12,0:0:0:0:
256,192,44872,1,0,0:0:0:0:
256,192,45003,1,8,0:0:0:0:
256,192,45133,1,0,0:0:0:0:
256,192,45264,1,0,0:0:0:0:
256,192,45394,1,8,0:0:0:0:
256,192,45655,1,8,0:0:0:0:
256,192,45785,1,0,0:0:0:0:
256,192,45916,1,8,0:0:0:0:
256,192,46046,1,8,0:0:0:0:
256,192,46111,1,0,0:0:0:0:
256,192,46177,5,8,0:0:0:0:
256,192,46438,1,8,0:0:0:0:
256,192,46568,1,0,0:0:0:0:
256,192,46633,1,0,0:0:0:0:
256,192,46698,1,8,0:0:0:0:
256,192,46829,1,8,0:0:0:0:
256,192,46959,1,0,0:0:0:0:
256,192,47090,1,0,0:0:0:0:
256,192,47155,1,0,0:0:0:0:
256,192,47220,1,0,0:0:0:0:
256,192,47351,1,8,0:0:0:0:
256,192,47416,1,8,0:0:0:0:
256,192,47481,1,8,0:0:0:0:
256,192,47546,1,8,0:0:0:0:
256,192,47611,1,0,0:0:0:0:
256,192,47677,1,0,0:0:0:0:
256,192,47742,5,8,0:0:0:0:
256,192,47872,1,0,0:0:0:0:
256,192,48133,1,0,0:0:0:0:
256,192,48264,1,8,0:0:0:0:
256,192,48394,1,8,0:0:0:0:
256,192,48459,1,0,0:0:0:0:
256,192,48524,1,8,0:0:0:0:
256,192,48655,1,8,0:0:0:0:
256,192,48785,1,0,0:0:0:0:
256,192,48916,1,0,0:0:0:0:
256,192,49046,1,8,0:0:0:0:
256,192,49177,1,0,0:0:0:0:
256,192,49307,5,8,0:0:0:0:
256,192,49568,1,0,0:0:0:0:
256,192,49698,1,8,0:0:0:0:
256,192,49764,1,8,0:0:0:0:
256,192,49829,1,0,0:0:0:0:
256,192,49959,1,0,0:0:0:0:
256,192,50024,1,8,0:0:0:0:
256,192,50090,1,0,0:0:0:0:
256,192,50220,1,8,0:0:0:0:
256,192,50351,1,0,0:0:0:0:
256,192,50481,1,8,0:0:0:0:
256,192,50611,1,0,0:0:0:0:
256,192,50742,1,0,0:0:0:0:
320,192,50872,5,12,0:0:0:0:
256,192,52177,1,0,0:0:0:0:
256,192,52307,1,8,0:0:0:0:
256,192,52372,1,8,0:0:0:0:
256,192,52438,1,8,0:0:0:0:
256,192,53742,1,8,0:0:0:0:
256,192,53872,1,8,0:0:0:0:
320,192,54003,5,4,0:0:0:0:
320,192,54133,1,4,0:0:0:0:
320,192,54394,1,4,0:0:0:0:
320,192,54655,1,4,0:0:0:0:
320,192,54916,1,4,0:0:0:0:
320,192,55046,1,12,0:0:0:0:
320,192,55307,1,12,0:0:0:0:
320,192,55568,5,4,0:0:0:0:
320,192,55698,1,4,0:0:0:0:
320,192,55959,1,4,0:0:0:0:
320,192,56220,1,4,0:0:0:0:
256,192,56351,1,8,0:0:0:0:
256,192,56481,1,0,0:0:0:0:
256,192,56611,1,8,0:0:0:0:
256,192,56742,1,0,0:0:0:0:
256,192,56872,1,8,0:0:0:0:
256,192,57003,1,0,0:0:0:0:
320,192,57133,5,4,0:0:0:0:
256,192,57655,1,0,0:0:0:0:
256,192,57916,1,8,0:0:0:0:
256,192,58438,1,8,0:0:0:0:
256,192,58698,1,8,0:0:0:0:
256,192,58959,1,0,0:0:0:0:
256,192,59220,1,8,0:0:0:0:
256,192,59481,1,0,0:0:0:0:
256,192,60003,1,0,0:0:0:0:
256,192,60133,1,8,0:0:0:0:
256,192,60264,5,0,0:0:0:0:
256,192,60785,1,8,0:0:0:0:
256,192,61046,1,0,0:0:0:0:
256,192,61568,1,0,0:0:0:0:
256,192,61829,1,8,0:0:0:0:
256,192,62090,1,0,0:0:0:0:
256,192,62220,1,0,0:0:0:0:
256,192,62351,1,8,0:0:0:0:
256,192,62611,1,0,0:0:0:0:
320,192,63394,5,4,0:0:0:0:
256,192,63916,1,0,0:0:0:0:
256,192,64177,1,8,0:0:0:0:
256,192,64698,1,0,0:0:0:0:
256,192,64959,1,8,0:0:0:0:
256,192,65220,1,0,0:0:0:0:
256,192,65481,1,8,0:0:0:0:
256,192,65742,1,8,0:0:0:0:
256,192,66264,1,8,0:0:0:0:
256,192,66524,5,0,0:0:0:0:
256,192,66785,1,0,0:0:0:0:
256,192,67046,1,8,0:0:0:0:
256,192,67307,1,8,0:0:0:0:
256,192,67568,1,8,0:0:0:0:
256,192,67829,1,0,0:0:0:0:
256,192,68090,5,8,0:0:0:0:
256,192,68220,1,8,0:0:0:0:
256,192,68351,1,0,0:0:0:0:
256,192,68481,1,8,0:0:0:0:
256,192,68611,1,0,0:0:0:0:
256,192,68742,1,8,0:0:0:0:
256,192,68872,1,0,0:0:0:0:
256,192,69003,1,8,0:0:0:0:
256,192,69068,1,8,0:0:0:0:
256,192,69133,1,0,0:0:0:0:
256,192,69198,1,8,0:0:0:0:
256,192,69264,1,0,0:0:0:0:
256,192,69394,1,8,0:0:0:0:
256,192,69459,1,8,0:0:0:0:
256,192,69524,1,8,0:0:0:0:
320,192,69655,5,4,0:0:0:0:
256,192,69785,1,8,0:0:0:0:
256,192,69916,1,0,0:0:0:0:
256,192,69981,1,0,0:0:0:0:
256,192,70046,1,8,0:0:0:0:
256,192,70111,1,8,0:0:0:0:
256,192,70177,1,0,0:0:0:0:
256,192,70307,1,0,0:0:0:0:
256,192,70438,1,8,0:0:0:0:
256,192,70503,1,0,0:0:0:0:
256,192,70568,1,8,0:0:0:0:
256,192,70633,1,8,0:0:0:0:
256,192,70698,1,0,0:0:0:0:
256,192,70764,1,0,0:0:0:0:
256,192,70829,1,8,0:0:0:0:
256,192,70959,1,0,0:0:0:0:
256,192,71090,1,8,0:0:0:0:
256,192,71220,5,8,0:0:0:0:
256,192,71285,1,8,0:0:0:0:
256,192,71351,1,0,0:0:0:0:
256,192,71416,1,8,0:0:0:0:
256,192,71481,1,0,0:0:0:0:
256,192,71611,1,0,0:0:0:0:
256,192,71742,1,8,0:0:0:0:
256,192,71807,1,0,0:0:0:0:
256,192,71872,1,8,0:0:0:0:
256,192,72003,1,8,0:0:0:0:
256,192,72068,1,8,0:0:0:0:
256,192,72133,1,0,0:0:0:0:
256,192,72264,1,0,0:0:0:0:
256,192,72394,1,0,0:0:0:0:
256,192,72459,1,8,0:0:0:0:
256,192,72524,1,0,0:0:0:0:
256,192,72655,1,8,0:0:0:0:
256,192,72785,5,0,0:0:0:0:
256,192,72851,1,8,0:0:0:0:
256,192,72916,1,8,0:0:0:0:
256,192,72981,1,8,0:0:0:0:
256,192,73046,1,0,0:0:0:0:
256,192,73177,1,0,0:0:0:0:
256,192,73307,1,8,0:0:0:0:
256,192,73372,1,8,0:0:0:0:
256,192,73438,1,0,0:0:0:0:
256,192,73568,1,0,0:0:0:0:
256,192,73633,1,0,0:0:0:0:
256,192,73698,1,8,0:0:0:0:
256,192,73829,1,0,0:0:0:0:
256,192,73959,1,8,0:0:0:0:
256,192,74090,1,0,0:0:0:0:
256,192,74155,1,0,0:0:0:0:
256,192,74220,1,8,0:0:0:0:
256,192,74351,5,8,0:0:0:0:
256,192,74416,1,8,0:0:0:0:
256,192,74481,1,0,0:0:0:0:
256,192,74611,1,8,0:0:0:0:
256,192,74677,1,8,0:0:0:0:
256,192,74742,1,8,0:0:0:0:
256,192,74807,1,8,0:0:0:0:
256,192,74872,1,0,0:0:0:0:
256,192,75003,1,8,0:0:0:0:
256,192,75133,1,0,0:0:0:0:
256,192,75198,1,0,0:0:0:0:
256,192,75264,1,8,0:0:0:0:
256,192,75329,1,8,0:0:0:0:
256,192,75394,1,0,0:0:0:0:
256,192,75459,1,0,0:0:0:0:
256,192,75524,1,8,0:0:0:0:
256,192,75655,1,0,0:0:0:0:
256,192,75785,1,8,0:0:0:0:
320,192,75916,5,4,0:0:0:0:
256,192,76046,1,8,0:0:0:0:
256,192,76177,1,0,0:0:0:0:
256,192,76242,1,8,0:0:0:0:
256,192,76307,1,0,0:0:0:0:
256,192,76372,1,0,0:0:0:0:
256,192,76438,1,8,0:0:0:0:
256,192,76568,1,0,0:0:0:0:
256,192,76698,1,8,0:0:0:0:
256,192,76764,1,8,0:0:0:0:
256,192,76829,1,8,0:0:0:0:
256,192,76894,1,8,0:0:0:0:
256,192,76959,1,0,0:0:0:0:
256,192,77024,1,0,0:0:0:0:
256,192,77090,1,8,0:0:0:0:
256,192,77220,1,8,0:0:0:0:
256,192,77351,1,0,0:0:0:0:
256,192,77481,5,8,0:0:0:0:
256,192,77546,1,8,0:0:0:0:
256,192,77611,1,0,0:0:0:0:
256,192,77742,1,0,0:0:0:0:
256,192,77807,1,0,0:0:0:0:
256,192,77872,1,8,0:0:0:0:
256,192,77938,1,0,0:0:0:0:
256,192,78003,1,8,0:0:0:0:
256,192,78133,1,0,0:0:0:0:
256,192,78264,1,8,0:0:0:0:
256,192,78329,1,8,0:0:0:0:
256,192,78394,1,8,0:0:0:0:
256,192,78459,1,8,0:0:0:0:
256,192,78524,1,0,0:0:0:0:
256,192,78655,1,8,0:0:0:0:
256,192,78785,1,0,0:0:0:0:
256,192,78851,1,8,0:0:0:0:
256,192,78916,1,0,0:0:0:0:
256,192,79046,5,8,0:0:0:0:
256,192,79177,1,0,0:0:0:0:
256,192,79307,1,8,0:0:0:0:
256,192,79372,1,8,0:0:0:0:
256,192,79438,1,0,0:0:0:0:
256,192,79503,1,0,0:0:0:0:
256,192,79568,1,8,0:0:0:0:
256,192,79698,1,8,0:0:0:0:
256,192,79764,1,8,0:0:0:0:
256,192,79829,1,0,0:0:0:0:
256,192,79959,1,0,0:0:0:0:
256,192,80090,1,8,0:0:0:0:
256,192,80220,1,0,0:0:0:0:
256,192,80351,1,0,0:0:0:0:
256,192,80416,1,8,0:0:0:0:
256,192,80481,1,0,0:0:0:0:
256,192,80611,5,8,0:0:0:0:
256,192,80677,1,8,0:0:0:0:
256,192,80742,1,0,0:0:0:0:
256,192,80872,1,8,0:0:0:0:
256,192,80938,1,8,0:0:0:0:
256,192,81003,1,0,0:0:0:0:
256,192,81068,1,8,0:0:0:0:
256,192,81133,1,0,0:0:0:0:
256,192,81198,1,0,0:0:0:0:
256,192,81264,1,8,0:0:0:0:
256,192,81394,5,0,0:0:0:0:
256,192,81459,1,8,0:0:0:0:
256,192,81524,1,8,0:0:0:0:
256,192,81590,1,8,0:0:0:0:
256,192,81655,1,0,0:0:0:0:
256,192,81785,1,8,0:0:0:0:
256,192,81851,1,8,0:0:0:0:
256,192,81916,1,0,0:0:0:0:
256,192,81981,1,0,0:0:0:0:
256,192,82046,1,8,0:0:0:0:
320,192,82177,5,12,0:0:0:0:
256,192,82307,1,0,0:0:0:0:
256,192,82438,1,0,0:0:0:0:
256,192,82568,1,8,0:0:0:0:
256,192,82829,1,8,0:0:0:0:
256,192,82959,1,0,0:0:0:0:
256,192,83090,1,8,0:0:0:0:
256,192,83220,1,0,0:0:0:0:
256,192,83351,1,0,0:0:0:0:
256,192,83481,1,8,0:0:0:0:
256,192,83611,1,8,0:0:0:0:
256,192,83742,5,0,0:0:0:0:
256,192,84003,1,0,0:0:0:0:
256,192,84068,1,0,0:0:0:0:
256,192,84133,1,8,0:0:0:0:
256,192,84394,1,8,0:0:0:0:
256,192,84524,1,0,0:0:0:0:
256,192,84785,1,0,0:0:0:0:
256,192,84851,1,8,0:0:0:0:
256,192,84916,1,0,0:0:0:0:
256,192,85046,1,8,0:0:0:0:
256,192,85307,5,0,0:0:0:0:
256,192,85568,1,0,0:0:0:0:
256,192,85698,1,0,0:0:0:0:
256,192,85829,1,8,0:0:0:0:
256,192,86090,1,0,0:0:0:0:
256,192,86351,1,8,0:0:0:0:
256,192,86416,1,0,0:0:0:0:
256,192,86481,1,8,0:0:0:0:
256,192,86611,1,0,0:0:0:0:
256,192,86872,5,8,0:0:0:0:
256,192,87133,1,0,0:0:0:0:
256,192,87264,1,8,0:0:0:0:
256,192,87394,1,8,0:0:0:0:
256,192,87524,1,0,0:0:0:0:
256,192,87655,1,0,0:0:0:0:
256,192,87916,1,0,0:0:0:0:
256,192,88046,1,8,0:0:0:0:
256,192,88177,1,0,0:0:0:0:
320,192,88438,5,12,0:0:0:0:
256,192,88698,1,0,0:0:0:0:
256,192,88829,1,0,0:0:0:0:
256,192,88894,1,8,0:0:0:0:
256,192,88959,1,0,0:0:0:0:
256,192,89090,1,8,0:0:0:0:
256,192,89220,1,0,0:0:0:0:
256,192,89481,1,0,0:0:0:0:
256,192,89611,1,0,0:0:0:0:
256,192,89677,1,0,0:0:0:0:
256,192,89742,1,8,0:0:0:0:
256,192,89872,1,0,0:0:0:0:
256,192,90003,5,8,0:0:0:0:
256,192,90264,1,8,0:0:0:0:
256,192,90329,1,8,0:0:0:0:
256,192,90394,1,0,0:0:0:0:
256,192,90655,1,8,0:0:0:0:
256,192,90720,1,0,0:0:0:0:
256,192,90785,1,0,0:0:0:0:
256,192,91046,1,0,0:0:0:0:
256,192,91177,1,8,0:0:0:0:
256,192,91242,1,8,0:0:0:0:
256,192,91307,1,0,0:0:0:0:
256,192,91438,1,0,0:0:0:0:
256,192,91503,1,8,0:0:0:0:
256,192,91568,5,0,0:0:0:0:
256,192,91698,1,0,0:0:0:0:
256,192,91829,1,8,0:0:0:0:
256,192,92090,1,0,0:0:0:0:
256,192,92220,1,0,0:0:0:0:
256,192,92351,1,8,0:0:0:0:
256,192,92481,1,0,0:0:0:0:
256,192,92611,1,8,0:0:0:0:
256,192,92742,1,0,0:0:0:0:
256,192,92807,1,8,0:0:0:0:
256,192,92872,1,0,0:0:0:0:
256,192,93003,1,0,0:0:0:0:
256,192,93133,5,8,0:0:0:0:
256,192,93394,1,0,0:0:0:0:
256,192,93524,1,8,0:0:0:0:
256,192,93590,1,8,0:0:0:0:
256,192,93655,1,8,0:0:0:0:
256,192,93785,1,8,0:0:0:0:
256,192,93916,1,0,0:0:0:0:
256,192,94177,1,0,0:0:0:0:
256,192,94307,1,0,0:0:0:0:
256,192,94372,1,8,0:0:0:0:
256,192,94438,1,0,0:0:0:0:
256,192,94568,1,0,0:0:0:0:
320,192,94698,5,12,0:0:0:0:
256,192,94828,1,0,0:0:0:0:
256,192,94958,1,8,0:0:0:0:
256,192,95089,1,0,0:0:0:0:
256,192,95154,1,0,0:0:0:0:
256,192,95219,1,8,0:0:0:0:
256,192,95350,1,0,0:0:0:0:
256,192,95480,1,8,0:0:0:0:
256,192,95611,1,0,0:0:0:0:
256,192,95676,1,8,0:0:0:0:
256,192,95741,1,0,0:0:0:0:
256,192,95806,1,8,0:0:0:0:
256,192,95871,1,0,0:0:0:0:
256,192,95937,1,0,0:0:0:0:
256,192,96002,5,8,0:0:0:0:
256,192,96132,1,0,0:0:0:0:
256,192,96263,1,8,0:0:0:0:
256,192,96393,1,8,0:0:0:0:
256,192,96458,1,8,0:0:0:0:
256,192,96524,1,0,0:0:0:0:
256,192,96654,1,8,0:0:0:0:
256,192,96784,1,0,0:0:0:0:
256,192,96915,1,0,0:0:0:0:
256,192,97045,1,0,0:0:0:0:
256,192,97176,1,8,0:0:0:0:
256,192,97306,5,0,0:0:0:0:
256,192,97437,1,0,0:0:0:0:
256,192,97567,1,8,0:0:0:0:
256,192,97698,1,0,0:0:0:0:
256,192,97763,1,0,0:0:0:0:
256,192,97828,1,8,0:0:0:0:
256,192,97958,1,8,0:0:0:0:
256,192,98089,1,0,0:0:0:0:
256,192,98219,1,8,0:0:0:0:
256,192,98284,1,0,0:0:0:0:
256,192,98350,1,8,0:0:0:0:
256,192,98480,1,0,0:0:0:0:
256,192,98611,5,0,0:0:0:0:
256,192,98741,1,0,0:0:0:0:
256,192,98806,1,0,0:0:0:0:
256,192,98871,1,8,0:0:0:0:
256,192,99002,1,8,0:0:0:0:
256,192,99067,1,8,0:0:0:0:
256,192,99132,1,0,0:0:0:0:
256,192,99263,1,8,0:0:0:0:
256,192,99328,1,0,0:0:0:0:
256,192,99393,1,8,0:0:0:0:
256,192,99458,1,8,0:0:0:0:
256,192,99524,1,0,0:0:0:0:
256,192,99589,1,0,0:0:0:0:
256,192,99654,1,8,0:0:0:0:
256,192,99784,1,0,0:0:0:0:
320,192,99915,5,4,0:0:0:0:
256,192,100045,1,8,0:0:0:0:
256,192,100176,1,8,0:0:0:0:
256,192,100241,1,8,0:0:0:0:
256,192,100306,1,0,0:0:0:0:
256,192,100371,1,0,0:0:0:0:
256,192,100437,1,8,0:0:0:0:
256,192,100567,1,8,0:0:0:0:
256,192,100698,1,0,0:0:0:0:
256,192,100958,1,0,0:0:0:0:
256,192,101089,1,0,0:0:0:0:
256,192,101154,1,8,0:0:0:0:
256,192,101219,5,0,0:0:0:0:
256,192,101350,1,0,0:0:0:0:
256,192,101480,1,8,0:0:0:0:
256,192,101611,1,8,0:0:0:0:
256,192,101676,1,8,0:0:0:0:
256,192,101741,1,0,0:0:0:0:
256,192,101871,1,8,0:0:0:0:
256,192,102002,1,0,0:0:0:0:
256,192,102067,1,0,0:0:0:0:
256,192,102132,1,8,0:0:0:0:
256,192,102263,1,0,0:0:0:0:
256,192,102524,5,0,0:0:0:0:
256,192,102784,1,8,0:0:0:0:
256,192,102915,1,0,0:0:0:0:
256,192,102980,1,0,0:0:0:0:
256,192,103045,1,8,0:0:0:0:
256,192,103176,1,8,0:0:0:0:
256,192,103241,1,8,0:0:0:0:
256,192,103306,1,0,0:0:0:0:
256,192,103371,1,8,0:0:0:0:
256,192,103437,1,0,0:0:0:0:
256,192,103502,1,0,0:0:0:0:
256,192,103567,1,8,0:0:0:0:
256,192,103697,1,0,0:0:0:0:
256,192,103828,5,8,0:0:0:0:
256,192,103958,1,0,0:0:0:0:
256,192,104024,1,0,0:0:0:0:
256,192,104089,1,8,0:0:0:0:
256,192,104219,1,0,0:0:0:0:
256,192,104350,1,8,0:0:0:0:
256,192,104480,1,0,0:0:0:0:
256,192,104611,1,8,0:0:0:0:
256,192,104697,1,0,0:0:0:0:
256,192,104784,1,0,0:0:0:0:
256,192,104871,1,8,0:0:0:0:
256,192,104958,1,0,0:0:0:0:
256,192,105045,1,0,0:0:0:0:
256,192,105132,5,8,0:0:0:0:
256,192,105524,1,8,0:0:0:0:
256,192,105654,1,0,0:0:0:0:
256,192,105784,1,8,0:0:0:0:
256,192,105915,1,0,0:0:0:0:
256,192,106176,1,0,0:0:0:0:
256,192,106437,1,8,0:0:0:0:
256,192,106697,1,0,0:0:0:0:
256,192,106958,1,0,0:0:0:0:
256,192,107219,1,8,0:0:0:0:
256,192,107741,5,8,0:0:0:0:
256,192,108132,1,8,0:0:0:0:
256,192,108263,1,8,0:0:0:0:
256,192,108393,1,0,0:0:0:0:
256,192,108524,1,0,0:0:0:0:
256,192,108784,1,8,0:0:0:0:
256,192,109045,1,8,0:0:0:0:
256,192,109437,1,8,0:0:0:0:
256,192,109567,1,0,0:0:0:0:
256,192,109697,1,0,0:0:0:0:
320,192,109828,1,12,0:0:0:0:
256,192,110002,1,0,0:0:0:0:
256,192,110089,1,0,0:0:0:0:
256,192,110176,1,0,0:0:0:0:
320,192,110350,5,4,0:0:0:0:
256,192,110871,1,8,0:0:0:0:
256,192,111132,1,0,0:0:0:0:
256,192,111393,1,0,0:0:0:0:
256,192,111654,1,8,0:0:0:0:
256,192,111915,1,0,0:0:0:0:
256,192,112045,1,0,0:0:0:0:
256,192,112176,1,8,0:0:0:0:
256,192,112437,1,8,0:0:0:0:
256,192,112697,1,8,0:0:0:0:
256,192,112828,1,0,0:0:0:0:
320,192,112958,5,12,0:0:0:0:
256,192,114523,5,0,0:0:0:0:
256,192,115305,5,8,0:0:0:0:
256,192,115436,1,8,0:0:0:0:
256,192,115501,1,8,0:0:0:0:
256,192,115566,1,8,0:0:0:0:
256,192,115697,1,0,0:0:0:0:
256,192,115762,1,0,0:0:0:0:
256,192,115827,1,0,0:0:0:0:
256,192,115958,1,0,0:0:0:0:
320,192,116088,5,12,0:0:0:0:
320,192,122348,5,4,0:0:0:0:
256,192,122609,1,0,0:0:0:0:
256,192,122740,1,8,0:0:0:0:
256,192,122870,1,0,0:0:0:0:
256,192,123001,1,0,0:0:0:0:
256,192,123131,1,8,0:0:0:0:
256,192,123392,1,8,0:0:0:0:
256,192,123522,1,0,0:0:0:0:
256,192,123653,1,0,0:0:0:0:
256,192,123783,1,0,0:0:0:0:
256,192,123914,5,8,0:0:0:0:
256,192,124044,1,0,0:0:0:0:
256,192,124174,1,0,0:0:0:0:
256,192,124240,1,0,0:0:0:0:
256,192,124305,1,0,0:0:0:0:
256,192,124435,1,8,0:0:0:0:
256,192,124566,1,0,0:0:0:0:
256,192,124696,1,8,0:0:0:0:
256,192,124761,1,8,0:0:0:0:
256,192,124827,1,8,0:0:0:0:
256,192,124957,1,0,0:0:0:0:
256,192,125218,1,8,0:0:0:0:
256,192,125348,1,0,0:0:0:0:
320,192,125479,5,12,0:0:0:0:
256,192,125609,1,8,0:0:0:0:
256,192,125674,1,8,0:0:0:0:
256,192,125740,1,0,0:0:0:0:
256,192,125870,1,8,0:0:0:0:
256,192,125935,1,8,0:0:0:0:
256,192,126001,1,0,0:0:0:0:
256,192,126131,1,8,0:0:0:0:
256,192,126261,1,0,0:0:0:0:
256,192,126392,1,8,0:0:0:0:
256,192,126457,1,8,0:0:0:0:
256,192,126522,1,0,0:0:0:0:
256,192,126653,1,8,0:0:0:0:
256,192,126718,1,8,0:0:0:0:
256,192,126783,1,0,0:0:0:0:
256,192,126914,1,8,0:0:0:0:
320,192,127044,5,4,0:0:0:0:
256,192,127174,1,8,0:0:0:0:
256,192,127240,1,8,0:0:0:0:
256,192,127305,1,8,0:0:0:0:
256,192,127435,1,0,0:0:0:0:
256,192,127501,1,0,0:0:0:0:
256,192,127566,1,8,0:0:0:0:
256,192,127631,1,8,0:0:0:0:
256,192,127696,1,0,0:0:0:0:
256,192,127827,1,0,0:0:0:0:
256,192,127957,1,8,0:0:0:0:
256,192,128022,1,8,0:0:0:0:
256,192,128087,1,8,0:0:0:0:
256,192,128218,1,0,0:0:0:0:
256,192,128283,1,0,0:0:0:0:
256,192,128348,1,8,0:0:0:0:
256,192,128414,1,8,0:0:0:0:
256,192,128479,1,8,0:0:0:0:
320,192,128609,5,4,0:0:0:0:
256,192,129131,1,8,0:0:0:0:
256,192,129392,1,8,0:0:0:0:
320,192,130174,5,4,0:0:0:0:
256,192,130305,1,8,0:0:0:0:
256,192,130370,1,8,0:0:0:0:
256,192,130435,1,0,0:0:0:0:
256,192,130501,1,8,0:0:0:0:
256,192,130566,1,0,0:0:0:0:
256,192,130696,1,0,0:0:0:0:
256,192,130827,1,8,0:0:0:0:
256,192,130957,1,0,0:0:0:0:
256,192,131022,1,8,0:0:0:0:
256,192,131087,1,8,0:0:0:0:
256,192,131153,1,8,0:0:0:0:
256,192,131218,1,0,0:0:0:0:
256,192,131283,1,0,0:0:0:0:
256,192,131348,1,8,0:0:0:0:
256,192,131479,1,0,0:0:0:0:
256,192,131609,1,8,0:0:0:0:
256,192,131740,5,0,0:0:0:0:
256,192,131805,1,0,0:0:0:0:
256,192,131870,1,8,0:0:0:0:
256,192,131935,1,8,0:0:0:0:
256,192,132001,1,0,0:0:0:0:
256,192,132131,1,0,0:0:0:0:
256,192,132261,1,8,0:0:0:0:
256,192,132327,1,8,0:0:0:0:
256,192,132392,1,0,0:0:0:0:
256,192,132522,1,0,0:0:0:0:
256,192,132587,1,0,0:0:0:0:
256,192,132653,1,0,0:0:0:0:
256,192,132783,1,8,0:0:0:0:
256,192,132914,1,0,0:0:0:0:
256,192,133044,1,8,0:0:0:0:
256,192,133109,1,0,0:0:0:0:
256,192,133174,1,8,0:0:0:0:
256,192,133305,5,0,0:0:0:0:
256,192,133370,1,0,0:0:0:0:
256,192,133435,1,8,0:0:0:0:
256,192,133566,1,8,0:0:0:0:
256,192,133631,1,8,0:0:0:0:
256,192,133696,1,8,0:0:0:0:
256,192,133761,1,8,0:0:0:0:
256,192,133827,1,0,0:0:0:0:
256,192,133957,1,8,0:0:0:0:
256,192,134087,1,0,0:0:0:0:
256,192,134218,1,0,0:0:0:0:
256,192,134283,1,0,0:0:0:0:
256,192,134348,1,8,0:0:0:0:
256,192,134414,1,8,0:0:0:0:
256,192,134479,1,0,0:0:0:0:
256,192,134544,1,8,0:0:0:0:
256,192,134609,1,0,0:0:0:0:
256,192,134740,1,0,0:0:0:0:
320,192,134870,5,12,0:0:0:0:
256,192,135001,1,0,0:0:0:0:
256,192,135131,1,8,0:0:0:0:
256,192,135196,1,8,0:0:0:0:
256,192,135261,1,0,0:0:0:0:
256,192,135327,1,0,0:0:0:0:
256,192,135392,1,8,0:0:0:0:
256,192,135522,1,0,0:0:0:0:
256,192,135653,1,8,0:0:0:0:
256,192,135718,1,8,0:0:0:0:
256,192,135783,1,0,0:0:0:0:
256,192,135848,1,8,0:0:0:0:
256,192,135914,1,0,0:0:0:0:
256,192,135979,1,0,0:0:0:0:
256,192,136044,1,8,0:0:0:0:
256,192,136174,1,0,0:0:0:0:
256,192,136305,1,8,0:0:0:0:
320,192,136435,5,4,0:0:0:0:
256,192,136566,1,8,0:0:0:0:
256,192,136631,1,8,0:0:0:0:
256,192,136696,1,8,0:0:0:0:
320,192,136827,1,4,0:0:0:0:
256,192,136957,1,8,0:0:0:0:
256,192,137022,1,8,0:0:0:0:
256,192,137087,1,0,0:0:0:0:
320,192,137218,1,12,0:0:0:0:
256,192,137348,1,0,0:0:0:0:
256,192,137414,1,8,0:0:0:0:
256,192,137479,1,0,0:0:0:0:
320,192,137609,1,12,0:0:0:0:
256,192,137740,1,0,0:0:0:0:
256,192,137805,1,0,0:0:0:0:
256,192,137870,1,8,0:0:0:0:
320,192,138001,5,4,0:0:0:0:
256,192,138131,1,0,0:0:0:0:
256,192,138261,1,0,0:0:0:0:
256,192,138327,1,0,0:0:0:0:
256,192,138392,1,8,0:0:0:0:
256,192,138457,1,0,0:0:0:0:
256,192,138522,1,8,0:0:0:0:
256,192,138653,1,8,0:0:0:0:
256,192,138783,1,0,0:0:0:0:
256,192,138914,1,0,0:0:0:0:
256,192,138979,1,0,0:0:0:0:
256,192,139044,1,8,0:0:0:0:
256,192,139174,1,8,0:0:0:0:
256,192,139305,1,8,0:0:0:0:
256,192,139370,1,8,0:0:0:0:
256,192,139435,1,0,0:0:0:0:
256,192,139566,5,0,0:0:0:0:
256,192,139696,1,8,0:0:0:0:
256,192,139827,1,0,0:0:0:0:
256,192,139892,1,0,0:0:0:0:
256,192,139957,1,8,0:0:0:0:
256,192,140022,1,8,0:0:0:0:
256,192,140087,1,0,0:0:0:0:
256,192,140218,1,8,0:0:0:0:
256,192,140283,1,8,0:0:0:0:
256,192,140348,1,0,0:0:0:0:
256,192,140414,1,0,0:0:0:0:
256,192,140479,1,0,0:0:0:0:
256,192,140544,1,0,0:0:0:0:
256,192,140609,1,8,0:0:0:0:
256,192,140740,1,0,0:0:0:0:
256,192,140805,1,0,0:0:0:0:
256,192,140870,1,8,0:0:0:0:
256,192,140935,1,0,0:0:0:0:
256,192,141001,1,8,0:0:0:0:
320,192,141131,5,4,0:0:0:0:
256,192,141653,1,0,0:0:0:0:
256,192,141914,1,8,0:0:0:0:
256,192,142696,1,0,0:0:0:0:
256,192,142957,1,0,0:0:0:0:
256,192,143218,1,8,0:0:0:0:
256,192,143348,1,8,0:0:0:0:
256,192,143479,1,0,0:0:0:0:
256,192,143870,1,8,0:0:0:0:
256,192,144001,1,0,0:0:0:0:
256,192,144131,1,8,0:0:0:0:
256,192,144261,5,0,0:0:0:0:
256,192,144783,1,8,0:0:0:0:
256,192,145044,1,0,0:0:0:0:
256,192,145827,1,0,0:0:0:0:
256,192,146087,1,8,0:0:0:0:
256,192,146348,1,8,0:0:0:0:
256,192,146609,1,0,0:0:0:0:
256,192,146870,1,8,0:0:0:0:
256,192,147131,1,8,0:0:0:0:
256,192,147392,5,0,0:0:0:0:
256,192,147914,1,0,0:0:0:0:
256,192,148174,1,8,0:0:0:0:
256,192,148957,1,0,0:0:0:0:
256,192,149348,1,0,0:0:0:0:
256,192,149479,1,0,0:0:0:0:
256,192,149609,1,8,0:0:0:0:
256,192,149740,1,0,0:0:0:0:
256,192,150131,1,8,0:0:0:0:
256,192,150261,1,0,0:0:0:0:
256,192,150392,1,8,0:0:0:0:
256,192,150522,5,0,0:0:0:0:
256,192,151044,1,8,0:0:0:0:
256,192,151305,1,0,0:0:0:0:
256,192,152087,1,8,0:0:0:0:
256,192,152348,1,0,0:0:0:0:
256,192,152479,1,8,0:0:0:0:
256,192,152609,1,0,0:0:0:0:
256,192,152740,1,8,0:0:0:0:
256,192,152870,1,8,0:0:0:0:
