osu file format v14

[General]
AudioFilename: audio.mp3
AudioLeadIn: 0
PreviewTime: 54804
Countdown: 0
SampleSet: Soft
StackLeniency: 0.7
Mode: 3
LetterboxInBreaks: 0
SpecialStyle: 0
WidescreenStoryboard: 1

[Editor]
Bookmarks: 374,6591,17783,27731,37679,47627,55089,74985,84933,94881,99819
DistanceSpacing: 0.8
BeatDivisor: 4
GridSize: 8
TimelineZoom: 2.2

[Metadata]
Title:ETERNITY (feat. Ouse Akira) (Short Ver.)
TitleUnicode:ETERNITY (feat. 逢瀬アキラ) (Short Ver.)
Artist:cittan*
ArtistUnicode:cittan*
Creator:Claren
Version:Venedict V. Vermilion (Insane)
Source:キラキラモンスターズ
Tags:Sprite:Wall Reminisphere: Full Circle SweepRecord WORKS from "LAMUNATION!" & "KIRAKIRA MONSTARS" 田中文久 Fumihisa Tanaka White Powder キラモン Kiramon KRMN VN Visual Novel Japanese Rock j-rock jrock pop jpop j-pop SRIN-1167 SRCD-016 vocal アリサ a.k.a HOUND GIRL ハウンドガール イヴ=モーニングスター フラン ヴェネディクト=V=ヴァーミリオン
BeatmapID:3195695
BeatmapSetID:1564921

[Difficulty]
HPDrainRate:8
CircleSize:4
OverallDifficulty:8
ApproachRate:5
SliderMultiplier:1.4
SliderTickRate:1

[Events]
//Background and Video events
0,0,"Venedict V. Vermilion.png",0,0
//Break Periods
//Storyboard Layer 0 (Background)
//Storyboard Layer 1 (Fail)
//Storyboard Layer 2 (Pass)
//Storyboard Layer 3 (Foreground)
//Storyboard Layer 4 (Overlay)
//Storyboard Sound Samples

[TimingPoints]
400,310.880829015544,4,2,1,70,1,0
55115,-100.0,4,2,1,70,0,1
84959,-100.0,4,2,1,70,0,0
95995,320.855614973262,6,2,1,70,1,0
95995,-97.0873786407767,6,2,1,70,0,0

[HitObjects]
64,192,400,1,4,0:0:0:0:
320,192,400,1,8,0:0:0:0:
448,192,400,1,0,0:0:0:0:
192,192,555,1,0,0:0:0:0:
320,192,710,1,2,0:0:0:0:
448,192,710,1,0,0:0:0:0:
64,192,866,1,8,0:0:0:0:
448,192,866,1,0,0:0:0:0:
320,192,1021,1,0,0:0:0:0:
64,192,1177,1,2,0:0:0:0:
192,192,1177,1,0,0:0:0:0:
64,192,1332,1,8,0:0:0:0:
448,192,1332,1,0,0:0:0:0:
192,192,1488,1,0,0:0:0:0:
320,192,1643,1,8,0:0:0:0:
448,192,1643,1,0,0:0:0:0:
192,192,1798,1,0,0:0:0:0:
64,192,1954,1,2,0:0:0:0:
448,192,1954,1,0,0:0:0:0:
64,192,2109,1,8,0:0:0:0:
192,192,2109,1,0,0:0:0:0:
320,192,2265,1,0,0:0:0:0:
64,192,2420,1,2,0:0:0:0:
448,192,2420,1,0,0:0:0:0:
320,192,2576,1,8,0:0:0:0:
448,192,2576,1,0,0:0:0:0:
192,192,2731,1,0,0:0:0:0:
64,192,2887,1,8,0:0:0:0:
320,192,2887,1,0,0:0:0:0:
448,192,3042,1,0,0:0:0:0:
64,192,3197,1,2,0:0:0:0:
192,192,3197,1,0,0:0:0:0:
192,192,3353,1,8,0:0:0:0:
448,192,3353,1,0,0:0:0:0:
64,192,3508,1,0,0:0:0:0:
320,192,3664,1,2,0:0:0:0:
448,192,3664,1,0,0:0:0:0:
64,192,3819,1,8,0:0:0:0:
320,192,3819,1,0,0:0:0:0:
448,192,3975,1,0,0:0:0:0:
64,192,4130,1,8,0:0:0:0:
192,192,4130,1,0,0:0:0:0:
320,192,4286,1,0,0:0:0:0:
192,192,4441,1,2,0:0:0:0:
448,192,4441,1,0,0:0:0:0:
320,192,4596,1,8,0:0:0:0:
448,192,4596,1,0,0:0:0:0:
192,192,4752,1,0,0:0:0:0:
64,192,4907,1,2,0:0:0:0:
320,192,4907,1,0,0:0:0:0:
64,192,5063,1,8,0:0:0:0:
192,192,5063,1,0,0:0:0:0:
64,192,5218,1,8,0:0:0:0:
192,192,5218,1,0,0:0:0:0:
448,192,5374,128,0,5684:0:0:0:0:
64,192,5529,128,0,5684:0:0:0:0:
192,192,5684,128,0,5995:0:0:0:0:
448,192,5840,128,0,5995:0:0:0:0:
320,192,5995,128,0,6306:0:0:0:0:
64,192,6151,128,0,6306:0:0:0:0:
192,192,6306,128,0,6462:0:0:0:0:
320,192,6462,128,0,6617:0:0:0:0:
64,192,6617,1,2,0:0:0:0:
192,192,6617,1,4,0:0:0:0:
448,192,6617,128,0,6773:0:0:0:0:
64,192,6773,128,0,6928:0:0:0:0:
192,192,6928,128,8,7083:0:0:0:0:
320,192,6928,1,0,0:0:0:0:
448,192,7083,128,0,7239:0:0:0:0:
64,192,7239,1,2,0:0:0:0:
320,192,7239,128,0,7394:0:0:0:0:
192,192,7394,1,2,0:0:0:0:
448,192,7394,1,0,0:0:0:0:
64,192,7550,128,8,7705:0:0:0:0:
320,192,7550,1,0,0:0:0:0:
192,192,7705,128,0,7861:0:0:0:0:
320,192,7861,128,2,8016:0:0:0:0:
448,192,7861,1,0,0:0:0:0:
64,192,8016,1,0,0:0:0:0:
320,192,8172,1,8,0:0:0:0:
448,192,8172,1,0,0:0:0:0:
192,192,8327,128,0,8482:0:0:0:0:
64,192,8482,1,2,0:0:0:0:
320,192,8482,128,0,8638:0:0:0:0:
192,192,8638,1,2,0:0:0:0:
448,192,8638,128,0,8793:0:0:0:0:
192,192,8793,128,8,8949:0:0:0:0:
320,192,8793,1,0,0:0:0:0:
64,192,8949,128,0,9104:0:0:0:0:
320,192,9104,1,2,0:0:0:0:
448,192,9104,128,0,9260:0:0:0:0:
192,192,9260,128,0,9415:0:0:0:0:
64,192,9415,128,8,9570:0:0:0:0:
448,192,9415,1,0,0:0:0:0:
320,192,9570,128,0,9726:0:0:0:0:
64,192,9726,1,2,0:0:0:0:
192,192,9726,128,0,9881:0:0:0:0:
320,192,9881,1,2,0:0:0:0:
448,192,9881,128,0,10037:0:0:0:0:
64,192,10037,128,8,10192:0:0:0:0:
192,192,10037,1,0,0:0:0:0:
320,192,10192,128,0,10348:0:0:0:0:
192,192,10348,1,2,0:0:0:0:
448,192,10348,128,0,10503:0:0:0:0:
64,192,10503,128,0,10659:0:0:0:0:
192,192,10659,128,8,10814:0:0:0:0:
320,192,10659,1,0,0:0:0:0:
448,192,10814,128,0,10969:0:0:0:0:
192,192,10969,1,2,0:0:0:0:
320,192,10969,128,0,11125:0:0:0:0:
64,192,11125,1,2,0:0:0:0:
448,192,11125,1,0,0:0:0:0:
192,192,11280,128,8,11436:0:0:0:0:
448,192,11280,1,0,0:0:0:0:
320,192,11436,128,0,11591:0:0:0:0:
64,192,11591,1,2,0:0:0:0:
192,192,11591,1,4,0:0:0:0:
448,192,11591,128,0,11747:0:0:0:0:
64,192,11747,128,0,11902:0:0:0:0:
192,192,11902,128,8,12058:0:0:0:0:
320,192,11902,1,0,0:0:0:0:
448,192,12058,128,0,12213:0:0:0:0:
192,192,12213,1,2,0:0:0:0:
320,192,12213,128,0,12368:0:0:0:0:
64,192,12368,1,2,0:0:0:0:
448,192,12368,1,0,0:0:0:0:
64,192,12524,1,8,0:0:0:0:
192,192,12524,128,0,12679:0:0:0:0:
320,192,12679,128,0,12835:0:0:0:0:
192,192,12835,1,2,0:0:0:0:
448,192,12835,128,0,12990:0:0:0:0:
64,192,12990,128,0,13146:0:0:0:0:
192,192,13146,128,8,13301:0:0:0:0:
320,192,13146,1,0,0:0:0:0:
448,192,13301,128,0,13456:0:0:0:0:
64,192,13456,1,2,0:0:0:0:
320,192,13456,128,0,13612:0:0:0:0:
192,192,13612,1,2,0:0:0:0:
448,192,13612,1,0,0:0:0:0:
64,192,13767,128,8,13923:0:0:0:0:
320,192,13767,1,0,0:0:0:0:
192,192,13923,128,0,14078:0:0:0:0:
320,192,14078,128,2,14234:0:0:0:0:
448,192,14078,1,0,0:0:0:0:
64,192,14234,1,0,0:0:0:0:
320,192,14389,1,8,0:0:0:0:
448,192,14389,1,0,0:0:0:0:
192,192,14545,128,0,14700:0:0:0:0:
64,192,14700,1,2,0:0:0:0:
320,192,14700,128,0,14855:0:0:0:0:
192,192,14855,1,2,0:0:0:0:
448,192,14855,128,0,15011:0:0:0:0:
192,192,15011,128,8,15166:0:0:0:0:
320,192,15011,1,0,0:0:0:0:
64,192,15166,128,0,15322:0:0:0:0:
320,192,15322,1,2,0:0:0:0:
448,192,15322,128,0,15477:0:0:0:0:
192,192,15477,128,0,15633:0:0:0:0:
64,192,15633,128,8,15788:0:0:0:0:
448,192,15633,1,0,0:0:0:0:
320,192,15788,128,0,15944:0:0:0:0:
64,192,15944,128,2,16099:0:0:0:0:
448,192,15944,1,0,0:0:0:0:
192,192,16099,128,2,16254:0:0:0:0:
320,192,16099,1,0,0:0:0:0:
64,192,16254,1,8,0:0:0:0:
320,192,16254,1,4,0:0:0:0:
448,192,16254,128,0,16410:0:0:0:0:
192,192,16410,128,0,16565:0:0:0:0:
320,192,16565,1,2,0:0:0:0:
448,192,16565,128,0,16721:0:0:0:0:
64,192,16721,128,0,16876:0:0:0:0:
192,192,16876,128,0,17032:0:0:0:0:
64,192,17032,1,2,0:0:0:0:
448,192,17032,128,0,17187:0:0:0:0:
320,192,17187,128,0,17343:0:0:0:0:
64,192,17343,128,2,17498:0:0:0:0:
448,192,17343,1,0,0:0:0:0:
192,192,17498,128,8,17653:0:0:0:0:
448,192,17537,1,8,0:0:0:0:
320,192,17653,128,0,17809:0:0:0:0:
64,192,17809,1,2,0:0:0:0:
192,192,17809,1,4,0:0:0:0:
448,192,17809,1,0,0:0:0:0:
320,192,17964,1,0,0:0:0:0:
64,192,18120,1,2,0:0:0:0:
192,192,18120,1,0,0:0:0:0:
192,192,18275,1,0,0:0:0:0:
320,192,18431,1,2,0:0:0:0:
448,192,18431,1,0,0:0:0:0:
320,192,18586,1,0,0:0:0:0:
64,192,18741,1,2,0:0:0:0:
192,192,18741,1,0,0:0:0:0:
64,192,18897,1,0,0:0:0:0:
192,192,18975,1,0,0:0:0:0:
320,192,19052,1,2,0:0:0:0:
448,192,19052,128,0,19363:0:0:0:0:
192,192,19208,1,0,0:0:0:0:
64,192,19363,1,2,0:0:0:0:
320,192,19363,1,0,0:0:0:0:
64,192,19519,128,0,19830:0:0:0:0:
320,192,19674,1,2,0:0:0:0:
448,192,19674,1,0,0:0:0:0:
448,192,19830,128,0,20140:0:0:0:0:
64,192,19985,1,2,0:0:0:0:
192,192,19985,1,0,0:0:0:0:
320,192,20140,1,0,0:0:0:0:
192,192,20218,1,0,0:0:0:0:
64,192,20296,1,2,0:0:0:0:
320,192,20296,128,0,20607:0:0:0:0:
448,192,20451,1,0,0:0:0:0:
64,192,20607,1,2,0:0:0:0:
192,192,20607,1,0,0:0:0:0:
192,192,20762,128,0,21073:0:0:0:0:
320,192,20918,1,2,0:0:0:0:
448,192,20918,1,0,0:0:0:0:
320,192,21073,128,0,21384:0:0:0:0:
64,192,21229,1,2,0:0:0:0:
192,192,21229,1,0,0:0:0:0:
64,192,21384,1,0,0:0:0:0:
192,192,21462,1,0,0:0:0:0:
320,192,21539,1,2,0:0:0:0:
448,192,21539,128,0,21850:0:0:0:0:
192,192,21695,1,0,0:0:0:0:
64,192,21850,1,2,0:0:0:0:
320,192,21850,1,0,0:0:0:0:
64,192,22006,128,0,22317:0:0:0:0:
320,192,22161,1,2,0:0:0:0:
448,192,22161,1,0,0:0:0:0:
448,192,22317,128,0,22627:0:0:0:0:
64,192,22472,1,2,0:0:0:0:
192,192,22472,1,0,0:0:0:0:
192,192,22627,128,0,22783:0:0:0:0:
64,192,22783,1,2,0:0:0:0:
320,192,22783,1,4,0:0:0:0:
448,192,22783,1,0,0:0:0:0:
192,192,22938,1,0,0:0:0:0:
320,192,23094,1,2,0:0:0:0:
448,192,23094,1,0,0:0:0:0:
320,192,23249,1,0,0:0:0:0:
64,192,23405,1,2,0:0:0:0:
192,192,23405,1,0,0:0:0:0:
192,192,23560,1,0,0:0:0:0:
320,192,23716,1,2,0:0:0:0:
448,192,23716,1,0,0:0:0:0:
320,192,23871,1,0,0:0:0:0:
192,192,23949,1,0,0:0:0:0:
64,192,24026,1,2,0:0:0:0:
448,192,24026,128,0,24337:0:0:0:0:
320,192,24182,1,0,0:0:0:0:
64,192,24337,1,2,0:0:0:0:
192,192,24337,1,0,0:0:0:0:
192,192,24493,128,0,24804:0:0:0:0:
320,192,24648,1,2,0:0:0:0:
448,192,24648,1,0,0:0:0:0:
320,192,24804,128,0,25115:0:0:0:0:
64,192,24959,1,2,0:0:0:0:
192,192,24959,1,0,0:0:0:0:
64,192,25115,128,0,25270:0:0:0:0:
192,192,25270,1,2,0:0:0:0:
320,192,25270,1,4,0:0:0:0:
448,192,25270,128,0,25581:0:0:0:0:
64,192,25425,1,0,0:0:0:0:
192,192,25581,1,2,0:0:0:0:
320,192,25581,1,0,0:0:0:0:
320,192,25736,128,0,26047:0:0:0:0:
64,192,25892,1,2,0:0:0:0:
192,192,25892,1,0,0:0:0:0:
192,192,26047,128,0,26358:0:0:0:0:
320,192,26203,1,2,0:0:0:0:
448,192,26203,1,0,0:0:0:0:
448,192,26358,128,0,26669:0:0:0:0:
320,192,26436,1,0,0:0:0:0:
64,192,26513,1,2,0:0:0:0:
192,192,26513,1,0,0:0:0:0:
320,192,26669,1,0,0:0:0:0:
64,192,26824,1,2,0:0:0:0:
192,192,26824,1,0,0:0:0:0:
64,192,26980,128,0,27446:0:0:0:0:
320,192,27135,1,2,0:0:0:0:
448,192,27135,1,0,0:0:0:0:
192,192,27291,1,0,0:0:0:0:
320,192,27446,1,8,0:0:0:0:
448,192,27446,1,0,0:0:0:0:
192,192,27524,1,8,0:0:0:0:
64,192,27602,1,8,0:0:0:0:
448,192,27602,1,0,0:0:0:0:
320,192,27679,1,8,0:0:0:0:
64,192,27757,1,2,0:0:0:0:
192,192,27757,1,4,0:0:0:0:
448,192,27757,1,0,0:0:0:0:
192,192,27912,1,0,0:0:0:0:
192,192,28068,1,8,0:0:0:0:
448,192,28068,1,0,0:0:0:0:
192,192,28223,1,0,0:0:0:0:
320,192,28301,1,2,0:0:0:0:
64,192,28379,1,2,0:0:0:0:
448,192,28379,1,0,0:0:0:0:
64,192,28534,1,2,0:0:0:0:
448,192,28534,1,0,0:0:0:0:
192,192,28690,1,8,0:0:0:0:
448,192,28690,1,0,0:0:0:0:
448,192,28845,1,0,0:0:0:0:
64,192,29001,1,2,0:0:0:0:
192,192,29001,1,0,0:0:0:0:
64,192,29156,1,0,0:0:0:0:
64,192,29311,1,8,0:0:0:0:
320,192,29311,1,0,0:0:0:0:
64,192,29467,1,0,0:0:0:0:
192,192,29545,1,2,0:0:0:0:
320,192,29622,1,2,0:0:0:0:
448,192,29622,1,0,0:0:0:0:
320,192,29778,1,2,0:0:0:0:
448,192,29778,1,0,0:0:0:0:
64,192,29933,1,8,0:0:0:0:
320,192,29933,1,0,0:0:0:0:
320,192,30089,128,0,30244:0:0:0:0:
192,192,30244,1,2,0:0:0:0:
448,192,30244,1,0,0:0:0:0:
192,192,30399,1,0,0:0:0:0:
64,192,30555,1,8,0:0:0:0:
192,192,30555,1,0,0:0:0:0:
192,192,30710,1,0,0:0:0:0:
448,192,30788,1,2,0:0:0:0:
64,192,30866,1,2,0:0:0:0:
320,192,30866,1,0,0:0:0:0:
64,192,31021,1,2,0:0:0:0:
320,192,31021,1,0,0:0:0:0:
320,192,31177,1,8,0:0:0:0:
448,192,31177,1,0,0:0:0:0:
320,192,31332,1,0,0:0:0:0:
64,192,31488,1,2,0:0:0:0:
448,192,31488,1,0,0:0:0:0:
64,192,31643,1,0,0:0:0:0:
64,192,31798,1,8,0:0:0:0:
192,192,31798,1,0,0:0:0:0:
64,192,31954,1,0,0:0:0:0:
320,192,32032,1,2,0:0:0:0:
192,192,32109,1,2,0:0:0:0:
448,192,32109,1,0,0:0:0:0:
448,192,32265,1,2,0:0:0:0:
64,192,32420,128,8,32731:0:0:0:0:
320,192,32420,1,0,0:0:0:0:
448,192,32420,1,0,0:0:0:0:
448,192,32576,1,0,0:0:0:0:
192,192,32731,1,2,0:0:0:0:
320,192,32731,1,4,0:0:0:0:
448,192,32731,1,0,0:0:0:0:
192,192,32887,1,0,0:0:0:0:
192,192,33042,1,8,0:0:0:0:
448,192,33042,1,0,0:0:0:0:
192,192,33197,1,0,0:0:0:0:
64,192,33353,1,2,0:0:0:0:
320,192,33353,1,0,0:0:0:0:
64,192,33508,1,2,0:0:0:0:
320,192,33508,1,0,0:0:0:0:
192,192,33664,1,8,0:0:0:0:
320,192,33664,1,0,0:0:0:0:
320,192,33819,1,0,0:0:0:0:
64,192,33975,1,2,0:0:0:0:
448,192,33975,1,0,0:0:0:0:
64,192,34130,1,0,0:0:0:0:
64,192,34286,1,8,0:0:0:0:
320,192,34286,1,0,0:0:0:0:
64,192,34441,1,0,0:0:0:0:
192,192,34596,1,2,0:0:0:0:
448,192,34596,1,0,0:0:0:0:
192,192,34752,1,2,0:0:0:0:
448,192,34752,1,0,0:0:0:0:
64,192,34907,1,8,0:0:0:0:
448,192,34907,1,0,0:0:0:0:
448,192,35063,1,0,0:0:0:0:
192,192,35218,1,2,0:0:0:0:
320,192,35218,1,0,0:0:0:0:
320,192,35374,1,0,0:0:0:0:
64,192,35529,1,8,0:0:0:0:
320,192,35529,1,0,0:0:0:0:
320,192,35684,1,0,0:0:0:0:
64,192,35840,1,2,0:0:0:0:
448,192,35840,1,0,0:0:0:0:
64,192,35995,1,2,0:0:0:0:
448,192,35995,1,0,0:0:0:0:
64,192,36151,1,8,0:0:0:0:
320,192,36151,1,0,0:0:0:0:
64,192,36306,1,0,0:0:0:0:
320,192,36462,1,2,0:0:0:0:
448,192,36462,1,0,0:0:0:0:
320,192,36617,1,2,0:0:0:0:
448,192,36617,1,0,0:0:0:0:
64,192,36773,1,8,0:0:0:0:
192,192,36773,1,0,0:0:0:0:
192,192,36928,1,2,0:0:0:0:
320,192,36928,1,0,0:0:0:0:
64,192,37083,1,8,0:0:0:0:
320,192,37083,1,4,0:0:0:0:
448,192,37083,1,0,0:0:0:0:
192,192,37239,1,2,0:0:0:0:
320,192,37239,1,0,0:0:0:0:
64,192,37394,1,8,0:0:0:0:
192,192,37394,1,0,0:0:0:0:
448,192,37433,1,8,0:0:0:0:
64,192,37550,1,2,0:0:0:0:
192,192,37550,1,0,0:0:0:0:
64,192,37705,1,8,0:0:0:0:
320,192,37705,1,4,0:0:0:0:
448,192,37705,1,0,0:0:0:0:
192,192,37861,1,0,0:0:0:0:
320,192,38016,1,2,0:0:0:0:
448,192,38016,1,0,0:0:0:0:
64,192,38172,1,8,0:0:0:0:
448,192,38172,1,0,0:0:0:0:
320,192,38327,1,0,0:0:0:0:
64,192,38482,1,2,0:0:0:0:
192,192,38482,1,0,0:0:0:0:
64,192,38638,1,8,0:0:0:0:
448,192,38638,1,0,0:0:0:0:
192,192,38793,1,0,0:0:0:0:
320,192,38949,1,8,0:0:0:0:
448,192,38949,1,0,0:0:0:0:
192,192,39104,1,0,0:0:0:0:
64,192,39260,1,2,0:0:0:0:
320,192,39260,1,0,0:0:0:0:
64,192,39415,1,8,0:0:0:0:
192,192,39415,1,0,0:0:0:0:
320,192,39570,1,0,0:0:0:0:
192,192,39726,1,2,0:0:0:0:
448,192,39726,1,0,0:0:0:0:
320,192,39881,1,8,0:0:0:0:
448,192,39881,1,0,0:0:0:0:
192,192,40037,1,0,0:0:0:0:
64,192,40192,1,8,0:0:0:0:
320,192,40192,1,0,0:0:0:0:
448,192,40348,1,0,0:0:0:0:
64,192,40503,1,2,0:0:0:0:
192,192,40503,1,0,0:0:0:0:
192,192,40659,1,8,0:0:0:0:
448,192,40659,1,0,0:0:0:0:
64,192,40814,1,0,0:0:0:0:
320,192,40969,1,2,0:0:0:0:
448,192,40969,1,0,0:0:0:0:
64,192,41125,1,8,0:0:0:0:
320,192,41125,1,0,0:0:0:0:
448,192,41280,1,0,0:0:0:0:
64,192,41436,1,8,0:0:0:0:
192,192,41436,1,0,0:0:0:0:
320,192,41591,1,0,0:0:0:0:
192,192,41747,1,2,0:0:0:0:
448,192,41747,1,0,0:0:0:0:
320,192,41902,1,8,0:0:0:0:
448,192,41902,1,0,0:0:0:0:
192,192,42058,1,0,0:0:0:0:
64,192,42213,1,2,0:0:0:0:
320,192,42213,1,0,0:0:0:0:
64,192,42368,1,8,0:0:0:0:
192,192,42368,1,0,0:0:0:0:
320,192,42524,1,2,0:0:0:0:
448,192,42524,1,0,0:0:0:0:
64,192,42679,1,8,0:0:0:0:
192,192,42679,1,4,0:0:0:0:
448,192,42679,1,0,0:0:0:0:
320,192,42835,1,0,0:0:0:0:
64,192,42990,1,2,0:0:0:0:
192,192,42990,1,0,0:0:0:0:
64,192,43146,1,8,0:0:0:0:
448,192,43146,1,0,0:0:0:0:
192,192,43301,1,0,0:0:0:0:
320,192,43456,1,2,0:0:0:0:
448,192,43456,1,0,0:0:0:0:
64,192,43612,1,8,0:0:0:0:
448,192,43612,1,0,0:0:0:0:
320,192,43767,1,0,0:0:0:0:
64,192,43923,1,8,0:0:0:0:
192,192,43923,1,0,0:0:0:0:
448,192,44078,1,0,0:0:0:0:
64,192,44234,1,2,0:0:0:0:
320,192,44234,1,0,0:0:0:0:
320,192,44389,1,8,0:0:0:0:
448,192,44389,1,0,0:0:0:0:
64,192,44545,1,0,0:0:0:0:
192,192,44700,1,2,0:0:0:0:
448,192,44700,1,0,0:0:0:0:
64,192,44855,1,8,0:0:0:0:
192,192,44855,1,0,0:0:0:0:
448,192,45011,1,0,0:0:0:0:
64,192,45166,1,8,0:0:0:0:
320,192,45166,1,0,0:0:0:0:
192,192,45322,1,0,0:0:0:0:
320,192,45477,1,2,0:0:0:0:
448,192,45477,1,0,0:0:0:0:
192,192,45633,1,8,0:0:0:0:
448,192,45633,1,0,0:0:0:0:
320,192,45788,1,0,0:0:0:0:
64,192,45944,1,2,0:0:0:0:
192,192,45944,1,0,0:0:0:0:
64,192,46099,1,8,0:0:0:0:
320,192,46099,1,0,0:0:0:0:
192,192,46254,1,2,0:0:0:0:
448,192,46254,1,0,0:0:0:0:
64,192,46410,1,2,0:0:0:0:
320,192,46410,1,4,0:0:0:0:
448,192,46410,1,0,0:0:0:0:
192,192,46565,1,2,0:0:0:0:
320,192,46565,1,0,0:0:0:0:
64,192,46721,1,8,0:0:0:0:
192,192,46721,1,4,0:0:0:0:
448,192,46721,1,0,0:0:0:0:
320,192,46876,1,8,0:0:0:0:
448,192,46876,1,0,0:0:0:0:
192,192,46954,1,8,0:0:0:0:
64,192,47032,1,8,0:0:0:0:
448,192,47032,1,0,0:0:0:0:
192,192,47187,1,2,0:0:0:0:
320,192,47187,1,0,0:0:0:0:
64,192,47343,1,2,0:0:0:0:
192,192,47343,1,0,0:0:0:0:
320,192,47498,1,2,0:0:0:0:
448,192,47498,1,0,0:0:0:0:
64,192,47653,1,2,0:0:0:0:
192,192,47653,1,4,0:0:0:0:
448,192,47653,1,0,0:0:0:0:
320,192,47705,1,0,0:0:0:0:
64,192,48275,128,0,48897:0:0:0:0:
192,192,48819,1,0,0:0:0:0:
320,192,48897,1,0,0:0:0:0:
448,192,48897,128,0,49519:0:0:0:0:
192,192,49519,128,0,49830:0:0:0:0:
64,192,49830,128,0,50140:0:0:0:0:
320,192,50140,128,0,50451:0:0:0:0:
448,192,50140,1,0,0:0:0:0:
192,192,50451,128,0,50659:0:0:0:0:
448,192,50659,128,0,51384:0:0:0:0:
64,192,51384,1,0,0:0:0:0:
192,192,51695,128,0,52006:0:0:0:0:
320,192,52006,128,0,52317:0:0:0:0:
448,192,52317,128,0,52627:0:0:0:0:
64,192,52627,128,0,53560:0:0:0:0:
320,192,52627,1,0,0:0:0:0:
320,192,53249,1,0,0:0:0:0:
192,192,53560,128,0,53716:0:0:0:0:
448,192,53716,128,0,54512:0:0:0:0:
192,192,53871,1,0,0:0:0:0:
64,192,54454,1,0,0:0:0:0:
192,192,54512,1,0,0:0:0:0:
320,192,54804,128,0,55115:0:0:0:0:
64,192,55115,128,2,55425:0:0:0:0:
192,192,55115,1,4,0:0:0:0:
448,192,55115,1,0,0:0:0:0:
320,192,55270,1,0,0:0:0:0:
192,192,55425,1,8,0:0:0:0:
448,192,55425,1,0,0:0:0:0:
448,192,55581,128,0,55892:0:0:0:0:
64,192,55736,1,2,0:0:0:0:
192,192,55736,1,0,0:0:0:0:
192,192,55892,1,2,0:0:0:0:
320,192,55892,1,0,0:0:0:0:
320,192,56047,1,8,0:0:0:0:
448,192,56047,1,0,0:0:0:0:
192,192,56203,1,0,0:0:0:0:
64,192,56358,1,2,0:0:0:0:
320,192,56358,128,0,56669:0:0:0:0:
448,192,56513,1,0,0:0:0:0:
64,192,56669,1,8,0:0:0:0:
192,192,56669,1,0,0:0:0:0:
192,192,56824,128,0,57135:0:0:0:0:
320,192,56980,1,2,0:0:0:0:
448,192,56980,1,0,0:0:0:0:
64,192,57135,1,2,0:0:0:0:
448,192,57135,1,0,0:0:0:0:
64,192,57291,1,8,0:0:0:0:
192,192,57291,1,0,0:0:0:0:
320,192,57446,1,0,0:0:0:0:
64,192,57602,1,2,0:0:0:0:
448,192,57602,128,0,57912:0:0:0:0:
192,192,57757,1,0,0:0:0:0:
64,192,57912,1,8,0:0:0:0:
320,192,57912,1,0,0:0:0:0:
64,192,58068,128,0,58379:0:0:0:0:
320,192,58223,1,2,0:0:0:0:
448,192,58223,1,0,0:0:0:0:
192,192,58379,1,2,0:0:0:0:
448,192,58379,1,0,0:0:0:0:
64,192,58534,1,8,0:0:0:0:
320,192,58534,1,0,0:0:0:0:
192,192,58690,128,0,58845:0:0:0:0:
64,192,58845,1,2,0:0:0:0:
448,192,58845,128,0,59156:0:0:0:0:
320,192,59001,1,0,0:0:0:0:
64,192,59156,1,8,0:0:0:0:
192,192,59156,1,0,0:0:0:0:
320,192,59311,128,0,59467:0:0:0:0:
192,192,59467,128,2,59622:0:0:0:0:
448,192,59467,1,0,0:0:0:0:
64,192,59622,128,2,59778:0:0:0:0:
320,192,59622,1,0,0:0:0:0:
192,192,59778,1,8,0:0:0:0:
448,192,59778,128,0,59933:0:0:0:0:
320,192,59933,128,0,60089:0:0:0:0:
64,192,60089,1,2,0:0:0:0:
192,192,60089,128,4,60399:0:0:0:0:
448,192,60089,1,0,0:0:0:0:
320,192,60244,1,0,0:0:0:0:
64,192,60399,1,8,0:0:0:0:
448,192,60399,1,0,0:0:0:0:
448,192,60555,128,0,60866:0:0:0:0:
192,192,60710,1,2,0:0:0:0:
320,192,60710,1,0,0:0:0:0:
64,192,60866,128,2,61177:0:0:0:0:
192,192,60866,1,0,0:0:0:0:
320,192,61021,1,8,0:0:0:0:
448,192,61021,1,0,0:0:0:0:
192,192,61177,1,0,0:0:0:0:
64,192,61332,1,2,0:0:0:0:
448,192,61332,128,0,61643:0:0:0:0:
320,192,61488,1,0,0:0:0:0:
64,192,61643,1,8,0:0:0:0:
192,192,61643,1,0,0:0:0:0:
192,192,61798,128,0,62109:0:0:0:0:
320,192,61954,1,2,0:0:0:0:
448,192,61954,1,0,0:0:0:0:
64,192,62109,1,2,0:0:0:0:
448,192,62109,1,0,0:0:0:0:
64,192,62265,1,8,0:0:0:0:
192,192,62265,1,0,0:0:0:0:
320,192,62420,1,0,0:0:0:0:
192,192,62576,1,2,0:0:0:0:
448,192,62576,1,0,0:0:0:0:
192,192,62731,1,0,0:0:0:0:
64,192,62887,1,8,0:0:0:0:
320,192,62887,1,0,0:0:0:0:
320,192,63042,1,0,0:0:0:0:
64,192,63197,1,2,0:0:0:0:
448,192,63197,128,0,63508:0:0:0:0:
192,192,63353,1,2,0:0:0:0:
320,192,63353,1,0,0:0:0:0:
64,192,63508,1,8,0:0:0:0:
192,192,63508,1,0,0:0:0:0:
320,192,63664,128,0,63975:0:0:0:0:
64,192,63819,1,2,0:0:0:0:
448,192,63819,1,0,0:0:0:0:
192,192,63975,1,0,0:0:0:0:
64,192,64130,1,8,0:0:0:0:
448,192,64130,1,0,0:0:0:0:
64,192,64286,128,0,64752:0:0:0:0:
192,192,64441,1,2,0:0:0:0:
320,192,64441,1,0,0:0:0:0:
320,192,64596,1,2,0:0:0:0:
448,192,64596,1,0,0:0:0:0:
192,192,64752,1,8,0:0:0:0:
448,192,64752,1,0,0:0:0:0:
320,192,64907,128,0,65063:0:0:0:0:
64,192,65063,1,4,0:0:0:0:
192,192,65063,1,2,0:0:0:0:
448,192,65063,128,0,65374:0:0:0:0:
320,192,65218,1,0,0:0:0:0:
64,192,65374,1,8,0:0:0:0:
192,192,65374,1,0,0:0:0:0:
192,192,65529,128,0,65840:0:0:0:0:
64,192,65684,1,2,0:0:0:0:
448,192,65684,1,0,0:0:0:0:
320,192,65840,128,2,65995:0:0:0:0:
448,192,65840,1,0,0:0:0:0:
64,192,65995,1,8,0:0:0:0:
192,192,65995,1,0,0:0:0:0:
448,192,66151,1,0,0:0:0:0:
64,192,66306,128,2,66617:0:0:0:0:
320,192,66306,1,0,0:0:0:0:
192,192,66462,1,0,0:0:0:0:
320,192,66617,1,8,0:0:0:0:
448,192,66617,1,0,0:0:0:0:
448,192,66773,128,0,67083:0:0:0:0:
64,192,66928,1,2,0:0:0:0:
192,192,66928,1,0,0:0:0:0:
64,192,67083,128,2,67394:0:0:0:0:
320,192,67083,1,0,0:0:0:0:
320,192,67239,1,8,0:0:0:0:
448,192,67239,1,0,0:0:0:0:
192,192,67394,1,0,0:0:0:0:
64,192,67550,1,2,0:0:0:0:
320,192,67550,128,0,67861:0:0:0:0:
448,192,67705,1,0,0:0:0:0:
64,192,67861,1,8,0:0:0:0:
192,192,67861,1,0,0:0:0:0:
192,192,68016,128,0,68327:0:0:0:0:
320,192,68172,1,2,0:0:0:0:
448,192,68172,1,0,0:0:0:0:
64,192,68327,1,2,0:0:0:0:
448,192,68327,1,0,0:0:0:0:
64,192,68482,1,8,0:0:0:0:
192,192,68482,1,0,0:0:0:0:
320,192,68638,1,0,0:0:0:0:
64,192,68793,128,2,68949:0:0:0:0:
448,192,68793,1,0,0:0:0:0:
192,192,68949,128,0,69104:0:0:0:0:
64,192,69104,1,8,0:0:0:0:
320,192,69104,128,0,69260:0:0:0:0:
448,192,69260,128,0,69415:0:0:0:0:
64,192,69415,1,2,0:0:0:0:
192,192,69415,1,0,0:0:0:0:
192,192,69570,1,2,0:0:0:0:
320,192,69570,1,0,0:0:0:0:
320,192,69726,128,8,69881:0:0:0:0:
448,192,69726,1,0,0:0:0:0:
192,192,69881,128,0,70037:0:0:0:0:
64,192,70037,1,4,0:0:0:0:
320,192,70037,1,2,0:0:0:0:
448,192,70037,1,0,0:0:0:0:
448,192,70192,1,0,0:0:0:0:
64,192,70348,1,8,0:0:0:0:
192,192,70348,1,0,0:0:0:0:
64,192,70503,1,0,0:0:0:0:
320,192,70659,1,2,0:0:0:0:
448,192,70659,1,0,0:0:0:0:
64,192,70814,1,2,0:0:0:0:
448,192,70814,1,0,0:0:0:0:
64,192,70969,1,8,0:0:0:0:
192,192,70969,1,0,0:0:0:0:
192,192,71125,1,0,0:0:0:0:
320,192,71280,1,2,0:0:0:0:
448,192,71280,1,0,0:0:0:0:
320,192,71436,1,0,0:0:0:0:
192,192,71591,1,8,0:0:0:0:
448,192,71591,1,0,0:0:0:0:
192,192,71747,1,0,0:0:0:0:
64,192,71902,1,2,0:0:0:0:
320,192,71902,1,0,0:0:0:0:
320,192,72058,1,2,0:0:0:0:
448,192,72058,1,0,0:0:0:0:
64,192,72213,1,8,0:0:0:0:
448,192,72213,1,0,0:0:0:0:
64,192,72368,1,0,0:0:0:0:
192,192,72524,1,2,0:0:0:0:
448,192,72524,128,0,72835:0:0:0:0:
320,192,72679,1,0,0:0:0:0:
64,192,72835,1,8,0:0:0:0:
192,192,72835,1,0,0:0:0:0:
64,192,72990,128,0,73301:0:0:0:0:
320,192,73146,1,2,0:0:0:0:
448,192,73146,1,0,0:0:0:0:
192,192,73301,1,2,0:0:0:0:
320,192,73301,1,0,0:0:0:0:
64,192,73456,1,8,0:0:0:0:
192,192,73456,1,0,0:0:0:0:
320,192,73612,128,0,73767:0:0:0:0:
64,192,73767,1,2,0:0:0:0:
448,192,73767,128,0,73923:0:0:0:0:
192,192,73923,128,0,74078:0:0:0:0:
320,192,74078,128,8,74234:0:0:0:0:
448,192,74078,1,0,0:0:0:0:
64,192,74234,128,0,74389:0:0:0:0:
192,192,74389,128,2,74545:0:0:0:0:
320,192,74389,1,0,0:0:0:0:
64,192,74545,1,2,0:0:0:0:
448,192,74545,128,0,74700:0:0:0:0:
192,192,74700,1,8,0:0:0:0:
320,192,74700,128,0,75011:0:0:0:0:
64,192,75011,1,2,0:0:0:0:
192,192,75011,1,4,0:0:0:0:
448,192,75011,1,0,0:0:0:0:
64,192,75166,1,2,0:0:0:0:
192,192,75166,1,0,0:0:0:0:
320,192,75322,1,8,0:0:0:0:
448,192,75322,1,0,0:0:0:0:
64,192,75477,1,0,0:0:0:0:
320,192,75633,1,2,0:0:0:0:
448,192,75633,1,0,0:0:0:0:
320,192,75788,1,2,0:0:0:0:
448,192,75788,1,0,0:0:0:0:
64,192,75944,1,8,0:0:0:0:
192,192,75944,1,0,0:0:0:0:
448,192,76099,1,0,0:0:0:0:
64,192,76254,1,2,0:0:0:0:
320,192,76254,1,0,0:0:0:0:
64,192,76410,1,2,0:0:0:0:
320,192,76410,1,0,0:0:0:0:
192,192,76565,1,8,0:0:0:0:
448,192,76565,1,0,0:0:0:0:
320,192,76721,1,0,0:0:0:0:
192,192,76876,1,2,0:0:0:0:
448,192,76876,1,0,0:0:0:0:
192,192,77032,1,2,0:0:0:0:
448,192,77032,1,0,0:0:0:0:
64,192,77187,1,8,0:0:0:0:
320,192,77187,1,0,0:0:0:0:
192,192,77343,1,0,0:0:0:0:
64,192,77498,128,4,77809:0:0:0:0:
320,192,77498,1,2,0:0:0:0:
448,192,77498,1,0,0:0:0:0:
192,192,77653,1,0,0:0:0:0:
320,192,77809,1,8,0:0:0:0:
448,192,77809,1,0,0:0:0:0:
448,192,77964,128,0,78275:0:0:0:0:
64,192,78120,1,2,0:0:0:0:
192,192,78120,1,0,0:0:0:0:
192,192,78275,1,2,0:0:0:0:
320,192,78275,128,0,78586:0:0:0:0:
64,192,78431,1,8,0:0:0:0:
448,192,78431,1,0,0:0:0:0:
192,192,78586,1,0,0:0:0:0:
64,192,78741,1,2,0:0:0:0:
448,192,78741,128,0,79052:0:0:0:0:
320,192,78897,1,0,0:0:0:0:
64,192,79052,1,8,0:0:0:0:
192,192,79052,128,0,79363:0:0:0:0:
320,192,79208,128,0,79363:0:0:0:0:
64,192,79363,128,2,79985:0:0:0:0:
448,192,79363,1,0,0:0:0:0:
192,192,79519,1,2,0:0:0:0:
320,192,79519,1,0,0:0:0:0:
320,192,79674,1,8,0:0:0:0:
448,192,79674,1,0,0:0:0:0:
192,192,79830,1,0,0:0:0:0:
192,192,79985,1,2,0:0:0:0:
320,192,79985,1,4,0:0:0:0:
448,192,79985,1,0,0:0:0:0:
64,192,80140,1,0,0:0:0:0:
192,192,80296,1,8,0:0:0:0:
448,192,80296,128,0,80607:0:0:0:0:
320,192,80451,1,0,0:0:0:0:
64,192,80607,1,2,0:0:0:0:
192,192,80607,128,0,80918:0:0:0:0:
320,192,80762,1,2,0:0:0:0:
448,192,80762,1,0,0:0:0:0:
64,192,80918,1,8,0:0:0:0:
448,192,80918,1,0,0:0:0:0:
192,192,81073,1,0,0:0:0:0:
320,192,81229,128,2,81539:0:0:0:0:
448,192,81229,1,0,0:0:0:0:
192,192,81384,1,0,0:0:0:0:
64,192,81539,1,8,0:0:0:0:
448,192,81539,1,0,0:0:0:0:
64,192,81695,128,0,82006:0:0:0:0:
320,192,81850,1,2,0:0:0:0:
448,192,81850,1,0,0:0:0:0:
192,192,82006,1,2,0:0:0:0:
448,192,82006,128,0,82317:0:0:0:0:
64,192,82161,1,8,0:0:0:0:
192,192,82161,1,0,0:0:0:0:
320,192,82317,1,0,0:0:0:0:
192,192,82472,128,2,82783:0:0:0:0:
448,192,82472,1,0,0:0:0:0:
64,192,82627,1,0,0:0:0:0:
320,192,82783,1,8,0:0:0:0:
448,192,82783,1,0,0:0:0:0:
320,192,82938,128,0,83249:0:0:0:0:
64,192,83094,1,2,0:0:0:0:
192,192,83094,1,0,0:0:0:0:
64,192,83249,1,2,0:0:0:0:
448,192,83249,1,0,0:0:0:0:
192,192,83405,1,8,0:0:0:0:
320,192,83405,1,4,0:0:0:0:
448,192,83405,1,0,0:0:0:0:
64,192,83560,1,2,0:0:0:0:
192,192,83560,1,0,0:0:0:0:
320,192,83716,1,8,0:0:0:0:
448,192,83716,1,0,0:0:0:0:
64,192,83793,1,8,0:0:0:0:
192,192,83793,1,0,0:0:0:0:
320,192,83871,1,2,0:0:0:0:
448,192,83949,1,2,0:0:0:0:
64,192,84026,1,2,0:0:0:0:
192,192,84104,1,2,0:0:0:0:
64,192,84182,1,4,0:0:0:0:
320,192,84182,1,8,0:0:0:0:
448,192,84182,1,0,0:0:0:0:
64,192,84337,1,8,0:0:0:0:
320,192,84337,1,4,0:0:0:0:
448,192,84337,1,0,0:0:0:0:
192,192,84493,1,2,0:0:0:0:
320,192,84493,1,0,0:0:0:0:
64,192,84648,1,8,0:0:0:0:
192,192,84648,1,0,0:0:0:0:
448,192,84687,1,8,0:0:0:0:
64,192,84804,1,2,0:0:0:0:
192,192,84804,1,0,0:0:0:0:
64,192,84959,1,4,0:0:0:0:
320,192,84959,1,8,0:0:0:0:
448,192,84959,128,0,85115:0:0:0:0:
192,192,85115,128,0,85270:0:0:0:0:
64,192,85270,128,2,85425:0:0:0:0:
320,192,85270,1,0,0:0:0:0:
192,192,85425,1,8,0:0:0:0:
448,192,85425,128,0,85581:0:0:0:0:
320,192,85581,128,0,85736:0:0:0:0:
64,192,85736,1,2,0:0:0:0:
192,192,85736,1,0,0:0:0:0:
64,192,85892,128,8,86047:0:0:0:0:
448,192,85892,1,0,0:0:0:0:
192,192,86047,128,0,86203:0:0:0:0:
320,192,86203,128,8,86358:0:0:0:0:
448,192,86203,1,0,0:0:0:0:
64,192,86358,1,0,0:0:0:0:
320,192,86513,1,2,0:0:0:0:
448,192,86513,1,0,0:0:0:0:
64,192,86669,1,8,0:0:0:0:
192,192,86669,128,0,86824:0:0:0:0:
320,192,86824,128,0,86980:0:0:0:0:
64,192,86980,1,2,0:0:0:0:
448,192,86980,128,0,87135:0:0:0:0:
192,192,87135,128,8,87291:0:0:0:0:
320,192,87135,1,0,0:0:0:0:
64,192,87291,128,0,87446:0:0:0:0:
320,192,87446,1,8,0:0:0:0:
448,192,87446,128,0,87602:0:0:0:0:
192,192,87602,128,0,87757:0:0:0:0:
64,192,87757,128,2,87912:0:0:0:0:
448,192,87757,1,0,0:0:0:0:
192,192,87912,1,8,0:0:0:0:
320,192,87912,128,0,88068:0:0:0:0:
448,192,88068,128,0,88223:0:0:0:0:
64,192,88223,1,2,0:0:0:0:
192,192,88223,128,0,88379:0:0:0:0:
320,192,88379,128,8,88534:0:0:0:0:
448,192,88379,1,0,0:0:0:0:
64,192,88534,128,0,88690:0:0:0:0:
320,192,88690,1,8,0:0:0:0:
448,192,88690,128,0,88845:0:0:0:0:
64,192,88845,128,0,89001:0:0:0:0:
192,192,89001,128,2,89156:0:0:0:0:
320,192,89001,1,0,0:0:0:0:
64,192,89156,1,8,0:0:0:0:
448,192,89156,128,0,89311:0:0:0:0:
320,192,89311,128,0,89467:0:0:0:0:
192,192,89467,1,2,0:0:0:0:
448,192,89467,1,0,0:0:0:0:
64,192,89622,1,8,0:0:0:0:
192,192,89622,128,0,89778:0:0:0:0:
320,192,89778,128,2,89933:0:0:0:0:
448,192,89778,1,0,0:0:0:0:
64,192,89933,1,8,0:0:0:0:
192,192,89933,1,4,0:0:0:0:
448,192,89933,128,0,90089:0:0:0:0:
64,192,90089,128,0,90244:0:0:0:0:
192,192,90244,128,2,90399:0:0:0:0:
320,192,90244,1,0,0:0:0:0:
64,192,90399,1,8,0:0:0:0:
448,192,90399,128,0,90555:0:0:0:0:
320,192,90555,128,0,90710:0:0:0:0:
192,192,90710,1,2,0:0:0:0:
448,192,90710,1,0,0:0:0:0:
64,192,90866,128,8,91021:0:0:0:0:
320,192,90866,1,0,0:0:0:0:
192,192,91021,128,0,91177:0:0:0:0:
320,192,91177,128,8,91332:0:0:0:0:
448,192,91177,1,0,0:0:0:0:
64,192,91332,1,0,0:0:0:0:
320,192,91488,1,2,0:0:0:0:
448,192,91488,1,0,0:0:0:0:
64,192,91643,1,8,0:0:0:0:
192,192,91643,128,0,91798:0:0:0:0:
320,192,91798,128,0,91954:0:0:0:0:
64,192,91954,1,2,0:0:0:0:
448,192,91954,128,0,92109:0:0:0:0:
192,192,92109,128,8,92265:0:0:0:0:
320,192,92109,1,0,0:0:0:0:
64,192,92265,128,0,92420:0:0:0:0:
320,192,92420,1,8,0:0:0:0:
448,192,92420,128,0,92576:0:0:0:0:
192,192,92576,128,0,92731:0:0:0:0:
64,192,92731,128,2,92887:0:0:0:0:
448,192,92731,1,0,0:0:0:0:
192,192,92887,1,8,0:0:0:0:
320,192,92887,128,0,93042:0:0:0:0:
448,192,93042,128,0,93197:0:0:0:0:
64,192,93197,128,2,93353:0:0:0:0:
192,192,93197,1,0,0:0:0:0:
320,192,93353,128,8,93508:0:0:0:0:
448,192,93353,1,0,0:0:0:0:
64,192,93508,1,2,0:0:0:0:
192,192,93508,128,0,93664:0:0:0:0:
320,192,93664,1,8,0:0:0:0:
448,192,93664,128,0,93819:0:0:0:0:
64,192,93819,128,0,93975:0:0:0:0:
192,192,93975,128,2,94130:0:0:0:0:
320,192,93975,1,0,0:0:0:0:
64,192,94130,1,8,0:0:0:0:
448,192,94130,128,0,94286:0:0:0:0:
320,192,94286,128,0,94441:0:0:0:0:
64,192,94441,1,2,0:0:0:0:
192,192,94441,1,0,0:0:0:0:
64,192,94596,1,8,0:0:0:0:
192,192,94596,128,4,94752:0:0:0:0:
448,192,94596,1,0,0:0:0:0:
320,192,94752,128,0,94907:0:0:0:0:
64,192,94907,128,0,95218:0:0:0:0:
320,192,95063,128,0,95218:0:0:0:0:
192,192,95218,128,0,95529:0:0:0:0:
448,192,95374,128,0,95529:0:0:0:0:
320,192,95529,128,0,95840:0:0:0:0:
64,192,95684,128,0,95840:0:0:0:0:
192,192,95840,128,0,95995:0:0:0:0:
64,192,95995,128,2,99684:0:0:0:0:
320,192,95995,128,4,99684:0:0:0:0:
448,192,95995,128,0,99684:0:0:0:0:
64,192,99845,128,8,100005:0:0:0:0:
192,192,99845,128,4,100005:0:0:0:0:
448,192,99845,128,0,100005:0:0:0:0:
