osu file format v14

[General]
AudioFilename: audio.mp3
AudioLeadIn: 0
PreviewTime: 54804
Countdown: 0
SampleSet: Soft
StackLeniency: 0.7
Mode: 3
LetterboxInBreaks: 0
SpecialStyle: 0
WidescreenStoryboard: 1

[Editor]
Bookmarks: 374,6591,17783,27731,37679,47627,55089,74985,84933,94881,99819
DistanceSpacing: 0.8
BeatDivisor: 4
GridSize: 8
TimelineZoom: 2.2

[Metadata]
Title:ETERNITY (feat. Ouse Akira) (Short Ver.)
TitleUnicode:ETERNITY (feat. 逢瀬アキラ) (Short Ver.)
Artist:cittan*
ArtistUnicode:cittan*
Creator:Claren
Version:Eve Morningstar (Easy)
Source:キラキラモンスターズ
Tags:Sprite:Wall Reminisphere: Full Circle SweepRecord WORKS from "LAMUNATION!" & "KIRAKIRA MONSTARS" 田中文久 Fumihisa Tanaka White Powder キラモン Kiramon KRMN VN Visual Novel Japanese Rock j-rock jrock pop jpop j-pop SRIN-1167 SRCD-016 vocal アリサ a.k.a HOUND GIRL ハウンドガール イヴ=モーニングスター フラン ヴェネディクト=V=ヴァーミリオン
BeatmapID:3637616
BeatmapSetID:1564921

[Difficulty]
HPDrainRate:6.8
CircleSize:4
OverallDifficulty:6.8
ApproachRate:5
SliderMultiplier:1.4
SliderTickRate:1

[Events]
//Background and Video events
0,0,"Eve Morningstar.png",0,0
//Break Periods
//Storyboard Layer 0 (Background)
//Storyboard Layer 1 (Fail)
//Storyboard Layer 2 (Pass)
//Storyboard Layer 3 (Foreground)
//Storyboard Layer 4 (Overlay)
//Storyboard Sound Samples

[TimingPoints]
400,310.880829015544,4,2,1,70,1,0
55115,-100.0,4,2,1,70,0,1
84959,-100.0,4,2,1,70,0,0
95995,320.855614973262,6,2,1,70,1,0
95995,-97.0873786407767,6,2,1,70,0,0

[HitObjects]
64,192,400,1,4,0:0:0:0:
192,192,400,1,8,0:0:0:0:
320,192,710,1,2,0:0:0:0:
64,192,866,1,8,0:0:0:0:
320,192,1177,1,2,0:0:0:0:
64,192,1332,1,8,0:0:0:0:
448,192,1643,1,8,0:0:0:0:
192,192,1954,1,2,0:0:0:0:
448,192,2109,1,8,0:0:0:0:
192,192,2420,1,2,0:0:0:0:
448,192,2576,1,8,0:0:0:0:
320,192,2887,1,8,0:0:0:0:
192,192,3197,1,2,0:0:0:0:
320,192,3353,1,8,0:0:0:0:
192,192,3664,1,2,0:0:0:0:
320,192,3819,1,8,0:0:0:0:
64,192,4130,1,8,0:0:0:0:
448,192,4441,1,2,0:0:0:0:
64,192,4596,1,8,0:0:0:0:
448,192,4907,1,2,0:0:0:0:
64,192,5063,1,8,0:0:0:0:
192,192,5218,1,8,0:0:0:0:
320,192,5374,128,0,5684:0:0:0:0:
64,192,5684,128,0,5995:0:0:0:0:
448,192,5995,128,0,6306:0:0:0:0:
192,192,6306,128,0,6617:0:0:0:0:
320,192,6617,1,2,0:0:0:0:
448,192,6617,1,4,0:0:0:0:
64,192,6928,1,8,0:0:0:0:
448,192,7239,1,2,0:0:0:0:
320,192,7394,1,2,0:0:0:0:
192,192,7550,1,8,0:0:0:0:
448,192,7861,1,2,0:0:0:0:
320,192,8172,1,8,0:0:0:0:
64,192,8482,1,2,0:0:0:0:
192,192,8638,1,2,0:0:0:0:
320,192,8793,1,8,0:0:0:0:
448,192,9104,1,2,0:0:0:0:
192,192,9415,1,8,0:0:0:0:
320,192,9726,1,2,0:0:0:0:
64,192,9881,1,2,0:0:0:0:
192,192,10037,1,8,0:0:0:0:
448,192,10348,1,2,0:0:0:0:
192,192,10659,1,8,0:0:0:0:
64,192,10969,1,2,0:0:0:0:
448,192,11125,1,2,0:0:0:0:
320,192,11280,1,8,0:0:0:0:
64,192,11591,1,2,0:0:0:0:
192,192,11591,1,4,0:0:0:0:
320,192,11902,1,8,0:0:0:0:
192,192,12213,1,2,0:0:0:0:
64,192,12368,1,2,0:0:0:0:
448,192,12524,1,8,0:0:0:0:
192,192,12835,1,2,0:0:0:0:
64,192,13146,1,8,0:0:0:0:
320,192,13456,1,2,0:0:0:0:
448,192,13612,1,2,0:0:0:0:
64,192,13767,1,8,0:0:0:0:
192,192,14078,1,2,0:0:0:0:
448,192,14389,1,8,0:0:0:0:
320,192,14700,1,2,0:0:0:0:
192,192,14855,1,2,0:0:0:0:
64,192,15011,1,8,0:0:0:0:
320,192,15322,1,2,0:0:0:0:
192,192,15633,1,8,0:0:0:0:
448,192,15944,1,2,0:0:0:0:
320,192,16099,1,2,0:0:0:0:
192,192,16254,128,12,16565:0:0:0:0:
448,192,16565,1,2,0:0:0:0:
64,192,17032,1,2,0:0:0:0:
320,192,17343,1,2,0:0:0:0:
192,192,17498,1,8,0:0:0:0:
64,192,17809,1,2,0:0:0:0:
448,192,17809,1,4,0:0:0:0:
192,192,18120,1,2,0:0:0:0:
320,192,18431,1,2,0:0:0:0:
448,192,18741,1,2,0:0:0:0:
192,192,19052,1,2,0:0:0:0:
64,192,19363,1,2,0:0:0:0:
320,192,19674,1,2,0:0:0:0:
192,192,19985,1,2,0:0:0:0:
448,192,20296,1,2,0:0:0:0:
320,192,20607,1,2,0:0:0:0:
64,192,20918,1,2,0:0:0:0:
192,192,21229,1,2,0:0:0:0:
448,192,21539,1,2,0:0:0:0:
64,192,21850,1,2,0:0:0:0:
320,192,22161,1,2,0:0:0:0:
448,192,22472,1,2,0:0:0:0:
64,192,22783,1,2,0:0:0:0:
192,192,22783,1,4,0:0:0:0:
320,192,23094,1,2,0:0:0:0:
448,192,23405,1,2,0:0:0:0:
192,192,23716,1,2,0:0:0:0:
64,192,24026,1,2,0:0:0:0:
320,192,24337,1,2,0:0:0:0:
192,192,24648,1,2,0:0:0:0:
448,192,24959,1,2,0:0:0:0:
64,192,25270,1,2,0:0:0:0:
320,192,25270,1,4,0:0:0:0:
192,192,25581,1,2,0:0:0:0:
448,192,25892,1,2,0:0:0:0:
320,192,26203,1,2,0:0:0:0:
64,192,26513,1,2,0:0:0:0:
192,192,26824,1,2,0:0:0:0:
320,192,27135,1,2,0:0:0:0:
448,192,27446,1,8,0:0:0:0:
320,192,27602,1,8,0:0:0:0:
64,192,27757,1,2,0:0:0:0:
192,192,27757,1,4,0:0:0:0:
192,192,28068,1,8,0:0:0:0:
320,192,28379,1,2,0:0:0:0:
320,192,28690,1,8,0:0:0:0:
64,192,29001,1,2,0:0:0:0:
64,192,29311,1,8,0:0:0:0:
448,192,29622,1,2,0:0:0:0:
448,192,29933,1,8,0:0:0:0:
192,192,30244,1,2,0:0:0:0:
192,192,30555,1,8,0:0:0:0:
320,192,30866,1,2,0:0:0:0:
320,192,31177,1,8,0:0:0:0:
64,192,31488,1,2,0:0:0:0:
64,192,31798,1,8,0:0:0:0:
448,192,32109,1,2,0:0:0:0:
448,192,32420,128,8,32731:0:0:0:0:
64,192,32731,1,2,0:0:0:0:
192,192,32731,1,4,0:0:0:0:
64,192,33042,1,8,0:0:0:0:
448,192,33353,1,2,0:0:0:0:
192,192,33508,1,2,0:0:0:0:
448,192,33664,1,8,0:0:0:0:
320,192,33975,1,2,0:0:0:0:
320,192,34286,1,8,0:0:0:0:
64,192,34596,1,2,0:0:0:0:
448,192,34752,1,2,0:0:0:0:
64,192,34907,1,8,0:0:0:0:
192,192,35218,1,2,0:0:0:0:
192,192,35529,1,8,0:0:0:0:
320,192,35840,1,2,0:0:0:0:
64,192,35995,1,2,0:0:0:0:
320,192,36151,1,8,0:0:0:0:
448,192,36462,1,2,0:0:0:0:
64,192,36617,1,2,0:0:0:0:
192,192,36773,1,8,0:0:0:0:
320,192,36928,1,2,0:0:0:0:
64,192,37083,128,12,37394:0:0:0:0:
448,192,37394,1,8,0:0:0:0:
320,192,37550,1,2,0:0:0:0:
64,192,37705,1,8,0:0:0:0:
192,192,37705,1,4,0:0:0:0:
320,192,38016,1,2,0:0:0:0:
192,192,38172,1,8,0:0:0:0:
320,192,38482,1,2,0:0:0:0:
192,192,38638,1,8,0:0:0:0:
448,192,38949,1,8,0:0:0:0:
64,192,39260,1,2,0:0:0:0:
448,192,39415,1,8,0:0:0:0:
64,192,39726,1,2,0:0:0:0:
448,192,39881,1,8,0:0:0:0:
320,192,40192,1,8,0:0:0:0:
64,192,40503,1,2,0:0:0:0:
320,192,40659,1,8,0:0:0:0:
64,192,40969,1,2,0:0:0:0:
320,192,41125,1,8,0:0:0:0:
192,192,41436,1,8,0:0:0:0:
448,192,41747,1,2,0:0:0:0:
192,192,41902,1,8,0:0:0:0:
448,192,42213,1,2,0:0:0:0:
192,192,42368,1,8,0:0:0:0:
320,192,42524,1,2,0:0:0:0:
64,192,42679,1,8,0:0:0:0:
448,192,42679,1,4,0:0:0:0:
320,192,42990,1,2,0:0:0:0:
64,192,43146,1,8,0:0:0:0:
320,192,43456,1,2,0:0:0:0:
64,192,43612,1,8,0:0:0:0:
192,192,43923,1,8,0:0:0:0:
320,192,44234,1,2,0:0:0:0:
192,192,44389,1,8,0:0:0:0:
320,192,44700,1,2,0:0:0:0:
192,192,44855,1,8,0:0:0:0:
448,192,45166,1,8,0:0:0:0:
192,192,45477,1,2,0:0:0:0:
448,192,45633,1,8,0:0:0:0:
192,192,45944,1,2,0:0:0:0:
448,192,46099,1,8,0:0:0:0:
320,192,46254,1,2,0:0:0:0:
64,192,46410,128,2,46721:0:0:0:0:
192,192,46410,1,4,0:0:0:0:
448,192,46721,128,12,47032:0:0:0:0:
64,192,47032,1,8,0:0:0:0:
192,192,47187,1,2,0:0:0:0:
448,192,47343,1,2,0:0:0:0:
320,192,47498,1,2,0:0:0:0:
64,192,47653,1,2,0:0:0:0:
192,192,47653,1,4,0:0:0:0:
448,192,48275,128,0,48897:0:0:0:0:
64,192,48897,128,0,49519:0:0:0:0:
320,192,49519,128,0,49830:0:0:0:0:
192,192,49830,128,0,50140:0:0:0:0:
448,192,50140,128,0,50451:0:0:0:0:
192,192,50451,1,0,0:0:0:0:
64,192,50659,128,0,51384:0:0:0:0:
448,192,51384,1,0,0:0:0:0:
320,192,51695,128,0,52006:0:0:0:0:
192,192,52006,128,0,52317:0:0:0:0:
64,192,52317,128,0,52627:0:0:0:0:
448,192,52627,128,0,53560:0:0:0:0:
64,192,53560,1,0,0:0:0:0:
192,192,53716,128,0,54493:0:0:0:0:
448,192,54493,1,0,0:0:0:0:
320,192,54804,128,0,55115:0:0:0:0:
64,192,55115,128,2,55425:0:0:0:0:
192,192,55115,1,4,0:0:0:0:
448,192,55425,1,8,0:0:0:0:
64,192,55736,1,2,0:0:0:0:
192,192,55892,1,2,0:0:0:0:
320,192,56047,1,8,0:0:0:0:
448,192,56358,128,2,56669:0:0:0:0:
64,192,56669,1,8,0:0:0:0:
448,192,56980,1,2,0:0:0:0:
320,192,57135,1,2,0:0:0:0:
192,192,57291,1,8,0:0:0:0:
320,192,57602,128,2,57912:0:0:0:0:
64,192,57912,1,8,0:0:0:0:
192,192,58223,1,2,0:0:0:0:
448,192,58379,1,2,0:0:0:0:
320,192,58534,1,8,0:0:0:0:
64,192,58845,1,2,0:0:0:0:
448,192,59156,1,8,0:0:0:0:
192,192,59467,1,2,0:0:0:0:
320,192,59622,1,2,0:0:0:0:
64,192,59778,1,8,0:0:0:0:
192,192,60089,128,2,60399:0:0:0:0:
448,192,60089,1,4,0:0:0:0:
320,192,60399,1,8,0:0:0:0:
64,192,60710,1,2,0:0:0:0:
448,192,60866,1,2,0:0:0:0:
192,192,61021,1,8,0:0:0:0:
320,192,61332,128,2,61643:0:0:0:0:
64,192,61643,1,8,0:0:0:0:
448,192,61954,1,2,0:0:0:0:
64,192,62109,1,2,0:0:0:0:
320,192,62265,1,8,0:0:0:0:
192,192,62576,1,2,0:0:0:0:
448,192,62887,1,8,0:0:0:0:
320,192,63197,1,2,0:0:0:0:
64,192,63353,1,2,0:0:0:0:
192,192,63508,1,8,0:0:0:0:
448,192,63819,1,2,0:0:0:0:
320,192,64130,1,8,0:0:0:0:
64,192,64441,1,2,0:0:0:0:
448,192,64596,1,2,0:0:0:0:
192,192,64752,1,8,0:0:0:0:
64,192,65063,128,4,65374:0:0:0:0:
320,192,65063,1,2,0:0:0:0:
448,192,65374,1,8,0:0:0:0:
192,192,65684,1,2,0:0:0:0:
320,192,65840,1,2,0:0:0:0:
64,192,65995,1,8,0:0:0:0:
192,192,66306,128,2,66617:0:0:0:0:
448,192,66617,1,8,0:0:0:0:
320,192,66928,1,2,0:0:0:0:
64,192,67083,1,2,0:0:0:0:
192,192,67239,1,8,0:0:0:0:
448,192,67550,128,2,67861:0:0:0:0:
192,192,67861,1,8,0:0:0:0:
64,192,68172,1,2,0:0:0:0:
320,192,68327,1,2,0:0:0:0:
448,192,68482,1,8,0:0:0:0:
64,192,68793,1,2,0:0:0:0:
192,192,69104,1,8,0:0:0:0:
448,192,69415,1,2,0:0:0:0:
320,192,69570,1,2,0:0:0:0:
64,192,69726,1,8,0:0:0:0:
192,192,70037,1,4,0:0:0:0:
448,192,70037,1,2,0:0:0:0:
320,192,70348,1,8,0:0:0:0:
64,192,70659,1,2,0:0:0:0:
448,192,70814,1,2,0:0:0:0:
192,192,70969,1,8,0:0:0:0:
320,192,71280,1,2,0:0:0:0:
64,192,71591,1,8,0:0:0:0:
448,192,71902,1,2,0:0:0:0:
192,192,72058,1,2,0:0:0:0:
320,192,72213,1,8,0:0:0:0:
64,192,72524,128,2,72835:0:0:0:0:
448,192,72835,1,8,0:0:0:0:
192,192,73146,1,2,0:0:0:0:
64,192,73301,1,2,0:0:0:0:
320,192,73456,1,8,0:0:0:0:
448,192,73767,1,2,0:0:0:0:
64,192,74078,1,8,0:0:0:0:
192,192,74389,1,2,0:0:0:0:
320,192,74545,1,2,0:0:0:0:
448,192,74700,128,8,75011:0:0:0:0:
64,192,75011,1,2,0:0:0:0:
192,192,75011,1,4,0:0:0:0:
320,192,75166,1,2,0:0:0:0:
64,192,75322,1,8,0:0:0:0:
448,192,75633,1,2,0:0:0:0:
192,192,75788,1,2,0:0:0:0:
448,192,75944,1,8,0:0:0:0:
320,192,76254,1,2,0:0:0:0:
64,192,76410,1,2,0:0:0:0:
320,192,76565,1,8,0:0:0:0:
192,192,76876,1,2,0:0:0:0:
448,192,77032,1,2,0:0:0:0:
192,192,77187,1,8,0:0:0:0:
320,192,77498,128,4,77809:0:0:0:0:
448,192,77498,1,2,0:0:0:0:
64,192,77809,1,8,0:0:0:0:
192,192,78120,1,2,0:0:0:0:
448,192,78275,1,2,0:0:0:0:
320,192,78431,1,8,0:0:0:0:
64,192,78741,128,2,79052:0:0:0:0:
448,192,79052,128,8,79363:0:0:0:0:
64,192,79363,1,2,0:0:0:0:
192,192,79519,1,2,0:0:0:0:
320,192,79674,1,8,0:0:0:0:
64,192,79985,1,2,0:0:0:0:
192,192,79985,1,4,0:0:0:0:
320,192,80296,128,8,80607:0:0:0:0:
64,192,80607,1,2,0:0:0:0:
448,192,80762,1,2,0:0:0:0:
192,192,80918,1,8,0:0:0:0:
64,192,81229,128,2,81539:0:0:0:0:
320,192,81539,1,8,0:0:0:0:
448,192,81850,1,2,0:0:0:0:
192,192,82006,1,2,0:0:0:0:
320,192,82161,1,8,0:0:0:0:
448,192,82472,128,2,82783:0:0:0:0:
192,192,82783,1,8,0:0:0:0:
64,192,83094,1,2,0:0:0:0:
448,192,83249,1,2,0:0:0:0:
192,192,83405,1,12,0:0:0:0:
448,192,83716,1,8,0:0:0:0:
320,192,83871,1,2,0:0:0:0:
64,192,84026,1,2,0:0:0:0:
192,192,84182,1,12,0:0:0:0:
320,192,84337,1,12,0:0:0:0:
192,192,84648,1,8,0:0:0:0:
320,192,84804,1,2,0:0:0:0:
64,192,84959,1,4,0:0:0:0:
448,192,84959,1,8,0:0:0:0:
192,192,85270,1,2,0:0:0:0:
320,192,85425,1,8,0:0:0:0:
192,192,85736,1,2,0:0:0:0:
320,192,85892,1,8,0:0:0:0:
64,192,86203,1,8,0:0:0:0:
320,192,86513,1,2,0:0:0:0:
64,192,86669,1,8,0:0:0:0:
320,192,86980,1,2,0:0:0:0:
64,192,87135,1,8,0:0:0:0:
192,192,87446,1,8,0:0:0:0:
448,192,87757,1,2,0:0:0:0:
192,192,87912,1,8,0:0:0:0:
448,192,88223,1,2,0:0:0:0:
192,192,88379,1,8,0:0:0:0:
448,192,88690,1,8,0:0:0:0:
64,192,89001,1,2,0:0:0:0:
448,192,89156,1,8,0:0:0:0:
64,192,89467,1,2,0:0:0:0:
448,192,89622,1,8,0:0:0:0:
320,192,89778,1,2,0:0:0:0:
64,192,89933,1,8,0:0:0:0:
192,192,89933,1,4,0:0:0:0:
320,192,90244,1,2,0:0:0:0:
64,192,90399,1,8,0:0:0:0:
320,192,90710,1,2,0:0:0:0:
64,192,90866,1,8,0:0:0:0:
192,192,91177,1,8,0:0:0:0:
448,192,91488,1,2,0:0:0:0:
192,192,91643,1,8,0:0:0:0:
448,192,91954,1,2,0:0:0:0:
192,192,92109,1,8,0:0:0:0:
448,192,92420,1,8,0:0:0:0:
64,192,92731,1,2,0:0:0:0:
448,192,92887,1,8,0:0:0:0:
64,192,93197,1,2,0:0:0:0:
448,192,93353,1,8,0:0:0:0:
192,192,93508,1,2,0:0:0:0:
320,192,93664,1,8,0:0:0:0:
192,192,93975,1,2,0:0:0:0:
320,192,94130,1,8,0:0:0:0:
192,192,94441,1,2,0:0:0:0:
320,192,94596,128,12,94907:0:0:0:0:
64,192,94907,128,0,95218:0:0:0:0:
192,192,95218,128,0,95529:0:0:0:0:
448,192,95529,1,0,0:0:0:0:
320,192,95684,1,0,0:0:0:0:
64,192,95840,1,0,0:0:0:0:
320,192,95995,128,2,99845:0:0:0:0:
448,192,95995,128,4,99845:0:0:0:0:
64,192,99845,1,8,0:0:0:0:
192,192,99845,1,4,0:0:0:0:
