osu file format v14

[General]
AudioFilename: audio.mp3
AudioLeadIn: 0
PreviewTime: 73787
Countdown: 0
SampleSet: Soft
StackLeniency: 0.8
Mode: 0
LetterboxInBreaks: 0
WidescreenStoryboard: 1

[Editor]
Bookmarks: 2847,17392,31937,46483,61028,75574,89210,90119,98528,104665,119210,131028,133756,148301,162847,173756,188301,202847,217392
DistanceSpacing: 1
BeatDivisor: 4
GridSize: 16
TimelineZoom: 1.1

[Metadata]
Title:summertime
TitleUnicode:summertime
Artist:cinnamons x evening cinema
ArtistUnicode:cinnamons × evening cinema
Creator:Foxy Grandpa
Version:normal
Source:
Tags:FoxyGrandpa Nathan sukiNathan Battle Plaudible j-pop japanese pop tsukunem
BeatmapID:2747094
BeatmapSetID:1239626

[Difficulty]
HPDrainRate:3
CircleSize:3.2
OverallDifficulty:4.5
ApproachRate:5
SliderMultiplier:1.3
SliderTickRate:1

[Events]
//Background and Video events
Video,0,"summertime.mp4"
0,0,"summertime.jpg",0,0
//Break Periods
2,104783,117928
2,188419,200946
//Storyboard Layer 0 (Background)
//Storyboard Layer 1 (Fail)
//Storyboard Layer 2 (Pass)
//Storyboard Layer 3 (Foreground)
//Storyboard Layer 4 (Overlay)
//Storyboard Sound Samples

[TimingPoints]
1174,454.545454545455,4,2,1,40,1,0
2765,454.545454545455,4,2,1,50,1,0
2765,-100,4,2,1,50,0,0
16174,-100,4,2,1,60,0,0
17310,-100,4,2,1,70,0,1
20208,-100,4,2,1,5,0,1
20265,-100,4,2,1,70,0,1
23844,-100,4,2,1,5,0,1
23901,-100,4,2,1,70,0,1
26571,-100,4,2,1,5,0,1
26628,-100,4,2,1,70,0,1
28674,-100,4,2,1,70,0,0
29128,-100,4,2,1,70,0,0
29242,-100,4,2,1,5,0,0
29355,-100,4,2,1,70,0,0
29469,-100,4,2,1,5,0,0
29583,-100,4,2,1,70,0,0
29696,-100,4,2,1,5,0,0
29810,-100,4,2,1,70,0,0
29924,-100,4,2,1,5,0,0
30037,-100,4,2,1,70,0,0
30833,-100,4,2,1,5,0,0
30946,-100,4,2,1,70,0,0
31855,-100,4,2,1,60,0,0
44583,-100,4,2,1,60,0,0
46401,-100,4,2,1,70,0,0
60946,-100,4,2,1,70,0,0
62310,-100,4,2,2,85,0,0
62765,-100,4,2,1,70,0,0
64128,-100,4,2,2,85,0,0
64583,-100,4,2,1,70,0,0
65946,-100,4,2,2,85,0,0
66401,-100,4,2,1,70,0,0
67765,-100,4,2,2,85,0,0
68219,-100,4,2,1,70,0,0
75037,-100,4,2,1,70,0,0
75492,-100,4,2,1,70,0,1
81628,-100,4,2,1,70,0,1
81969,-100,4,2,1,5,0,1
82083,-100,4,2,2,85,0,1
82310,-100,4,2,2,85,0,1
82765,-100,4,2,1,70,0,1
86855,-100,4,2,1,70,0,1
87310,-100,4,2,1,70,0,1
87765,-100,4,2,1,70,0,1
88446,-100,4,2,1,70,0,1
100946,-100,4,2,1,70,0,0
101855,-100,4,2,1,70,0,0
101969,-100,4,2,1,5,0,0
102083,-100,4,2,1,70,0,0
102196,-100,4,2,1,5,0,0
102310,-100,4,2,1,70,0,0
102424,-100,4,2,1,5,0,0
102537,-100,4,2,1,70,0,0
102651,-100,4,2,1,5,0,0
102765,-100,4,2,1,70,0,0
103219,-100,4,2,1,70,0,0
103560,-100,4,2,1,5,0,0
103674,-100,4,2,1,70,0,0
104583,-100,4,2,1,70,0,0
118219,-100,4,2,1,70,0,0
119128,-100,4,2,1,70,0,0
133674,-100,4,2,1,70,0,0
135037,-100,4,2,2,85,0,0
135492,-100,4,2,1,70,0,0
136855,-100,4,2,2,85,0,0
137310,-100,4,2,1,70,0,0
138674,-100,4,2,2,85,0,0
139128,-100,4,2,1,70,0,0
140492,-100,4,2,2,85,0,0
140946,-100,4,2,1,70,0,0
148219,-100,4,2,1,70,0,1
154355,-100,4,2,1,70,0,1
154696,-100,4,2,1,5,0,1
154810,-100,4,2,2,85,0,1
155037,-100,4,2,2,85,0,1
155492,-100,4,2,1,70,0,1
159128,-100,4,2,1,70,0,1
159583,-100,4,2,1,70,0,1
160037,-100,4,2,1,70,0,1
160492,-100,4,2,1,70,0,1
162765,-100,4,2,1,70,0,1
171855,-100,4,2,1,50,0,0
173276,-100,4,2,1,5,0,0
173674,-100,4,2,1,70,0,0
180265,-100,4,2,2,70,0,0
180946,-100,4,2,1,70,0,0
181401,-100,4,2,1,70,0,0
185492,-100,4,2,1,70,0,0
185605,-100,4,2,1,5,0,0
185719,-100,4,2,1,70,0,0
185833,-100,4,2,1,5,0,0
185946,-100,4,2,1,70,0,0
186060,-100,4,2,1,5,0,0
186174,-100,4,2,1,70,0,0
186287,-100,4,2,1,5,0,0
186401,-100,4,2,1,5,0,0
186628,-100,4,2,1,70,0,0
202310,-100,4,2,1,70,0,0
202651,-100,4,2,1,5,0,0
202765,-100,4,2,1,70,0,1
205719,-100,4,2,2,85,0,1
206174,-100,4,2,2,70,0,1
206401,-100,4,2,1,70,0,1
209355,-100,4,2,1,70,0,1
210265,-100,4,2,1,70,0,1
213674,-100,4,2,1,70,0,0
214583,-100,4,2,1,70,0,0
214696,-100,4,2,1,5,0,0
214810,-100,4,2,1,70,0,0
214924,-100,4,2,1,5,0,0
215037,-100,4,2,1,70,0,0
215151,-100,4,2,1,5,0,0
215265,-100,4,2,1,70,0,0
215378,-100,4,2,1,5,0,0
215492,-100,4,2,1,70,0,0
215946,-100,4,2,1,70,0,0
217310,-100,4,2,1,70,0,1
220208,-100,4,2,1,5,0,1
220265,-100,4,2,1,70,0,1
223844,-100,4,2,1,5,0,1
223901,-100,4,2,1,70,0,1
226571,-100,4,2,1,5,0,1
226628,-100,4,2,1,70,0,1
228674,-100,4,2,1,70,0,0
229128,-100,4,2,1,70,0,0
229299,-100,4,2,1,5,0,0
229355,-100,4,2,1,70,0,0
229526,-100,4,2,1,5,0,0
229583,-100,4,2,1,70,0,0
229753,-100,4,2,1,5,0,0
229810,-100,4,2,1,70,0,0
229980,-100,4,2,1,5,0,0
230037,-100,4,2,1,70,0,0
230492,-100,4,2,1,70,0,0
230833,-100,4,2,1,5,0,0
230946,-100,4,2,1,70,0,0
231969,-100,4,2,1,30,0,0

[Colours]
Combo1 : 138,191,206
Combo2 : 255,197,157
Combo3 : 255,128,128
Combo4 : 168,180,236

[HitObjects]
228,162,2765,6,0,P|288:142|350:160,2,130,6|0|2,0:0|1:0|0:0,0:0:0:0:
198,262,4128,1,2,1:2:0:0:
103,305,4583,2,0,P|60:261|64:192,1,130,0|0,0:0|1:0,0:0:0:0:
89,151,5265,1,0,0:0:0:0:
89,151,5492,2,0,P|119:160|144:184,2,65,2|0|2,0:0|0:0|1:2,0:0:0:0:
32,63,6401,6,0,B|58:44|91:60|91:60|119:77|168:66,1,130,6|0,0:0|1:0,0:0:0:0:
259,51,7310,2,0,P|281:128|234:172,1,130,2|2,0:0|1:2,0:0:0:0:
159,207,8219,2,0,P|171:286|232:306,1,130,0|0,0:0|1:0,0:0:0:0:
262,301,8901,2,0,B|300:287|339:298|399:344,1,130,2|0,0:0|0:0,0:0:0:0:
426,360,9583,1,2,1:2:0:0:
464,263,10037,5,6,0:0:0:0:
430,164,10492,1,0,1:0:0:0:
330,132,10946,1,0,0:0:0:0:
227,147,11401,2,0,P|185:147|151:136,1,65,0|2,0:0|0:0,0:0:0:0:
115,120,11855,2,0,P|131:177|109:258,1,130,6|0,0:0|1:0,0:0:0:0:
87,290,12537,1,2,0:0:0:0:
87,290,12765,2,0,P|150:329|204:329,1,130,2|0,0:0|1:0,0:0:0:0:
308,324,13674,6,0,B|322:268|368:298|412:238|398:187|347:166|324:172|289:215|289:215|270:165|244:169|200:173|200:219|232:239,1,390,4|0,0:0|1:0,0:0:0:0:
227,235,16174,5,0,1:0:0:0:
227,235,16401,2,0,P|258:228|281:203,1,65,2|10,3:2|0:0,0:0:0:0:
342,186,16855,2,0,P|311:179|288:154,1,65,10|8,0:0|1:0,0:0:0:0:
273,92,17310,6,0,B|338:92|338:92|341:96|341:96|410:96,2,130,6|10|6,3:2|0:0|3:2,0:0:0:0:
147,101,18674,1,8,0:0:0:0:
147,101,18901,2,0,P|149:196|181:237,1,130,2|2,0:0|0:0,0:0:0:0:
227,246,19583,1,8,0:0:0:0:
227,246,19810,2,0,P|293:239|344:292,1,130,6|2,0:0|0:0,0:0:0:0:
369,335,20492,1,10,0:0:0:0:
411,212,20946,6,0,P|456:158|533:153,2,130,6|10|6,3:2|0:0|3:2,0:0:0:0:
346,326,22310,1,8,0:0:0:0:
346,326,22537,2,0,P|330:251|339:189,1,130,2|2,0:0|0:0,0:0:0:0:
370,73,23446,2,0,L|230:73,1,130,6|2,0:0|0:0,0:0:0:0:
174,74,24128,1,10,0:0:0:0:
44,84,24583,6,0,B|14:138|14:138|25:168|25:168|27:206,2,130,6|10|6,3:2|0:0|3:2,0:0:0:0:
145,165,25946,1,8,0:0:0:0:
145,165,26174,2,0,P|155:225|142:307,1,130,2|2,0:0|0:0,0:0:0:0:
139,357,26855,2,0,L|211:348,1,65,10|2,0:0|0:0,0:0:0:0:
249,303,27310,2,0,L|321:312,1,65,2|2,3:2|0:0,0:0:0:0:
362,354,27765,1,10,0:0:0:0:
449,258,28219,6,0,B|422:229|422:229|323:215,1,130,6|8,3:2|0:0,0:0:0:0:
222,286,29128,2,0,P|208:254|223:223,1,65,2|2,3:2|3:2,0:0:0:0:
261,178,29583,2,0,P|265:153|260:112,1,65,10|6,0:0|3:2,0:0:0:0:
170,19,30265,1,0,3:0:0:0:
170,19,30492,2,0,B|230:4|231:37|310:20,2,130,14|8|8,0:0|0:0|0:0,0:0:0:0:
40,32,31855,6,0,P|102:92|98:147,1,130,6|8,3:2|0:0,0:0:0:0:
98,235,32765,2,0,P|143:279|206:279,1,130,2|10,3:2|0:0,0:0:0:0:
291,220,33674,2,0,P|245:175|182:175,2,130,6|10|0,3:2|0:0|3:0,0:0:0:0:
332,315,35037,1,8,0:0:0:0:
393,230,35492,6,0,P|400:146|375:100,1,130,6|10,3:2|0:0,0:0:0:0:
290,54,36401,2,0,L|152:55,1,130,2|8,3:2|0:0,0:0:0:0:
107,54,37083,1,2,0:0:0:0:
107,54,37310,2,0,B|110:120|110:120|114:124|114:124|117:191,1,130,6|10,3:2|0:0,0:0:0:0:
124,286,38219,1,0,3:0:0:0:
224,313,38674,1,10,0:0:0:0:
289,232,39128,6,0,P|324:214|355:209,2,65,6|2|10,3:2|0:0|0:0,0:0:0:0:
199,178,40037,2,0,P|164:196|133:201,2,65,2|2|10,3:2|0:0|0:0,0:0:0:0:
216,75,40946,2,0,P|251:57|282:52,2,65,6|0|8,3:2|0:0|0:0,0:0:0:0:
122,121,41855,1,0,3:0:0:0:
61,205,42310,1,10,0:0:0:0:
108,297,42765,6,0,P|164:307|250:292,1,130,6|10,3:2|0:0,0:0:0:0:
323,240,43674,1,0,3:0:0:0:
394,315,44128,1,8,0:0:0:0:
479,255,44583,2,0,P|500:174|489:121,1,130,6|10,3:2|0:0,0:0:0:0:
431,45,45492,1,0,3:0:0:0:
388,140,45946,1,10,0:0:0:0:
316,64,46401,6,0,P|307:131|333:197,1,130,6|10,3:2|0:0,0:0:0:0:
394,268,47310,2,0,P|329:296|266:274,1,130,2|8,3:2|0:0,0:0:0:0:
207,201,48219,2,0,P|272:173|335:195,2,130,6|10|0,3:2|0:0|3:0,0:0:0:0:
122,264,49583,1,8,0:0:0:0:
43,196,50037,6,0,L|36:67,1,130,6|10,3:2|0:0,0:0:0:0:
31,14,50719,1,2,3:2:0:0:
31,14,50946,2,0,P|119:15|159:30,1,130,2|10,3:2|0:0,0:0:0:0:
216,115,51855,2,0,P|304:114|344:99,1,130,6|10,3:2|0:0,0:0:0:0:
416,25,52765,1,0,3:0:0:0:
458,119,53219,1,10,0:0:0:0:
409,210,53674,6,0,P|410:256|416:282,2,65,6|2|10,3:2|0:0|0:0,0:0:0:0:
316,162,54583,2,0,P|315:116|309:90,2,65,2|0|8,3:2|0:0|0:0,0:0:0:0:
241,234,55492,2,0,P|242:280|248:306,2,65,6|2|10,3:2|0:0|0:0,0:0:0:0:
206,135,56401,1,0,3:0:0:0:
107,100,56855,1,10,0:0:0:0:
18,155,57310,6,0,P|6:232|26:284,1,130,6|10,3:2|0:0,0:0:0:0:
113,332,58219,1,0,3:2:0:0:
204,282,58674,1,8,0:0:0:0:
271,361,59128,2,0,P|327:318|329:260,1,130,6|10,3:2|0:0,0:0:0:0:
307,215,59810,1,0,3:0:0:0:
307,215,60037,1,0,3:2:0:0:
365,128,60492,1,10,0:0:0:0:
261,122,60946,6,0,B|241:113|213:109|213:109|182:121|182:121|161:125|121:110,2,130,6|10|2,3:2|0:0|3:2,0:0:0:0:
307,215,62310,1,14,0:0:0:0:
369,131,62765,2,0,P|407:245|307:320,1,260,6|2,3:2|3:2,0:0:0:0:
213,277,64128,1,14,0:0:0:0:
110,260,64583,6,0,P|87:294|123:373,2,130,6|10|2,3:2|0:0|3:2,0:0:0:0:
183,186,65946,1,14,0:0:0:0:
103,118,66401,2,0,B|166:76|224:108|224:108|295:144|357:99,1,260,6|0,3:2|3:0,0:0:0:0:
433,43,67765,1,14,0:0:0:0:
433,146,68219,6,0,L|432:289,1,130,2|10,3:2|0:0,0:0:0:0:
428,328,68901,1,2,0:0:0:0:
428,328,69128,2,0,P|342:333|298:308,1,130,2|8,3:2|0:0,0:0:0:0:
233,238,70037,1,6,3:2:0:0:
131,262,70492,1,8,0:0:0:0:
68,179,70946,2,0,P|24:213|10:258,2,97.5,2|2|2,3:2|0:0|0:0,0:0:0:0:
119,170,71855,6,0,P|181:165|233:107,1,130,6|8,3:2|0:0,0:0:0:0:
235,67,72537,1,0,3:0:0:0:
235,67,72765,2,0,P|295:54|347:100,1,130,0|8,3:0|0:0,0:0:0:0:
358,144,73446,1,14,0:0:0:0:
358,144,75037,1,4,3:0:0:0:
326,270,75492,6,0,P|273:250|261:165,1,130,6|10,3:2|0:0,0:0:0:0:
251,58,76401,2,0,B|180:49|187:87|109:62,1,130,2|10,3:2|0:0,0:0:0:0:
62,43,77083,2,0,B|52:77|52:77|53:181,1,130,6|6,0:0|0:0,0:0:0:0:
50,301,77992,1,0,0:0:0:0:
50,301,78219,2,0,P|93:302|121:294,1,65,2|0,3:2|0:0,0:0:0:0:
153,244,78674,2,0,P|196:243|224:251,1,65,10|0,0:0|0:0,0:0:0:0:
254,301,79128,6,0,P|307:324|381:288,2,130,6|10|2,3:2|0:0|3:2,0:0:0:0:
206,179,80492,1,10,0:0:0:0:
206,179,80719,2,0,P|273:168|340:182,1,130,6|6,0:0|0:0,0:0:0:0:
388,214,81401,1,8,0:0:0:0:
388,214,81628,2,0,B|430:186|418:109|358:91|274:93,1,195,2|14,0:0|0:0,0:0:0:0:
175,93,82765,5,6,3:2:0:0:
79,181,83219,1,10,0:0:0:0:
103,308,83674,1,2,3:2:0:0:
228,358,84128,1,10,0:0:0:0:
228,358,84355,2,0,P|297:336|324:286,1,130,6|6,0:0|0:0,0:0:0:0:
311,158,85265,2,0,P|242:180|215:230,2,130,6|6|6,0:0|0:0|0:0,0:0:0:0:
375,156,86401,6,0,B|393:107|365:63|365:63|468:121|459:253|365:316,1,390,6|10,3:2|0:2,0:0:0:0:
247,331,88219,1,0,3:0:0:0:
178,219,88674,1,10,0:0:0:0:
236,103,89128,2,0,P|263:90|298:90,1,65,10|0,0:0|0:0,0:0:0:0:
359,109,89583,1,10,0:0:0:0:
298,223,90037,6,0,P|210:236|171:213,1,130,6|10,3:2|0:0,0:0:0:0:
87,123,90946,2,0,B|85:187|85:187|89:191|89:191|88:256,1,130,2|10,3:2|0:0,0:0:0:0:
83,316,91628,2,0,B|119:334|119:334|173:332|173:332|209:311,1,130,6|6,0:0|0:0,0:0:0:0:
306,233,92537,1,0,0:0:0:0:
306,233,92765,2,0,P|330:261|340:290,2,65,2|0|10,3:2|0:0|0:0,0:0:0:0:
202,153,93674,6,0,P|220:97|290:83,1,130,6|10,3:2|0:0,0:0:0:0:
387,160,94583,2,0,P|369:216|299:230,1,130,2|10,3:2|0:0,0:0:0:0:
243,210,95265,2,0,P|179:204|128:242,1,130,2|2,0:0|0:0,0:0:0:0:
98,299,95946,1,14,0:0:0:0:
212,360,96401,1,0,3:0:0:0:
212,360,96628,6,0,L|295:361,2,65,10|10|2,0:0|0:0|0:0,0:0:0:0:
98,299,97537,2,0,L|15:300,2,65,2|10|2,0:0|0:0|0:0,0:0:0:0:
212,238,98446,2,0,L|295:239,2,65,2|10|2,0:0|0:0|0:0,0:0:0:0:
89,192,99355,1,2,0:0:0:0:
195,117,99810,1,2,0:0:0:0:
314,167,100265,1,2,0:0:0:0:
424,99,100719,1,2,0:0:0:0:
424,99,100946,6,0,P|436:164|428:242,1,130,0|8,3:0|0:0,0:0:0:0:
352,295,101855,2,0,P|320:309|289:294,1,65,2|2,3:2|3:2,0:0:0:0:
244,256,102310,2,0,P|219:252|178:257,1,65,10|6,0:0|3:2,0:0:0:0:
57,293,102992,1,0,3:0:0:0:
57,293,103219,2,0,P|41:222|57:155,2,130,14|8|8,0:0|0:0|0:0,0:0:0:0:
157,370,104583,5,6,3:2:0:0:
173,308,119128,6,0,P|204:253|179:186,1,130,6|10,3:2|0:0,0:0:0:0:
155,156,119810,1,2,3:2:0:0:
155,156,120037,2,0,P|220:128|283:150,1,130,2|8,3:2|0:0,0:0:0:0:
327,233,120946,2,0,P|335:303|385:346,2,130,6|10|0,3:2|0:0|3:0,0:0:0:0:
374,140,122310,1,8,0:0:0:0:
467,185,122764,6,0,B|471:236|471:236|468:245|468:245|474:314,1,130,6|10,3:2|0:0,0:0:0:0:
481,370,123446,1,2,3:2:0:0:
481,370,123673,2,0,P|393:369|353:354,1,130,2|10,3:2|0:0,0:0:0:0:
296,269,124582,2,0,P|208:270|168:285,1,130,6|10,3:2|0:0,0:0:0:0:
96,359,125492,1,0,3:2:0:0:
54,265,125946,1,10,0:0:0:0:
103,174,126401,6,0,P|102:128|96:102,2,65,6|2|10,3:2|0:0|0:0,0:0:0:0:
196,222,127310,2,0,P|197:268|203:294,2,65,2|0|8,3:2|0:0|0:0,0:0:0:0:
271,150,128219,2,0,P|270:104|264:78,2,65,6|2|10,3:2|0:0|0:0,0:0:0:0:
306,249,129128,1,0,3:0:0:0:
405,284,129582,1,10,0:0:0:0:
494,229,130037,6,0,P|506:152|486:100,1,130,6|10,3:2|0:0,0:0:0:0:
399,52,130946,1,0,3:0:0:0:
308,102,131401,1,8,0:0:0:0:
241,23,131855,2,0,P|185:66|183:124,1,130,6|10,3:2|0:0,0:0:0:0:
205,169,132537,1,0,3:0:0:0:
205,169,132764,1,0,3:0:0:0:
147,256,133219,1,10,0:0:0:0:
244,291,133674,6,0,B|264:285|286:293|286:293|296:236|337:214,2,130,6|8|2,3:2|0:0|3:2,0:0:0:0:
145,324,135037,1,14,0:0:0:0:
73,248,135492,2,0,B|42:218|78:168|133:171|133:171|136:174|136:174|178:171|212:148|212:108|197:86,1,260,6|2,3:2|3:2,0:0:0:0:
117,20,136855,1,14,0:0:0:0:
220,12,137310,6,0,L|367:15,1,130,6|10,3:2|0:0,0:0:0:0:
454,12,138219,1,2,3:2:0:0:
413,107,138674,1,14,0:0:0:0:
475,189,139128,2,0,B|492:230|464:273|464:273|373:239|382:305|269:270,1,260,6|0,3:2|3:0,0:0:0:0:
192,290,140492,1,14,0:0:0:0:
110,354,140946,6,0,P|89:291|106:229,1,130,2|10,3:2|0:0,0:0:0:0:
138,191,141628,1,2,0:0:0:0:
138,191,141855,2,0,P|204:207|280:183,1,130,2|8,3:2|0:0,0:0:0:0:
319,104,142765,1,6,3:2:0:0:
387,181,143219,1,8,0:0:0:0:
419,82,143674,2,0,P|471:61|531:55,2,97.5,2|2|2,3:2|0:0|0:0,0:0:0:0:
368,93,144583,6,0,P|281:101|235:78,1,130,6|8,3:2|0:0,0:0:0:0:
198,58,145265,1,2,3:2:0:0:
198,58,145492,2,0,P|107:65|64:112,1,130,2|10,3:2|0:0,0:0:0:0:
53,133,146174,1,14,0:0:0:0:
53,133,147765,1,4,3:0:0:0:
57,262,148219,6,0,B|79:276|79:276|155:276|155:276|179:263,1,130,6|10,3:2|0:0,0:0:0:0:
272,171,149128,2,0,B|298:184|298:184|319:224|308:282,1,130,2|10,3:2|0:0,0:0:0:0:
303,347,149810,2,0,P|380:351|425:318,1,130,6|6,0:0|0:0,0:0:0:0:
438,193,150719,1,2,0:0:0:0:
438,193,150946,2,0,P|424:164|394:139,1,65,2|2,3:2|0:0,0:0:0:0:
334,147,151401,2,0,P|310:125|295:96,1,65,10|2,0:0|0:0,0:0:0:0:
296,31,151855,6,0,P|217:28|176:59,2,130,6|10|2,3:2|0:0|3:2,0:0:0:0:
419,71,153219,1,10,0:0:0:0:
419,71,153446,2,0,L|418:205,1,130,6|6,0:0|0:0,0:0:0:0:
414,266,154128,1,8,0:0:0:0:
414,266,154355,2,0,B|387:306|314:307|222:281,1,195,2|14,0:0|0:0,0:0:0:0:
107,238,155492,5,6,3:2:0:0:
85,109,155946,1,10,0:0:0:0:
185,26,156401,1,2,3:2:0:0:
316,54,156855,1,10,0:0:0:0:
316,54,157083,2,0,P|320:139|293:184,1,130,6|6,0:0|0:0,0:0:0:0:
182,233,157992,2,0,P|178:318|205:363,2,130,6|6|6,0:0|0:0|0:2,0:0:0:0:
209,174,159128,6,0,P|108:54|76:208,1,390,6|10,3:2|0:0,0:0:0:0:
167,301,160946,1,0,3:0:0:0:
286,249,161401,1,10,0:0:0:0:
368,349,161855,2,0,P|390:316|393:285,1,65,10|0,0:0|0:0,0:0:0:0:
392,225,162310,1,10,0:0:0:0:
360,99,162765,6,0,B|344:77|344:77|290:59|245:122,1,130,6|10,3:2|0:0,0:0:0:0:
276,238,163674,2,0,P|336:255|392:225,1,130,2|10,3:2|0:0,0:0:0:0:
433,175,164355,2,0,P|458:252|445:307,1,130,6|6,0:0|0:0,0:0:0:0:
338,365,165265,1,2,0:0:0:0:
338,365,165492,2,0,L|262:357,1,65,2|2,3:2|0:0,0:0:0:0:
228,310,165946,2,0,L|152:318,1,65,10|2,0:0|0:0,0:0:0:0:
100,334,166401,6,0,B|94:278|94:278|100:274|100:274|94:207,1,130,6|10,3:2|0:0,0:0:0:0:
22,98,167310,2,0,P|80:74|146:90,1,130,2|10,3:2|0:0,0:0:0:0:
183,139,167992,2,0,P|240:163|307:147,1,130,2|2,0:0|0:0,0:0:0:0:
356,110,168674,1,14,0:0:0:0:
470,171,169128,1,0,3:2:0:0:
470,171,169355,6,0,P|472:205|468:235,2,65,10|10|2,0:0|0:0|0:0,0:0:0:0:
356,110,170265,2,0,P|354:76|357:45,2,65,2|10|2,0:0|0:0|0:0,0:0:0:0:
242,171,171174,2,0,P|240:205|243:235,2,65,2|10|6,0:0|0:0|0:0,0:0:0:0:
240,106,171855,1,0,3:0:0:0:
130,35,172310,1,0,3:0:0:0:
28,116,172765,2,0,B|8:177|54:176|27:257,1,130,0|2,3:0|0:0,0:0:0:0:
33,373,173674,6,0,B|125:339|112:236|112:236|149:227|183:177|183:177|134:252|167:301,1,390,6|10,3:2|0:0,0:0:0:0:
271,362,175492,2,0,P|334:373|392:347,1,130,6|8,3:2|0:0,0:0:0:0:
469,241,176401,2,0,L|478:373,2,130,2|14|6,3:2|0:0|3:2,0:0:0:0:
464,176,177537,5,2,0:0:0:0:
464,176,177765,1,10,0:0:0:0:
381,75,178219,1,2,3:2:0:0:
381,75,178446,1,2,0:0:0:0:
269,144,178901,1,2,0:0:0:0:
269,144,179128,2,0,P|261:175|262:207,1,65,6|2,3:2|0:0,0:0:0:0:
297,262,179583,1,10,0:0:0:0:
297,262,179810,2,0,P|235:297|174:274,1,130,2|14,0:0|0:0,0:0:0:0:
128,244,180492,1,14,0:0:0:0:
85,121,180946,6,0,B|58:122|37:150|37:150|34:234,2,130,6|10|2,3:2|0:0|3:2,0:0:0:0:
205,170,182310,1,10,0:0:0:0:
313,97,182765,2,0,P|287:33|222:27,1,130,6|8,3:2|0:0,0:0:0:0:
114,77,183674,2,0,P|110:125|115:215,1,130,2|8,3:2|0:0,0:0:0:0:
88,334,184583,6,0,B|141:338|141:338|142:332|142:332|214:330,1,130,6|8,3:2|0:0,0:0:0:0:
343,327,185492,2,0,P|358:297|335:275,1,65,2|2,3:2|3:2,0:0:0:0:
286,238,185946,2,0,P|282:207|286:173,1,65,10|6,0:0|3:2,0:0:0:0:
292,47,186628,1,2,3:2:0:0:
292,47,186855,6,0,L|365:55,2,65,14|2|10,0:0|0:0|0:0,0:0:0:0:
233,34,187537,1,0,1:0:0:0:
233,34,187765,1,8,0:0:0:0:
238,137,188219,1,4,3:2:0:0:
109,94,202310,5,4,3:0:0:0:
54,212,202765,6,0,B|91:231|91:231|137:236|173:199,1,130,6|10,3:2|0:0,0:0:0:0:
249,97,203674,2,0,P|331:87|379:105,1,130,2|10,3:2|0:0,0:0:0:0:
415,152,204355,2,0,P|430:215|406:278,1,130,6|6,0:0|0:0,0:0:0:0:
301,348,205265,1,2,0:0:0:0:
301,348,205492,2,0,P|279:321|271:283,1,65,0|14,3:0|0:2,0:0:0:0:
249,231,205946,2,0,P|218:240|193:260,1,65,14|0,0:2|0:0,0:0:0:0:
163,318,206401,6,0,P|110:273|103:208,1,130,6|10,3:2|0:0,0:0:0:0:
179,111,207310,2,0,P|244:87|304:114,1,130,2|10,3:2|0:0,0:0:0:0:
326,167,207992,2,0,P|391:190|451:163,1,130,2|2,0:0|0:0,0:0:0:0:
480,114,208674,1,12,0:0:0:0:
504,241,209128,1,0,3:0:0:0:
504,241,209355,6,0,P|507:293|502:315,2,65,2|10|2,0:0|0:0|0:0,0:0:0:0:
379,201,210265,2,0,P|376:149|381:127,2,65,2|10|2,0:0|0:0|0:0,0:0:0:0:
261,256,211174,2,0,P|264:308|259:330,2,65,2|10|2,0:0|0:0|0:0,0:0:0:0:
211,135,212083,1,2,0:0:0:0:
81,135,212537,1,2,0:0:0:0:
53,262,212992,1,2,0:0:0:0:
163,329,213446,1,2,0:0:0:0:
163,329,213674,2,0,L|165:199,1,130,6|8,3:2|0:0,0:0:0:0:
167,68,214583,6,0,P|195:64|236:73,1,65,2|2,3:2|3:2,0:0:0:0:
288,40,215037,2,0,P|316:44|357:35,1,65,10|6,3:2|0:2,0:0:0:0:
384,168,215719,1,0,3:0:0:0:
384,168,215946,2,0,B|397:176|397:176|405:203|377:232,1,65,8|14,0:2|0:0,0:0:0:0:
325,248,216401,1,10,0:0:0:0:
195,244,216855,2,0,P|213:219|218:182,1,65,10|2,0:0|1:2,0:0:0:0:
188,127,217310,6,0,P|91:138|57:175,2,130,6|10|6,3:2|0:0|3:2,0:0:0:0:
314,155,218674,1,8,0:0:0:0:
313,155,218901,2,0,P|286:212|303:274,1,130,2|2,0:0|0:0,0:0:0:0:
365,306,219583,1,8,0:0:0:0:
365,306,219810,2,0,B|393:271|393:271|401:234|401:234|397:185,1,130,6|2,0:0|0:0,0:0:0:0:
388,122,220492,1,10,0:0:0:0:
264,82,220946,6,0,B|200:77|203:116|132:98,2,130,6|10|6,3:2|0:0|3:2,0:0:0:0:
326,202,222310,1,8,0:0:0:0:
326,202,222537,2,0,P|311:282|264:316,1,130,2|0,0:0|0:0,0:0:0:0:
149,281,223446,2,0,P|115:230|139:172,1,130,2|2,0:0|0:0,0:0:0:0:
192,135,224128,1,10,0:0:0:0:
124,23,224583,6,0,B|64:31|64:31|59:42|59:42|-11:47,2,130,6|10|6,3:2|0:0|3:2,0:0:0:0:
253,25,225946,1,8,0:0:0:0:
253,25,226174,2,0,B|290:46|306:100|289:157,1,130,2|2,0:0|0:0,0:0:0:0:
246,185,226855,2,0,P|268:204|310:214,1,65,10|2,0:0|0:0,0:0:0:0:
362,239,227310,2,0,P|353:270|332:295,1,65,2|2,3:2|0:0,0:0:0:0:
273,322,227765,1,10,0:0:0:0:
151,276,228219,6,0,P|144:209|203:203,1,130,6|8,3:2|0:0,0:0:0:0:
319,165,229128,2,0,B|346:147|346:147|356:116,1,65,2|2,3:2|3:2,0:0:0:0:
305,76,229583,2,0,B|277:93|277:93|267:124,1,65,10|6,0:0|3:2,0:0:0:0:
279,257,230265,1,0,3:0:0:0:
279,257,230492,2,0,P|339:253|376:181,2,130,14|8|8,0:0|0:0|0:0,0:0:0:0:
149,264,231855,5,6,0:0:0:0:
256,192,231969,12,2,237121,0:0:0:0:
