osu file format v14

[General]
AudioFilename: audio.mp3
AudioLeadIn: 0
PreviewTime: 52190
Countdown: 0
SampleSet: Soft
StackLeniency: 0.7
Mode: 0
LetterboxInBreaks: 0
WidescreenStoryboard: 1

[Editor]
Bookmarks: 195424
DistanceSpacing: 1
BeatDivisor: 8
GridSize: 32
TimelineZoom: 2.1

[Metadata]
Title:great escape
TitleUnicode:great escape
Artist:cinema staff
ArtistUnicode:cinema staff
Creator:Seto Kousuke
Version:Suou's Insane
Source:Shingeki no Kyojin
Tags:進撃の巨人 attack on titan ending japanese anime rock jrock 2019 new mix name of love shirahane suou
BeatmapID:1912769
BeatmapSetID:915864

[Difficulty]
HPDrainRate:5
CircleSize:4
OverallDifficulty:8
ApproachRate:9
SliderMultiplier:1.8
SliderTickRate:1

[Events]
//Background and Video events
0,0,"levi op.jpg",0,0
//Break Periods
2,12037,13845
2,168232,170041
//Storyboard Layer 0 (Background)
//Storyboard Layer 1 (Fail)
//Storyboard Layer 2 (Pass)
//Storyboard Layer 3 (Foreground)
//Storyboard Sound Samples

[TimingPoints]
98,326.086956521739,4,2,1,70,1,0
14445,-125,4,2,1,50,0,0
23721,326.086956521739,4,2,1,50,1,0
23721,-125,4,2,1,50,0,0
24880,326.086956521739,4,2,1,60,1,0
24880,-111.111111111111,4,2,1,60,0,0
35152,-125,4,2,1,60,0,0
52271,-100,4,2,1,70,0,1
71510,-222.222222222221,4,2,1,70,0,0
72815,326.086956521739,4,2,1,60,1,0
72815,-125,4,2,1,60,0,0
83249,-111.111111111111,4,2,1,60,0,0
93521,-125,4,2,1,60,0,0
107869,-125,4,2,1,40,0,0
107874,-125,4,2,1,40,0,0
108195,-125,4,2,1,45,0,0
108200,-125,4,2,1,45,0,0
108684,-125,4,2,1,50,0,0
108689,-125,4,2,1,50,0,0
109336,-125,4,2,1,60,0,0
109341,-125,4,2,1,60,0,0
109988,-125,4,2,1,65,0,0
109993,-125,4,2,1,65,0,0
110641,-100,4,2,1,70,0,1
128901,-125,4,2,1,50,0,0
136728,-111.111111111111,4,2,1,60,0,0
157602,-125,4,2,1,60,0,0
160206,-125,4,2,1,50,0,0
160211,-125,4,2,1,50,0,0
162814,-125,4,2,1,60,0,0
162819,-125,4,2,1,60,0,0
165423,-125,4,2,1,50,0,0
165428,-125,4,2,1,50,0,0
166075,-125,4,2,1,55,0,0
166080,-125,4,2,1,55,0,0
166728,-125,4,2,1,60,0,0
166733,-125,4,2,1,60,0,0
167380,-125,4,2,1,65,0,0
167385,-125,4,2,1,65,0,0
168032,-125,4,2,1,70,0,0
168037,-125,4,2,1,70,0,0
169586,-125,4,2,1,70,0,0
169662,-125,4,2,1,5,0,0
170641,-100,4,2,1,70,0,1
187271,-222.222222222221,4,2,1,70,0,0
188249,-100,4,2,1,70,0,0
189228,-222.222222222221,4,2,1,70,0,0
190206,-100,4,2,1,70,0,0
193141,-222.222222222221,4,2,1,70,0,0
194445,326.086956521739,4,2,1,70,1,0
194445,-100,4,2,1,70,0,0
198358,309.278350515464,4,2,1,60,1,0
198358,-100,4,2,1,60,0,0
199050,285.714285714286,4,2,1,60,1,0
199692,285.714285714286,4,2,1,60,1,0
200763,-222.222222222222,4,2,1,60,0,0
201334,-222.222222222222,4,2,1,5,0,0

[Colours]
Combo1 : 124,68,55
Combo2 : 167,154,60
Combo3 : 186,87,32
Combo4 : 104,155,88

[HitObjects]
147,143,98,5,4,0:2:0:0:
170,162,424,1,4,0:2:0:0:
193,181,750,1,4,0:2:0:0:
216,200,1076,1,4,0:2:0:0:
298,246,1402,6,0,P|335:261|389:241,1,90,4|0,3:2|1:0,0:0:0:0:
450,178,1728,2,0,P|456:155|451:130,3,45,8|0|0|0,0:2|1:0|1:0|1:0,0:0:0:0:
486,66,2054,2,0,P|473:45|452:31,3,45,8|0|0|0,0:2|1:0|1:0|1:0,0:0:0:0:
387,8,2380,1,8,0:2:0:0:
364,11,2462,1,0,1:0:0:0:
342,14,2543,1,0,1:0:0:0:
320,17,2625,1,0,1:0:0:0:
297,20,2706,6,0,L|205:33,1,90,4|0,3:2|1:0,0:0:0:0:
131,95,3032,2,0,P|126:116|130:143,3,45,8|0|0|0,0:2|1:0|1:0|1:0,0:0:0:0:
188,185,3358,2,0,P|193:206|189:233,3,45,8|0|0|0,0:2|1:0|1:0|1:0,0:0:0:0:
138,285,3684,1,8,0:2:0:0:
117,294,3766,1,0,1:0:0:0:
95,296,3847,1,0,1:0:0:0:
73,290,3929,1,0,1:0:0:0:
54,278,4011,6,0,L|36:187,1,90,4|0,3:2|1:0,0:0:0:0:
45,86,4337,2,0,L|54:35,3,45,8|0|0|0,0:2|1:0|1:0|1:0,0:0:0:0:
124,14,4663,2,0,L|131:58,3,45,8|0|0|0,0:2|1:0|1:0|1:0,0:0:0:0:
204,89,4989,1,8,0:2:0:0:
225,93,5070,1,0,1:0:0:0:
248,91,5152,1,0,1:0:0:0:
269,83,5233,1,0,1:0:0:0:
286,69,5315,6,0,P|289:113|301:158,1,90,4|0,3:2|1:0,0:0:0:0:
398,177,5641,2,0,P|422:176|444:182,3,45,8|0|0|0,0:2|1:0|1:0|1:0,0:0:0:0:
500,233,5967,1,8,0:2:0:0:
507,254,6049,1,0,1:0:0:0:
509,276,6130,1,0,1:0:0:0:
506,298,6212,1,0,1:0:0:0:
497,319,6293,1,8,0:2:0:0:
482,336,6375,1,0,1:0:0:0:
464,349,6456,1,0,1:0:0:0:
443,357,6538,1,0,1:0:0:0:
421,360,6619,6,0,P|375:348|331:362,1,90,4|0,3:2|1:0,0:0:0:0:
236,381,6945,2,0,L|232:323,3,45,8|0|0|0,0:2|1:0|1:0|1:0,0:0:0:0:
174,288,7271,2,0,L|178:230,3,45,8|0|0|0,0:2|1:0|1:0|1:0,0:0:0:0:
135,180,7597,1,8,0:2:0:0:
114,172,7679,1,0,1:0:0:0:
92,170,7761,1,0,1:0:0:0:
70,175,7842,1,0,1:0:0:0:
50,186,7924,6,0,L|43:275,1,90,4|0,3:2|1:0,0:0:0:0:
118,365,8250,2,0,P|147:369|178:362,3,45,8|0|0|0,0:2|1:0|1:0|1:0,0:0:0:0:
232,336,8576,2,0,P|254:334|276:338,3,45,8|0|0|0,0:2|1:0|1:0|1:0,0:0:0:0:
345,371,8902,1,8,0:2:0:0:
366,366,8983,1,0,1:0:0:0:
386,355,9065,1,0,1:0:0:0:
401,339,9146,1,0,1:0:0:0:
411,318,9228,6,0,L|397:219,1,90,4|0,3:2|1:0,0:0:0:0:
381,155,9472,1,0,1:0:0:0:
381,155,9554,2,0,P|333:137|290:150,1,90,8|0,0:2|1:0,0:0:0:0:
224,175,9799,1,0,1:0:0:0:
224,175,9880,2,0,P|197:131|155:116,1,90,8|0,0:2|1:0,0:0:0:0:
84,127,10125,1,0,1:0:0:0:
84,127,10206,2,0,L|99:21,1,90,8|0,0:2|1:0,0:0:0:0:
167,7,10451,1,0,1:0:0:0:
167,7,10532,6,0,P|218:-1|267:27,1,90,4|0,3:2|1:0,0:0:0:0:
330,68,10858,1,8,0:2:0:0:
419,30,11021,1,0,1:0:0:0:
496,96,11184,1,8,0:2:0:0:
503,117,11266,1,0,1:0:0:0:
506,140,11347,1,0,1:0:0:0:
502,161,11429,1,0,1:0:0:0:
492,181,11511,2,0,L|449:218,3,45,8|0|0|0,0:2|1:0|1:0|1:0,0:0:0:0:
365,293,11837,5,4,3:2:0:0:
364,273,14445,6,0,B|341:236|358:201|358:201|377:163|346:119,1,144,4|10,3:2|0:3,0:0:0:0:
253,44,14934,1,0,0:0:0:0:
253,44,15097,1,2,3:0:0:0:
216,172,15261,2,0,P|249:180|284:170,1,72,0|2,3:0|0:3,0:0:0:0:
169,94,15587,5,8,0:2:0:0:
169,94,15913,1,0,3:0:0:0:
125,172,16076,1,10,0:3:0:0:
80,95,16239,1,0,3:0:0:0:
216,172,16402,2,0,P|210:208|210:251,1,72,2|0,3:0|3:0,0:0:0:0:
234,365,16728,1,10,0:3:0:0:
512,267,17054,6,0,P|476:266|440:260,1,72,4|0,3:2|3:0,0:0:0:0:
357,220,17380,1,10,0:3:0:0:
93,384,17706,1,2,3:0:0:0:
20,304,17869,2,0,P|12:269|29:224,1,72,0|2,3:0|0:3,0:0:0:0:
126,102,18195,6,0,P|133:136|116:181,1,72,8|0,0:3|0:0,0:0:0:0:
50,133,18521,1,0,3:0:0:0:
134,23,18684,2,0,L|212:31,1,72,10|0,0:3|3:0,0:0:0:0:
336,38,19011,2,0,L|445:27,2,108,2|0|0,3:0|3:0|3:0,0:0:0:0:
304,66,19581,1,0,0:0:0:0:
304,66,19663,6,0,B|284:112|307:167|307:167|320:145|318:120,1,144,4|10,3:2|0:3,0:0:0:0:
224,174,20152,1,0,0:0:0:0:
224,174,20315,1,2,3:0:0:0:
272,243,20478,2,0,P|314:250|347:237,1,72,0|2,3:0|0:3,0:0:0:0:
458,98,20804,5,8,0:3:0:0:
458,98,21130,1,0,3:0:0:0:
406,183,21293,1,10,0:3:0:0:
359,96,21456,1,0,3:0:0:0:
505,184,21619,2,0,L|498:278,1,72,2|0,3:0|3:0,0:0:0:0:
489,384,21945,1,10,0:3:0:0:
272,243,22271,6,0,P|227:231|181:235,1,72,4|0,3:2|3:0,0:0:0:0:
119,325,22597,1,10,0:3:0:0:
250,365,22761,1,0,3:0:0:0:
250,365,22924,1,2,3:0:0:0:
342,288,23087,2,0,P|353:249|349:210,1,72,0|2,3:0|0:3,0:0:0:0:
275,108,23413,5,8,0:3:0:0:
275,108,23721,1,0,3:0:0:0:
235,21,23884,1,10,0:3:0:0:
330,29,24047,1,6,3:2:0:0:
180,100,24210,2,0,L|144:94,3,36,0|0|0|0,0:0|0:0|0:0|0:0,0:0:0:0:
77,27,24536,2,0,L|41:32,3,36,0|0|0|0,0:0|0:0|0:0|0:0,0:0:0:0:
60,132,24880,6,0,P|47:171|58:221,1,80.9999975280763,4|0,3:2|3:0,0:0:0:0:
139,356,25206,2,0,P|152:317|139:270,1,80.9999975280763,10|0,0:3|3:0,0:0:0:0:
68,318,25532,1,2,3:0:0:0:
226,377,25695,2,0,L|312:366,1,80.9999975280763,0|2,3:0|0:3,0:0:0:0:
336,208,26021,5,8,0:3:0:0:
336,208,26347,1,0,3:0:0:0:
425,239,26511,1,10,0:3:0:0:
353,301,26674,1,0,3:0:0:0:
408,146,26837,2,0,L|490:146,1,80.9999975280763,2|0,3:0|3:0,0:0:0:0:
319,115,27163,2,0,L|237:115,1,80.9999975280763,10|0,0:3|3:0,0:0:0:0:
122,265,27489,5,4,3:2:0:0:
239,212,27652,1,0,3:0:0:0:
125,101,27815,2,0,L|125:188,1,80.9999975280763,10|0,0:3|3:0,0:0:0:0:
238,115,28141,1,2,3:0:0:0:
150,5,28304,2,0,P|183:15|228:6,1,80.9999975280763,0|2,3:0|0:3,0:0:0:0:
405,53,28630,6,0,P|371:42|326:51,1,80.9999975280763,8|2,0:3|0:3,0:0:0:0:
368,131,28956,1,0,3:0:0:0:
492,93,29119,2,0,P|496:59|496:10,1,80.9999975280763,10|0,0:3|3:0,0:0:0:0:
368,131,29445,2,0,P|367:171|372:211,1,80.9999975280763,2|0,3:0|3:0,0:0:0:0:
486,257,29771,1,10,0:3:0:0:
448,167,29934,1,0,3:0:0:0:
380,347,30097,6,0,P|340:355|301:344,1,80.9999975280763,4|0,3:2|3:0,0:0:0:0:
214,209,30424,2,0,P|222:248|211:287,1,80.9999975280763,10|0,0:3|3:0,0:0:0:0:
115,247,30750,1,2,3:0:0:0:
172,94,30913,2,0,P|208:77|263:79,1,80.9999975280763,0|2,3:0|0:3,0:0:0:0:
88,156,31239,5,8,0:3:0:0:
88,156,31565,1,0,3:0:0:0:
83,57,31728,1,10,0:3:0:0:
172,94,31891,1,0,3:0:0:0:
5,107,32054,2,0,P|-3:148|5:197,1,80.9999975280763,2|0,3:0|3:0,0:0:0:0:
146,256,32380,2,0,P|105:248|56:256,1,80.9999975280763,10|0,0:3|3:0,0:0:0:0:
216,334,32706,6,0,P|256:338|295:330,1,80.9999975280763,4|0,3:2|3:0,0:0:0:0:
404,250,33032,1,10,0:3:0:0:
293,169,33195,2,0,P|268:201|256:239,1,80.9999975280763,0|2,3:0|3:0,0:0:0:0:
392,151,33521,2,0,P|375:113|349:83,1,80.9999975280763,0|8,3:0|0:3,0:0:0:0:
136,94,33847,6,0,P|223:104|263:49,1,161.999995056153,4|0,3:2|3:0,0:0:0:0:
185,195,34337,2,0,P|174:240|186:284,1,80.9999975280763,10|0,0:3|3:0,0:0:0:0:
334,282,34663,2,0,P|345:237|333:193,1,80.9999975280763,10|2,0:3|3:0,0:0:0:0:
112,346,35152,6,0,P|183:332|174:266,1,144,6|10,3:2|0:2,0:0:0:0:
31,204,35641,1,2,3:2:0:0:
31,204,35804,2,0,P|102:193|161:154,1,144,6|10,3:2|0:2,0:0:0:0:
330,225,36293,1,2,3:2:0:0:
330,225,36456,6,0,P|259:211|268:145,1,144,6|10,3:2|0:2,0:0:0:0:
402,94,36945,1,2,3:2:0:0:
402,94,37108,2,0,P|330:83|271:44,1,144,6|10,3:2|0:2,0:0:0:0:
431,0,37597,1,2,3:2:0:0:
488,153,37761,6,0,B|521:222|448:220|501:304,1,144,6|0,3:2|3:0,0:0:0:0:
349,356,38250,2,0,P|384:345|434:359,1,72,10|0,0:3|3:0,0:0:0:0:
306,232,38576,2,0,P|341:243|391:229,1,72,10|0,0:3|3:0,0:0:0:0:
195,319,38902,2,0,P|230:308|280:322,1,72,10|0,0:3|3:0,0:0:0:0:
152,195,39228,6,0,P|187:206|237:192,1,72,10|0,0:3|3:0,0:0:0:0:
45,289,39554,2,0,P|80:278|130:292,1,72,10|0,0:3|3:0,0:0:0:0:
69,122,39880,1,10,0:3:0:0:
24,203,40043,1,0,3:0:0:0:
17,42,40206,1,10,0:3:0:0:
221,89,40369,6,0,P|295:65|266:6,1,144,6|10,3:2|0:2,0:0:0:0:
299,178,40858,1,2,3:2:0:0:
299,178,41021,2,0,P|373:199|436:167,1,144,6|10,3:2|0:2,0:0:0:0:
512,351,41511,1,2,3:2:0:0:
512,351,41674,6,0,P|438:330|375:362,1,144,6|10,3:2|0:2,0:0:0:0:
223,347,42163,1,2,3:2:0:0:
223,347,42326,2,0,P|297:323|268:264,1,144,6|10,3:2|0:2,0:0:0:0:
132,312,42815,1,2,3:2:0:0:
132,312,42978,6,0,P|124:346|131:387,1,72,6|0,3:2|0:0,0:0:0:0:
194,257,43304,1,10,0:3:0:0:
52,182,43467,1,0,3:0:0:0:
37,308,43630,1,0,3:0:0:0:
37,308,43712,1,0,3:0:0:0:
37,308,43793,1,0,3:0:0:0:
168,159,43956,1,10,0:3:0:0:
168,159,44282,6,0,P|239:172|312:151,1,144,6|10,3:2|0:2,0:0:0:0:
361,310,44771,1,2,3:2:0:0:
361,310,44934,2,0,P|420:268|457:202,1,144,6|10,3:2|0:2,0:0:0:0:
377,30,45424,1,2,3:2:0:0:
377,30,45587,6,0,P|432:77|458:22,1,144,6|10,3:2|0:2,0:0:0:0:
307,153,46076,1,2,3:2:0:0:
307,153,46239,2,0,P|238:172|168:159,1,144,6|10,3:2|0:2,0:0:0:0:
24,33,46728,1,2,3:2:0:0:
24,33,46891,6,0,B|44:75|44:75|25:183,1,144,6|0,3:2|3:0,0:0:0:0:
90,378,47380,2,0,P|55:367|5:381,1,72,10|0,0:3|3:0,0:0:0:0:
133,254,47706,2,0,P|98:265|48:251,1,72,10|0,0:3|3:0,0:0:0:0:
244,341,48032,2,0,P|209:330|159:344,1,72,10|0,0:3|3:0,0:0:0:0:
287,217,48358,6,0,P|252:228|202:214,1,72,10|0,0:3|3:0,0:0:0:0:
394,311,48684,2,0,P|359:300|309:314,1,72,10|0,0:3|3:0,0:0:0:0:
470,225,49011,1,10,0:3:0:0:
479,326,49174,1,0,3:0:0:0:
376,206,49337,1,10,0:3:0:0:
512,122,49500,6,0,P|447:104|463:34,1,144,6|10,3:2|0:2,0:0:0:0:
273,82,49989,1,2,3:2:0:0:
273,82,50152,2,0,P|338:64|322:-6,1,144,6|10,3:2|0:2,0:0:0:0:
153,89,50641,1,2,3:2:0:0:
153,89,50804,6,0,L|167:233,1,144,6|10,3:2|0:2,0:0:0:0:
46,349,51293,1,2,3:2:0:0:
46,349,51456,2,0,P|14:301|82:256,1,144,6|10,3:2|0:2,0:0:0:0:
354,384,52271,6,0,P|321:351|308:301,1,90,6|0,3:2|0:0,0:0:0:0:
388,136,52597,1,8,0:2:0:0:
444,265,52761,1,2,3:2:0:0:
306,214,52924,2,0,L|197:214,1,90,2|0,3:2|3:2,0:0:0:0:
115,350,53250,2,0,L|205:350,1,90,8|2,0:2|3:2,0:0:0:0:
33,261,53576,6,0,P|23:213|38:173,1,90,2|0,3:2|3:2,0:0:0:0:
144,44,53902,2,0,P|153:91|138:131,1,90,10|0,0:2|3:2,0:0:0:0:
57,81,54228,1,2,3:2:0:0:
143,220,54391,1,0,3:2:0:0:
296,93,54554,2,0,L|296:3,1,90,10|2,0:2|3:2,0:0:0:0:
252,172,54880,6,0,P|294:184|339:173,1,90,2|0,3:2|3:2,0:0:0:0:
512,95,55206,2,0,P|470:83|425:94,1,90,10|0,0:2|3:2,0:0:0:0:
287,283,55532,2,0,P|329:295|374:284,1,90,2|0,3:2|3:2,0:0:0:0:
466,181,55858,2,0,P|454:223|465:268,1,90,10|0,0:2|3:2,0:0:0:0:
296,93,56184,6,0,P|250:83|196:84,1,90,2|0,3:2|3:2,0:0:0:0:
53,181,56511,1,8,0:2:0:0:
246,187,56674,1,0,3:2:0:0:
246,187,56755,1,0,3:2:0:0:
246,187,56837,2,0,P|200:177|146:178,1,90,0|0,3:2|3:2,0:0:0:0:
34,323,57163,2,0,P|80:313|134:314,1,90,8|0,0:2|3:2,0:0:0:0:
307,363,57489,6,0,P|274:330|261:280,1,90,6|0,3:2|0:0,0:0:0:0:
394,183,57815,1,8,0:2:0:0:
398,328,57978,1,2,3:2:0:0:
297,174,58141,2,0,P|315:125|363:89,1,90,2|0,3:2|3:2,0:0:0:0:
512,57,58467,2,0,P|460:65|405:41,1,90,8|2,0:2|3:2,0:0:0:0:
240,0,58793,6,0,P|196:-8|152:2,1,90,2|0,3:2|3:2,0:0:0:0:
81,148,59119,2,0,P|69:104|78:61,1,90,10|0,0:2|3:2,0:0:0:0:
238,97,59445,1,2,3:2:0:0:
170,174,59608,1,0,3:2:0:0:
327,253,59771,2,0,L|237:253,1,90,10|0,0:2|3:2,0:0:0:0:
3,314,60097,6,0,P|45:326|90:315,1,90,2|0,3:2|3:2,0:0:0:0:
170,174,60424,2,0,P|128:162|83:173,1,90,10|0,0:2|3:2,0:0:0:0:
206,368,60750,2,0,L|215:272,1,90,2|0,3:2|3:2,0:0:0:0:
344,136,61076,2,0,L|352:225,1,90,10|0,0:2|3:2,0:0:0:0:
251,65,61402,6,0,P|281:31|346:18,1,90,0|0,3:2|3:2,0:0:0:0:
509,48,61728,2,0,L|410:42,1,90,10|0,0:2|3:2,0:0:0:0:
258,182,62054,1,4,3:2:0:0:
460,143,62217,1,0,3:2:0:0:
460,143,62299,1,0,3:2:0:0:
460,143,62380,2,0,L|361:137,1,90,10|8,0:2|0:2,0:0:0:0:
188,231,62706,6,0,P|237:264|318:235,1,135,6|0,3:2|3:2,0:0:0:0:
381,216,63032,2,0,L|381:324,1,90,8|0,0:2|3:2,0:0:0:0:
258,182,63358,2,0,L|258:74,1,90,2|0,3:2|3:0,0:0:0:0:
301,25,63603,1,0,3:2:0:0:
301,25,63684,2,0,P|346:12|406:33,1,90,8|0,0:2|3:2,0:0:0:0:
184,138,64011,6,0,P|125:142|69:76,1,135,2|0,3:2|3:2,0:0:0:0:
0,59,64337,2,0,L|0:152,1,90,10|0,0:2|3:2,0:0:0:0:
89,320,64663,2,0,L|89:216,1,90,2|0,3:2|3:0,0:0:0:0:
163,256,64907,1,0,3:2:0:0:
163,256,64989,2,0,P|207:267|259:251,1,90,10|0,0:2|3:2,0:0:0:0:
403,147,65315,6,0,P|350:215|367:282,1,135,2|0,3:2|3:2,0:0:0:0:
406,317,65641,2,0,P|449:328|492:317,1,90,10|0,0:2|3:2,0:0:0:0:
305,373,65967,2,0,P|261:361|218:372,1,90,2|0,3:2|3:0,0:0:0:0:
146,384,66212,1,0,3:2:0:0:
146,384,66293,2,0,P|134:341|103:309,1,90,10|0,0:2|3:2,0:0:0:0:
0,171,66619,6,0,P|43:182|117:127,1,135,2|0,3:2|3:2,0:0:0:0:
187,98,66945,2,0,P|187:142|195:188,1,90,8|0,0:2|3:2,0:0:0:0:
394,96,67271,1,2,3:2:0:0:
234,29,67434,1,0,3:2:0:0:
234,29,67516,1,0,3:2:0:0:
234,29,67597,2,0,P|190:13|133:34,1,90,8|0,0:2|3:2,0:0:0:0:
161,258,67924,6,0,P|204:267|270:211,1,135,2|0,3:2|3:2,0:0:0:0:
345,189,68250,2,0,L|345:292,1,90,8|0,0:2|3:2,0:0:0:0:
172,340,68576,2,0,P|133:335|93:298,1,90,2|0,3:2|3:0,0:0:0:0:
55,238,68820,1,0,3:2:0:0:
55,238,68902,2,0,P|76:205|74:150,1,90,8|0,0:2|3:2,0:0:0:0:
0,21,69228,6,0,P|62:52|127:13,1,135,2|0,3:2|3:2,0:0:0:0:
178,74,69554,2,0,P|222:66|276:74,1,90,8|0,0:2|3:2,0:0:0:0:
233,285,69880,2,0,P|195:255|192:208,1,90,2|0,3:2|3:0,0:0:0:0:
243,157,70125,1,0,3:2:0:0:
243,157,70206,2,0,L|335:157,1,90,8|0,0:2|3:2,0:0:0:0:
480,230,70532,6,0,P|430:307|359:292,1,135,6|0,3:2|0:0,0:0:0:0:
357,288,70858,1,8,0:3:0:0:
332,82,71021,2,0,P|409:131|394:202,1,135,6|0,3:2|0:0,0:0:0:0:
390,204,71347,1,8,0:3:0:0:
185,259,71511,2,0,B|123:229|123:150|152:120|152:120|163:141|158:164,1,202.499993820191,6|0,3:2|3:2,0:0:0:0:
81,59,72489,1,8,0:2:0:0:
81,59,72815,6,0,P|150:27|220:55,1,144,4|10,3:1|0:3,0:0:0:0:
283,162,73304,1,0,0:0:0:0:
283,162,73467,1,2,3:0:0:0:
429,80,73630,2,0,P|396:64|337:68,1,72,0|2,3:0|0:3,0:0:0:0:
287,248,73956,6,0,P|351:215|365:125,1,144,8|0,0:3|3:0,0:0:0:0:
275,60,74445,2,0,L|187:60,1,72,10|0,0:3|3:0,0:0:0:0:
114,162,74771,2,0,L|202:162,1,72,2|0,3:0|3:0,0:0:0:0:
74,38,75097,1,10,0:3:0:0:
74,38,75260,1,0,0:0:0:0:
0,188,75423,6,0,P|2:266|46:322,1,144,4|10,3:1|0:3,0:0:0:0:
186,303,75912,1,0,3:0:0:0:
186,303,76075,1,2,3:0:0:0:
116,175,76238,2,0,P|95:202|85:250,1,72,0|2,3:0|0:3,0:0:0:0:
246,201,76565,6,0,P|319:191|391:191,1,144,8|0,0:3|3:0,0:0:0:0:
470,306,77054,1,10,0:3:0:0:
338,289,77217,1,0,3:0:0:0:
479,204,77380,2,0,L|488:107,1,72,2|0,3:0|3:0,0:0:0:0:
497,0,77706,1,10,0:3:0:0:
316,150,78032,6,0,P|269:92|302:24,1,144,4|10,3:1|0:3,0:0:0:0:
412,13,78521,1,0,0:0:0:0:
412,13,78684,1,2,3:0:0:0:
493,125,78847,2,0,L|499:53,1,72,0|2,3:0|0:3,0:0:0:0:
407,181,79173,1,8,0:3:0:0:
443,338,79336,6,0,P|473:350|521:354,1,72,0|0,0:2|3:0,0:0:0:0:
500,234,79662,1,10,0:3:0:0:
500,234,79825,1,0,3:0:0:0:
349,273,79988,2,0,L|277:273,1,72,2|0,3:0|3:0,0:0:0:0:
158,223,80315,1,10,0:3:0:0:
240,19,80641,6,0,P|306:-9|382:12,1,144,4|10,3:1|0:3,0:0:0:0:
460,115,81130,2,0,L|471:28,1,72,0|2,3:0|3:0,0:0:0:0:
347,102,81456,1,0,3:0:0:0:
347,102,81619,1,2,0:3:0:0:
445,218,81782,1,8,0:3:0:0:
277,265,81945,5,4,3:1:0:0:
111,199,82217,2,0,B|94:172|94:172|87:141|100:103,1,96,8|0,0:3|3:0,0:0:0:0:
236,150,82638,1,8,0:3:0:0:
160,305,82842,2,0,B|131:316|131:316|98:317|49:280,1,108,0|8,3:0|0:3,0:0:0:0:
253,348,83249,6,0,B|297:329|332:345|332:345|369:362|422:338,1,161.999995056153,4|10,3:1|0:3,0:0:0:0:
395,181,83738,2,0,P|374:213|367:255,1,80.9999975280763,0|2,3:0|3:0,0:0:0:0:
512,176,84065,1,8,0:3:0:0:
420,82,84228,2,0,L|334:78,1,80.9999975280763,2|0,0:3|3:3,0:0:0:0:
154,160,84554,5,10,0:3:0:0:
255,236,84717,2,0,P|291:218|310:179,1,80.9999975280763,0|2,3:0|3:0,0:0:0:0:
157,252,85043,1,10,0:3:0:0:
56,171,85206,2,0,P|44:131|57:76,1,80.9999975280763,2|2,3:0|0:3,0:0:0:0:
195,0,85532,2,0,P|200:39|188:78,1,80.9999975280763,10|0,0:3|3:0,0:0:0:0:
108,22,85858,5,4,3:1:0:0:
295,80,86021,2,0,L|390:67,1,80.9999975280763,8|0,0:3|3:0,0:0:0:0:
276,0,86347,1,0,3:0:0:0:
240,154,86510,2,0,P|242:198|269:245,1,80.9999975280763,8|2,0:3|0:3,0:0:0:0:
426,262,86836,1,2,3:0:0:0:
345,169,86999,1,8,0:3:0:0:
292,328,87162,6,0,P|253:336|205:322,1,80.9999975280763,2|0,3:3|3:0,0:0:0:0:
87,249,87488,2,0,P|126:239|165:247,1,80.9999975280763,10|0,0:3|3:0,0:0:0:0:
90,362,87815,1,2,3:0:0:0:
90,362,87978,1,8,0:3:0:0:
0,233,88141,1,8,0:3:0:0:
2,212,88222,1,8,0:3:0:0:
4,192,88304,1,8,0:3:0:0:
7,172,88385,1,8,0:3:0:0:
9,152,88467,6,0,B|37:145|65:157|65:157|86:152|104:138|104:138|128:150|169:144,1,161.999995056153,4|8,3:1|0:3,0:0:0:0:
212,0,88956,2,0,P|173:22|149:57,1,80.9999975280763,2|2,0:3|3:0,0:0:0:0:
263,171,89282,2,0,P|263:126|244:88,1,80.9999975280763,8|2,0:3|3:0,0:0:0:0:
163,144,89608,1,2,0:3:0:0:
282,339,89771,6,0,P|357:360|425:319,1,161.999995056153,10|2,0:3|3:0,0:0:0:0:
479,174,90260,1,8,0:3:0:0:
352,195,90423,2,0,P|340:236|345:282,1,80.9999975280763,2|2,3:0|0:3,0:0:0:0:
398,113,90749,2,0,P|387:71|360:34,1,80.9999975280763,8|2,0:3|0:3,0:0:0:0:
161,39,91075,5,2,3:0:0:0:
233,146,91238,2,0,P|274:135|311:108,1,80.9999975280763,8|2,0:3|3:0,0:0:0:0:
256,0,91565,1,2,0:3:0:0:
136,141,91728,2,0,P|97:124|49:124,1,80.9999975280763,8|2,0:3|0:3,0:0:0:0:
7,278,92054,1,2,3:0:0:0:
131,248,92217,1,8,0:3:0:0:
225,380,92380,6,0,L|136:375,1,80.9999975280763,2|8,3:0|0:3,0:0:0:0:
249,262,92706,1,4,3:1:0:0:
336,377,92869,1,0,3:0:0:0:
336,377,92950,1,0,3:0:0:0:
336,377,93032,1,8,0:3:0:0:
377,283,93195,1,0,3:0:0:0:
225,380,93358,1,0,3:0:0:0:
377,283,93521,6,0,P|410:210|361:173,1,144,6|10,3:2|0:2,0:0:0:0:
233,99,94010,1,2,3:2:0:0:
233,99,94173,2,0,P|312:107|332:49,1,144,6|10,3:2|0:2,0:0:0:0:
176,3,94662,1,2,3:2:0:0:
176,3,94825,6,0,P|108:23|32:-4,1,144,6|10,3:2|0:2,0:0:0:0:
0,171,95315,1,2,3:2:0:0:
0,171,95478,2,0,P|67:150|143:178,1,144,6|10,3:2|0:2,0:0:0:0:
188,323,95967,1,2,3:2:0:0:
308,163,96130,6,0,B|282:198|282:198|282:310,1,144,6|0,3:2|3:0,0:0:0:0:
396,188,96619,2,0,P|402:148|388:108,1,72,10|0,0:3|3:0,0:0:0:0:
300,9,96945,2,0,P|293:48|307:88,1,72,10|0,0:3|3:0,0:0:0:0:
208,194,97271,2,0,P|214:154|200:114,1,72,10|0,0:3|3:0,0:0:0:0:
125,13,97597,6,0,P|118:52|132:92,1,72,10|0,0:3|3:0,0:0:0:0:
21,192,97923,2,0,P|60:185|100:199,1,72,10|0,0:3|3:0,0:0:0:0:
113,363,98249,1,10,0:3:0:0:
52,277,98412,1,0,3:0:0:0:
0,384,98575,1,10,0:3:0:0:
169,269,98738,6,0,L|312:269,1,144,6|10,3:2|0:2,0:0:0:0:
390,123,99228,1,2,3:2:0:0:
390,123,99391,2,0,P|308:127|310:188,1,144,6|10,3:2|0:2,0:0:0:0:
474,203,99880,1,2,3:2:0:0:
474,203,100043,6,0,L|474:52,1,144,6|10,3:2|0:2,0:0:0:0:
302,29,100532,1,2,3:2:0:0:
302,29,100695,2,0,L|302:180,1,144,6|10,3:2|0:2,0:0:0:0:
402,315,101184,1,2,3:2:0:0:
402,315,101347,6,0,P|411:280|400:237,1,72,6|0,3:2|0:0,0:0:0:0:
234,235,101673,1,10,0:3:0:0:
321,274,101836,1,0,3:0:0:0:
302,173,101999,1,0,3:0:0:0:
302,173,102081,1,0,3:0:0:0:
302,173,102162,1,0,3:0:0:0:
190,338,102325,1,10,0:3:0:0:
190,338,102651,6,0,P|126:321|104:241,1,144,6|10,3:2|0:2,0:0:0:0:
49,57,103141,1,2,3:2:0:0:
49,57,103304,2,0,P|66:120|7:179,1,144,6|10,3:2|0:2,0:0:0:0:
156,104,103793,1,2,3:2:0:0:
156,104,103956,6,0,P|215:78|287:112,1,144,6|10,3:2|0:2,0:0:0:0:
402,217,104445,1,2,3:2:0:0:
402,217,104608,2,0,P|343:191|271:225,1,144,6|10,3:2|0:2,0:0:0:0:
368,360,105097,1,2,3:2:0:0:
476,243,105260,6,0,B|493:211|472:174|472:174|454:140|469:105,1,144,6|0,3:2|3:0,0:0:0:0:
327,31,105749,2,0,P|362:43|403:29,1,72,10|0,0:3|3:0,0:0:0:0:
266,133,106075,2,0,P|301:121|342:135,1,72,10|0,0:3|3:0,0:0:0:0:
164,45,106401,2,0,P|199:57|240:43,1,72,10|0,0:3|3:0,0:0:0:0:
98,151,106728,6,0,P|133:139|174:153,1,72,10|0,0:3|3:0,0:0:0:0:
11,29,107054,2,0,P|46:41|87:27,1,72,10|0,0:3|3:0,0:0:0:0:
7,142,107380,1,10,0:3:0:0:
164,45,107543,1,0,3:0:0:0:
98,151,107706,1,10,0:3:0:0:
252,60,107869,6,0,P|324:47|397:63,1,144,4|0,3:1|1:0,0:0:0:0:
483,150,108358,2,0,L|479:194,3,36,0|0|0|0,1:0|1:0|1:0|1:0,0:0:0:0:
441,283,108684,2,0,L|445:327,3,36,0|0|0|0,1:0|1:0|1:0|1:0,0:0:0:0:
359,247,109010,1,0,1:0:0:0:
359,247,109092,1,0,1:0:0:0:
359,247,109173,1,0,1:0:0:0:
359,247,109255,1,0,1:0:0:0:
359,247,109336,6,0,L|355:291,3,36,0|0|0|0,1:0|1:0|1:0|1:0,0:0:0:0:
279,349,109662,2,0,L|283:393,3,36,0|0|0|0,1:0|1:0|1:0|1:0,0:0:0:0:
184,359,109988,1,0,1:0:0:0:
178,342,110070,1,0,1:0:0:0:
176,324,110151,1,0,1:0:0:0:
177,306,110233,1,0,1:0:0:0:
183,289,110314,1,0,1:0:0:0:
188,271,110396,1,0,1:0:0:0:
190,254,110478,1,0,1:0:0:0:
188,236,110559,1,0,1:0:0:0:
182,219,110641,6,0,P|143:229|86:206,1,90,6|0,3:2|0:0,0:0:0:0:
51,70,110967,1,8,0:2:0:0:
178,102,111130,1,2,3:2:0:0:
5,254,111293,2,0,L|5:164,1,90,2|0,3:2|3:2,0:0:0:0:
133,14,111619,2,0,P|177:3|223:14,1,90,8|2,0:2|3:2,0:0:0:0:
412,118,111945,6,0,P|369:107|324:121,1,90,2|0,3:2|3:2,0:0:0:0:
238,299,112271,2,0,P|281:310|326:296,1,90,10|0,0:2|3:2,0:0:0:0:
207,124,112597,1,2,3:2:0:0:
131,289,112760,1,0,3:2:0:0:
8,123,112923,2,0,P|52:111|106:132,1,90,10|2,0:2|3:2,0:0:0:0:
238,299,113249,6,0,P|226:259|239:211,1,90,2|0,3:2|3:2,0:0:0:0:
348,40,113575,2,0,P|360:80|347:128,1,90,10|0,0:2|3:2,0:0:0:0:
171,132,113901,2,0,P|211:120|259:133,1,90,2|0,3:2|3:2,0:0:0:0:
415,217,114228,2,0,P|375:229|327:216,1,90,10|0,0:2|3:2,0:0:0:0:
489,124,114554,6,0,L|496:213,1,90,2|0,3:2|3:2,0:0:0:0:
510,344,114880,1,8,0:2:0:0:
337,224,115043,1,0,3:2:0:0:
337,224,115124,1,0,3:2:0:0:
337,224,115206,2,0,L|329:322,1,90,0|0,3:2|3:2,0:0:0:0:
166,218,115532,2,0,L|158:129,1,90,8|0,0:2|3:2,0:0:0:0:
348,77,115858,6,0,P|308:92|261:83,1,90,6|0,3:2|0:0,0:0:0:0:
79,0,116184,1,8,0:2:0:0:
157,128,116347,1,2,3:2:0:0:
7,200,116510,2,0,L|7:98,1,90,2|0,3:2|3:2,0:0:0:0:
196,236,116836,2,0,L|106:236,1,90,8|2,0:2|3:2,0:0:0:0:
248,361,117162,6,0,P|292:371|335:360,1,90,2|0,3:2|3:2,0:0:0:0:
495,238,117488,2,0,P|451:228|408:239,1,90,10|0,0:2|3:2,0:0:0:0:
466,359,117814,1,2,3:2:0:0:
293,256,117978,1,0,3:2:0:0:
410,111,118141,2,0,L|514:111,1,90,10|0,0:2|3:2,0:0:0:0:
298,0,118467,6,0,P|284:46|297:92,1,90,2|0,3:2|3:2,0:0:0:0:
203,228,118793,2,0,P|217:182|204:136,1,90,10|0,0:2|3:2,0:0:0:0:
410,111,119119,2,0,P|396:157|409:203,1,90,2|0,3:2|3:2,0:0:0:0:
315,339,119445,2,0,P|329:293|316:247,1,90,10|0,0:2|3:2,0:0:0:0:
138,317,119771,6,0,P|182:331|229:318,1,90,0|0,3:2|3:2,0:0:0:0:
77,224,120097,2,0,P|42:255|30:302,1,90,10|0,0:2|3:2,0:0:0:0:
184,227,120423,1,4,3:2:0:0:
62,82,120586,1,0,3:2:0:0:
62,82,120668,1,0,3:2:0:0:
62,82,120749,2,0,P|108:86|151:63,1,90,10|8,0:2|0:2,0:0:0:0:
323,0,121075,6,0,P|299:56|345:129,1,135,6|0,3:2|3:2,0:0:0:0:
400,148,121401,2,0,P|414:194|406:238,1,90,8|0,0:2|3:2,0:0:0:0:
222,305,121728,2,0,P|271:286|313:292,1,90,2|0,3:2|3:0,0:0:0:0:
381,314,121972,1,0,3:2:0:0:
381,314,122054,2,0,P|434:315|471:295,1,90,8|0,0:2|3:2,0:0:0:0:
494,80,122380,6,0,P|442:40|378:55,1,135,2|0,3:2|3:2,0:0:0:0:
329,119,122706,2,0,P|304:81|264:64,1,90,10|0,0:2|3:2,0:0:0:0:
116,182,123032,2,0,P|154:157|171:116,1,90,2|0,3:2|3:2,0:0:0:0:
141,47,123276,1,0,3:2:0:0:
141,47,123358,2,0,P|100:26|57:31,1,90,10|0,0:2|3:2,0:0:0:0:
27,236,123684,6,0,P|75:280|163:264,1,135,2|0,3:2|3:2,0:0:0:0:
202,234,124010,2,0,P|246:225|295:233,1,90,10|0,0:2|3:2,0:0:0:0:
506,286,124336,2,0,P|463:298|420:287,1,90,2|0,3:2|3:2,0:0:0:0:
369,230,124581,1,0,3:2:0:0:
369,230,124662,2,0,L|369:140,1,90,10|0,0:2|3:2,0:0:0:0:
196,37,124988,6,0,P|227:7|320:12,1,135,2|0,3:2|3:2,0:0:0:0:
380,52,125314,2,0,P|425:63|483:42,1,90,8|0,0:2|3:2,0:0:0:0:
273,77,125641,2,0,L|273:167,1,90,2|0,3:2|3:2,0:0:0:0:
230,236,125885,1,0,3:2:0:0:
230,236,125967,2,0,P|184:247|126:226,1,90,8|0,0:2|3:2,0:0:0:0:
315,348,126293,6,0,P|376:316|449:354,1,135,2|0,3:2|3:2,0:0:0:0:
508,366,126619,2,0,L|510:273,1,90,8|0,0:2|3:2,0:0:0:0:
382,93,126945,2,0,L|393:185,1,90,2|0,3:2|3:2,0:0:0:0:
343,243,127189,1,0,3:2:0:0:
343,243,127271,2,0,P|298:249|251:232,1,90,8|0,0:2|3:2,0:0:0:0:
58,142,127597,6,0,P|123:200|110:258,1,135,2|0,3:2|3:2,0:0:0:0:
84,312,127923,2,0,L|178:321,1,90,8|0,0:2|3:2,0:0:0:0:
404,341,128249,2,0,P|339:283|352:225,1,135,2|0,3:2|3:2,0:0:0:0:
378,171,128575,2,0,L|284:162,1,90,8|0,0:2|3:2,0:0:0:0:
173,17,128901,5,6,3:2:0:0:
173,17,129228,2,0,L|168:95,2,72,0|0|0,0:0|0:0|0:0,0:0:0:0:
80,110,129717,1,0,0:0:0:0:
211,247,129880,5,4,3:2:0:0:
211,247,130206,2,0,L|133:242,2,72,0|0|0,0:0|0:0|0:0,0:0:0:0:
305,157,130695,1,0,0:0:0:0:
370,343,130858,5,4,3:2:0:0:
370,343,131184,2,0,L|374:271,2,72,0|0|0,0:0|0:0|0:0,0:0:0:0:
476,267,131673,1,0,0:0:0:0:
443,78,131836,5,4,3:2:0:0:
443,78,132162,2,0,L|365:73,2,72,0|0|0,0:0|0:0|0:0,0:0:0:0:
335,162,132651,1,0,0:0:0:0:
202,11,132814,6,0,P|122:-2|64:28,1,144,4|0,3:2|0:2,0:0:0:0:
78,154,133304,2,0,P|157:167|215:136,1,144,4|0,3:2|0:2,0:0:0:0:
299,32,133793,2,0,P|294:102|334:161,1,144,4|0,3:2|0:2,0:0:0:0:
459,131,134282,2,0,P|463:60|423:1,1,144,4|0,3:2|0:2,0:0:0:0:
406,216,134771,6,0,B|385:250|407:286|407:286|428:323|408:361,1,144,4|0,3:2|0:2,0:0:0:0:
287,375,135260,2,0,B|266:341|288:305|288:305|309:268|292:237,1,144,4|0,3:2|0:2,0:0:0:0:
201,136,135749,2,0,P|164:135|124:151,1,72,8|4,0:2|3:1,0:0:0:0:
87,244,136075,1,0,0:0:0:0:
181,225,136238,1,0,0:0:0:0:
31,163,136401,1,0,0:0:0:0:
68,76,136564,1,0,0:0:0:0:
0,250,136728,6,0,L|12:331,1,80.9999975280763,0|0,3:0|0:3,0:0:0:0:
168,305,137054,2,0,L|180:224,1,80.9999975280763,0|0,3:0|0:3,0:0:0:0:
265,303,137380,1,2,3:2:0:0:
392,205,137543,1,8,0:3:0:0:
439,322,137706,2,0,P|481:318|515:293,1,80.9999975280763,2|0,3:0|0:0,0:0:0:0:
498,113,138032,6,0,L|490:193,1,80.9999975280763,10|0,0:2|0:0,0:0:0:0:
384,124,138358,2,0,L|391:204,1,80.9999975280763,2|8,3:0|0:3,0:0:0:0:
436,49,138684,1,2,3:2:0:0:
300,83,138847,1,0,1:0:0:0:
286,85,138929,1,0,1:0:0:0:
273,85,139010,1,0,1:0:0:0:
259,84,139092,1,0,1:0:0:0:
247,79,139173,1,0,1:0:0:0:
235,73,139255,1,0,1:0:0:0:
224,65,139336,6,0,L|217:146,1,80.9999975280763,6|0,3:2|0:0,0:0:0:0:
55,144,139662,2,0,P|86:118|128:109,1,80.9999975280763,0|0,3:0|0:0,0:0:0:0:
177,235,139988,1,2,3:2:0:0:
217,145,140151,1,8,0:3:0:0:
82,230,140314,2,0,L|94:315,1,80.9999975280763,2|0,3:2|1:0,0:0:0:0:
110,332,140559,1,0,1:0:0:0:
124,338,140641,5,0,1:0:0:0:
140,342,140722,1,0,1:0:0:0:
156,342,140804,1,0,1:0:0:0:
172,340,140885,1,0,1:0:0:0:
188,336,140967,2,0,P|230:327|268:338,1,80.9999975280763,4|0,3:2|1:0,0:0:0:0:
292,356,141211,1,0,1:0:0:0:
294,331,141293,1,0,1:0:0:0:
296,307,141374,1,0,1:0:0:0:
298,283,141456,1,0,1:0:0:0:
300,259,141537,1,0,1:0:0:0:
302,234,141619,1,4,3:2:0:0:
378,122,141782,1,0,1:0:0:0:
378,122,141863,1,0,1:0:0:0:
378,122,141945,6,0,L|477:114,1,80.9999975280763,6|0,3:2|0:0,0:0:0:0:
317,25,142271,2,0,L|218:17,1,80.9999975280763,0|0,3:0|0:0,0:0:0:0:
153,151,142597,1,2,3:2:0:0:
271,121,142760,1,8,0:3:0:0:
134,59,142923,2,0,L|53:65,1,80.9999975280763,2|0,3:2|0:0,0:0:0:0:
145,245,143249,6,0,P|187:239|222:213,1,80.9999975280763,10|0,0:2|0:0,0:0:0:0:
58,198,143575,1,2,3:0:0:0:
86,357,143738,2,0,P|125:349|163:360,1,80.9999975280763,8|2,0:3|3:2,0:0:0:0:
302,261,144064,1,0,1:0:0:0:
308,248,144146,1,0,1:0:0:0:
312,236,144228,1,0,1:0:0:0:
314,222,144309,1,0,1:0:0:0:
313,209,144391,1,0,1:0:0:0:
311,196,144472,1,0,1:0:0:0:
307,183,144554,6,0,P|299:143|312:105,1,80.9999975280763,6|0,3:2|0:0,0:0:0:0:
465,119,144880,2,0,P|434:144|395:153,1,80.9999975280763,0|0,3:0|0:0,0:0:0:0:
394,64,145206,1,2,3:2:0:0:
493,204,145369,2,0,L|491:301,1,80.9999975280763,8|2,0:3|3:2,0:0:0:0:
401,374,145695,1,8,0:3:0:0:
296,290,145858,6,0,L|251:295,3,40.4999987640381,2|0|8|0,3:0|3:0|0:3|3:0,0:0:0:0:
198,352,146184,2,0,L|157:347,3,40.4999987640381,0|8|0|0,1:0|0:3|1:0|1:0,0:0:0:0:
100,291,146510,1,2,3:0:0:0:
97,270,146592,1,0,1:0:0:0:
95,250,146673,1,0,1:0:0:0:
92,230,146755,1,0,1:0:0:0:
107,207,146836,1,0,1:0:0:0:
109,186,146918,1,0,1:0:0:0:
111,166,146999,1,0,1:0:0:0:
114,146,147081,1,0,1:0:0:0:
95,119,147162,6,0,P|55:107|9:120,1,80.9999975280763,6|0,3:2|0:0,0:0:0:0:
150,32,147488,2,0,P|189:40|227:28,1,80.9999975280763,0|0,3:0|0:0,0:0:0:0:
280,140,147814,1,2,3:2:0:0:
354,34,147978,1,8,0:3:0:0:
477,140,148141,2,0,L|385:140,1,80.9999975280763,2|0,3:2|0:0,0:0:0:0:
482,336,148467,6,0,P|492:297|473:245,1,80.9999975280763,10|0,0:2|0:0,0:0:0:0:
327,227,148793,1,2,3:0:0:0:
404,297,148956,1,8,0:3:0:0:
289,359,149119,2,0,L|197:359,1,80.9999975280763,2|0,3:2|1:0,0:0:0:0:
185,332,149363,1,0,1:0:0:0:
178,317,149445,1,0,1:0:0:0:
174,301,149526,1,0,1:0:0:0:
174,285,149608,1,0,1:0:0:0:
176,269,149689,1,0,1:0:0:0:
180,253,149771,6,0,P|186:213|175:174,1,80.9999975280763,6|0,3:2|0:0,0:0:0:0:
21,185,150097,2,0,P|51:210|90:220,1,80.9999975280763,0|0,3:0|0:0,0:0:0:0:
185,80,150423,1,2,3:2:0:0:
93,133,150586,1,8,0:3:0:0:
264,136,150749,2,0,L|346:136,1,80.9999975280763,2|0,3:2|1:0,0:0:0:0:
415,96,150994,1,0,1:0:0:0:
415,96,151075,6,0,L|476:96,4,40.4999987640381,0|0|0|0|4,1:0|1:0|1:0|1:0|3:2,0:0:0:0:
307,34,151564,1,0,1:0:0:0:
288,25,151646,1,0,1:0:0:0:
269,19,151728,1,0,1:0:0:0:
249,17,151809,1,0,1:0:0:0:
229,18,151891,1,0,1:0:0:0:
209,23,151972,1,0,1:0:0:0:
191,31,152054,2,0,P|152:42|114:31,1,80.9999975280763,4|0,3:2|1:0,0:0:0:0:
174,212,152380,6,0,P|185:173|174:135,1,80.9999975280763,6|0,3:2|0:0,0:0:0:0:
1,125,152706,2,0,P|-10:164|1:202,1,80.9999975280763,0|0,3:0|0:0,0:0:0:0:
86,288,153032,1,2,3:2:0:0:
85,171,153195,1,8,0:3:0:0:
0,312,153358,2,0,P|13:347|59:380,1,80.9999975280763,2|0,3:2|0:0,0:0:0:0:
261,314,153684,6,0,L|171:314,1,80.9999975280763,10|0,0:2|0:0,0:0:0:0:
328,384,154010,1,2,3:0:0:0:
363,252,154173,2,0,P|357:205|336:176,1,80.9999975280763,8|2,0:3|3:2,0:0:0:0:
198,118,154499,1,0,1:0:0:0:
211,115,154581,1,0,1:0:0:0:
223,110,154662,1,0,1:0:0:0:
234,102,154744,1,0,1:0:0:0:
244,93,154825,1,0,1:0:0:0:
251,81,154907,1,0,1:0:0:0:
256,69,154988,6,0,L|354:58,1,80.9999975280763,6|0,3:2|0:0,0:0:0:0:
498,120,155314,2,0,L|400:109,1,80.9999975280763,0|0,3:0|0:0,0:0:0:0:
320,249,155641,1,2,3:2:0:0:
447,206,155804,1,8,0:3:0:0:
279,167,155967,2,0,P|245:197|231:254,1,80.9999975280763,2|8,3:2|0:3,0:0:0:0:
350,341,156293,6,0,L|263:351,1,80.9999975280763,2|0,3:0|1:0,0:0:0:0:
171,377,156619,1,0,1:0:0:0:
150,374,156700,1,0,1:0:0:0:
130,372,156782,1,0,1:0:0:0:
110,370,156863,1,0,1:0:0:0:
90,367,156945,2,0,L|82:309,2,53.9999983520508,0|0|0,1:0|1:0|1:0,0:0:0:0:
11,260,157271,2,0,L|19:202,2,53.9999983520508,0|0|0,1:0|1:0|1:0,0:0:0:0:
117,132,157597,5,4,3:1:0:0:
256,192,157923,12,0,160043,0:0:0:0:
325,119,160206,6,0,L|330:82,4,36,0|0|0|0|4,0:0|0:0|0:0|0:0|0:2,0:0:0:0:
199,217,160858,2,0,L|194:180,4,36,0|0|0|0|4,0:0|0:0|0:0|0:0|0:2,0:0:0:0:
407,271,161510,6,0,L|412:234,4,36,0|0|0|0|4,0:0|0:0|0:0|0:0|0:2,0:0:0:0:
281,369,162162,2,0,L|276:332,4,36,0|0|0|0|4,0:0|0:0|0:0|0:0|0:2,0:0:0:0:
248,182,162814,5,0,1:2:0:0:
221,185,162896,1,0,1:2:0:0:
194,188,162978,1,0,1:2:0:0:
167,191,163059,1,0,1:2:0:0:
140,194,163141,1,4,3:2:0:0:
81,43,163467,1,0,1:2:0:0:
107,46,163548,1,0,1:2:0:0:
134,49,163630,1,0,1:2:0:0:
161,52,163711,1,0,1:2:0:0:
188,55,163793,1,4,3:2:0:0:
336,119,164119,5,0,1:2:0:0:
362,116,164200,1,0,1:2:0:0:
389,113,164282,1,0,1:2:0:0:
416,110,164363,1,0,1:2:0:0:
443,107,164445,1,4,3:2:0:0:
496,261,164771,1,0,1:2:0:0:
470,258,164853,1,0,1:2:0:0:
443,255,164934,1,0,1:2:0:0:
416,252,165016,1,0,1:2:0:0:
389,249,165097,1,4,3:2:0:0:
222,341,165423,6,0,P|296:339|289:275,1,144,4|0,1:2|1:2,0:0:0:0:
198,195,165912,1,0,1:2:0:0:
198,195,166075,2,0,L|281:183,1,72,0|0,1:2|1:2,0:0:0:0:
118,96,166401,2,0,L|201:108,1,72,0|0,1:2|1:2,0:0:0:0:
95,196,166728,5,0,1:2:0:0:
95,196,166891,1,0,1:2:0:0:
21,344,167054,1,0,1:2:0:0:
21,344,167217,1,0,1:2:0:0:
179,268,167380,1,0,1:2:0:0:
13,243,167543,1,0,1:2:0:0:
119,347,167706,1,0,1:2:0:0:
177,184,167869,1,0,1:2:0:0:
21,344,168032,5,4,3:2:0:0:
481,14,170641,6,0,P|434:3|380:15,1,90,6|0,3:2|3:2,0:0:0:0:
224,104,170967,2,0,P|271:115|325:103,1,90,10|0,0:2|3:2,0:0:0:0:
489,195,171293,2,0,P|442:184|388:196,1,90,2|0,3:2|3:2,0:0:0:0:
232,285,171619,2,0,P|279:296|333:284,1,90,10|0,0:2|3:2,0:0:0:0:
140,210,171945,6,0,L|122:307,1,90,2|0,3:2|3:2,0:0:0:0:
42,152,172271,1,8,0:2:0:0:
5,339,172434,1,0,3:2:0:0:
5,339,172516,1,0,3:2:0:0:
5,339,172597,2,0,L|21:250,1,90,0|0,3:2|3:2,0:0:0:0:
92,65,172923,2,0,P|51:49|-1:63,1,90,8|0,0:2|3:2,0:0:0:0:
194,123,173249,6,0,L|299:124,1,90,6|0,3:2|0:0,0:0:0:0:
417,35,173575,1,8,0:2:0:0:
254,9,173738,1,2,3:2:0:0:
399,153,173901,2,0,P|408:202|389:257,1,90,2|0,3:2|3:2,0:0:0:0:
239,335,174228,2,0,P|230:286|249:231,1,90,8|2,0:2|3:2,0:0:0:0:
446,349,174554,6,0,L|352:349,1,90,2|0,3:2|3:2,0:0:0:0:
189,160,174880,2,0,L|279:160,1,90,10|0,0:2|3:2,0:0:0:0:
145,298,175206,1,2,3:2:0:0:
77,160,175369,1,0,3:2:0:0:
276,268,175532,2,0,P|325:276|377:268,1,90,10|2,0:2|3:2,0:0:0:0:
460,95,175858,6,0,P|452:144|460:196,1,90,2|0,3:2|3:2,0:0:0:0:
297,88,176184,2,0,P|305:39|297:-12,1,90,10|0,0:2|3:2,0:0:0:0:
177,151,176510,2,0,P|169:200|177:252,1,90,2|0,3:2|3:2,0:0:0:0:
14,144,176836,2,0,P|22:95|14:43,1,90,10|0,0:2|3:2,0:0:0:0:
203,48,177162,6,0,P|159:59|107:45,1,90,0|0,3:2|3:2,0:0:0:0:
259,197,177488,2,0,P|303:186|355:200,1,90,10|0,0:2|3:2,0:0:0:0:
442,333,177814,1,4,3:2:0:0:
256,299,177978,1,0,3:2:0:0:
256,299,178059,1,0,3:2:0:0:
256,299,178141,2,0,P|300:288|352:302,1,90,10|8,0:2|0:2,0:0:0:0:
133,378,178467,6,0,P|106:293|132:243,1,135,6|0,3:2|3:2,0:0:0:0:
185,211,178793,2,0,P|199:168|185:117,1,90,8|0,0:2|3:2,0:0:0:0:
5,87,179119,2,0,P|48:101|99:87,1,90,2|0,3:2|3:0,0:0:0:0:
146,36,179363,1,0,3:2:0:0:
146,36,179445,2,0,P|189:22|240:36,1,90,8|0,0:2|3:2,0:0:0:0:
356,181,179771,6,0,P|329:96|355:46,1,135,2|0,3:2|3:2,0:0:0:0:
411,22,180097,2,0,P|456:23|499:54,1,90,10|0,0:2|3:2,0:0:0:0:
401,253,180423,2,0,P|358:267|307:253,1,90,2|0,3:2|3:2,0:0:0:0:
267,193,180668,1,0,3:2:0:0:
267,193,180749,2,0,P|224:179|173:193,1,90,10|0,0:2|3:2,0:0:0:0:
45,328,181075,6,0,P|73:268|55:204,1,135,2|0,3:2|3:2,0:0:0:0:
13,135,181401,2,0,L|122:127,1,90,10|0,0:2|3:2,0:0:0:0:
268,28,181728,2,0,P|312:39|361:27,1,90,2|0,3:2|3:2,0:0:0:0:
435,22,181972,1,0,3:2:0:0:
435,22,182054,2,0,P|424:66|436:115,1,90,10|0,0:2|3:2,0:0:0:0:
512,248,182380,6,0,P|435:227|385:249,1,135,2|0,3:2|3:2,0:0:0:0:
335,303,182706,2,0,P|285:316|243:293,1,90,8|0,0:2|3:2,0:0:0:0:
259,136,183032,1,2,3:2:0:0:
166,294,183195,1,0,3:2:0:0:
166,294,183276,1,0,3:2:0:0:
166,294,183358,2,0,P|179:244|220:219,1,90,8|0,0:2|3:2,0:0:0:0:
184,384,183684,6,0,L|46:373,1,135,2|0,3:2|3:2,0:0:0:0:
6,311,184010,2,0,P|-1:264|12:221,1,90,8|0,0:2|3:2,0:0:0:0:
160,141,184336,2,0,P|207:148|250:135,1,90,2|0,3:2|3:2,0:0:0:0:
288,72,184581,1,0,3:2:0:0:
288,72,184662,2,0,P|270:27|237:-2,1,90,8|0,0:2|3:2,0:0:0:0:
96,80,184988,6,0,P|75:133|105:209,1,135,2|0,3:2|3:2,0:0:0:0:
158,253,185314,2,0,L|252:243,1,90,8|0,0:2|3:2,0:0:0:0:
472,164,185641,2,0,P|493:217|463:293,1,135,2|0,3:2|3:2,0:0:0:0:
410,337,185967,2,0,L|316:327,1,90,8|0,0:2|3:2,0:0:0:0:
291,121,186293,6,0,P|370:164|361:209,1,135,6|0,3:2|0:0,0:0:0:0:
352,223,186619,1,8,0:2:0:0:
206,144,186782,2,0,P|203:54|247:39,1,135,6|0,3:2|0:0,0:0:0:0:
262,39,187108,1,8,0:2:0:0:
234,261,187271,6,0,P|169:261|103:143,1,202.499993820191,6|2,3:2|0:2,0:0:0:0:
339,210,188249,6,0,P|337:302|310:338,1,135,6|0,3:2|0:0,0:0:0:0:
282,342,188575,1,8,0:2:0:0:
255,138,188738,2,0,P|335:93|380:99,1,135,6|0,3:2|0:0,0:0:0:0:
397,121,189064,1,8,0:2:0:0:
461,384,189228,6,0,B|441:336|470:281|470:281|496:231|467:179,1,202.499993820191,6|2,3:2|0:2,0:0:0:0:
227,319,190206,6,0,P|274:337|331:328,1,90,10|0,0:2|3:2,0:0:0:0:
391,236,190532,1,2,3:2:0:0:
197,222,190695,2,0,P|157:253|137:307,1,90,10|0,0:2|3:2,0:0:0:0:
172,384,191021,1,2,3:2:0:0:
291,240,191184,2,0,L|291:136,1,90,10|0,0:2|3:2,0:0:0:0:
95,24,191510,5,2,3:2:0:0:
55,182,191673,1,10,0:2:0:0:
188,87,191836,1,10,0:2:0:0:
21,102,191999,1,2,3:2:0:0:
166,193,192162,2,0,L|280:193,1,90,4|0,3:2|0:2,0:0:0:0:
374,80,192488,1,10,0:2:0:0:
477,255,192651,6,0,P|384:260|383:179,1,180,4|10,3:2|0:2,0:0:0:0:
244,365,193141,2,0,P|214:375|80:277,1,202.499993820191,4|0,3:2|3:2,0:0:0:0:
157,117,194119,1,8,0:2:0:0:
157,117,194445,5,4,3:2:0:0:
250,264,194608,1,0,3:0:0:0:
280,95,194771,1,8,0:3:0:0:
161,214,194934,1,0,3:0:0:0:
371,136,195097,2,0,P|382:93|368:45,1,90,8|0,0:3|3:0,0:0:0:0:
156,30,195423,2,0,P|145:73|159:121,1,90,8|0,0:3|3:0,0:0:0:0:
333,279,195749,5,8,0:3:0:0:
280,95,195912,1,0,3:0:0:0:
149,244,196075,1,8,0:3:0:0:
358,165,196238,1,0,3:0:0:0:
191,330,196401,2,0,P|148:341|100:327,1,90,8|0,0:3|3:0,0:0:0:0:
70,115,196727,2,0,P|113:104|161:118,1,90,8|0,0:3|3:0,0:0:0:0:
352,290,197053,5,8,0:3:0:0:
462,129,197216,1,0,3:0:0:0:
500,316,197379,1,8,0:3:0:0:
358,165,197542,1,0,3:0:0:0:
331,379,197705,2,0,P|383:379|420:351,1,90,8|0,0:3|3:0,0:0:0:0:
266,226,198031,2,0,P|227:203|183:205,1,90,8|0,0:3|3:0,0:0:0:0:
54,355,198358,6,0,P|64:295|13:233,2,135,4|8|0,3:2|0:3|3:0,0:0:0:0:
183,204,199050,2,0,P|171:134|164:64,2,135,8|0|8,0:2|3:0|0:3,0:0:0:0:
368,287,199692,2,0,P|327:233|336:168,2,135,0|8|0,3:0|0:3|3:0,0:0:0:0:
512,118,200334,1,8,0:3:0:0:
334,53,200549,1,0,3:0:0:0:
412,214,200763,6,0,B|417:186|430:152|430:152|411:122|411:122|423:93|430:56,1,161.999995056153,4|0,3:2|0:0,0:0:0:0:
