osu file format v14

[General]
AudioFilename: audio.mp3
AudioLeadIn: 0
PreviewTime: 52190
Countdown: 0
SampleSet: Soft
StackLeniency: 0.7
Mode: 0
LetterboxInBreaks: 0
WidescreenStoryboard: 0

[Editor]
Bookmarks: 12815,15424,36130,53250,73794,94500,111620,129880,137707,158495,169011,171620,172272,195424
DistanceSpacing: 1
BeatDivisor: 8
GridSize: 4
TimelineZoom: 1

[Metadata]
Title:great escape
TitleUnicode:great escape
Artist:cinema staff
ArtistUnicode:cinema staff
Creator:Seto Kousuke
Version:Normal
Source:Shingeki no Kyojin
Tags:進撃の巨人 attack on titan ending japanese anime rock jrock 2019 new mix name of love shirahane suou
BeatmapID:1912768
BeatmapSetID:915864

[Difficulty]
HPDrainRate:3
CircleSize:3
OverallDifficulty:4
ApproachRate:5
SliderMultiplier:1
SliderTickRate:1

[Events]
//Background and Video events
0,0,"levi op.jpg",0,0
//Break Periods
2,129101,135528
2,157797,161614
2,168232,169441
//Storyboard Layer 0 (Background)
//Storyboard Layer 1 (Fail)
//Storyboard Layer 2 (Pass)
//Storyboard Layer 3 (Foreground)
//Storyboard Sound Samples

[TimingPoints]
98,326.086956521739,4,2,1,70,1,0
14445,-100,4,2,1,50,0,0
14450,-100,4,2,1,50,0,0
23721,326.086956521739,4,2,1,50,1,0
24880,326.086956521739,4,2,1,60,1,0
24880,-100,4,2,1,60,0,0
52271,-100,4,2,1,70,0,1
70532,-100,4,2,1,70,0,0
72815,326.086956521739,4,2,1,60,1,0
107869,-100,4,2,1,40,0,0
107874,-100,4,2,1,40,0,0
108195,-100,4,2,1,45,0,0
108200,-100,4,2,1,45,0,0
108684,-100,4,2,1,50,0,0
108689,-100,4,2,1,50,0,0
109336,-100,4,2,1,60,0,0
109341,-100,4,2,1,60,0,0
109988,-100,4,2,1,65,0,0
109993,-100,4,2,1,65,0,0
110641,-100,4,2,1,70,0,1
128901,-100,4,2,1,50,0,0
136728,-100,4,2,1,60,0,0
136733,-100,4,2,1,60,0,0
160206,-100,4,2,1,50,0,0
160211,-100,4,2,1,50,0,0
162814,-100,4,2,1,60,0,0
162819,-100,4,2,1,60,0,0
165423,-100,4,2,1,50,0,0
165428,-100,4,2,1,50,0,0
166075,-100,4,2,1,55,0,0
166080,-100,4,2,1,55,0,0
166728,-100,4,2,1,60,0,0
166733,-100,4,2,1,60,0,0
167380,-100,4,2,1,65,0,0
167385,-100,4,2,1,65,0,0
168032,-100,4,2,1,70,0,0
168037,-100,4,2,1,70,0,0
169586,-100,4,2,1,70,0,0
169662,-100,4,2,1,5,0,0
170641,-100,4,2,1,70,0,1
186293,-100,4,2,1,70,0,0
194445,326.086956521739,4,2,1,70,1,0
198358,309.278350515464,4,2,1,60,1,0
198358,-100,4,2,1,60,0,0
199050,285.714285714286,4,2,1,60,1,0
199692,285.714285714286,4,2,1,60,1,0
201374,-100,4,2,1,5,0,0
201379,-100,4,2,1,5,0,0

[Colours]
Combo1 : 124,68,55
Combo2 : 167,154,60
Combo3 : 186,87,32
Combo4 : 104,155,88

[HitObjects]
119,297,98,6,0,P|70:307|8:268,2,100,4|4|4,0:2|0:2|0:2,0:0:0:0:
174,213,1076,1,4,0:2:0:0:
260,264,1402,6,0,B|312:256|346:218|346:218|385:256|438:261,1,200,4|8,3:2|0:2,0:0:0:0:
506,191,2380,1,8,0:2:0:0:
465,99,2706,2,0,B|433:99|397:88|397:88|349:106|349:106|310:84|242:89,1,200,4|8,3:2|0:2,0:0:0:0:
182,43,3684,1,8,0:2:0:0:
88,79,4011,6,0,B|62:122|81:171|81:171|123:228|78:294,1,200,4|8,3:2|0:2,0:0:0:0:
38,354,4989,1,8,0:2:0:0:
135,378,5315,2,0,L|248:353,1,100,4|8,3:2|0:2,0:0:0:0:
331,370,5967,2,0,P|380:356|407:309,1,100,8|8,0:2|0:2,0:0:0:0:
408,216,6619,6,0,B|430:170|409:121|409:121|355:107|307:152,1,200,4|8,3:2|0:2,0:0:0:0:
225,191,7597,1,8,0:2:0:0:
127,169,7924,2,0,P|101:117|211:54,1,200,4|8,3:2|0:2,0:0:0:0:
293,22,8902,1,8,0:2:0:0:
383,65,9228,6,0,L|362:179,1,100,4|8,3:2|0:2,0:0:0:0:
421,245,9880,2,0,P|405:292|328:319,1,100,8|8,0:2|0:2,0:0:0:0:
276,270,10532,1,4,3:2:0:0:
185,312,10858,1,8,0:2:0:0:
105,250,11184,2,0,P|55:242|-11:245,2,100,8|8|4,0:2|0:2|3:2,0:0:0:0:
214,95,14445,6,0,P|273:100|310:142,1,100,4|10,3:2|0:3,0:0:0:0:
381,186,15097,2,0,L|370:290,1,100,2|2,3:0|0:3,0:0:0:0:
296,352,15750,1,0,0:0:0:0:
213,296,16076,1,10,0:3:0:0:
134,357,16402,2,0,P|78:368|32:333,1,100,2|10,3:0|0:3,0:0:0:0:
6,254,17054,6,0,L|28:121,1,100,4|10,3:2|0:3,0:0:0:0:
57,61,17706,1,2,3:0:0:0:
139,119,18032,1,2,0:3:0:0:
227,72,18358,2,0,B|275:56|275:56|334:76,1,100,0|10,0:0|0:3,0:0:0:0:
417,101,19011,2,0,P|446:71|450:21,2,75,2|0|0,3:0|3:0|3:0,0:0:0:0:
397,147,19663,6,0,P|390:203|404:262,1,100,4|10,3:2|0:3,0:0:0:0:
394,345,20315,2,0,P|344:335|278:355,1,100,2|2,3:0|0:3,0:0:0:0:
212,290,20967,1,0,0:0:0:0:
120,325,21293,1,10,0:3:0:0:
44,261,21619,2,0,P|38:210|96:161,1,100,2|10,3:0|0:3,0:0:0:0:
153,126,22271,5,4,3:2:0:0:
226,193,22597,1,10,0:3:0:0:
323,169,22924,2,0,P|340:122|330:74,1,100,2|2,3:0|0:3,0:0:0:0:
243,25,23576,1,2,0:3:0:0:
149,59,23884,2,0,L|110:128,1,50,10|6,0:3|3:2,0:0:0:0:
46,340,24880,6,0,P|39:290|55:242,1,100,4|10,3:2|0:3,0:0:0:0:
124,172,25532,2,0,L|231:196,1,100,2|2,3:0|0:3,0:0:0:0:
304,249,26184,1,2,0:3:0:0:
387,194,26511,1,10,0:3:0:0:
466,254,26837,2,0,P|479:305|433:361,1,100,2|10,3:0|0:3,0:0:0:0:
360,366,27489,6,0,L|222:359,1,100,4|10,3:2|0:3,0:0:0:0:
185,293,28141,1,2,3:0:0:0:
90,326,28467,1,2,0:3:0:0:
43,237,28793,2,0,L|80:132,1,100,2|10,0:3|0:3,0:0:0:0:
153,78,29445,1,2,3:0:0:0:
237,130,29771,1,10,0:3:0:0:
297,50,30097,6,0,P|342:38|409:68,1,100,4|10,3:2|0:3,0:0:0:0:
482,94,30750,2,0,L|473:224,1,100,2|2,3:0|0:3,0:0:0:0:
419,276,31402,1,2,0:3:0:0:
327,235,31728,1,10,0:3:0:0:
256,306,32054,2,0,B|205:321|205:321|136:294,1,100,2|10,3:0|0:3,0:0:0:0:
61,293,32706,6,0,P|50:238|83:187,1,100,4|10,3:2|0:3,0:0:0:0:
146,138,33358,2,0,P|164:103|104:10,2,150,2|4|10,3:0|3:2|0:3,0:0:0:0:
68,200,34663,2,0,L|71:281,1,50,10|2,0:3|3:0,0:0:0:0:
120,336,35152,6,0,B|166:349|166:349|224:334,1,100,6|10,3:2|0:2,0:0:0:0:
278,256,35804,2,0,B|324:243|324:243|382:258,1,100,6|10,3:2|0:2,0:0:0:0:
460,307,36456,2,0,L|504:208,1,100,6|10,3:2|0:2,0:0:0:0:
506,115,37108,2,0,L|462:16,1,100,6|10,3:2|0:2,0:0:0:0:
380,76,37761,6,0,P|318:103|243:45,1,150,6|10,3:2|0:3,0:0:0:0:
162,18,38576,1,10,0:3:0:0:
73,63,38902,1,10,0:3:0:0:
130,145,39228,2,0,P|149:189|107:259,1,100,10|10,0:3|0:3,0:0:0:0:
95,328,39880,2,0,L|19:340,2,50,10|0|10,0:3|3:0|0:3,0:0:0:0:
130,362,40369,6,0,P|182:374|243:340,1,100,6|10,3:2|0:2,0:0:0:0:
322,379,41021,2,0,P|358:339|359:270,1,100,6|10,3:2|0:2,0:0:0:0:
458,257,41674,2,0,P|442:205|382:170,1,100,6|10,3:2|0:2,0:0:0:0:
312,209,42326,2,0,P|257:219|210:191,1,100,6|10,3:2|0:2,0:0:0:0:
122,225,42978,2,0,B|113:186|91:154|91:154|125:127|123:74,1,150,6|0,3:2|3:0,0:0:0:0:
190,18,43793,2,0,L|240:38,1,50,0|10,3:0|0:3,0:0:0:0:
334,16,44282,6,0,L|379:119,1,100,6|10,3:2|0:2,0:0:0:0:
470,132,44934,2,0,L|425:235,1,100,6|10,3:2|0:2,0:0:0:0:
332,245,45587,2,0,L|377:348,2,100,6|10|6,3:2|0:2|3:2,0:0:0:0:
257,178,46565,1,10,0:2:0:0:
180,242,46891,6,0,P|111:267|49:211,1,150,6|10,3:2|0:3,0:0:0:0:
19,131,47706,1,10,0:3:0:0:
75,48,48032,1,10,0:3:0:0:
160,99,48358,2,0,P|213:110|283:63,1,100,10|10,0:3|0:3,0:0:0:0:
348,58,49011,2,0,L|361:4,2,50,10|0|10,0:3|3:0|0:3,0:0:0:0:
385,91,49500,6,0,P|400:140|366:196,1,100,6|10,3:2|0:2,0:0:0:0:
442,262,50152,2,0,P|407:299|341:298,1,100,6|10,3:2|0:2,0:0:0:0:
290,376,50804,2,0,P|240:364|208:307,1,100,6|10,3:2|0:2,0:0:0:0:
196,279,51293,1,2,3:2:0:0:
196,279,51456,2,0,B|180:242|216:225|195:177,1,100,6|10,3:2|0:2,0:0:0:0:
87,37,52271,6,0,B|132:34|132:34|156:47|156:47|204:49,1,100,6|8,3:2|0:2,0:0:0:0:
230,30,52761,1,2,3:2:0:0:
230,30,52924,2,0,P|222:87|263:126,1,100,2|8,3:2|0:2,0:0:0:0:
285,149,53413,1,2,3:2:0:0:
285,149,53576,2,0,L|403:141,1,100,2|10,3:2|0:2,0:0:0:0:
459,209,54228,1,2,3:2:0:0:
401,291,54554,1,10,0:2:0:0:
304,264,54880,6,0,P|251:252|181:267,1,100,2|10,3:2|0:2,0:0:0:0:
102,272,55532,2,0,P|113:219|99:149,1,100,2|10,3:2|0:2,0:0:0:0:
87,76,56184,2,0,P|139:87|210:73,1,100,2|8,3:2|0:2,0:0:0:0:
283,53,56837,2,0,L|309:9,2,50,0|0|8,3:2|3:2|0:2,0:0:0:0:
347,129,57489,6,0,B|360:170|360:170|353:237,1,100,6|8,3:2|0:2,0:0:0:0:
356,276,57978,1,2,3:2:0:0:
356,276,58141,2,0,P|290:274|242:285,1,100,2|8,3:2|0:2,0:0:0:0:
216,309,58630,1,2,3:2:0:0:
216,309,58793,2,0,P|215:255|172:230,1,100,2|10,3:2|0:2,0:0:0:0:
82,210,59445,1,2,3:2:0:0:
46,116,59771,1,10,0:2:0:0:
113,42,60097,6,0,L|228:33,1,100,2|10,3:2|0:2,0:0:0:0:
317,27,60750,1,2,3:2:0:0:
412,56,61076,1,10,0:2:0:0:
416,155,61402,2,0,L|417:267,1,100,0|10,3:2|0:2,0:0:0:0:
384,351,62054,2,0,P|337:331|268:341,1,100,4|10,3:2|0:2,0:0:0:0:
193,363,62706,6,0,B|122:369|129:326|28:343,1,150,6|0,3:2|3:2,0:0:0:0:
3,365,63358,2,0,L|22:246,1,100,2|8,3:2|0:2,0:0:0:0:
44,169,64011,2,0,P|87:187|143:169,1,100,2|10,3:2|0:2,0:0:0:0:
235,164,64663,2,0,L|239:61,1,100,2|10,3:2|0:2,0:0:0:0:
325,13,65315,1,2,3:2:0:0:
412,60,65641,1,10,0:2:0:0:
373,152,65967,1,2,3:2:0:0:
431,233,66293,1,10,0:2:0:0:
366,309,66619,6,0,P|282:355|189:291,1,200,2|2,3:2|3:2,0:0:0:0:
200,208,67597,1,8,0:2:0:0:
105,240,67924,2,0,P|50:243|-3:195,1,100,2|8,3:2|0:2,0:0:0:0:
35,122,68576,2,0,P|84:117|126:141,1,100,2|8,3:2|0:2,0:0:0:0:
200,208,69228,1,2,3:2:0:0:
283,153,69554,1,8,0:2:0:0:
264,54,69880,2,0,P|229:22|152:30,1,100,2|8,3:2|0:2,0:0:0:0:
96,74,70532,6,0,B|92:97|88:123|88:123|96:163|96:163|80:195|86:245,2,150,6|6|6,3:2|3:2|3:2,0:0:0:0:
394,42,72326,1,0,3:2:0:0:
394,42,72489,1,8,0:2:0:0:
454,121,72815,6,0,P|465:170|420:243,1,100,4|10,3:1|0:3,0:0:0:0:
364,268,73467,2,0,L|256:245,1,100,2|2,3:0|0:3,0:0:0:0:
181,193,74119,1,0,0:0:0:0:
91,237,74445,1,10,0:3:0:0:
22,164,74771,2,0,P|26:112|74:67,1,100,2|10,3:0|0:3,0:0:0:0:
150,44,75423,6,0,L|294:72,1,100,4|10,3:1|0:3,0:0:0:0:
336,110,76075,1,2,3:0:0:0:
423,61,76401,1,2,0:3:0:0:
485,139,76728,2,0,L|475:268,1,100,0|10,0:0|0:3,0:0:0:0:
423,322,77380,2,0,L|442:371,2,50,2|0|10,3:0|3:0|0:3,0:0:0:0:
346,257,78032,6,0,P|298:244|243:290,1,100,4|10,3:1|0:3,0:0:0:0:
184,337,78684,2,0,B|138:351|138:351|76:326,1,100,2|2,3:0|0:3,0:0:0:0:
22,257,79336,2,0,L|53:145,1,100,0|10,0:0|0:3,0:0:0:0:
77,64,79988,1,2,3:0:0:0:
177,61,80315,1,10,0:3:0:0:
252,126,80641,6,0,L|225:222,1,100,4|10,3:1|0:3,0:0:0:0:
160,298,81293,1,2,3:0:0:0:
232,366,81619,1,2,0:3:0:0:
321,321,81945,2,0,P|404:285|481:361,2,200,4|8|4,3:1|0:3|3:1,0:0:0:0:
232,366,83575,5,10,0:3:0:0:
141,323,83901,2,0,L|145:201,1,100,2|2,3:0|0:3,0:0:0:0:
180,129,84554,1,10,0:3:0:0:
279,142,84880,1,2,3:0:0:0:
347,69,85206,2,0,P|398:59|451:93,1,100,2|10,3:0|0:3,0:0:0:0:
500,158,85858,6,0,L|488:272,1,100,4|0,3:1|3:0,0:0:0:0:
414,323,86510,2,0,B|366:338|366:338|321:318,1,100,8|2,0:3|3:0,0:0:0:0:
263,235,87162,1,2,3:3:0:0:
169,269,87488,1,10,0:3:0:0:
86,211,87815,2,0,P|81:162|116:118,1,100,2|8,3:0|0:3,0:0:0:0:
194,70,88467,6,0,L|331:92,1,100,4|8,3:1|0:3,0:0:0:0:
392,82,89119,2,0,P|420:119|400:186,1,100,2|2,3:0|3:0,0:0:0:0:
330,225,89771,1,10,0:3:0:0:
376,313,90097,1,2,3:0:0:0:
296,373,90423,2,0,L|167:368,1,100,2|8,3:0|0:3,0:0:0:0:
97,354,91075,6,0,P|69:314|98:241,1,100,2|2,3:0|3:0,0:0:0:0:
118,175,91728,1,8,0:3:0:0:
51,99,92054,1,2,3:0:0:0:
123,29,92380,2,0,P|169:12|229:41,1,100,2|4,3:0|3:1,0:0:0:0:
291,92,93032,2,0,L|346:73,2,50,8|0|0,0:3|3:0|3:0,0:0:0:0:
249,119,93521,6,0,P|237:170|279:236,1,100,6|10,3:2|0:2,0:0:0:0:
310,295,94173,2,0,L|416:327,1,100,6|10,3:2|0:2,0:0:0:0:
448,233,94825,2,0,L|352:204,1,100,6|10,3:2|0:2,0:0:0:0:
253,213,95478,2,0,L|147:245,1,100,6|10,3:2|0:2,0:0:0:0:
73,186,96130,6,0,P|51:131|133:68,1,150,6|10,3:2|0:3,0:0:0:0:
196,28,96945,1,10,0:3:0:0:
275,88,97271,1,10,0:3:0:0:
367,48,97597,2,0,P|410:65|424:140,1,100,10|10,0:3|0:3,0:0:0:0:
440,211,98249,2,0,L|489:239,2,50,10|0|10,0:3|3:0|0:3,0:0:0:0:
393,192,98738,6,0,P|307:202|288:249,1,100,6|10,3:2|0:2,0:0:0:0:
260,297,99391,2,0,P|174:287|155:240,1,100,6|10,3:2|0:2,0:0:0:0:
82,234,100043,2,0,L|113:107,1,100,6|10,3:2|0:2,0:0:0:0:
170,60,100695,2,0,L|291:63,1,100,6|10,3:2|0:2,0:0:0:0:
357,110,101347,6,0,B|357:149|388:181|388:181|354:208|356:261,1,150,6|0,3:2|3:0,0:0:0:0:
314,332,102162,2,0,L|256:319,1,50,0|10,3:0|0:3,0:0:0:0:
179,269,102651,6,0,P|169:218|218:164,1,100,6|10,3:2|0:2,0:0:0:0:
281,133,103304,2,0,P|296:86|277:41,1,100,6|10,3:2|0:2,0:0:0:0:
179,23,103956,2,0,L|64:59,1,100,6|10,3:2|0:2,0:0:0:0:
31,138,104608,2,0,P|17:191|32:244,1,100,6|10,3:2|0:2,0:0:0:0:
86,314,105260,6,0,B|131:322|151:341|151:341|179:319|251:315,1,150,6|10,3:2|0:3,0:0:0:0:
323,332,106075,1,10,0:3:0:0:
384,253,106401,1,10,0:3:0:0:
382,152,106728,2,0,P|359:101|307:90,1,100,10|10,0:3|0:3,0:0:0:0:
221,70,107380,2,0,L|180:21,2,50,10|0|10,0:3|3:0|0:3,0:0:0:0:
189,108,107869,6,0,B|175:157|213:199|213:199|204:267,1,150,4|0,3:1|1:0,0:0:0:0:
268,327,108684,2,0,P|318:345|376:312,1,100,0|0,1:0|1:0,0:0:0:0:
447,281,109336,1,0,1:0:0:0:
401,192,109662,1,0,1:0:0:0:
474,124,109988,2,0,P|482:69|426:26,1,100,0|0,1:0|1:0,0:0:0:0:
356,34,110641,6,0,B|304:27|304:27|243:39,1,100,6|8,3:2|0:2,0:0:0:0:
207,28,111130,1,2,3:2:0:0:
207,28,111293,2,0,P|201:90|162:130,1,100,2|8,3:2|0:2,0:0:0:0:
129,125,111782,1,2,3:2:0:0:
129,125,111945,2,0,P|84:177|100:225,1,100,2|10,3:2|0:2,0:0:0:0:
91,303,112597,1,2,3:2:0:0:
188,278,112923,1,10,0:2:0:0:
255,351,113249,6,0,B|300:359|300:359|368:327,1,100,2|10,3:2|0:2,0:0:0:0:
448,343,113901,2,0,L|434:229,1,100,2|10,3:2|0:2,0:0:0:0:
488,158,114554,2,0,P|482:112|420:74,1,100,2|8,3:2|0:2,0:0:0:0:
344,61,115206,2,0,L|335:11,2,50,0|0|8,3:2|3:2|0:2,0:0:0:0:
270,128,115858,6,0,B|249:168|249:168|253:241,1,100,6|8,3:2|0:2,0:0:0:0:
250,272,116347,1,2,3:2:0:0:
250,272,116510,2,0,P|188:294|143:274,1,100,2|8,3:2|0:2,0:0:0:0:
107,282,116999,1,2,3:2:0:0:
107,282,117162,2,0,B|121:248|121:248|120:179,1,100,2|10,3:2|0:2,0:0:0:0:
47,115,117814,1,2,3:2:0:0:
109,36,118141,1,10,0:2:0:0:
183,102,118467,6,0,P|232:120|287:105,1,100,2|10,3:2|0:2,0:0:0:0:
345,37,119119,1,2,3:2:0:0:
430,88,119445,1,10,0:2:0:0:
433,187,119771,2,0,P|422:236|362:268,1,100,0|10,3:2|0:2,0:0:0:0:
285,277,120423,1,4,3:2:0:0:
220,200,120749,1,10,0:2:0:0:
120,193,121075,6,0,P|78:221|82:327,1,150,6|0,3:2|3:2,0:0:0:0:
104,351,121728,2,0,L|229:373,1,100,2|8,3:2|0:2,0:0:0:0:
302,362,122380,2,0,P|338:323|336:247,1,100,2|10,3:2|0:2,0:0:0:0:
334,178,123032,2,0,L|267:96,1,100,2|10,3:2|0:2,0:0:0:0:
184,49,123684,5,2,3:2:0:0:
85,67,124010,1,10,0:2:0:0:
70,165,124336,1,2,3:2:0:0:
139,237,124662,1,10,0:2:0:0:
233,203,124988,2,0,B|291:192|328:170|328:170|364:195|430:209,1,200,2|2,3:2|3:2,0:0:0:0:
485,282,125967,1,8,0:2:0:0:
423,360,126293,6,0,L|324:332,1,100,2|8,3:2|0:2,0:0:0:0:
226,327,126945,2,0,L|127:355,1,100,2|8,3:2|0:2,0:0:0:0:
40,309,127597,1,2,3:2:0:0:
83,219,127923,1,8,0:2:0:0:
29,134,128249,2,0,P|71:70|157:137,1,200,2|6,3:2|3:2,0:0:0:0:
70,67,136728,6,0,B|107:143|38:159|73:264,1,200,6|2,3:2|3:2,0:0:0:0:
141,334,137706,1,2,3:0:0:0:
212,264,138032,2,0,P|292:213|370:274,1,200,10|2,0:2|3:2,0:0:0:0:
420,352,139010,1,0,1:0:0:0:
489,279,139336,6,0,B|483:200|483:200|455:172|455:172|442:63,1,200,6|2,3:2|3:2,0:0:0:0:
376,19,140314,1,2,3:2:0:0:
312,97,140641,2,0,P|264:109|194:85,1,100,0|4,1:0|3:2,0:0:0:0:
128,48,141293,2,0,P|83:56|57:111,1,100,0|4,1:0|3:2,0:0:0:0:
25,194,141945,6,0,B|-3:262|38:321|38:321|77:303|117:316,1,200,6|2,3:2|3:2,0:0:0:0:
187,365,142923,1,2,3:2:0:0:
266,304,143249,2,0,B|358:273|371:339|471:301,1,200,10|2,0:2|3:2,0:0:0:0:
502,212,144228,1,0,1:0:0:0:
454,123,144554,6,0,P|409:107|357:121,1,100,6|0,3:2|3:0,0:0:0:0:
289,190,145206,2,0,P|244:206|192:192,1,100,2|2,3:2|3:2,0:0:0:0:
118,129,145858,2,0,P|110:80|155:34,1,100,2|0,3:0|1:0,0:0:0:0:
233,10,146510,1,2,3:0:0:0:
318,61,146836,1,0,1:0:0:0:
410,23,147162,6,0,P|462:109|393:198,1,200,6|2,3:2|3:2,0:0:0:0:
332,240,148141,1,2,3:2:0:0:
243,193,148467,2,0,B|181:208|136:265|136:265|113:237|51:221,1,200,10|2,0:2|3:2,0:0:0:0:
20,147,149445,1,0,1:0:0:0:
50,51,149771,6,0,P|96:21|154:36,1,100,6|0,3:2|3:0,0:0:0:0:
216,89,150423,1,2,3:2:0:0:
303,40,150749,1,2,3:2:0:0:
378,105,151075,2,0,P|389:146|329:209,1,100,0|4,1:0|3:2,0:0:0:0:
399,288,151728,2,0,P|368:318|284:297,1,100,0|4,1:0|3:2,0:0:0:0:
220,355,152380,6,0,B|194:323|194:287|194:287|217:229|217:229|201:199|209:154,1,200,6|2,3:2|3:2,0:0:0:0:
253,78,153358,1,2,3:2:0:0:
341,124,153684,2,0,P|390:140|452:117,1,100,10|2,0:2|3:0,0:0:0:0:
433,28,154336,2,0,P|384:12|322:35,1,100,2|0,3:2|1:0,0:0:0:0:
253,78,154988,6,0,B|156:101|151:38|53:76,1,200,6|2,3:2|3:2,0:0:0:0:
0,157,155967,1,2,3:2:0:0:
48,244,156293,2,0,P|97:265|152:242,1,100,2|0,3:0|1:0,0:0:0:0:
219,191,156945,2,0,P|268:170|323:193,1,100,0|0,1:0|1:0,0:0:0:0:
391,242,157597,1,4,3:1:0:0:
349,99,162814,6,0,P|402:180|349:259,1,200,0|0,1:2|1:2,0:0:0:0:
255,285,163793,1,4,3:2:0:0:
159,254,164119,2,0,P|108:173|161:95,1,200,0|0,1:2|1:2,0:0:0:0:
252,53,165097,1,4,3:2:0:0:
256,192,165423,12,4,168032,1:2:0:0:
131,131,170641,6,0,P|114:179|147:240,1,100,6|10,3:2|0:2,0:0:0:0:
207,286,171293,2,0,B|232:288|255:299|255:299|277:287|317:290,1,100,2|10,3:2|0:2,0:0:0:0:
382,227,171945,2,0,P|397:180|380:134,1,100,2|8,3:2|0:2,0:0:0:0:
309,63,172597,2,0,L|338:14,2,50,0|0|8,3:2|3:2|0:2,0:0:0:0:
231,126,173249,6,0,B|188:119|188:119|175:121|175:121|119:114,1,100,6|8,3:2|0:2,0:0:0:0:
82,118,173738,1,2,3:2:0:0:
82,118,173901,2,0,P|60:177|67:223,1,100,2|8,3:2|0:2,0:0:0:0:
36,255,174391,1,2,3:2:0:0:
36,255,174554,2,0,P|84:254|138:273,1,100,2|10,3:2|0:2,0:0:0:0:
203,341,175206,1,2,3:2:0:0:
260,259,175532,1,10,0:2:0:0:
319,339,175858,6,0,P|370:353|428:315,1,100,2|10,3:2|0:2,0:0:0:0:
482,266,176510,2,0,B|495:219|495:219|462:162,1,100,2|10,3:2|0:2,0:0:0:0:
388,115,177162,2,0,P|337:101|279:139,1,100,0|10,3:2|0:2,0:0:0:0:
208,167,177814,1,4,3:2:0:0:
207,267,178141,1,10,0:2:0:0:
131,333,178467,6,0,P|55:336|53:246,1,150,6|0,3:2|3:2,0:0:0:0:
13,230,179119,2,0,L|73:131,1,100,2|8,3:2|0:2,0:0:0:0:
137,75,179771,2,0,P|202:59|231:91,1,100,2|10,3:2|0:2,0:0:0:0:
287,153,180423,2,0,L|304:264,1,100,2|10,3:2|0:2,0:0:0:0:
383,309,181075,5,2,3:2:0:0:
471,262,181401,1,10,0:2:0:0:
473,161,181728,2,0,P|466:110|415:83,1,100,2|10,3:2|0:2,0:0:0:0:
336,44,182380,2,0,B|242:23|216:74|135:41,1,200,2|2,3:2|3:2,0:0:0:0:
39,32,183358,1,8,0:2:0:0:
10,127,183684,6,0,P|28:181|87:200,1,100,2|8,3:2|0:2,0:0:0:0:
160,174,184336,2,0,P|201:199|213:247,1,100,2|8,3:2|0:2,0:0:0:0:
203,346,184988,1,2,3:2:0:0:
297,378,185314,1,8,0:2:0:0:
366,306,185641,2,0,L|374:203,1,100,2|8,3:2|0:2,0:0:0:0:
329,116,186293,6,0,B|292:87|292:87|172:96,2,150,6|6|6,3:2|3:2|3:2,0:0:0:0:
134,344,188249,2,0,B|105:307|105:307|114:187,2,150,6|6|6,3:2|3:2|3:2,0:0:0:0:
415,239,190206,6,0,P|426:185|346:117,2,150,10|10|10,0:2|0:2|0:2,0:0:0:0:
330,292,191510,1,2,3:2:0:0:
244,239,191836,1,10,0:2:0:0:
243,139,192162,2,0,B|252:88|281:49|281:49|332:35|371:57,2,150,4|4|4,3:2|3:2|3:2,0:0:0:0:
86,336,194119,1,8,0:2:0:0:
52,241,194445,6,0,B|37:186|62:144|62:144|110:172|162:143,1,200,4|8,3:2|0:3,0:0:0:0:
247,103,195423,1,8,0:3:0:0:
334,152,195749,2,0,B|356:199|398:228|398:228|355:254|329:331,1,200,8|8,0:3|0:3,0:0:0:0:
247,347,196727,1,8,0:3:0:0:
160,296,197053,6,0,P|141:244|175:182,1,100,8|8,0:3|0:3,0:0:0:0:
234,143,197705,2,0,L|342:152,1,100,8|8,0:3|0:3,0:0:0:0:
256,192,198358,12,4,200764,3:2:0:0:
