osu file format v14

[General]
AudioFilename: audio.mp3
AudioLeadIn: 0
PreviewTime: 52190
Countdown: 0
SampleSet: Soft
StackLeniency: 0.7
Mode: 0
LetterboxInBreaks: 0
WidescreenStoryboard: 0

[Editor]
Bookmarks: 12815,15424,36130,53250,73794,94500,111620,129880,137707,158495,169011,171620,172272,195424
DistanceSpacing: 1
BeatDivisor: 4
GridSize: 32
TimelineZoom: 2.1

[Metadata]
Title:great escape
TitleUnicode:great escape
Artist:cinema staff
ArtistUnicode:cinema staff
Creator:Seto Kousuke
Version:Light Insane
Source:Shingeki no Kyojin
Tags:進撃の巨人 attack on titan ending japanese anime rock jrock 2019 new mix name of love shirahane suou
BeatmapID:1912767
BeatmapSetID:915864

[Difficulty]
HPDrainRate:4
CircleSize:4
OverallDifficulty:7.5
ApproachRate:8.5
SliderMultiplier:1.6
SliderTickRate:1

[Events]
//Background and Video events
0,0,"levi op.jpg",0,0
//Break Periods
//Storyboard Layer 0 (Background)
//Storyboard Layer 1 (Fail)
//Storyboard Layer 2 (Pass)
//Storyboard Layer 3 (Foreground)
//Storyboard Sound Samples

[TimingPoints]
98,326.086956521739,4,2,1,70,1,0
12874,-133.333333333333,4,2,1,70,0,0
14445,-100,4,2,1,50,0,0
23721,326.086956521739,4,2,1,50,1,0
24880,326.086956521739,4,2,1,60,1,0
24880,-100,4,2,1,60,0,0
52271,-100,4,2,1,70,0,1
70532,-117.647058823529,4,2,1,70,0,0
71510,-222.222222222221,4,2,1,70,0,0
72815,326.086956521739,4,2,1,60,1,0
107869,-100,4,2,1,40,0,0
107874,-100,4,2,1,40,0,0
108195,-100,4,2,1,45,0,0
108200,-100,4,2,1,45,0,0
108684,-100,4,2,1,50,0,0
108689,-100,4,2,1,50,0,0
109336,-100,4,2,1,60,0,0
109341,-100,4,2,1,60,0,0
109988,-100,4,2,1,65,0,0
109993,-100,4,2,1,65,0,0
110641,-100,4,2,1,70,0,1
128901,-100,4,2,1,50,0,0
136728,-117.647058823529,4,2,1,60,0,0
160206,-117.647058823529,4,2,1,50,0,0
160211,-117.647058823529,4,2,1,50,0,0
162814,-117.647058823529,4,2,1,60,0,0
162819,-117.647058823529,4,2,1,60,0,0
165423,-117.647058823529,4,2,1,50,0,0
165428,-117.647058823529,4,2,1,50,0,0
166075,-117.647058823529,4,2,1,55,0,0
166080,-117.647058823529,4,2,1,55,0,0
166728,-117.647058823529,4,2,1,60,0,0
166733,-117.647058823529,4,2,1,60,0,0
167380,-117.647058823529,4,2,1,65,0,0
167385,-117.647058823529,4,2,1,65,0,0
168032,-117.647058823529,4,2,1,70,0,0
168037,-117.647058823529,4,2,1,70,0,0
169586,-117.647058823529,4,2,1,70,0,0
169662,-117.647058823529,4,2,1,5,0,0
170641,-100,4,2,1,70,0,1
186293,-117.647058823529,4,2,1,70,0,0
187271,-222.222222222221,4,2,1,70,0,0
188091,-117.647058823529,4,2,1,70,0,0
189228,-222.222222222221,4,2,1,70,0,0
190048,-100,4,2,1,70,0,0
193141,-222.222222222221,4,2,1,70,0,0
194445,326.086956521739,4,2,1,70,1,0
194450,-100,4,2,1,70,0,0
198358,309.278350515464,4,2,1,60,1,0
198358,-100,4,2,1,60,0,0
199050,285.714285714286,4,2,1,60,1,0
199692,285.714285714286,4,2,1,60,1,0
200763,-222.222222222222,4,2,1,60,0,0
201334,-222.222222222222,4,2,1,5,0,0

[Colours]
Combo1 : 124,68,55
Combo2 : 167,154,60
Combo3 : 186,87,32
Combo4 : 104,155,88

[HitObjects]
327,157,98,6,0,P|342:119|327:73,1,80,4|0,0:2|0:0,0:0:0:0:
166,81,424,2,0,P|154:118|165:156,1,80,4|0,0:2|0:0,0:0:0:0:
320,231,750,2,0,P|335:193|320:147,1,80,4|0,0:2|0:0,0:0:0:0:
166,157,1076,2,0,P|157:195|172:231,1,80,4|0,0:2|0:0,0:0:0:0:
289,346,1402,6,0,B|325:357|325:357|366:346,1,80,4|0,3:2|1:0,0:0:0:0:
438,296,1728,2,0,L|480:278,3,40,8|0|0|0,0:2|1:0|1:0|1:0,0:0:0:0:
467,236,2054,2,0,L|509:218,3,40,8|0|0|0,0:2|1:0|1:0|1:0,0:0:0:0:
501,176,2380,2,0,L|484:81,1,80,8|0,0:2|1:0,0:0:0:0:
391,14,2706,6,0,P|353:14|315:56,1,80,4|0,3:2|1:0,0:0:0:0:
281,119,3032,2,0,L|293:185,3,40,8|0|0|0,0:2|1:0|1:0|1:0,0:0:0:0:
247,176,3358,2,0,L|235:242,3,40,8|0|0|0,0:2|1:0|1:0|1:0,0:0:0:0:
257,255,3684,2,0,L|285:344,1,80,8|0,0:2|1:0,0:0:0:0:
158,384,4011,6,0,L|133:307,1,80,4|0,3:2|1:0,0:0:0:0:
68,249,4337,2,0,L|17:225,3,40,8|0|0|0,0:2|1:0|1:0|1:0,0:0:0:0:
35,187,4663,2,0,L|-16:163,3,40,8|0|0|0,0:2|1:0|1:0|1:0,0:0:0:0:
16,129,4989,2,0,L|19:41,1,80,8|0,0:2|1:0,0:0:0:0:
146,31,5315,6,0,P|188:21|233:34,1,80,4|0,3:2|1:0,0:0:0:0:
295,98,5641,1,8,0:2:0:0:
378,41,5804,1,0,1:0:0:0:
453,103,5967,2,0,L|504:79,3,40,8|0|0|0,0:2|1:0|1:0|1:0,0:0:0:0:
511,110,6293,2,0,L|512:190,1,80,8|0,0:2|1:0,0:0:0:0:
486,299,6619,6,0,P|448:309|398:290,1,80,4|0,3:2|1:0,0:0:0:0:
335,251,6945,2,0,L|287:273,3,40,8|0|0|0,0:2|1:0|1:0|1:0,0:0:0:0:
282,308,7271,2,0,L|234:286,3,40,8|0|0|0,0:2|1:0|1:0|1:0,0:0:0:0:
230,249,7597,2,0,L|133:283,1,80,8|0,0:2|1:0,0:0:0:0:
36,204,7924,6,0,L|111:177,1,80,4|0,3:2|1:0,0:0:0:0:
169,111,8250,2,0,L|191:72,3,40,8|0|0|0,0:2|1:0|1:0|1:0,0:0:0:0:
231,66,8576,2,0,L|253:27,3,40,8|0|0|0,0:2|1:0|1:0|1:0,0:0:0:0:
294,39,8902,2,0,L|395:32,1,80,8|0,0:2|1:0,0:0:0:0:
487,109,9228,6,0,P|496:153|469:201,1,80,4|0,3:2|1:0,0:0:0:0:
409,231,9554,2,0,L|297:231,1,80,8|0,0:2|1:0,0:0:0:0:
290,218,9799,1,0,1:0:0:0:
290,218,9880,2,0,P|277:256|295:312,1,80,8|0,0:2|1:0,0:0:0:0:
309,324,10125,1,0,1:0:0:0:
309,324,10206,2,0,L|208:320,1,80,8|0,0:2|1:0,0:0:0:0:
74,265,10532,5,4,3:2:0:0:
162,263,10695,1,0,1:0:0:0:
119,339,10858,1,8,0:2:0:0:
58,252,11021,1,0,1:0:0:0:
113,183,11184,2,0,L|153:160,3,40,8|0|0|0,0:2|1:0|1:0|1:0,0:0:0:0:
186,185,11511,2,0,L|225:191,3,40,8|0|0|0,0:2|1:0|1:0|1:0,0:0:0:0:
252,162,11837,5,4,3:2:0:0:
93,99,14445,6,0,B|108:104|130:99|130:99|152:106|152:106|166:104|192:93|192:93|217:113|260:99,1,160,4|10,3:2|0:3,0:0:0:0:
325,63,14934,1,0,0:0:0:0:
370,139,15097,2,0,L|372:235,2,80,2|0|2,3:0|3:0|0:3,0:0:0:0:
456,65,15587,6,0,L|459:240,1,160,8|0,0:2|3:0,0:0:0:0:
454,359,16076,2,0,P|442:321|411:299,1,80,10|0,0:3|3:0,0:0:0:0:
287,305,16402,1,2,3:0:0:0:
287,305,16565,1,0,3:0:0:0:
347,377,16728,1,10,0:3:0:0:
357,147,17054,6,0,B|334:148|312:155|312:155|282:146|251:158|251:158|227:148|194:157,1,160,4|10,3:2|0:3,0:0:0:0:
112,159,17543,1,0,3:0:0:0:
51,92,17706,2,0,P|49:51|69:14,1,80,2|0,3:0|3:0,0:0:0:0:
15,173,18032,1,2,0:3:0:0:
141,76,18195,6,0,L|311:71,1,160,8|0,0:3|3:0,0:0:0:0:
411,8,18684,2,0,P|391:42|388:82,1,80,10|0,0:3|3:0,0:0:0:0:
482,193,19011,2,0,L|474:62,2,120,2|0|0,3:0|3:0|3:0,0:0:0:0:
455,332,19663,6,0,B|438:323|421:312|421:312|376:321|376:321|339:297|288:315,1,160,4|10,3:2|0:3,0:0:0:0:
225,349,20152,1,0,0:0:0:0:
158,291,20315,2,0,B|131:284|131:284|76:303,1,80,2|0,3:0|3:0,0:0:0:0:
8,230,20641,1,2,0:3:0:0:
8,230,20804,6,0,L|157:174,1,160,8|0,0:3|3:0,0:0:0:0:
259,243,21293,2,0,P|240:209|245:170,1,80,10|0,0:3|3:0,0:0:0:0:
336,51,21619,1,2,3:0:0:0:
336,51,21782,1,0,3:0:0:0:
328,138,21945,1,10,0:3:0:0:
128,27,22271,6,0,B|128:60|128:60|116:88|116:88|129:123|129:123|116:145|121:202,1,160,4|10,3:2|0:3,0:0:0:0:
137,266,22761,1,0,3:0:0:0:
76,331,22924,2,0,P|37:335|0:347,1,80,2|0,3:0|3:0,0:0:0:0:
150,380,23250,1,2,0:3:0:0:
223,260,23413,1,8,0:3:0:0:
223,260,23721,5,0,3:0:0:0:
297,372,23884,1,10,0:3:0:0:
393,246,24047,1,6,3:2:0:0:
432,324,24210,6,0,L|429:363,7,40
480,303,24880,6,0,B|491:277|491:277|488:200,1,80,4|0,3:2|3:0,0:0:0:0:
420,112,25206,1,10,0:3:0:0:
368,186,25369,1,0,3:0:0:0:
368,186,25532,2,0,P|330:181|288:187,1,80,2|0,3:0|3:0,0:0:0:0:
191,76,25858,1,2,0:3:0:0:
191,76,26021,6,0,B|222:135|173:169|205:235,1,160,8|0,0:3|3:0,0:0:0:0:
284,351,26511,1,10,0:3:0:0:
291,263,26674,1,0,3:0:0:0:
184,345,26837,2,0,P|145:343|87:349,1,80,2|0,3:0|3:0,0:0:0:0:
203,233,27163,2,0,P|163:236|123:234,1,80,10|0,0:3|3:0,0:0:0:0:
293,356,27489,6,0,B|338:360|338:360|380:352,1,80,4|0,3:2|3:0,0:0:0:0:
494,294,27815,1,10,0:3:0:0:
430,233,27978,1,0,3:0:0:0:
430,233,28141,2,0,P|429:188|438:128,1,80,2|0,3:0|3:0,0:0:0:0:
337,62,28467,1,2,0:3:0:0:
337,62,28630,6,0,P|343:124|330:237,1,160,8|0,0:3|3:0,0:0:0:0:
251,336,29119,1,10,0:3:0:0:
247,248,29282,1,0,3:0:0:0:
350,345,29445,2,0,P|393:341|431:348,1,80,2|0,3:0|3:0,0:0:0:0:
219,243,29771,2,0,P|175:239|138:246,1,80,10|0,0:3|3:0,0:0:0:0:
33,358,30097,6,0,P|38:319|38:254,1,80,4|0,3:2|3:0,0:0:0:0:
8,153,30424,1,10,0:3:0:0:
95,163,30587,1,0,3:0:0:0:
95,163,30750,2,0,P|136:152|177:132,1,80,2|0,3:0|3:0,0:0:0:0:
296,114,31076,1,2,0:3:0:0:
296,114,31239,6,0,P|228:114|143:33,1,160,8|0,0:3|3:0,0:0:0:0:
34,19,31728,2,0,P|58:54|61:102,1,80,10|0,0:3|3:0,0:0:0:0:
33,243,32054,1,2,3:0:0:0:
11,157,32217,1,0,3:0:0:0:
149,187,32380,2,0,P|195:199|233:225,1,80,10|0,0:3|3:0,0:0:0:0:
313,139,32706,6,0,P|276:205|329:288,1,160,4|10,3:2|0:3,0:0:0:0:
428,302,33195,1,0,3:0:0:0:
359,357,33358,2,0,P|317:361|272:359,1,80,2|0,3:0|3:0,0:0:0:0:
391,206,33684,1,8,0:3:0:0:
391,206,33847,6,0,B|398:138|366:101|366:101|336:99|295:124,1,160,4|0,3:2|3:0,0:0:0:0:
274,18,34337,2,0,P|241:40|221:75,1,80,10|0,0:3|3:0,0:0:0:0:
260,231,34663,2,0,P|261:192|241:159,1,80,10|2,0:3|3:0,0:0:0:0:
52,35,35152,6,0,B|35:71|48:101|48:101|36:112|36:112|53:150|27:208,1,160,6|10,3:2|0:2,0:0:0:0:
124,218,35641,1,2,3:2:0:0:
124,218,35804,2,0,B|142:183|125:145|125:145|137:134|137:134|124:104|141:68,1,160,6|10,3:2|0:2,0:0:0:0:
230,101,36293,1,2,3:2:0:0:
230,101,36456,2,0,B|213:137|226:167|226:167|214:178|214:178|231:216|205:274,1,160,6|10,3:2|0:2,0:0:0:0:
302,284,36945,1,2,3:2:0:0:
302,284,37108,2,0,B|320:249|303:211|303:211|315:200|315:200|302:170|319:134,1,160,6|10,3:2|0:2,0:0:0:0:
432,69,37597,1,2,3:2:0:0:
432,69,37761,6,0,B|409:77|377:77|377:77|331:42|267:63,1,160,6|0,3:2|3:0,0:0:0:0:
211,2,38250,2,0,P|192:37|196:88,1,80,10|0,0:3|3:0,0:0:0:0:
51,71,38576,2,0,P|83:94|100:142,1,80,10|0,0:3|3:0,0:0:0:0:
273,151,38902,2,0,P|239:171|217:217,1,80,10|0,0:3|3:0,0:0:0:0:
99,130,39228,2,0,P|114:166|106:216,1,80,10|0,0:3|3:0,0:0:0:0:
252,311,39554,2,0,P|212:312|170:341,1,80,10|0,0:3|3:0,0:0:0:0:
111,205,39880,2,0,P|106:244|73:284,2,80,10|0|10,0:3|3:0|0:3,0:0:0:0:
41,93,40369,6,0,B|85:89|114:109|114:109|142:90|203:93,1,160,6|10,3:2|0:2,0:0:0:0:
281,77,40858,1,2,3:2:0:0:
281,77,41021,2,0,B|285:121|265:150|265:150|284:178|281:239,1,160,6|10,3:2|0:2,0:0:0:0:
297,317,41511,1,2,3:2:0:0:
297,317,41674,2,0,B|253:321|224:301|224:301|196:320|135:317,1,160,6|10,3:2|0:2,0:0:0:0:
56,333,42163,1,2,3:2:0:0:
56,333,42326,2,0,B|52:289|72:260|72:260|53:232|56:171,1,160,6|10,3:2|0:2,0:0:0:0:
41,93,42815,1,2,3:2:0:0:
152,164,42978,6,0,P|199:163|262:137,1,80,6|0,3:2|0:0,0:0:0:0:
327,78,43304,1,10,0:3:0:0:
344,164,43467,1,0,3:0:0:0:
413,45,43630,2,0,L|410:-5,2,40,0|0|0,3:0|3:0|3:0,0:0:0:0:
468,115,43956,1,10,0:3:0:0:
468,115,44282,6,0,B|451:171|467:221|467:221|439:212|382:247,1,160,6|10,3:2|0:2,0:0:0:0:
331,253,44771,1,2,3:2:0:0:
331,253,44934,2,0,P|380:314|468:301,1,160,6|10,3:2|0:2,0:0:0:0:
416,228,45424,1,2,3:2:0:0:
416,228,45587,2,0,L|218:228,1,160,6|10,3:2|0:2,0:0:0:0:
179,184,46076,1,2,3:2:0:0:
179,184,46239,2,0,B|139:164|123:128|123:128|107:164|67:184,1,160,6|10,3:2|0:2,0:0:0:0:
51,270,46728,1,2,3:2:0:0:
51,270,46891,6,0,P|113:312|184:272,1,160,6|0,3:2|3:0,0:0:0:0:
256,228,47380,2,0,B|281:230|296:239|296:239|318:228|346:224,1,80,10|0,0:3|3:0,0:0:0:0:
495,224,47706,2,0,B|481:225|459:236|459:236|444:227|418:224,1,80,10|0,0:3|3:0,0:0:0:0:
337,136,48032,2,0,B|351:137|373:148|373:148|388:139|414:137,1,80,10|0,0:3|3:0,0:0:0:0:
506,49,48358,2,0,B|492:50|470:61|470:61|455:52|430:50,1,80,10|0,0:3|3:0,0:0:0:0:
251,42,48684,2,0,B|276:46|290:56|290:56|312:47|327:48,1,80,10|0,0:3|3:0,0:0:0:0:
414,137,49011,2,0,B|388:139|373:148|373:148|351:137|337:136,1,80,10|0,0:3|3:0,0:0:0:0:
256,228,49337,1,10,0:3:0:0:
256,228,49500,6,0,P|222:187|122:246,1,160,6|10,3:2|0:2,0:0:0:0:
89,291,49989,1,2,3:2:0:0:
89,291,50152,2,0,B|86:180|86:180|73:154|29:156,1,160,6|10,3:2|0:2,0:0:0:0:
24,70,50641,1,2,3:2:0:0:
24,70,50804,2,0,B|95:61|140:100|140:100|209:82,1,160,6|10,3:2|0:2,0:0:0:0:
245,38,51293,1,2,3:2:0:0:
245,38,51456,2,0,B|320:41|297:116|385:118,1,160,6|10,3:2|0:2,0:0:0:0:
376,117,52271,6,0,P|331:186|391:263,1,160,6|8,3:2|0:2,0:0:0:0:
470,322,52761,1,2,3:2:0:0:
316,377,52924,2,0,B|284:381|261:369|261:369|226:382|226:382|182:370|141:378,1,160,2|8,3:2|0:2,0:0:0:0:
38,312,53413,1,2,3:2:0:0:
38,312,53576,6,0,P|67:283|67:235,1,80,2|0,3:2|3:2,0:0:0:0:
165,205,53902,2,0,P|144:169|98:157,1,80,10|0,0:2|3:2,0:0:0:0:
22,80,54228,2,0,P|63:80|96:46,1,80,2|0,3:2|3:2,0:0:0:0:
209,20,54554,2,0,P|193:55|204:93,1,80,10|2,0:2|3:2,0:0:0:0:
282,196,54880,6,0,B|322:209|322:209|385:191,1,80,2|0,3:2|3:2,0:0:0:0:
444,73,55206,2,0,L|433:153,1,80,10|0,0:2|3:2,0:0:0:0:
282,283,55532,2,0,B|322:296|322:296|385:278,1,80,2|0,3:2|3:2,0:0:0:0:
190,174,55858,2,0,L|178:253,1,80,10|0,0:2|3:2,0:0:0:0:
282,370,56184,6,0,B|322:383|322:383|454:345,1,160,2|8,3:2|0:2,0:0:0:0:
501,248,56674,1,0,3:2:0:0:
501,248,56755,1,0,3:2:0:0:
501,248,56837,2,0,L|411:270,1,80,0|0,3:2|3:2,0:0:0:0:
269,274,57163,1,8,0:2:0:0:
269,274,57489,6,0,L|256:114,1,160,6|8,3:2|0:2,0:0:0:0:
162,22,57978,1,2,3:2:0:0:
52,141,58141,2,0,B|32:167|34:196|34:196|76:233|147:214,1,160,2|8,3:2|0:2,0:0:0:0:
270,194,58630,1,2,3:2:0:0:
270,194,58793,6,0,L|268:293,1,80,2|0,3:2|3:2,0:0:0:0:
386,246,59119,2,0,L|388:167,1,80,10|0,0:2|3:2,0:0:0:0:
318,41,59445,2,0,L|316:140,1,80,2|0,3:2|3:2,0:0:0:0:
434,93,59771,2,0,L|436:14,1,80,10|0,0:2|3:2,0:0:0:0:
511,181,60097,6,0,L|495:344,1,160,2|10,3:2|0:2,0:0:0:0:
398,372,60587,1,0,3:2:0:0:
398,372,60750,2,0,P|364:350|293:340,1,80,2|0,3:2|3:2,0:0:0:0:
263,258,61076,2,0,L|187:318,1,80,10|0,0:2|3:2,0:0:0:0:
84,358,61402,6,0,P|101:317|93:274,1,80,0|0,3:2|3:2,0:0:0:0:
88,273,61646,1,0,3:2:0:0:
77,267,61728,2,0,P|66:227|89:164,1,80,10|0,0:2|3:2,0:0:0:0:
132,125,62054,1,4,3:2:0:0:
48,61,62217,2,0,L|-2:60,2,40,0|0|10,3:2|3:2|0:2,0:0:0:0:
142,1,62543,1,8,0:2:0:0:
238,102,62706,6,0,P|309:103|344:34,1,120,6|0,3:2|3:2,0:0:0:0:
367,35,63032,2,0,P|355:82|389:122,1,80,8|0,0:2|3:2,0:0:0:0:
480,213,63358,2,0,P|429:190|378:252,1,120,2|0,3:2|3:2,0:0:0:0:
340,210,63684,2,0,P|366:242|358:298,1,80,8|0,0:2|3:2,0:0:0:0:
237,287,64011,6,0,L|226:145,1,120,2|0,3:2|3:2,0:0:0:0:
245,126,64337,2,0,P|206:144|160:125,1,80,10|0,0:2|3:2,0:0:0:0:
79,43,64663,1,2,3:2:0:0:
20,109,64826,1,0,3:0:0:0:
20,109,64907,1,0,3:2:0:0:
20,109,64989,2,0,L|18:194,1,80,10|0,0:2|3:2,0:0:0:0:
27,323,65315,6,0,P|80:348|144:312,1,120,2|0,3:2|3:2,0:0:0:0:
143,282,65641,2,0,P|162:326|209:335,1,80,10|0,0:2|3:2,0:0:0:0:
327,367,65967,2,0,P|349:302|303:249,1,120,2|0,3:2|3:2,0:0:0:0:
281,251,66293,2,0,P|320:232|333:187,1,80,10|0,0:2|3:2,0:0:0:0:
461,258,66619,6,0,P|438:203|458:138,1,120,2|0,3:2|3:2,0:0:0:0:
492,127,66945,2,0,P|447:132|404:97,1,80,8|0,0:2|3:2,0:0:0:0:
323,17,67271,1,2,3:2:0:0:
265,83,67434,1,0,3:2:0:0:
265,83,67516,1,0,3:2:0:0:
265,83,67597,2,0,P|227:97|170:87,1,80,8|0,0:2|3:2,0:0:0:0:
62,34,67924,6,0,P|27:65|89:128,1,120,2|0,3:2|3:2,0:0:0:0:
24,161,68250,2,0,P|75:161|93:192,1,80,8|0,0:2|3:2,0:0:0:0:
202,183,68576,2,0,L|125:296,1,120,2|0,3:2|3:2,0:0:0:0:
90,289,68902,2,0,P|152:317|156:335,1,80,8|0,0:2|3:2,0:0:0:0:
273,376,69228,6,0,P|333:376|369:303,1,120,2|0,3:2|3:2,0:0:0:0:
411,338,69554,2,0,P|392:305|407:267,1,80,8|0,0:2|3:2,0:0:0:0:
504,176,69880,1,2,3:2:0:0:
433,123,70043,1,0,0:0:0:0:
433,123,70125,1,0,3:2:0:0:
433,123,70206,2,0,L|342:125,1,80,8|0,0:2|3:2,0:0:0:0:
264,23,70532,6,0,P|262:88|206:122,1,136.000002593994,6|8,3:2|0:3,0:0:0:0:
348,246,71021,2,0,P|290:214|232:245,1,136.000002593994,6|8,3:2|0:3,0:0:0:0:
84,56,71511,6,0,P|115:113|78:182,1,143.999995605469,6|0,3:2|0:0,0:0:0:0:
8,235,72326,1,0,3:2:0:0:
106,365,72489,1,8,0:2:0:0:
106,365,72815,6,0,P|147:354|193:350,1,80,4|0,3:1|3:0,0:0:0:0:
322,354,73141,1,10,0:3:0:0:
322,354,73304,1,0,0:0:0:0:
249,291,73467,2,0,P|243:251|284:205,1,80,2|0,3:0|3:0,0:0:0:0:
349,178,73793,1,2,0:3:0:0:
349,178,73956,6,0,L|186:160,1,160,8|0,0:3|3:0,0:0:0:0:
107,89,74445,2,0,P|112:133|97:183,2,80,10|0|2,0:3|3:0|3:0,0:0:0:0:
18,130,74934,1,0,3:0:0:0:
62,256,75097,1,10,0:3:0:0:
187,49,75423,6,0,P|209:128|182:216,1,160,4|10,3:1|0:3,0:0:0:0:
180,309,75912,1,0,3:0:0:0:
180,309,76075,2,0,P|218:284|266:286,1,80,2|0,3:0|3:0,0:0:0:0:
388,287,76401,1,2,0:3:0:0:
315,348,76565,1,8,0:3:0:0:
318,152,76891,1,0,3:0:0:0:
318,152,77054,2,0,L|422:153,1,80,10|0,0:3|3:0,0:0:0:0:
462,15,77380,2,0,P|478:51|471:90,2,80,2|0|10,3:0|3:0|0:3,0:0:0:0:
244,92,78032,6,0,P|219:157|286:237,1,160,4|10,3:1|0:3,0:0:0:0:
328,330,78521,1,0,0:0:0:0:
328,330,78684,2,0,L|229:324,1,80,2|0,3:0|3:0,0:0:0:0:
147,384,79010,1,2,0:3:0:0:
147,384,79173,6,0,P|158:326|85:255,1,160,8|0,0:3|3:0,0:0:0:0:
100,153,79662,2,0,P|66:173|27:178,2,80,10|0|2,0:3|3:0|3:0,0:0:0:0:
36,85,80151,1,0,3:0:0:0:
195,128,80315,1,10,0:3:0:0:
396,20,80641,6,0,B|396:49|402:70|402:70|382:117|382:117|393:146|376:201,1,160,4|10,3:1|0:3,0:0:0:0:
477,259,81130,1,0,3:0:0:0:
477,259,81293,2,0,P|438:286|422:331,1,80,2|0,3:0|3:0,0:0:0:0:
340,372,81619,1,2,0:3:0:0:
281,292,81782,1,8,0:3:0:0:
192,357,81945,6,0,B|155:376|155:376|44:352,1,133.333333333333,4|8,3:1|0:3,0:0:0:0:
9,201,82434,1,0,3:0:0:0:
9,201,82638,2,0,B|42:214|42:214|110:205,1,100,8|0,0:3|3:0,0:0:0:0:
196,28,83086,1,8,0:3:0:0:
261,111,83249,6,0,P|307:116|351:93,1,80,4|0,3:1|0:0,0:0:0:0:
421,58,83575,2,0,L|417:174,1,80,10|0,0:3|3:0,0:0:0:0:
417,235,83901,1,2,3:0:0:0:
328,273,84065,2,0,P|317:235|328:197,1,80,8|2,0:3|0:3,0:0:0:0:
414,320,84391,1,0,3:3:0:0:
286,364,84554,6,0,B|206:381|201:326|117:363,1,160,10|2,0:3|3:0,0:0:0:0:
22,307,85043,1,10,0:3:0:0:
22,307,85206,2,0,P|67:300|103:263,1,80,2|2,3:0|0:3,0:0:0:0:
184,186,85532,2,0,L|182:284,1,80,10|0,0:3|3:0,0:0:0:0:
91,185,85858,5,4,3:1:0:0:
151,99,86021,2,0,P|185:88|228:106,1,80,8|0,0:3|3:0,0:0:0:0:
299,169,86347,1,0,3:0:0:0:
395,125,86510,2,0,P|398:163|389:214,1,80,8|2,0:3|0:3,0:0:0:0:
316,267,86836,1,2,3:0:0:0:
400,315,86999,1,8,0:3:0:0:
468,244,87162,6,0,P|499:267|509:328,1,80,2|0,3:3|3:0,0:0:0:0:
378,185,87488,2,0,L|298:186,1,80,10|0,0:3|3:0,0:0:0:0:
459,126,87815,1,2,3:0:0:0:
374,64,87978,1,8,0:3:0:0:
468,25,88141,2,0,L|506:1,3,40,8|8|8|8,0:3|0:3|0:3|0:3,0:0:0:0:
429,24,88467,6,0,L|311:16,1,80,4|2,3:1|0:3,0:0:0:0:
220,31,88793,1,8,0:3:0:0:
220,31,88956,2,0,P|222:72|204:125,1,80,2|2,0:3|3:0,0:0:0:0:
320,137,89282,1,8,0:3:0:0:
320,137,89445,2,0,P|311:177|280:223,1,80,2|2,3:0|0:3,0:0:0:0:
183,263,89771,5,10,0:3:0:0:
183,263,89934,2,0,P|181:304|199:357,1,80,2|2,0:3|3:0,0:0:0:0:
89,193,90260,1,8,0:3:0:0:
89,193,90423,2,0,P|49:180|-5:184,1,80,2|2,3:0|0:3,0:0:0:0:
174,129,90749,2,0,P|183:88|174:33,1,80,8|2,0:3|0:3,0:0:0:0:
255,0,91075,5,2,3:0:0:0:
332,50,91238,2,0,P|328:90|337:128,1,80,8|2,0:3|3:0,0:0:0:0:
423,191,91565,1,2,0:3:0:0:
336,229,91728,2,0,P|327:268|332:308,1,80,8|2,0:3|0:3,0:0:0:0:
420,371,92054,1,2,3:0:0:0:
507,315,92217,2,0,P|512:275|503:237,1,80,8|2,0:3|3:0,0:0:0:0:
502,123,92543,5,8,0:3:0:0:
417,171,92706,1,4,3:1:0:0:
335,95,92869,2,0,L|343:46,2,40,0|0|8,3:0|3:0|0:3,0:0:0:0:
255,177,93195,2,0,P|251:212|264:267,1,80,0|0,3:0|3:0,0:0:0:0:
320,329,93521,6,0,P|266:285|192:348,1,160,6|10,3:2|0:2,0:0:0:0:
107,354,94010,1,2,3:2:0:0:
107,354,94173,2,0,L|104:183,1,160,6|10,3:2|0:2,0:0:0:0:
38,139,94662,1,2,3:2:0:0:
38,139,94825,2,0,P|99:167|197:104,1,160,6|10,3:2|0:2,0:0:0:0:
264,74,95315,1,2,3:2:0:0:
264,74,95478,2,0,L|86:75,1,160,6|10,3:2|0:2,0:0:0:0:
16,24,95967,1,2,3:2:0:0:
16,24,96130,6,0,B|3:71|3:71|18:117|18:117|4:205,1,160,6|0,3:2|3:0,0:0:0:0:
83,251,96619,2,0,P|122:249|164:220,1,80,10|0,0:3|3:0,0:0:0:0:
275,307,96945,2,0,P|251:338|247:378,1,80,10|0,0:3|3:0,0:0:0:0:
156,228,97271,2,0,P|179:195|215:179,1,80,10|0,0:3|3:0,0:0:0:0:
418,242,97597,2,0,P|378:248|342:234,1,80,10|0,0:3|3:0,0:0:0:0:
334,62,97923,2,0,P|330:101|306:133,1,80,10|0,0:3|3:0,0:0:0:0:
154,131,98249,2,0,P|190:147|214:180,1,80,10|0,0:3|3:0,0:0:0:0:
275,307,98575,1,10,0:3:0:0:
275,307,98738,6,0,B|224:305|171:334|171:334|156:319|108:301,1,160,6|10,3:2|0:2,0:0:0:0:
41,355,99228,1,2,3:2:0:0:
41,355,99391,2,0,L|29:166,1,160,6|10,3:2|0:2,0:0:0:0:
11,104,99880,1,2,3:2:0:0:
11,104,100043,2,0,B|93:81|82:133|189:104,1,160,6|10,3:2|0:2,0:0:0:0:
238,41,100532,1,2,3:2:0:0:
238,41,100695,2,0,B|229:77|198:106|198:106|232:137|238:209,1,160,6|10,3:2|0:2,0:0:0:0:
206,268,101184,1,2,3:2:0:0:
319,195,101347,6,0,P|319:150|293:105,1,80,6|0,3:2|0:0,0:0:0:0:
300,288,101673,1,10,0:3:0:0:
395,309,101836,1,0,3:0:0:0:
410,184,101999,2,0,L|410:133,2,40,0|0|0,3:0|3:0|3:0,0:0:0:0:
481,258,102325,1,10,0:3:0:0:
481,258,102651,6,0,B|455:261|428:252|428:252|394:272|394:272|362:258|321:263,1,160,6|10,3:2|0:2,0:0:0:0:
256,325,103141,1,2,3:2:0:0:
256,325,103304,2,0,P|198:369|138:308,1,160,6|10,3:2|0:2,0:0:0:0:
200,244,103793,1,2,3:2:0:0:
200,244,103956,2,0,B|175:159|226:166|198:87,1,160,6|10,3:2|0:2,0:0:0:0:
148,9,104445,1,2,3:2:0:0:
148,9,104608,2,0,P|97:27|122:123,1,160,6|10,3:2|0:2,0:0:0:0:
192,89,105097,1,2,3:2:0:0:
192,89,105260,6,0,P|271:73|357:100,1,160,6|0,3:2|3:0,0:0:0:0:
339,185,105749,6,0,B|342:208|353:223|353:223|338:240|342:283,1,80,10|0,0:3|3:0,0:0:0:0:
263,377,106075,2,0,L|263:297,1,80,10|0,0:3|3:0,0:0:0:0:
192,180,106401,2,0,B|188:204|178:218|178:218|192:239|190:255,1,80,10|0,0:3|3:0,0:0:0:0:
341,259,106728,2,0,B|338:240|353:223|353:223|342:208|339:185,1,80,10|0,0:3|3:0,0:0:0:0:
270,54,107054,2,0,L|269:133,1,80,10|0,0:3|3:0,0:0:0:0:
263,377,107380,2,0,L|263:297,1,80,10|0,0:3|3:0,0:0:0:0:
192,180,107706,1,10,0:3:0:0:
192,180,107869,6,0,P|134:225|68:174,1,160,4|0,3:1|1:0,0:0:0:0:
22,103,108358,2,0,L|1:56,3,40,0|0|0|0,1:0|1:0|1:0|1:0,0:0:0:0:
42,39,108684,2,0,L|81:6,3,40,0|0|0|0,1:0|1:0|1:0|1:0,0:0:0:0:
122,33,109010,2,0,L|142:85,3,40,0|0|0|0,1:0|1:0|1:0|1:0,0:0:0:0:
184,88,109336,2,0,L|229:77,3,40,0|0|0|0,1:0|1:0|1:0|1:0,0:0:0:0:
266,96,109662,2,0,L|270:135,3,40,0|0|0|0,1:0|1:0|1:0|1:0,0:0:0:0:
298,175,109988,2,0,P|348:189|396:154,1,80,0|0,1:0|1:0,0:0:0:0:
471,106,110314,1,0,1:0:0:0:
471,106,110396,1,0,1:0:0:0:
471,106,110478,1,0,1:0:0:0:
471,106,110559,1,0,1:0:0:0:
471,106,110641,6,0,L|460:294,1,160,6|8,3:2|0:2,0:0:0:0:
389,372,111130,1,2,3:2:0:0:
320,228,111293,2,0,P|281:208|223:296,1,160,2|8,3:2|0:2,0:0:0:0:
154,353,111782,1,2,3:2:0:0:
85,285,111945,6,0,P|51:271|-2:281,1,80,2|0,3:2|3:2,0:0:0:0:
26,174,112271,2,0,P|60:188|113:178,1,80,10|0,0:2|3:2,0:0:0:0:
126,40,112597,2,0,P|92:26|39:36,1,80,2|0,3:2|3:2,0:0:0:0:
182,121,112923,2,0,L|298:137,1,80,10|2,0:2|3:2,0:0:0:0:
388,16,113249,6,0,L|340:101,1,80,2|0,3:2|3:2,0:0:0:0:
490,164,113575,2,0,L|450:94,1,80,10|0,0:2|3:2,0:0:0:0:
343,238,113901,2,0,L|383:169,1,80,2|0,3:2|3:2,0:0:0:0:
485,317,114228,2,0,L|445:247,1,80,10|0,0:2|3:2,0:0:0:0:
281,174,114554,6,0,P|246:248|288:309,1,160,2|8,3:2|0:2,0:0:0:0:
375,384,115043,1,0,3:2:0:0:
375,384,115124,1,0,3:2:0:0:
375,384,115206,2,0,L|373:282,1,80,0|0,3:2|3:2,0:0:0:0:
364,138,115532,1,8,0:2:0:0:
364,138,115858,6,0,P|283:156|210:121,1,160,6|8,3:2|0:2,0:0:0:0:
128,30,116347,1,2,3:2:0:0:
12,146,116510,2,0,B|-17:200|1:253|1:253|17:278|52:247,1,160,2|8,3:2|0:2,0:0:0:0:
128,208,116999,1,2,3:2:0:0:
181,287,117162,6,0,P|179:330|174:379,1,80,2|0,3:2|3:2,0:0:0:0:
285,370,117488,2,0,P|281:330|279:290,1,80,10|0,0:2|3:2,0:0:0:0:
236,134,117814,2,0,P|229:177|237:224,1,80,2|0,3:2|3:2,0:0:0:0:
336,211,118141,2,0,P|340:168|330:131,1,80,10|0,0:2|3:2,0:0:0:0:
234,34,118467,6,0,B|192:26|160:51|160:51|125:23|52:38,1,160,2|10,3:2|0:2,0:0:0:0:
0,78,118956,1,0,3:2:0:0:
0,78,119119,2,0,P|-10:116|10:163,1,80,2|0,3:2|3:2,0:0:0:0:
81,207,119445,2,0,P|120:212|159:208,1,80,10|0,0:2|3:2,0:0:0:0:
8,270,119771,6,0,P|-1:313|13:354,1,80,0|0,3:2|3:2,0:0:0:0:
18,353,120016,1,0,3:2:0:0:
30,357,120097,2,0,P|77:359|130:354,1,80,10|0,0:2|3:2,0:0:0:0:
179,292,120423,1,4,3:2:0:0:
259,344,120586,2,0,L|273:392,2,40,0|0|10,3:2|3:2|0:2,0:0:0:0:
307,261,120912,1,8,0:2:0:0:
431,350,121075,6,0,P|487:323|460:261,1,120,6|0,3:2|3:2,0:0:0:0:
500,231,121401,2,0,P|456:236|428:197,1,80,8|0,0:2|3:2,0:0:0:0:
317,100,121728,2,0,P|335:161|293:193,1,120,2|0,3:2|3:2,0:0:0:0:
300,240,122054,2,0,P|228:225|208:240,1,80,8|0,0:2|3:2,0:0:0:0:
113,155,122380,6,0,L|110:307,1,120,2|0,3:2|3:2,0:0:0:0:
65,292,122706,2,0,P|108:327|104:370,1,80,10|0,0:2|3:2,0:0:0:0:
236,384,123032,1,2,3:2:0:0:
305,319,123195,1,0,3:2:0:0:
305,319,123276,1,0,3:2:0:0:
305,319,123358,2,0,L|299:230,1,80,10|0,0:2|3:2,0:0:0:0:
385,92,123684,6,0,P|299:123|273:92,1,120,2|0,3:2|3:2,0:0:0:0:
246,140,124010,2,0,P|245:93|212:75,1,80,10|0,0:2|3:2,0:0:0:0:
99,10,124336,2,0,P|62:62|92:136,1,120,2|0,3:2|3:2,0:0:0:0:
34,144,124662,2,0,P|79:176|77:227,1,80,10|0,0:2|3:2,0:0:0:0:
69,339,124988,6,0,P|120:301|178:320,1,120,2|0,3:2|3:2,0:0:0:0:
197,274,125314,2,0,P|210:320|258:333,1,80,8|0,0:2|3:2,0:0:0:0:
367,352,125641,1,2,3:2:0:0:
422,273,125804,1,0,3:2:0:0:
422,273,125885,1,0,3:2:0:0:
422,273,125967,2,0,L|415:178,1,80,8|0,0:2|3:2,0:0:0:0:
461,82,126293,6,0,P|400:68|339:95,1,120,2|0,3:2|3:2,0:0:0:0:
329,43,126619,2,0,P|312:81|263:91,1,80,8|0,0:2|3:2,0:0:0:0:
150,59,126945,2,0,P|107:62|111:145,1,120,2|0,3:2|3:2,0:0:0:0:
50,153,127271,2,0,P|86:173|93:222,1,80,8|0,0:2|3:2,0:0:0:0:
44,332,127597,6,0,L|172:323,1,120,2|0,3:2|3:2,0:0:0:0:
197,357,127923,2,0,P|207:315|258:296,1,80,8|0,0:2|3:2,0:0:0:0:
371,287,128249,1,2,3:2:0:0:
303,219,128412,1,0,3:2:0:0:
303,219,128494,1,0,3:2:0:0:
303,219,128575,2,0,P|300:174|347:136,1,80,8|0,0:2|3:2,0:0:0:0:
466,96,128901,5,6,3:2:0:0:
380,56,129880,5,4,3:2:0:0:
250,98,130858,5,4,3:2:0:0:
117,41,131836,5,4,3:2:0:0:
49,171,132814,5,4,3:2:0:0:
256,192,132978,12,0,135749,0:0:0:0:
373,114,136728,6,0,P|324:90|244:125,1,136.000002593994,6|0,3:2|3:0,0:0:0:0:
170,79,137217,1,0,0:3:0:0:
170,79,137380,2,0,P|161:111|168:143,1,68.0000012969971,2|8,3:2|0:3,0:0:0:0:
231,263,137706,2,0,L|231:178,1,68.0000012969971,2|0,3:0|0:0,0:0:0:0:
83,110,138032,6,0,L|83:255,1,136.000002593994,10|2,0:2|3:0,0:0:0:0:
176,334,138521,1,8,0:3:0:0:
231,263,138684,2,0,P|270:252|323:266,1,68.0000012969971,2|0,3:2|1:0,0:0:0:0:
376,292,139010,2,0,L|379:325,3,34.0000006484985,0|0|0|0,1:0|1:0|1:0|1:0,0:0:0:0:
411,265,139336,6,0,P|439:210|402:149,1,136.000002593994,6|0,3:2|3:0,0:0:0:0:
403,62,139825,1,0,0:0:0:0:
403,62,139988,2,0,P|354:81|314:76,1,68.0000012969971,2|8,3:2|0:3,0:0:0:0:
193,42,140314,2,0,B|227:34|227:34|259:42,1,68.0000012969971,2|0,3:2|1:0,0:0:0:0:
233,165,140641,6,0,L|233:216,4,34.0000006484985,0|0|0|0|4,1:0|1:0|1:0|1:0|3:2,0:0:0:0:
144,163,141130,1,0,1:0:0:0:
144,163,141211,1,0,1:0:0:0:
144,163,141293,2,0,L|144:197,4,34.0000006484985,0|0|0|0|4,1:0|1:0|1:0|1:0|3:2,0:0:0:0:
55,316,141945,6,0,P|100:301|178:360,1,136.000002593994,6|0,3:2|3:0,0:0:0:0:
253,378,142434,1,0,0:0:0:0:
317,317,142597,2,0,L|313:243,1,68.0000012969971,2|8,3:2|0:3,0:0:0:0:
401,340,142923,2,0,L|398:273,1,68.0000012969971,2|0,3:2|0:0,0:0:0:0:
226,157,143249,6,0,L|234:305,1,136.000002593994,10|2,0:2|3:0,0:0:0:0:
314,156,143738,1,8,0:3:0:0:
314,156,143901,2,0,L|310:82,1,68.0000012969971,2|0,3:2|1:0,0:0:0:0:
251,21,144228,2,0,L|217:21,3,34.0000006484985,0|0|0|0,1:0|1:0|1:0|1:0,0:0:0:0:
190,56,144554,6,0,P|133:91|61:36,1,136.000002593994,6|0,3:2|3:0,0:0:0:0:
17,131,145043,1,0,0:0:0:0:
17,131,145206,2,0,L|11:222,1,68.0000012969971,2|8,3:2|0:3,0:0:0:0:
73,263,145532,2,0,L|67:354,1,68.0000012969971,2|8,3:2|0:3,0:0:0:0:
146,371,145858,6,0,L|198:349,3,34.0000006484985,2|0|8|0,3:0|3:0|0:3|3:0,0:0:0:0:
221,357,146184,2,0,L|252:370,3,34.0000006484985,0|8|0|0,1:0|0:3|1:0|1:0,0:0:0:0:
296,368,146510,2,0,L|348:346,3,34.0000006484985,2|0|0|0,3:0|1:0|1:0|1:0,0:0:0:0:
361,326,146836,2,0,P|374:289|352:238,1,68.0000012969971,0|0,1:0|1:0,0:0:0:0:
451,168,147162,6,0,L|296:172,1,136.000002593994,6|0,3:2|3:0,0:0:0:0:
298,84,147651,1,0,0:0:0:0:
298,83,147815,2,0,P|265:93|243:118,1,68.0000012969971,2|8,3:2|0:3,0:0:0:0:
235,270,148141,2,0,L|236:189,1,68.0000012969971,2|0,3:2|0:0,0:0:0:0:
148,97,148467,6,0,L|146:242,1,136.000002593994,10|2,0:2|3:0,0:0:0:0:
216,287,148956,1,8,0:3:0:0:
164,358,149119,1,2,3:2:0:0:
93,304,149282,2,0,L|43:310,5,34.0000006484985,0|0|0|0|0|0,1:0|1:0|1:0|1:0|1:0|1:0,0:0:0:0:
27,277,149771,6,0,B|17:228|17:228|28:193|28:193|22:141,1,136.000002593994,6|0,3:2|3:0,0:0:0:0:
40,56,150260,1,0,0:0:0:0:
122,87,150423,2,0,L|208:83,1,68.0000012969971,2|8,3:2|0:3,0:0:0:0:
244,14,150749,2,0,L|330:10,1,68.0000012969971,2|0,3:2|1:0,0:0:0:0:
382,63,151075,6,0,L|383:109,4,34.0000006484985,0|0|0|0|4,1:0|1:0|1:0|1:0|3:2,0:0:0:0:
466,38,151564,1,0,1:0:0:0:
466,38,151646,1,0,1:0:0:0:
466,38,151728,2,0,L|467:84,4,34.0000006484985,0|0|0|0|4,1:0|1:0|1:0|1:0|3:2,0:0:0:0:
491,212,152380,6,0,L|351:228,1,136.000002593994,6|0,3:2|3:0,0:0:0:0:
298,293,152869,1,0,0:0:0:0:
298,293,153032,2,0,P|274:268|267:235,1,68.0000012969971,2|8,3:2|0:3,0:0:0:0:
369,133,153358,2,0,L|271:144,1,68.0000012969971,2|0,3:2|0:0,0:0:0:0:
228,46,153684,6,0,P|189:69|208:160,1,136.000002593994,10|2,0:2|3:0,0:0:0:0:
271,239,154173,1,8,0:3:0:0:
271,239,154336,2,0,L|183:242,1,68.0000012969971,2|0,3:2|1:0,0:0:0:0:
122,290,154662,2,0,L|96:328,3,34.0000006484985,0|0|0|0,1:0|1:0|1:0|1:0,0:0:0:0:
58,323,154988,6,0,P|22:301|60:210,1,136.000002593994,6|0,3:2|3:0,0:0:0:0:
105,164,155478,1,0,0:0:0:0:
79,78,155641,2,0,P|46:75|12:80,1,68.0000012969971,2|8,3:2|0:3,0:0:0:0:
148,23,155967,2,0,P|182:19|224:25,1,68.0000012969971,2|8,3:2|0:3,0:0:0:0:
284,77,156293,6,0,L|296:121,3,34.0000006484985,2|0|0|0,3:0|1:0|1:0|1:0,0:0:0:0:
266,145,156619,2,0,L|246:186,3,34.0000006484985,0|0|0|0,1:0|1:0|1:0|1:0,0:0:0:0:
263,225,156945,6,0,L|263:301,2,45.3333341979981,0|0|0,1:0|1:0|1:0,0:0:0:0:
312,277,157271,2,0,L|376:304,2,45.3333341979981,0|0|0,1:0|1:0|1:0,0:0:0:0:
379,172,157597,5,4,3:1:0:0:
166,110,160206,6,0,L|109:114,4,34.0000006484985,0|0|0|0|4,0:0|0:0|0:0|0:0|0:2,0:0:0:0:
326,183,160858,2,0,L|383:187,4,34.0000006484985,0|0|0|0|4,0:0|0:0|0:0|0:0|0:2,0:0:0:0:
171,269,161510,2,0,L|114:273,4,34.0000006484985,0|0|0|0|4,0:0|0:0|0:0|0:0|0:2,0:0:0:0:
331,342,162162,2,0,L|388:346,4,34.0000006484985,0|0|0|0|4,0:0|0:0|0:0|0:0|0:2,0:0:0:0:
476,241,162814,5,0,1:2:0:0:
476,241,162896,1,0,1:2:0:0:
476,241,162978,1,0,1:2:0:0:
476,241,163059,1,0,1:2:0:0:
476,241,163141,1,4,3:2:0:0:
403,79,163467,2,0,L|420:40,4,34.0000006484985,0|0|0|0|4,1:2|1:2|1:2|1:2|3:2,0:0:0:0:
295,219,164119,5,0,1:2:0:0:
295,219,164200,1,0,1:2:0:0:
295,219,164282,1,0,1:2:0:0:
295,219,164363,1,0,1:2:0:0:
295,219,164445,1,4,3:2:0:0:
222,57,164771,2,0,L|239:18,4,34.0000006484985,0|0|0|0|4,1:2|1:2|1:2|1:2|3:2,0:0:0:0:
81,162,165423,6,0,P|70:203|73:241,1,68.0000012969971,4|0,1:2|1:2,0:0:0:0:
0,285,165749,2,0,P|32:311|71:320,1,68.0000012969971,0|0,1:2|1:2,0:0:0:0:
138,284,166075,1,0,1:2:0:0:
138,284,166238,1,0,1:2:0:0:
209,335,166401,1,0,1:2:0:0:
209,335,166564,1,0,1:2:0:0:
285,253,166728,6,0,L|282:176,1,68.0000012969971,0|0,1:2|1:2,0:0:0:0:
379,314,167054,2,0,L|382:237,1,68.0000012969971,0|0,1:2|1:2,0:0:0:0:
296,368,167380,1,0,1:2:0:0:
296,368,167543,1,0,1:2:0:0:
209,335,167706,1,0,1:2:0:0:
209,335,167869,1,0,1:2:0:0:
209,217,168032,5,4,3:2:0:0:
201,87,170641,6,0,B|176:87|160:81|160:81|141:88|112:86,1,80,6|0,3:2|3:2,0:0:0:0:
311,87,170967,2,0,B|336:87|352:81|352:81|371:88|400:86,1,80,10|0,0:2|3:2,0:0:0:0:
198,184,171293,2,0,B|173:184|157:178|157:178|138:185|109:183,1,80,2|0,3:2|3:2,0:0:0:0:
308,184,171619,2,0,B|333:184|349:178|349:178|368:185|397:183,1,80,10|0,0:2|3:2,0:0:0:0:
194,294,171945,6,0,P|259:342|307:284,1,160,2|8,3:2|0:2,0:0:0:0:
436,339,172434,1,0,3:2:0:0:
436,339,172516,1,0,3:2:0:0:
436,339,172597,2,0,P|411:301|431:236,1,80,0|0,3:2|3:2,0:0:0:0:
490,122,172923,1,8,0:2:0:0:
490,122,173249,6,0,B|441:148|391:150|391:150|360:143|336:87,1,160,6|8,3:2|0:2,0:0:0:0:
263,20,173738,1,2,3:2:0:0:
193,176,173901,2,0,B|191:211|198:240|198:240|182:273|182:273|196:307|189:346,1,160,2|8,3:2|0:2,0:0:0:0:
270,280,174391,1,2,3:2:0:0:
117,221,174554,6,0,L|20:225,1,80,2|0,3:2|3:2,0:0:0:0:
8,129,174880,2,0,L|87:125,1,80,10|0,0:2|3:2,0:0:0:0:
182,6,175206,2,0,P|162:40|172:78,1,80,2|0,3:2|3:2,0:0:0:0:
277,161,175532,2,0,L|372:153,1,80,10|2,0:2|3:2,0:0:0:0:
491,247,175858,6,0,P|420:233|349:294,1,160,2|10,3:2|0:2,0:0:0:0:
288,353,176347,1,0,3:2:0:0:
288,353,176510,2,0,P|248:343|189:348,1,80,2|0,3:2|3:2,0:0:0:0:
150,265,176836,2,0,P|127:297|113:335,1,80,10|0,0:2|3:2,0:0:0:0:
243,254,177162,5,0,3:2:0:0:
186,178,177325,1,0,3:2:0:0:
257,106,177488,2,0,P|299:100|350:106,1,80,10|0,0:2|3:2,0:0:0:0:
413,166,177814,1,4,3:2:0:0:
485,102,177978,2,0,L|476:61,2,40,0|0|10,3:2|3:2|0:2,0:0:0:0:
510,199,178304,1,8,0:2:0:0:
391,302,178467,6,0,P|327:319|262:282,1,120,6|0,3:2|3:2,0:0:0:0:
245,333,178793,2,0,P|218:288|177:287,1,80,8|0,0:2|3:2,0:0:0:0:
62,203,179119,2,0,P|118:203|148:131,1,120,2|0,3:2|3:2,0:0:0:0:
194,173,179445,2,0,P|175:112|208:85,1,80,8|0,0:2|3:2,0:0:0:0:
302,34,179771,6,0,L|322:183,1,120,2|0,3:2|3:2,0:0:0:0:
297,196,180097,2,0,P|371:185|387:207,1,80,10|0,0:2|3:2,0:0:0:0:
482,259,180423,1,2,3:2:0:0:
436,343,180586,1,0,3:2:0:0:
436,343,180668,1,0,3:2:0:0:
436,343,180749,2,0,P|398:352|343:340,1,80,10|0,0:2|3:2,0:0:0:0:
238,270,181075,6,0,B|193:282|160:301|160:301|144:319|149:362,1,120,2|0,3:2|3:2,0:0:0:0:
137,381,181401,2,0,P|119:341|68:334,1,80,10|0,0:2|3:2,0:0:0:0:
3,232,181728,2,0,P|58:216|67:134,1,120,2|0,3:2|3:2,0:0:0:0:
120,182,182054,2,0,P|90:156|100:95,1,80,10|0,0:2|3:2,0:0:0:0:
176,17,182380,6,0,L|304:72,1,120,2|0,3:2|3:2,0:0:0:0:
325,36,182706,2,0,P|306:82|322:117,1,80,8|0,0:2|3:2,0:0:0:0:
422,191,183032,1,2,3:2:0:0:
368,270,183195,1,0,3:2:0:0:
368,270,183276,1,0,3:2:0:0:
368,270,183358,2,0,L|261:272,1,80,8|0,0:2|3:2,0:0:0:0:
198,361,183684,6,0,P|172:320|84:322,1,120,2|0,3:2|3:2,0:0:0:0:
61,330,184010,2,0,P|105:281|94:241,1,80,8|0,0:2|3:2,0:0:0:0:
128,113,184336,2,0,P|132:165|220:182,1,120,2|0,3:2|3:2,0:0:0:0:
193,242,184662,2,0,P|236:203|275:217,1,80,8|0,0:2|3:2,0:0:0:0:
375,141,184988,6,0,L|371:260,1,120,2|0,3:2|3:2,0:0:0:0:
333,290,185314,2,0,P|373:305|391:338,1,80,8|0,0:2|3:2,0:0:0:0:
490,241,185641,1,2,3:2:0:0:
499,145,185804,1,0,3:2:0:0:
499,145,185885,1,0,3:2:0:0:
499,145,185967,2,0,P|495:97|456:47,1,80,8|0,0:2|3:2,0:0:0:0:
358,12,186293,6,0,P|327:70|354:130,1,136.000002593994,6|8,3:2|0:2,0:0:0:0:
162,124,186782,2,0,P|227:130|262:186,1,136.000002593994,6|8,3:2|0:2,0:0:0:0:
459,249,187271,6,0,P|401:218|322:256,1,143.999995605469,6|0,3:2|0:2,0:0:0:0:
189,340,188086,1,2,0:2:0:0:
189,340,188249,6,0,B|216:286|202:250|202:250|176:234|152:251,1,136.000002593994,6|8,3:2|0:2,0:0:0:0:
0,158,188738,2,0,B|45:198|83:193|83:193|105:172|95:145,1,136.000002593994,6|8,3:2|0:2,0:0:0:0:
256,42,189228,6,0,B|205:75|199:113|199:113|214:140|243:137,1,143.999995605469,6|0,3:2|0:2,0:0:0:0:
408,140,190043,1,2,0:2:0:0:
408,140,190206,6,0,P|398:182|415:237,1,80,10|0,0:2|3:2,0:0:0:0:
481,346,190532,1,2,3:2:0:0:
481,346,190695,2,0,P|439:336|384:353,1,80,10|0,0:2|3:2,0:0:0:0:
270,377,191021,1,2,3:2:0:0:
270,377,191184,2,0,P|280:335|263:280,1,80,10|0,0:2|3:2,0:0:0:0:
206,171,191510,5,2,3:2:0:0:
192,266,191673,1,10,0:2:0:0:
106,308,191836,2,0,L|20:293,1,80,10|2,0:2|3:2,0:0:0:0:
127,157,192162,6,0,L|205:170,1,80,4|0,3:2|0:2,0:0:0:0:
351,101,192488,1,10,0:2:0:0:
351,101,192651,2,0,P|305:106|257:81,1,80,4|0,3:2|0:2,0:0:0:0:
464,38,192978,1,10,0:2:0:0:
464,38,193141,6,0,P|491:95|454:170,1,143.999995605469,4|0,3:2|0:0,0:0:0:0:
365,205,193956,1,0,3:2:0:0:
476,323,194119,1,8,0:2:0:0:
476,323,194445,6,0,P|406:298|328:345,1,160,4|8,3:2|0:3,0:0:0:0:
168,294,194934,1,0,3:0:0:0:
235,355,195097,2,0,P|250:318|252:278,1,80,8|0,0:3|3:0,0:0:0:0:
79,278,195423,2,0,P|81:318|97:355,1,80,8|0,0:3|3:0,0:0:0:0:
245,189,195749,6,0,B|205:187|169:166|169:166|136:191|69:194,1,160,8|8,0:3|0:3,0:0:0:0:
237,101,196238,1,0,3:0:0:0:
102,102,196401,1,8,0:3:0:0:
102,102,196564,1,0,3:0:0:0:
170,32,196727,1,8,0:3:0:0:
170,32,196890,1,0,3:0:0:0:
263,116,197053,6,0,B|325:126|366:120|366:120|390:98|389:50,1,160,8|8,0:3|0:3,0:0:0:0:
489,198,197542,1,0,3:0:0:0:
400,255,197705,2,0,P|391:292|407:341,1,80,8|0,0:3|3:0,0:0:0:0:
503,177,198031,2,0,P|512:140|496:91,1,80,8|0,0:3|3:0,0:0:0:0:
347,161,198358,6,0,B|273:154|273:154|236:111,2,120,4|8|0,3:2|0:3|3:0,0:0:0:0:
198,38,199050,2,0,B|162:66|162:66|155:140,2,120,8|0|8,0:2|3:0|0:3,0:0:0:0:
179,231,199692,2,0,B|132:234|132:234|74:186,2,120,0|8|0,3:0|0:3|3:0,0:0:0:0:
330,366,200334,2,0,P|349:309|332:252,1,120,8|0,0:3|3:0,0:0:0:0:
277,54,200763,6,0,B|273:85|286:104|286:104|266:126|266:126|283:162|262:200,1,143.999995605469,4|0,3:2|0:0,0:0:0:0:
