osu file format v14

[General]
AudioFilename: audio.mp3
AudioLeadIn: 0
PreviewTime: 47385
Countdown: 0
SampleSet: Soft
StackLeniency: 0.3
Mode: 0
LetterboxInBreaks: 0
WidescreenStoryboard: 1

[Editor]
Bookmarks: 2365,16765,45532,49161,77949,110349,139149,153549,164349,167949,196765,221965
DistanceSpacing: 1.7
BeatDivisor: 4
GridSize: 32
TimelineZoom: 3.501599

[Metadata]
Title:-ERROR 2018ver.
TitleUnicode:-ERROR 2018ver.
Artist:cillia feat. Namine Ritsu
ArtistUnicode:シリア feat. 波音リツ
Creator:Bashe
Version:frogy's Expert
Source:
Tags:utau kyaami vocaloid cover niki Aeril Nao_Tomori nao tomori naotoshi -Sylvari yukiya frogyfro japanese
BeatmapID:2241138
BeatmapSetID:986100

[Difficulty]
HPDrainRate:5
CircleSize:3
OverallDifficulty:8
ApproachRate:9
SliderMultiplier:1.84999990463257
SliderTickRate:1

[Events]
//Background and Video events
0,0,"bg.jpg",0,0
//Break Periods
//Storyboard Layer 0 (Background)
//Storyboard Layer 1 (Fail)
//Storyboard Layer 2 (Pass)
//Storyboard Layer 3 (Foreground)
//Storyboard Layer 4 (Overlay)
//Storyboard Sound Samples

[TimingPoints]
-4835,300,6,2,1,60,1,0
13165,-117.647058823529,6,2,1,70,0,0
14065,-133.333333333333,6,2,1,70,0,0
16765,-200,6,2,1,65,0,0
23965,-133.333333333333,6,2,1,65,0,0
24415,-153.846153846154,6,2,1,65,0,0
25765,-133.333333333333,6,2,1,65,0,0
26215,-153.846153846154,6,2,1,65,0,0
27565,-133.333333333333,6,2,1,65,0,0
28015,-153.846153846154,6,2,1,65,0,0
29365,-200,6,2,1,65,0,0
38365,-133.333333333333,6,2,1,65,0,0
38815,-153.846153846154,6,2,1,65,0,0
40165,-133.333333333333,6,2,1,65,0,0
40615,-153.846153846154,6,2,1,65,0,0
41965,-133.333333333333,6,2,1,65,0,0
42415,-153.846153846154,6,2,1,65,0,0
43765,-200,6,2,1,65,0,0
45565,-153.846153846154,6,2,1,65,0,0
46465,-133.333333333333,6,2,1,65,0,0
47365,-117.647058823529,6,2,1,65,0,0
49165,-57.1428571428571,6,2,1,80,0,0
49315,-66.6666666666667,6,2,1,80,0,0
49465,-57.1428571428571,6,2,1,80,0,0
50215,-66.6666666666667,6,2,1,80,0,0
50965,-57.1428571428571,6,2,1,80,0,0
51115,-66.6666666666667,6,2,1,80,0,0
51415,-57.1428571428571,6,2,1,80,0,0
51715,-66.6666666666667,6,2,1,80,0,0
52465,-80,6,2,1,80,0,0
52765,-57.1428571428571,6,2,1,80,0,0
52915,-66.6666666666667,6,2,1,80,0,0
53215,-57.1428571428571,6,2,1,80,0,0
53665,-66.6666666666667,6,2,1,80,0,0
54565,-57.1428571428571,6,2,1,80,0,0
54715,-66.6666666666667,6,2,1,80,0,0
55015,-50,6,2,1,80,0,0
55465,-66.6666666666667,6,2,1,80,0,0
55915,-100,6,2,1,80,0,0
56365,-57.1428571428571,6,2,1,80,0,0
56515,-66.6666666666667,6,2,1,80,0,0
56815,-57.1428571428571,6,2,1,80,0,0
57265,-66.6666666666667,6,2,1,80,0,0
58165,-57.1428571428571,6,2,1,80,0,0
59665,-66.6666666666667,6,2,1,80,0,0
59965,-57.1428571428571,6,2,1,80,0,0
60565,-66.6666666666667,6,2,1,80,0,0
61165,-100,6,2,1,80,0,0
61465,-80,6,2,1,80,0,0
61765,-66.6666666666667,6,2,1,80,0,0
63265,-100,6,2,1,80,0,0
63565,-40,6,2,1,80,0,0
64015,-57.1428571428571,6,2,1,80,0,0
64465,-66.6666666666667,6,2,1,80,0,0
65065,-57.1428571428571,6,2,1,80,0,0
66265,-80,6,2,1,80,0,0
67165,-40,6,2,1,80,0,0
67615,-57.1428571428571,6,2,1,80,0,0
68065,-66.6666666666667,6,2,1,80,0,0
68665,-57.1428571428571,6,2,1,80,0,0
69865,-80,6,2,1,80,0,0
70765,-40,6,2,1,80,0,0
71215,-57.1428571428571,6,2,1,80,0,0
71665,-66.6666666666667,6,2,1,80,0,0
72265,-57.1428571428571,6,2,1,80,0,0
77065,-100,6,2,1,80,0,0
77365,-133.333333333333,6,2,1,80,0,0
77665,-400,6,2,1,80,0,0
77965,-200,6,2,1,65,0,0
85165,-133.333333333333,6,2,1,65,0,0
85615,-200,6,2,1,65,0,0
86965,-153.846153846154,6,2,1,65,0,0
87415,-200,6,2,1,65,0,0
88765,-153.846153846154,6,2,1,65,0,0
89215,-200,6,2,1,65,0,0
90565,-200,6,2,1,65,0,0
99565,-133.333333333333,6,2,1,65,0,0
100015,-153.846153846154,6,2,1,65,0,0
101365,-133.333333333333,6,2,1,65,0,0
101815,-153.846153846154,6,2,1,65,0,0
103165,-133.333333333333,6,2,1,65,0,0
103615,-153.846153846154,6,2,1,65,0,0
104965,-200,6,2,1,65,0,0
106765,-153.846153846154,6,2,1,65,0,0
107665,-133.333333333333,6,2,1,65,0,0
108565,-117.647058823529,6,2,1,65,0,0
109465,-200,6,2,1,65,0,0
109727,-200,6,2,1,25,0,0
109765,-200,6,2,1,65,0,0
110027,-200,6,2,1,25,0,0
110065,-200,6,2,1,65,0,0
110327,-200,6,2,1,25,0,0
110365,-57.1428571428571,6,2,1,80,0,0
110515,-66.6666666666667,6,2,1,80,0,0
110665,-57.1428571428571,6,2,1,80,0,0
111415,-66.6666666666667,6,2,1,80,0,0
112165,-57.1428571428571,6,2,1,80,0,0
112315,-66.6666666666667,6,2,1,80,0,0
112615,-57.1428571428571,6,2,1,80,0,0
112915,-66.6666666666667,6,2,1,80,0,0
113665,-80,6,2,1,80,0,0
113965,-57.1428571428571,6,2,1,80,0,0
114115,-66.6666666666667,6,2,1,80,0,0
114415,-57.1428571428571,6,2,1,80,0,0
114865,-66.6666666666667,6,2,1,80,0,0
115765,-57.1428571428571,6,2,1,80,0,0
115915,-66.6666666666667,6,2,1,80,0,0
116215,-50,6,2,1,80,0,0
116665,-66.6666666666667,6,2,1,80,0,0
117115,-100,6,2,1,80,0,0
117565,-57.1428571428571,6,2,1,80,0,0
117715,-66.6666666666667,6,2,1,80,0,0
118015,-57.1428571428571,6,2,1,80,0,0
118465,-66.6666666666667,6,2,1,80,0,0
119365,-57.1428571428571,6,2,1,80,0,0
120865,-66.6666666666667,6,2,1,80,0,0
121165,-57.1428571428571,6,2,1,80,0,0
121765,-66.6666666666667,6,2,1,80,0,0
122365,-100,6,2,1,80,0,0
122665,-80,6,2,1,80,0,0
122965,-66.6666666666667,6,2,1,80,0,0
124465,-100,6,2,1,80,0,0
124765,-40,6,2,1,80,0,0
125215,-57.1428571428571,6,2,1,80,0,0
125665,-66.6666666666667,6,2,1,80,0,0
126265,-57.1428571428571,6,2,1,80,0,0
127465,-80,6,2,1,80,0,0
128365,-40,6,2,1,80,0,0
128815,-57.1428571428571,6,2,1,80,0,0
129265,-66.6666666666667,6,2,1,80,0,0
129865,-57.1428571428571,6,2,1,80,0,0
131065,-80,6,2,1,80,0,0
131965,-40,6,2,1,80,0,0
132415,-57.1428571428571,6,2,1,80,0,0
132865,-66.6666666666667,6,2,1,80,0,0
133465,-57.1428571428571,6,2,1,80,0,0
139165,-80,6,2,1,70,0,0
148165,-90.9090909090909,6,2,1,70,0,0
149965,-105.263157894737,6,2,1,70,0,0
151765,-133.333333333333,6,2,1,70,0,0
153565,-80,6,2,1,70,0,0
154465,-66.6666666666667,6,2,1,70,0,0
155365,-80,6,2,1,70,0,0
156265,-66.6666666666667,6,2,1,70,0,0
157165,-80,6,2,1,70,0,0
158065,-66.6666666666667,6,2,1,70,0,0
158965,-80,6,2,1,70,0,0
160765,-80,6,2,1,70,0,0
161665,-66.6666666666667,6,2,1,70,0,0
162565,-80,6,2,1,70,0,0
163465,-66.6666666666667,6,2,1,70,0,0
164365,-80,6,2,1,70,0,0
165265,-66.6666666666667,6,2,1,70,0,0
166165,-200,6,2,1,70,0,0
167065,-100,6,2,1,70,0,0
167528,270.27027027027,6,2,1,60,1,0
167528,-42.9184549356223,6,2,1,60,0,0
167978,300,6,2,1,80,1,1
167978,-57.1428571428571,6,2,1,80,0,1
168128,-66.6666666666667,6,2,1,80,0,0
168278,-57.1428571428571,6,2,1,80,0,0
169028,-66.6666666666667,6,2,1,80,0,0
169778,-57.1428571428571,6,2,1,80,0,0
169928,-66.6666666666667,6,2,1,80,0,0
170228,-57.1428571428571,6,2,1,80,0,0
170528,-66.6666666666667,6,2,1,80,0,0
171278,-80,6,2,1,80,0,0
171578,-57.1428571428571,6,2,1,80,0,0
171728,-66.6666666666667,6,2,1,80,0,0
172028,-57.1428571428571,6,2,1,80,0,0
172478,-66.6666666666667,6,2,1,80,0,0
173378,-57.1428571428571,6,2,1,80,0,0
173528,-66.6666666666667,6,2,1,80,0,0
173828,-50,6,2,1,80,0,0
174278,-66.6666666666667,6,2,1,80,0,0
174728,-100,6,2,1,80,0,0
175178,-57.1428571428571,6,2,1,80,0,0
175328,-66.6666666666667,6,2,1,80,0,0
175628,-57.1428571428571,6,2,1,80,0,0
176078,-66.6666666666667,6,2,1,80,0,0
176978,-54.054054054054,6,2,1,80,0,0
178478,-66.6666666666667,6,2,1,80,0,0
178778,-57.1428571428571,6,2,1,80,0,0
179378,-66.6666666666667,6,2,1,80,0,0
179978,-100,6,2,1,80,0,0
180278,-80,6,2,1,80,0,0
180578,-66.6666666666667,6,2,1,80,0,0
182078,-100,6,2,1,80,0,0
182378,-40,6,2,1,80,0,0
182828,-57.1428571428571,6,2,1,80,0,0
183278,-66.6666666666667,6,2,1,80,0,0
183878,-57.1428571428571,6,2,1,80,0,0
185078,-80,6,2,1,80,0,0
185978,-40,6,2,1,80,0,0
186428,-57.1428571428571,6,2,1,80,0,0
186878,-66.6666666666667,6,2,1,80,0,0
187478,-57.1428571428571,6,2,1,80,0,0
188678,-80,6,2,1,80,0,0
189578,-40,6,2,1,80,0,0
190028,-57.1428571428571,6,2,1,80,0,0
190478,-66.6666666666667,6,2,1,80,0,0
191078,-57.1428571428571,6,2,1,80,0,0
192278,-100,6,2,1,80,0,0
193178,-44.4444444444445,6,2,1,70,0,1
193628,-40,6,2,1,70,0,1
193928,-38.4615384615385,6,2,1,70,0,1
194078,-36.3636363636364,6,2,1,70,0,1
194678,-44.4444444444445,6,2,1,70,0,1
194978,-33.3333333333333,6,2,1,70,0,1
195878,-36.3636363636364,6,2,1,70,0,1
196778,-57.1428571428571,6,2,1,85,0,0
196928,-66.6666666666667,6,2,1,85,0,0
197078,-57.1428571428571,6,2,1,85,0,0
197828,-66.6666666666667,6,2,1,85,0,0
198578,-57.1428571428571,6,2,1,85,0,0
198728,-66.6666666666667,6,2,1,85,0,0
199028,-57.1428571428571,6,2,1,85,0,0
199328,-66.6666666666667,6,2,1,85,0,0
200078,-80,6,2,1,85,0,0
200378,-57.1428571428571,6,2,1,85,0,0
200528,-66.6666666666667,6,2,1,85,0,0
200828,-57.1428571428571,6,2,1,85,0,0
201278,-66.6666666666667,6,2,1,85,0,0
202178,-50,6,2,1,85,0,0
202328,-57.1428571428571,6,2,1,85,0,0
202628,-40,6,2,1,85,0,0
203078,-50,6,2,1,85,0,0
203528,-66.6666666666667,6,2,1,85,0,0
203978,-57.1428571428571,6,2,1,85,0,0
204128,-66.6666666666667,6,2,1,85,0,0
204428,-57.1428571428571,6,2,1,85,0,0
204878,-66.6666666666667,6,2,1,85,0,0
205778,-57.1428571428571,6,2,1,85,0,0
207278,-66.6666666666667,6,2,1,85,0,0
207578,-57.1428571428571,6,2,1,85,0,0
208178,-66.6666666666667,6,2,1,85,0,0
208778,-100,6,2,1,85,0,0
209078,-80,6,2,1,85,0,0
209378,-66.6666666666667,6,2,1,85,0,0
210878,-100,6,2,1,85,0,0
211178,-40,6,2,1,85,0,0
211628,-57.1428571428571,6,2,1,85,0,0
212078,-66.6666666666667,6,2,1,85,0,0
212678,-57.1428571428571,6,2,1,85,0,0
213878,-80,6,2,1,85,0,0
214778,-40,6,2,1,85,0,0
215228,-57.1428571428571,6,2,1,85,0,0
215678,-66.6666666666667,6,2,1,85,0,0
216278,-57.1428571428571,6,2,1,85,0,0
217478,-80,6,2,1,85,0,0
218378,-40,6,2,1,85,0,0
218828,-57.1428571428571,6,2,1,85,0,0
219278,-66.6666666666667,6,2,1,85,0,0
219878,-57.1428571428571,6,2,1,85,0,0
221078,-100,6,2,1,85,0,0
221378,-57.1428571428571,6,2,1,85,0,0
221978,-57.1428571428571,6,2,1,60,0,1
224978,-57.1428571428571,6,2,1,60,0,0
236378,-100,6,2,1,5,0,0

[Colours]
Combo1 : 255,175,178
Combo2 : 254,146,117

[HitObjects]
318,269,1840,5,8,0:0:0:0:
346,231,1915,1,8,0:0:0:0:
374,193,1990,1,8,0:0:0:0:
402,156,2065,1,8,0:0:0:0:
430,119,2140,1,8,0:0:0:0:
458,82,2215,1,8,0:0:0:0:
485,45,2290,1,8,0:0:0:0:
512,8,2365,1,4,3:1:0:0:
452,345,2665,5,0,3:0:0:0:
269,309,2815,2,0,L|250:211,1,92.4999952316285,0|2,3:0|0:0,0:0:0:0:
213,384,3115,1,0,3:0:0:0:
42,189,3265,6,0,B|37:157|40:131|40:131|84:111|144:127,1,138.749992847443,8|0,0:0|0:0,0:0:0:0:
184,67,3565,2,0,B|162:47|162:47|105:48|71:104,1,138.749992847443,2|0,0:0|0:0,0:0:0:0:
149,143,3865,1,2,0:0:0:0:
195,42,4015,1,0,3:0:0:0:
11,197,4165,6,0,B|15:229|45:247|45:247|70:205|115:207,1,138.749992847443,4|0,3:1|0:0,0:0:0:0:
153,286,4465,1,0,3:0:0:0:
34,87,4615,2,0,L|67:-5,1,92.4999952316285,0|2,3:0|0:0,0:0:0:0:
100,141,4915,1,0,3:0:0:0:
234,25,5065,6,0,B|256:26|280:17|280:17|290:67|325:98,1,138.749992847443,8|0,0:0|0:0,0:0:0:0:
470,39,5365,2,0,B|451:16|451:16|410:53|407:88|452:122,1,138.749992847443,2|0,0:0|0:0,0:0:0:0:
357,180,5665,2,0,L|453:154,1,92.4999952316285,2|0,3:2|0:0,0:0:0:0:
411,322,5965,6,0,B|408:284|408:284|457:241|506:280,1,138.749992847443,4|0,3:1|0:0,0:0:0:0:
494,368,6265,1,0,3:0:0:0:
266,265,6415,2,0,L|187:168,1,92.4999952316285,0|2,3:0|0:0,0:0:0:0:
192,333,6715,1,0,3:0:0:0:
25,130,6865,2,0,B|23:77|40:38|40:38|109:40|109:40|62:65,1,184.999990463257,8|2,0:0|3:2,0:0:0:0:
8,328,7315,2,0,L|107:315,1,92.4999952316285,0|2,3:0|0:0,0:0:0:0:
197,381,7615,1,0,3:0:0:0:
383,309,7765,6,0,B|412:295|443:312|443:312|472:359|466:391,1,138.749992847443,4|0,3:1|0:0,0:0:0:0:
401,264,8065,1,0,3:0:0:0:
471,170,8215,2,0,L|479:62,1,92.4999952316285,0|0,3:0|3:0,0:0:0:0:
215,99,8515,1,0,3:0:0:0:
252,88,8590,1,0,3:0:0:0:
286,79,8665,2,0,B|256:167|256:167|321:156,1,138.749992847443,10|0,0:0|0:0,0:0:0:0:
383,144,8965,1,2,3:2:0:0:
182,50,9115,1,8,0:0:0:0:
191,164,9265,2,0,L|166:271,1,92.4999952316285,2|0,3:2|0:0,0:0:0:0:
0,20,9565,6,0,B|22:45|92:45|92:45|121:6|186:12,1,184.999990463257,4|0,3:1|3:0,0:0:0:0:
71,189,10015,2,0,L|48:286,1,92.4999952316285,0|2,3:0|0:0,0:0:0:0:
0,135,10315,1,0,3:0:0:0:
255,208,10465,6,0,B|264:168|264:168|305:146|346:171|346:171|359:132,1,138.749992847443,8|0,0:0|0:0,0:0:0:0:
403,74,10765,2,0,B|381:73|353:99|353:99|350:144|393:182,1,138.749992847443,2|0,3:2|0:0,0:0:0:0:
452,25,11065,2,0,L|485:130,1,92.4999952316285,2|0,3:2|0:0,0:0:0:0:
491,346,11365,6,0,B|473:317|432:316|432:316|423:364|389:377,1,138.749992847443,4|0,3:1|0:0,0:0:0:0:
315,365,11665,1,0,3:0:0:0:
475,200,11815,2,0,L|458:91,1,92.4999952316285,0|2,3:0|0:0,0:0:0:0:
512,31,12115,1,0,3:0:0:0:
391,163,12265,2,0,B|351:110|321:137|286:102|286:102|281:144|268:173,1,184.999990463257,8|2,0:0|3:2,0:0:0:0:
69,290,12715,1,0,0:0:0:0:
92,383,12865,2,0,L|-25:362,1,92.4999952316285,2|0,3:2|0:0,0:0:0:0:
278,306,13165,6,0,B|316:275|348:291|348:291|378:308|399:301|421:272,1,157.249994893074,4|2,3:1|3:2,0:0:0:0:
437,198,13615,1,0,3:0:0:0:
451,384,13765,1,10,0:0:0:0:
385,330,14065,1,10,0:0:0:0:
304,364,14365,1,2,3:2:0:0:
235,315,14665,5,8,0:0:0:0:
12,359,14815,1,8,0:0:0:0:
93,290,14965,2,0,P|82:239|47:200,1,104.062498605251,12|0,3:2|0:0,0:0:0:0:
81,184,15265,1,0,0:0:0:0:
88,170,15340,1,0,0:0:0:0:
94,158,15415,1,0,0:0:0:0:
101,144,15490,1,0,0:0:0:0:
108,130,15565,1,0,3:0:0:0:
326,0,15865,5,8,0:0:0:0:
322,80,16165,1,0,3:0:0:0:
372,123,16465,1,4,3:0:0:0:
416,92,16765,6,0,L|438:146,1,46.2499976158142,2|0,3:2|0:0,0:0:0:0:
404,83,17065,1,2,0:0:0:0:
459,17,17215,2,0,L|513:-5,1,46.2499976158142,2|0,3:2|0:0,0:0:0:0:
450,26,17515,1,10,0:0:0:0:
334,59,17665,2,0,L|284:84,1,46.2499976158142,8|0,0:0|0:0,0:0:0:0:
246,11,17965,2,0,L|197:-1,1,46.2499976158142,10|0,0:0|0:0,0:0:0:0:
186,78,18265,1,10,0:0:0:0:
99,48,18415,1,8,0:0:0:0:
99,48,18490,1,8,0:0:0:0:
99,48,18565,6,0,L|90:104,1,46.2499976158142,6|0,3:2|0:0,0:0:0:0:
87,38,18865,1,2,0:0:0:0:
0,89,19015,2,0,L|9:145,1,46.2499976158142,2|0,3:2|0:0,0:0:0:0:
12,79,19315,1,2,0:0:0:0:
69,180,19465,1,8,0:0:0:0:
69,180,19615,1,0,0:0:0:0:
31,264,19765,1,8,0:0:0:0:
31,264,19915,1,0,0:0:0:0:
92,331,20065,1,8,0:0:0:0:
4,384,20215,1,0,0:0:0:0:
4,384,20290,1,0,0:0:0:0:
4,384,20365,6,0,L|63:372,1,46.2499976158142,4|0,3:2|0:0,0:0:0:0:
0,372,20665,1,2,0:0:0:0:
117,374,20815,2,0,L|176:386,1,46.2499976158142,0|0,3:2|0:0,0:0:0:0:
109,362,21115,1,2,0:0:0:0:
228,340,21265,2,0,L|282:326,1,46.2499976158142,8|0,0:0|0:0,0:0:0:0:
335,374,21565,2,0,L|386:386,1,46.2499976158142,8|0,0:0|0:0,0:0:0:0:
426,299,21865,1,8,0:0:0:0:
512,323,22015,1,8,0:0:0:0:
512,323,22090,1,8,0:0:0:0:
512,323,22165,6,4,L|503:257,1,46.2499976158142,4|0,3:2|0:0,0:0:0:0:
450,188,22465,1,2,0:0:0:0:
465,180,22615,2,0,L|472:124,1,46.2499976158142,8|0,0:0|0:0,0:0:0:0:
411,60,22915,1,0,3:0:0:0:
400,55,23065,2,0,L|407:-1,1,46.2499976158142,10|0,0:0|0:0,0:0:0:0:
470,137,23365,2,0,L|524:164,1,46.2499976158142,8|0,0:0|0:0,0:0:0:0:
357,136,23665,1,10,0:0:0:0:
352,141,23740,1,8,0:0:0:0:
348,145,23815,1,8,0:0:0:0:
343,150,23890,1,8,0:0:0:0:
338,156,23965,6,0,L|364:302,1,138.749998140335,4|8,3:2|0:0,0:0:0:0:
277,285,24415,2,0,L|252:222,1,60.1249941482547,10|0,0:0|0:0,0:0:0:0:
268,187,24715,1,2,0:0:0:0:
179,240,24865,1,8,0:0:0:0:
179,240,25015,1,0,0:0:0:0:
191,324,25165,1,10,0:0:0:0:
191,324,25315,1,0,0:0:0:0:
125,384,25465,1,8,0:0:0:0:
125,384,25540,1,0,0:0:0:0:
125,384,25615,1,8,0:0:0:0:
125,384,25690,1,8,0:0:0:0:
125,384,25765,6,0,L|79:237,1,138.749998140335,4|0,3:2|0:0,0:0:0:0:
0,268,26215,2,0,L|17:200,1,60.1249941482547,10|0,0:0|0:0,0:0:0:0:
0,168,26515,1,0,0:0:0:0:
94,234,26665,2,0,L|165:213,1,60.1249941482547,10|0,0:0|0:0,0:0:0:0:
194,293,26965,2,0,L|243:242,1,60.1249941482547,8|8,0:0|0:0,0:0:0:0:
240,384,27265,1,10,0:0:0:0:
297,324,27415,1,8,0:0:0:0:
297,324,27490,1,8,0:0:0:0:
297,324,27565,6,0,L|437:357,1,138.749998140335,4|8,3:2|0:0,0:0:0:0:
421,264,28015,2,0,L|503:246,1,60.1249941482547,10|0,0:0|0:0,0:0:0:0:
510,283,28315,1,8,0:0:0:0:
480,171,28465,1,8,3:2:0:0:
480,171,28615,1,0,0:0:0:0:
403,215,28765,1,10,0:0:0:0:
403,215,28915,1,0,0:0:0:0:
335,177,29065,1,10,0:0:0:0:
335,177,29140,1,0,0:0:0:0:
335,177,29215,1,8,0:0:0:0:
335,177,29290,1,8,0:0:0:0:
335,177,29365,6,0,L|357:85,1,92.4999952316285,4|8,3:2|0:0,0:0:0:0:
275,71,29815,2,0,L|260:20,1,46.2499976158142,10|0,0:0|0:0,0:0:0:0:
250,0,30115,1,0,0:0:0:0:
198,72,30265,2,0,L|147:57,1,46.2499976158142,10|0,0:0|0:0,0:0:0:0:
82,111,30565,2,0,L|34:84,1,46.2499976158142,8|0,0:0|3:0,0:0:0:0:
16,8,30865,2,0,L|50:6,1,23.1249988079071,10|0,0:0|0:0,0:0:0:0:
122,40,31015,1,8,0:0:0:0:
138,35,31090,1,8,0:0:0:0:
152,28,31165,6,0,P|175:27|204:17,1,46.2499976158142,4|0,3:2|0:0,0:0:0:0:
163,16,31465,1,10,0:2:0:0:
64,89,31615,2,0,P|45:78|18:70,1,46.2499976158142,10|0,0:0|0:0,0:0:0:0:
75,80,31915,1,10,0:0:0:0:
134,141,32065,2,0,P|151:129|183:120,1,46.2499976158142,2|0,3:2|0:0,0:0:0:0:
216,45,32365,2,0,L|266:56,1,46.2499976158142,10|0,0:0|0:0,0:0:0:0:
301,128,32665,1,10,0:0:0:0:
322,42,32815,1,8,0:0:0:0:
322,42,32890,1,8,0:0:0:0:
322,42,32965,6,0,L|367:34,1,46.2499976158142,4|0,3:2|0:0,0:0:0:0:
315,52,33265,1,2,0:0:0:0:
423,96,33415,2,0,P|446:96|468:103,1,46.2499976158142,10|0,0:0|0:0,0:0:0:0:
423,81,33715,1,10,0:0:0:0:
507,40,33865,1,8,3:2:0:0:
507,40,34015,1,0,0:0:0:0:
512,135,34165,1,10,0:0:0:0:
512,135,34315,1,0,0:0:0:0:
433,169,34465,1,10,0:0:0:0:
466,258,34615,1,0,0:0:0:0:
466,258,34690,1,0,0:0:0:0:
466,258,34765,6,0,P|438:266|407:270,1,46.2499976158142,6|0,3:2|0:0,0:0:0:0:
475,272,35065,1,2,0:0:0:0:
376,338,35215,2,8,L|317:326,1,46.2499976158142,10|0,0:0|0:0,0:0:0:0:
385,329,35515,1,2,0:0:0:0:
320,247,35665,2,0,P|316:227|316:191,1,46.2499976158142,8|0,0:0|0:0,0:0:0:0:
229,215,35965,2,0,P|214:197|201:170,1,46.2499976158142,8|0,0:0|0:0,0:0:0:0:
204,299,36265,1,2,0:0:0:0:
274,223,36415,1,8,0:0:0:0:
274,223,36490,1,8,0:0:0:0:
274,223,36565,6,0,L|208:211,1,46.2499976158142,4|0,3:2|0:0,0:0:0:0:
133,231,36865,1,2,0:0:0:0:
127,247,37015,2,0,L|71:254,1,46.2499976158142,0|0,3:2|0:0,0:0:0:0:
56,144,37315,1,8,0:0:0:0:
44,160,37465,2,0,P|21:152|-10:145,1,46.2499976158142,8|0,0:0|0:0,0:0:0:0:
95,67,37765,2,0,P|121:55|149:40,1,46.2499976158142,8|0,0:0|0:0,0:0:0:0:
130,141,38065,1,8,0:0:0:0:
135,146,38140,1,0,0:0:0:0:
139,150,38215,1,8,0:0:0:0:
144,155,38290,1,8,0:0:0:0:
149,161,38365,6,0,P|140:232|130:305,1,138.749998140335,4|8,3:2|0:0,0:0:0:0:
244,270,38815,2,0,L|226:204,1,60.1249941482547,10|0,0:0|0:0,0:0:0:0:
244,160,39115,1,2,0:0:0:0:
324,217,39265,1,2,3:2:0:0:
324,217,39415,1,0,0:0:0:0:
405,176,39565,1,10,0:0:0:0:
405,176,39715,1,0,0:0:0:0:
475,234,39865,1,8,0:0:0:0:
480,229,39940,1,0,0:0:0:0:
484,225,40015,1,8,0:0:0:0:
489,220,40090,1,8,0:0:0:0:
494,214,40165,6,0,P|484:144|475:70,1,138.749998140335,4|0,3:2|0:0,0:0:0:0:
512,19,40615,2,0,L|437:46,1,60.1249941482547,10|0,0:0|0:0,0:0:0:0:
411,0,40915,1,0,0:0:0:0:
386,109,41065,2,0,P|359:94|336:69,1,60.1249941482547,10|0,0:0|0:0,0:0:0:0:
261,111,41365,2,0,P|248:81|240:27,1,60.1249941482547,8|8,0:0|0:0,0:0:0:0:
161,61,41665,1,2,0:0:0:0:
243,11,41815,1,8,0:0:0:0:
243,11,41890,1,8,0:0:0:0:
243,11,41965,6,0,P|201:71|158:138,1,138.749998140335,4|8,3:2|0:0,0:0:0:0:
76,114,42415,2,0,L|162:105,1,60.1249941482547,10|0,0:0|0:0,0:0:0:0:
165,126,42715,1,8,0:0:0:0:
110,199,42865,1,8,3:2:0:0:
110,199,43015,1,0,0:0:0:0:
178,251,43165,1,10,0:0:0:0:
178,251,43315,1,0,0:0:0:0:
147,340,43465,1,10,0:0:0:0:
147,340,43540,1,0,0:0:0:0:
147,340,43615,1,8,0:0:0:0:
147,340,43690,1,8,0:0:0:0:
147,340,43765,6,0,L|249:323,1,92.4999952316285,6|0,3:2|0:0,0:0:0:0:
310,384,44215,2,0,L|253:359,1,46.2499976158142,8|0,0:0|0:0,0:0:0:0:
238,324,44515,1,0,0:0:0:0:
302,228,44665,2,0,L|303:280,1,46.2499976158142,10|0,0:0|0:0,0:0:0:0:
386,211,44965,2,0,L|363:169,1,46.2499976158142,8|0,0:0|0:0,0:0:0:0:
383,80,45265,2,0,L|431:122,1,46.2499976158142,10|0,0:0|0:0,0:0:0:0:
300,116,45490,1,0,0:0:0:0:
300,116,45565,6,0,L|243:81,1,60.1249941482547,4|0,3:2|0:0,0:0:0:0:
152,79,45865,2,0,L|172:136,1,60.1249941482547,0|10,0:0|0:0,0:0:0:0:
70,55,46165,2,0,L|98:-9,1,60.1249941482547,0|0,0:0|0:0,0:0:0:0:
9,204,46465,6,0,L|85:228,1,69.3749990701676,4|0,3:2|0:0,0:0:0:0:
176,218,46765,2,0,L|136:162,1,69.3749990701676,8|0,0:0|0:0,0:0:0:0:
264,231,47065,1,10,0:0:0:0:
253,247,47140,1,0,0:0:0:0:
243,260,47215,1,8,0:0:0:0:
235,272,47290,1,8,0:0:0:0:
226,283,47365,6,0,P|164:269|69:312,1,157.249994893074,4|0,3:1|0:0,0:0:0:0:
0,361,47815,5,8,0:0:0:0:
80,303,47965,1,8,0:0:0:0:
128,180,48115,1,8,0:0:0:0:
54,51,48265,1,10,0:0:0:0:
54,51,48565,5,2,0:0:0:0:
106,93,48715,1,2,0:0:0:0:
174,84,48865,1,2,0:0:0:0:
254,8,49015,5,0,3:2:0:0:
284,48,49090,1,0,3:2:0:0:
263,94,49165,6,0,L|201:150,1,80.937496599555,4|0,3:1|0:0,0:0:0:0:
119,294,49315,2,0,B|199:277|178:384|309:351,1,208.124997210503,0|0,0:0|0:0,0:0:0:0:
458,251,49615,2,0,B|460:190|435:162|435:162|337:217|399:377,1,323.74998639822,2|0,0:0|3:0,0:0:0:0:
512,82,50065,5,10,0:0:0:0:
247,146,50215,2,0,B|212:69|257:5|257:5|330:-5|391:39,2,277.49999628067,0|2|0,0:0|0:0|0:0,0:0:0:0:
478,174,50965,6,0,L|370:206,1,80.937496599555,4|0,3:1|0:0,0:0:0:0:
169,384,51115,2,0,B|127:283|127:283|162:185,1,208.124997210503,0|0,0:0|0:0,0:0:0:0:
67,93,51415,2,0,B|13:66|13:66|-46:113|-33:216|64:218,1,242.812489798665,2|0,0:0|0:0,0:0:0:0:
133,31,51715,1,0,3:0:0:0:
186,335,51865,6,0,L|214:38,1,277.49999628067,8|0,0:0|3:0,0:0:0:0:
286,218,52315,1,0,0:0:0:0:
53,24,52465,2,0,B|19:8|19:8|44:46|44:46|133:30,1,173.437491059303,8|0,1:2|0:0,0:0:0:0:
211,0,52765,6,0,L|306:24,1,80.937496599555,4|0,3:1|0:0,0:0:0:0:
493,225,52915,2,0,B|494:266|463:296|463:296|398:253|345:303,1,208.124997210503,0|0,0:0|0:0,0:0:0:0:
447,134,53215,2,0,B|462:91|435:50|435:50|367:87|333:150|362:258,1,323.74998639822,2|0,0:0|3:0,0:0:0:0:
512,384,53665,5,10,0:0:0:0:
285,279,53815,2,0,B|194:320|106:294|106:294|93:351|33:391,2,277.49999628067,0|2|0,0:0|0:0|0:0,0:0:0:0:
343,40,54565,6,0,L|245:68,1,80.937496599555,4|0,3:1|0:0,0:0:0:0:
40,119,54715,2,0,B|138:106|138:106|255:158,1,208.124997210503,0|0,0:0|0:0,0:0:0:0:
441,145,55015,2,0,B|376:83|252:134|367:222|252:268,1,277.499985694885,2|0,0:0|0:0,0:0:0:0:
62,269,55315,5,0,3:0:0:0:
161,29,55465,2,0,L|113:308,1,277.49999628067,10|0,0:0|3:0,0:0:0:0:
475,345,55915,6,0,L|454:266,1,46.2499976158142,8|8,0:0|0:0,0:0:0:0:
512,230,56065,2,0,L|468:157,1,46.2499976158142,8|8,0:0|0:0,0:0:0:0:
477,99,56215,2,0,L|412:56,1,46.2499976158142,8|8,0:0|0:0,0:0:0:0:
344,4,56365,6,0,L|223:63,1,80.937496599555,4|0,3:1|0:0,0:0:0:0:
99,201,56515,2,0,B|186:168|189:99|189:99|135:84|89:122,1,208.124997210503,0|0,0:0|0:0,0:0:0:0:
85,279,56815,2,0,B|33:266|7:217|7:217|26:113|26:113|55:75|114:90|114:90|104:139,1,323.74998639822,2|0,0:0|3:0,0:0:0:0:
151,319,57265,5,10,0:0:0:0:
335,353,57415,2,0,B|244:327|122:372|122:372|153:333|163:276,2,277.49999628067,0|2|0,0:0|0:0|0:0,0:0:0:0:
38,342,58165,6,0,L|68:241,1,80.937496599555,4|0,3:1|0:0,0:0:0:0:
156,80,58315,2,0,B|142:34|125:9|125:9|95:-8|37:-2|37:-2|36:72,1,242.812489798665,0|0,0:0|0:0,0:0:0:0:
212,274,58615,2,0,B|189:197|102:178|102:178|123:135|118:85,1,242.812489798665,2|0,0:0|0:0,0:0:0:0:
0,145,58915,1,0,3:0:0:0:
215,42,59065,2,0,B|372:98|372:98|215:110,1,323.74998639822,10|0,0:0|0:0,0:0:0:0:
74,10,59515,1,0,0:0:0:0:
0,145,59665,6,0,B|-20:178|-20:178|59:168|59:168|112:119|112:119|128:164,1,208.124997210503,4|0,3:1|0:0,0:0:0:0:
80,292,59965,2,0,B|76:329|71:357|71:357|30:369|15:330|15:330|46:344|199:335|199:335|233:349,1,323.74998639822,4|0,3:1|3:0,0:0:0:0:
448,384,60415,1,0,3:0:0:0:
428,151,60565,2,0,B|432:114|453:73|453:73|416:5|354:40|354:40|322:80|327:117,1,277.49999628067,2|8,0:0|0:0,0:0:0:0:
422,339,61015,1,0,0:0:0:0:
471,245,61165,2,0,L|514:331,1,92.4999952316285,0|0,3:0|0:0,0:0:0:0:
366,332,61465,6,0,B|352:318|352:318|278:320|278:320|255:370|255:370|217:393,1,173.437491059303,4|0,3:1|0:0,0:0:0:0:
0,384,61765,2,0,B|60:308|57:237|57:237|14:183|18:93,1,277.49999628067,4|0,3:1|3:0,0:0:0:0:
57,0,62215,1,0,3:0:0:0:
187,230,62365,2,0,B|190:272|159:305|159:305|76:249|114:220|119:172|101:130,1,277.49999628067,10|8,0:0|0:0,0:0:0:0:
0,7,62815,1,0,0:0:0:0:
125,173,62965,5,12,0:0:0:0:
182,139,63040,1,8,0:0:0:0:
240,105,63115,1,8,0:0:0:0:
298,71,63190,1,8,0:0:0:0:
362,123,63265,6,0,L|382:198,1,46.2499976158142,10|8,1:2|0:0,0:0:0:0:
308,216,63415,2,0,L|300:301,1,46.2499976158142,8|8,0:0|0:0,0:0:0:0:
398,276,63565,2,0,B|394:152|208:165|196:337|91:326|-18:290,1,462.499976158142,4|0,3:1|3:0,0:0:0:0:
142,0,64015,2,0,B|160:117|160:117|59:211,1,242.812489798665,2|0,0:0|0:0,0:0:0:0:
129,326,64315,1,0,3:0:0:0:
335,190,64465,6,0,P|266:171|186:172,1,138.749998140335,8|0,0:0|0:0,0:0:0:0:
485,285,64765,2,0,P|394:319|315:327,1,138.749998140335,2|0,3:2|0:0,0:0:0:0:
461,15,65065,2,0,B|455:88|455:88|534:172|534:172|468:149,1,242.812489798665,8|0,0:0|0:0,0:0:0:0:
368,32,65365,6,0,L|272:38,1,80.937496599555,4|0,3:1|0:0,0:0:0:0:
109,221,65515,2,0,B|172:208|172:208|221:141|170:40|99:61,1,242.812489798665,0|0,0:0|0:0,0:0:0:0:
119,243,65815,2,0,B|130:289|130:289|50:388,1,161.87499319911,2|0,0:0|0:0,0:0:0:0:
251,363,66115,1,0,3:0:0:0:
194,54,66265,1,8,0:0:0:0:
333,332,66565,6,0,B|383:297|383:297|340:294|340:294|275:318,1,173.437491059303,2|0,3:2|0:0,0:0:0:0:
44,278,66865,2,0,B|-2:270|-2:270|39:249|39:249|92:273|92:273|67:217,1,173.437491059303,8|0,0:0|0:0,0:0:0:0:
35,167,67165,2,0,B|-25:49|233:15|271:160|237:216|461:127,1,462.499976158142,4|0,3:1|0:0,0:0:0:0:
222,48,67615,2,0,B|202:80|230:122|230:122|295:47|389:59,1,242.812489798665,2|0,0:0|0:0,0:0:0:0:
476,196,67915,1,0,3:0:0:0:
335,384,68065,6,0,P|332:323|357:205,1,138.749998140335,10|0,0:0|0:0,0:0:0:0:
512,71,68365,2,0,L|392:143,1,138.749998140335,2|0,3:2|0:0,0:0:0:0:
82,356,68665,2,0,B|135:385|135:385|254:349|254:349|181:326,1,242.812489798665,10|0,0:0|0:0,0:0:0:0:
66,260,68965,6,0,B|46:256|46:256|96:90,1,161.87499319911,4|0,3:1|0:0,0:0:0:0:
22,27,69265,1,0,3:0:0:0:
310,148,69415,2,0,B|407:157|510:67|510:67|466:-4|381:22,1,323.74998639822,2|0,3:2|3:0,0:0:0:0:
481,317,69865,2,0,B|458:385|458:385|454:263,1,173.437491059303,8|0,0:0|0:0,0:0:0:0:
345,245,70165,5,8,3:2:0:0:
318,289,70240,1,8,0:0:0:0:
292,333,70315,1,8,0:0:0:0:
266,377,70390,1,8,0:0:0:0:
219,330,70465,6,0,L|132:340,1,57.8124970197678,10|0,3:2|0:0,0:0:0:0:
113,377,70615,2,0,L|52:383,1,57.8124970197678,10|0,0:0|0:0,0:0:0:0:
0,248,70765,2,0,B|277:173|127:396|445:294,1,462.499976158142,4|0,3:1|3:0,0:0:0:0:
237,181,71215,2,0,B|200:140|200:140|184:86|232:35|283:44|283:44|328:102,1,242.812489798665,2|0,0:0|0:0,0:0:0:0:
135,29,71515,1,0,3:0:0:0:
115,199,71665,6,0,B|69:249|-5:277,1,138.749998140335,10|0,0:0|0:0,0:0:0:0:
260,384,71965,2,0,P|240:307|203:210,1,138.749998140335,2|0,3:2|0:0,0:0:0:0:
293,0,72265,2,0,B|308:34|308:34|242:6|242:6|144:26|144:26|174:60,1,242.812489798665,8|0,0:0|0:0,0:0:0:0:
240,109,72565,6,0,L|245:207,1,80.937496599555,4|0,3:1|0:0,0:0:0:0:
83,322,72715,2,0,B|46:330|32:372|32:372|57:303|-3:204,1,242.812489798665,0|0,0:0|0:0,0:0:0:0:
102,102,73015,2,0,B|111:197|111:197|160:267,1,161.87499319911,2|0,3:2|0:0,0:0:0:0:
22,64,73315,1,0,2:0:0:0:
295,0,73465,1,8,0:0:0:0:
358,356,73765,2,0,L|90:323,1,242.812489798665,4|0,3:1|0:0,0:0:0:0:
180,335,74065,5,8,3:2:0:0:
245,278,74140,1,8,0:0:0:0:
310,222,74215,1,8,0:0:0:0:
375,166,74290,1,8,0:0:0:0:
278,110,74365,2,0,B|226:108|226:108|224:192|136:213,1,161.87499319911,4|0,3:1|0:0,0:0:0:0:
0,357,74665,1,0,3:0:0:0:
89,144,74815,2,0,L|-9:-48,1,161.87499319911,8|8,0:0|0:0,0:0:0:0:
51,255,75115,1,0,3:0:0:0:
246,75,75265,2,0,B|294:49|324:10|324:10|357:72|433:98,1,242.812489798665,4|0,3:2|0:0,0:0:0:0:
445,187,75565,1,8,0:0:0:0:
163,270,75715,1,8,0:0:0:0:
414,282,75865,1,0,3:0:0:0:
512,384,76015,1,0,0:0:0:0:
496,102,76165,6,0,B|509:60|499:12|499:12|450:-9|424:29|424:29|426:93|329:79,1,242.812489798665,4|0,3:2|0:0,0:0:0:0:
283,260,76465,1,8,0:0:0:0:
339,195,76540,1,8,0:0:0:0:
395,130,76615,1,8,0:0:0:0:
452,65,76690,1,8,0:0:0:0:
509,0,76765,1,8,0:0:0:0:
253,0,76915,1,0,3:0:0:0:
388,334,77065,6,0,L|476:308,1,92.4999952316285,8|0,0:0|0:0,0:0:0:0:
305,332,77365,2,0,L|249:398,1,69.3749990701676,0|0,3:0|3:0,0:0:0:0:
256,268,77665,2,0,L|256:218,1,34.6874995350838,4|0,3:2|0:0,0:0:0:0:
187,144,77965,6,0,L|176:200,2,46.2499976158142,2|0|2,3:2|0:0|0:0,0:0:0:0:
249,83,78415,2,0,L|235:27,2,46.2499976158142,2|0|10,3:2|0:0|0:0,0:0:0:0:
286,175,78865,2,0,L|351:156,1,46.2499976158142,8|0,0:0|0:0,0:0:0:0:
260,201,79165,2,0,L|325:186,1,46.2499976158142,10|0,0:0|0:0,0:0:0:0:
225,224,79465,2,0,L|281:249,1,46.2499976158142,10|8,0:0|0:0,0:0:0:0:
320,328,79690,1,8,0:0:0:0:
320,328,79765,6,0,L|266:365,2,46.2499976158142,6|0|2,3:2|0:0|0:0,0:0:0:0:
359,252,80215,2,0,L|355:197,2,46.2499976158142,8|0|2,0:0|0:0|0:0,0:0:0:0:
411,331,80665,2,0,L|461:338,1,46.2499976158142,8|0,0:0|0:0,0:0:0:0:
447,144,80965,2,0,L|439:84,1,46.2499976158142,8|0,0:0|0:0,0:0:0:0:
482,108,81265,2,0,L|486:53,1,46.2499976158142,8|0,0:0|0:0,0:0:0:0:
512,0,81490,1,0,0:0:0:0:
512,0,81565,6,0,L|534:62,2,46.2499976158142,4|0|10,3:2|0:0|0:2,0:0:0:0:
430,51,82015,2,0,L|372:43,2,46.2499976158142,10|0|10,0:0|0:0|0:0,0:0:0:0:
441,147,82465,2,0,L|462:198,1,46.2499976158142,2|0,3:2|0:0,0:0:0:0:
413,138,82765,2,0,L|412:196,1,46.2499976158142,10|0,0:0|0:0,0:0:0:0:
396,116,83065,2,0,L|385:172,1,46.2499976158142,8|8,0:0|0:0,0:0:0:0:
326,222,83290,1,8,0:0:0:0:
326,222,83365,2,4,L|388:221,1,46.2499976158142,4|0,3:2|0:0,0:0:0:0:
362,304,83665,1,8,0:0:0:0:
366,337,83815,2,0,L|414:373,2,46.2499976158142,8|0|0,0:0|0:0|3:0,0:0:0:0:
269,308,84265,2,0,L|221:334,1,46.2499976158142,10|0,0:0|0:0,0:0:0:0:
134,378,84565,2,0,L|148:323,1,46.2499976158142,8|0,0:0|0:0,0:0:0:0:
54,280,84865,2,0,L|83:292,3,23.1249988079071,10|8|8|8,0:0|0:0|0:0|0:0,0:0:0:0:
34,196,85165,6,0,L|7:46,1,138.749998140335,4|8,3:2|0:0,0:0:0:0:
92,81,85615,2,0,L|86:146,2,46.2499976158142,10|0|2,0:0|0:0|0:0,0:0:0:0:
0,25,86065,2,0,L|48:-7,1,46.2499976158142,8|0,0:0|0:0,0:0:0:0:
91,26,86365,2,0,L|152:1,1,46.2499976158142,10|0,0:0|0:0,0:0:0:0:
156,56,86665,2,0,L|214:60,1,46.2499976158142,8|8,0:0|0:0,0:0:0:0:
235,138,86890,1,8,0:0:0:0:
235,138,86965,6,0,L|367:99,1,120.249988296509,4|0,3:2|0:0,0:0:0:0:
407,31,87415,2,0,L|349:16,2,46.2499976158142,10|0|0,0:0|0:0|0:0,0:0:0:0:
431,117,87865,2,0,L|425:175,1,46.2499976158142,10|0,0:0|0:0,0:0:0:0:
448,132,88165,2,0,L|452:194,1,46.2499976158142,8|8,0:0|0:0,0:0:0:0:
490,225,88465,2,0,L|466:268,1,46.2499976158142,10|8,0:0|0:0,0:0:0:0:
499,342,88690,1,8,0:0:0:0:
499,342,88765,6,0,L|361:321,1,120.249988296509,4|8,3:2|0:0,0:0:0:0:
251,323,89215,2,0,L|197:354,2,46.2499976158142,10|0|8,0:0|0:0|0:0,0:0:0:0:
314,280,89665,2,0,L|333:224,1,46.2499976158142,10|8,0:0|0:0,0:0:0:0:
245,218,89965,2,0,L|219:159,1,46.2499976158142,8|0,0:0|0:0,0:0:0:0:
221,133,90265,2,0,L|167:167,1,46.2499976158142,10|8,0:0|0:0,0:0:0:0:
136,227,90490,1,8,0:0:0:0:
136,227,90565,6,0,L|41:208,1,92.4999952316285,6|10,3:2|0:0,0:0:0:0:
99,137,91015,1,8,0:0:0:0:
102,52,91165,1,2,0:0:0:0:
155,62,91315,1,0,0:0:0:0:
229,29,91465,2,0,L|280:14,1,46.2499976158142,10|0,0:0|0:0,0:0:0:0:
323,86,91765,2,0,L|371:59,1,46.2499976158142,8|0,0:0|0:0,0:0:0:0:
423,4,92065,1,10,0:0:0:0:
470,85,92215,1,8,0:0:0:0:
470,85,92290,1,8,0:0:0:0:
470,85,92365,6,0,L|418:73,1,46.2499976158142,4|0,3:2|0:0,0:0:0:0:
476,78,92665,1,10,0:0:0:0:
380,167,92815,2,0,L|426:145,1,46.2499976158142,10|0,0:0|0:0,0:0:0:0:
367,157,93115,1,8,0:0:0:0:
512,161,93265,2,0,L|492:211,1,46.2499976158142,2|0,3:2|0:0,0:0:0:0:
425,230,93565,2,0,L|436:280,1,46.2499976158142,10|0,0:0|0:0,0:0:0:0:
512,290,93865,1,10,0:0:0:0:
491,376,94015,1,8,0:0:0:0:
491,376,94090,1,8,0:0:0:0:
491,376,94165,6,0,L|446:384,1,46.2499976158142,4|0,3:2|0:0,0:0:0:0:
495,370,94465,1,8,0:0:0:0:
380,341,94615,2,0,L|335:348,1,46.2499976158142,10|0,0:0|0:0,0:0:0:0:
380,326,94915,1,10,0:0:0:0:
251,384,95065,1,10,0:0:0:0:
251,384,95215,1,0,0:0:0:0:
193,307,95365,1,10,0:0:0:0:
193,307,95515,1,0,0:0:0:0:
267,247,95665,1,10,0:0:0:0:
244,164,95815,1,8,0:0:0:0:
244,164,95890,1,8,0:0:0:0:
244,164,95965,6,0,L|232:105,1,46.2499976158142,4|0,3:2|0:0,0:0:0:0:
237,177,96265,1,8,0:0:0:0:
145,116,96415,2,0,L|86:104,1,46.2499976158142,10|0,0:0|0:0,0:0:0:0:
154,107,96715,1,10,0:0:0:0:
156,190,96865,2,0,L|152:246,1,46.2499976158142,2|0,3:2|0:0,0:0:0:0:
77,214,97165,2,0,L|49:259,1,46.2499976158142,10|8,0:0|0:0,0:0:0:0:
125,287,97465,1,8,0:0:0:0:
89,364,97615,1,8,0:0:0:0:
89,364,97690,1,8,0:0:0:0:
90,364,97765,6,0,L|135:372,1,46.2499976158142,4|0,3:2|0:0,0:0:0:0:
209,325,98065,1,8,0:0:0:0:
215,341,98215,2,0,L|271:348,1,46.2499976158142,8|8,0:0|0:0,0:0:0:0:
326,289,98515,1,10,0:0:0:0:
338,273,98665,2,0,L|392:288,1,46.2499976158142,10|0,0:0|0:0,0:0:0:0:
289,197,98965,2,0,L|235:224,1,46.2499976158142,10|0,0:0|0:0,0:0:0:0:
376,198,99265,1,10,0:0:0:0:
379,191,99340,1,0,0:0:0:0:
381,186,99415,1,8,0:0:0:0:
384,180,99490,1,8,0:0:0:0:
387,173,99565,6,0,L|324:41,1,138.749998140335,4|8,3:2|0:0,0:0:0:0:
430,50,100015,2,0,L|493:29,1,60.1249941482547,10|0,0:0|0:0,0:0:0:0:
446,127,100315,1,10,0:0:0:0:
512,196,100465,1,2,3:2:0:0:
512,196,100615,1,2,0:0:0:0:
463,265,100765,1,10,0:2:0:0:
463,265,100915,1,8,0:0:0:0:
512,336,101065,1,8,0:0:0:0:
507,341,101140,1,8,0:0:0:0:
503,345,101215,1,8,0:0:0:0:
498,350,101290,1,8,0:0:0:0:
492,355,101365,6,0,L|348:336,1,138.749998140335,4|0,3:2|0:0,0:0:0:0:
254,384,101815,2,0,L|281:309,1,60.1249941482547,10|0,0:0|0:0,0:0:0:0:
299,218,102115,1,0,0:0:0:0:
274,327,102265,2,0,L|224:287,1,60.1249941482547,10|0,0:0|0:0,0:0:0:0:
149,329,102565,2,0,L|128:245,1,60.1249941482547,8|8,0:0|0:0,0:0:0:0:
49,279,102865,1,2,0:0:0:0:
131,229,103015,1,8,0:0:0:0:
131,229,103090,1,8,0:0:0:0:
131,229,103165,6,0,L|46:356,1,138.749998140335,4|8,3:2|0:0,0:0:0:0:
160,384,103615,2,0,L|163:307,1,60.1249941482547,10|0,0:0|0:0,0:0:0:0:
74,271,103915,1,8,0:0:0:0:
129,198,104065,1,8,3:2:0:0:
129,198,104215,1,0,0:0:0:0:
61,146,104365,1,8,0:0:0:0:
61,146,104515,1,0,0:0:0:0:
92,57,104665,1,10,0:0:0:0:
92,57,104740,1,0,0:0:0:0:
92,57,104815,1,8,0:0:0:0:
92,57,104890,1,8,0:0:0:0:
92,57,104965,6,0,L|-10:74,1,92.4999952316285,6|0,3:2|0:0,0:0:0:0:
18,164,105415,2,0,L|75:139,1,46.2499976158142,8|0,0:0|0:0,0:0:0:0:
147,141,105715,1,8,0:0:0:0:
206,259,105865,2,0,L|205:311,1,46.2499976158142,10|0,0:0|0:0,0:0:0:0:
124,237,106165,2,0,L|147:195,1,46.2499976158142,8|0,0:0|0:0,0:0:0:0:
129,80,106465,2,0,L|81:122,1,46.2499976158142,10|0,0:0|0:0,0:0:0:0:
205,156,106690,1,0,0:0:0:0:
205,156,106765,6,0,L|256:187,1,60.1249941482547,4|0,3:2|0:0,0:0:0:0:
261,75,107065,2,0,L|241:18,1,60.1249941482547,2|10,0:0|0:0,0:0:0:0:
360,0,107365,2,0,L|335:55,1,60.1249941482547
456,247,107665,6,0,L|480:171,1,69.3749990701676,4|0,3:2|0:0,0:0:0:0:
368,214,107965,2,0,L|312:254,1,69.3749990701676,8|0,0:0|0:0,0:0:0:0:
354,127,108265,1,10,0:0:0:0:
365,111,108340,1,8,0:0:0:0:
375,98,108415,1,8,0:0:0:0:
383,86,108490,1,8,0:0:0:0:
390,74,108565,2,0,P|344:52|231:59,1,157.249994893074,4|0,3:1|0:0,0:0:0:0:
340,268,109015,1,4,3:1:0:0:
444,202,109165,1,2,0:0:0:0:
443,30,109315,1,2,0:0:0:0:
426,13,109465,6,2,B|402:-3|387:35|355:-4|350:24,1,80.9374958276749,8|0,0:0|0:0,0:0:0:0:
385,34,109765,2,0,B|391:48|398:49|394:65|412:76|404:68|400:85|435:79|447:66,1,80.9374958276749
455,0,110065,2,0,B|479:-11|484:-4|485:19|482:29|466:39|452:32|437:38|441:39,1,80.9374958276749,2|0,0:0|0:0,0:0:0:0:
391,111,110365,6,0,L|304:85,1,80.937496599555,4|0,3:1|0:0,0:0:0:0:
98,0,110515,2,0,B|46:-31|-26:46|82:76|134:57|149:123,1,208.124997210503,0|0,0:0|0:0,0:0:0:0:
93,325,110815,2,0,B|51:369|13:371|13:371|-16:263|140:194,1,323.74998639822,2|0,0:0|3:0,0:0:0:0:
371,360,111265,5,10,0:0:0:0:
497,186,111415,2,0,B|430:153|341:186|320:273|320:273|325:248|302:208,2,277.49999628067,0|2|0,0:0|0:0|0:0,0:0:0:0:
338,113,112165,6,0,L|241:84,1,80.937496599555,4|0,3:1|0:0,0:0:0:0:
143,21,112315,2,0,B|101:122|101:122|136:220,1,208.124997210503,0|0,0:0|0:0,0:0:0:0:
77,343,112615,2,0,B|16:318|48:219|121:201|121:201|159:249,1,242.812489798665,2|0,0:0|0:0,0:0:0:0:
0,384,112915,1,0,3:0:0:0:
350,294,113065,6,0,L|59:346,1,277.49999628067,8|0,0:0|3:0,0:0:0:0:
315,384,113515,1,0,0:0:0:0:
101,233,113665,2,0,B|75:234|75:234|118:198|118:198|187:217|187:217|186:178,1,173.437491059303,8|0,1:2|0:0,0:0:0:0:
164,107,113965,6,0,L|250:79,1,80.937496599555,4|0,3:1|0:0,0:0:0:0:
511,0,114115,2,0,B|512:50|481:84|481:84|454:22|382:-2,1,208.124997210503,0|0,0:0|0:0,0:0:0:0:
271,212,114415,2,0,B|280:256|324:277|324:277|363:211|360:139|284:66,1,323.74998639822,2|0,0:0|3:0,0:0:0:0:
62,227,114865,5,10,2:0:0:0:
446,153,115015,2,0,B|469:260|426:333|426:333|427:270|503:283,2,277.49999628067,0|2|0,0:0|0:0|0:0,0:0:0:0:
160,83,115765,6,0,L|205:188,1,80.937496599555,4|0,3:1|0:0,0:0:0:0:
300,384,115915,2,0,B|300:272|300:272|357:181,1,208.124997210503,0|0,0:0|0:0,0:0:0:0:
268,28,116215,2,0,B|185:-8|160:104|212:183|306:89|320:161|308:256,1,277.499985694885,2|0,0:0|0:0,0:0:0:0:
194,282,116515,5,0,3:0:0:0:
454,64,116665,2,0,L|172:85,1,277.49999628067,10|0,0:0|3:0,0:0:0:0:
373,350,117115,6,0,L|294:327,1,46.2499976158142,8|8,0:0|0:0,0:0:0:0:
258,384,117265,2,0,L|186:338,1,46.2499976158142,8|8,0:0|0:0,0:0:0:0:
127,345,117415,2,0,L|86:279,1,46.2499976158142,8|8,0:0|0:0,0:0:0:0:
37,208,117565,6,0,L|100:90,1,80.937496599555,4|0,3:1|0:0,0:0:0:0:
344,27,117715,2,0,B|428:74|431:147|431:147|384:152|357:132,1,208.124997210503,0|0,0:0|0:0,0:0:0:0:
266,0,118015,2,0,B|218:24|203:77|203:77|245:175|245:175|282:205|336:177|336:177|316:132,1,323.74998639822,2|0,0:0|3:0,0:0:0:0:
84,19,118465,5,10,0:0:0:0:
132,191,118615,2,0,B|140:256|39:357|39:357|95:324|140:347,2,277.49999628067,0|2|0,0:0|0:0|0:0,0:0:0:0:
116,338,119365,6,0,L|215:318,1,80.937496599555,4|0,3:1|0:0,0:0:0:0:
446,266,119515,2,0,B|489:263|489:263|495:321|478:351|478:351|419:382|358:339,1,242.812489798665,0|0,0:0|0:0,0:0:0:0:
326,103,119815,2,0,B|323:187|410:206|410:206|389:249|394:299,1,242.812489798665,2|0,0:0|0:0,0:0:0:0:
512,145,120115,1,0,3:0:0:0:
242,164,120265,2,0,B|198:98|198:98|297:53|413:64|413:64|421:14,1,323.74998639822,10|0,0:0|3:0,0:0:0:0:
117,116,120715,1,0,0:0:0:0:
90,231,120865,6,0,B|91:262|91:262|-3:277|-3:277|52:244|52:244|35:181,1,208.124997210503,4|0,3:1|0:0,0:0:0:0:
34,79,121165,2,0,B|48:36|-10:4|-10:4|8:40|91:47|139:44|139:44|163:25|216:12,1,323.74998639822,4|0,3:1|3:0,0:0:0:0:
448,0,121615,1,0,3:0:0:0:
490,187,121765,2,0,B|499:220|489:250|489:250|474:294|386:264|386:264|387:218|371:169,1,277.49999628067,2|8,0:0|0:0,0:0:0:0:
240,27,122215,1,0,0:0:0:0:
285,113,122365,2,0,L|199:156,1,92.4999952316285,0|0,3:0|0:0,0:0:0:0:
77,19,122665,6,0,B|91:33|91:33|89:107|89:107|39:130|39:130|16:168,1,173.437491059303,4|0,3:1|0:0,0:0:0:0:
25,351,122965,2,0,B|101:291|172:294|172:294|226:337|316:333,1,277.49999628067,4|0,3:1|3:0,0:0:0:0:
409,294,123415,1,0,3:0:0:0:
179,164,123565,2,0,B|137:161|104:192|104:192|160:275|189:237|237:232|279:250,1,277.49999628067,10|8,0:0|0:0,0:0:0:0:
455,379,124015,1,0,0:0:0:0:
387,211,124165,5,12,3:2:0:0:
330,245,124240,1,8,0:0:0:0:
272,279,124315,1,8,0:0:0:0:
214,313,124390,1,8,0:0:0:0:
150,261,124465,6,0,L|130:186,1,46.2499976158142,10|8,1:2|0:0,0:0:0:0:
204,168,124615,2,0,L|212:83,1,46.2499976158142,8|8,0:0|0:0,0:0:0:0:
118,96,124765,2,0,B|122:-28|308:-15|320:157|425:146|534:110,1,462.499976158142,4|0,3:1|3:0,0:0:0:0:
274,0,125215,2,0,B|317:117|317:117|268:240,1,242.812489798665,2|0,0:0|0:0,0:0:0:0:
425,370,125515,1,0,3:0:0:0:
391,141,125665,6,0,P|378:76|380:0,1,138.749998140335,8|0,0:0|0:0,0:0:0:0:
470,266,125965,2,0,B|514:197|512:96,1,138.749998140335,2|0,3:2|0:0,0:0:0:0:
176,355,126265,2,0,B|249:361|249:361|333:282|333:282|310:348,1,242.812489798665,8|0,0:0|0:0,0:0:0:0:
74,384,126565,6,0,L|105:282,1,80.937496599555,4|0,3:1|0:0,0:0:0:0:
178,69,126715,2,0,B|165:6|165:6|98:-43|-3:8|18:79,1,242.812489798665,0|0,0:0|0:0,0:0:0:0:
201,61,127015,2,0,B|247:50|247:50|346:130,1,161.87499319911,2|0,0:0|3:0,0:0:0:0:
115,151,127315,1,0,3:0:0:0:
419,17,127465,1,8,0:0:0:0:
157,143,127765,6,0,B|208:155|228:191|228:191|271:185|287:111,1,173.437491059303,2|0,3:2|0:0,0:0:0:0:
95,350,128065,2,0,B|58:338|62:314|62:314|134:293|116:228|53:238,1,173.437491059303,8|0,0:0|0:0,0:0:0:0:
0,167,128365,2,0,B|-60:49|198:15|236:160|202:216|426:127,1,462.499976158142,4|0,3:1|0:0,0:0:0:0:
247,0,128815,2,0,B|215:-20|173:8|173:8|248:73|236:167,1,242.812489798665,2|0,0:0|0:0,0:0:0:0:
111,342,129115,1,0,3:0:0:0:
335,384,129265,6,0,P|332:323|357:205,1,138.749998140335,10|0,0:0|0:0,0:0:0:0:
121,349,129565,2,0,L|241:277,1,138.749998140335,2|0,3:2|0:0,0:0:0:0:
455,41,129865,2,0,B|472:-14|472:-14|508:104|508:104|479:157,1,242.812489798665,10|0,0:0|0:0,0:0:0:0:
464,355,130165,6,0,B|482:346|482:346|399:194,1,161.87499319911,4|0,3:1|0:0,0:0:0:0:
326,63,130465,1,0,3:0:0:0:
63,330,130615,2,0,B|154:338|257:248|257:248|213:177|175:196,1,323.74998639822,2|0,3:2|3:0,0:0:0:0:
37,58,131065,2,0,B|60:-10|60:-10|64:112,1,173.437491059303,8|0,0:0|0:0,0:0:0:0:
107,183,131365,5,0,3:0:0:0:
137,165,131440,1,8,0:0:0:0:
169,147,131515,1,8,0:0:0:0:
199,128,131590,1,8,0:0:0:0:
252,184,131665,6,0,L|339:174,1,57.8124970197678,10|0,0:0|0:0,0:0:0:0:
322,137,131815,2,0,L|383:131,1,57.8124970197678,8|0,0:0|0:0,0:0:0:0:
433,66,131965,2,0,B|156:-9|306:214|-12:112,1,462.499976158142,4|0,3:1|3:0,0:0:0:0:
253,209,132415,2,0,B|294:172|294:172|348:156|399:204|390:255|390:255|332:300,1,242.812489798665,2|0,0:0|0:0,0:0:0:0:
191,384,132715,1,0,3:0:0:0:
473,286,132865,6,0,B|417:309|330:315,1,138.749998140335,10|0,0:0|0:0,0:0:0:0:
470,92,133165,2,0,P|437:166|375:248,1,138.749998140335,2|0,3:2|0:0,0:0:0:0:
79,13,133465,2,0,B|64:47|64:47|130:19|130:19|228:39|228:39|198:73,1,242.812489798665,8|0,0:0|0:0,0:0:0:0:
139,116,133765,6,0,L|156:217,1,80.937496599555,4|0,3:1|0:0,0:0:0:0:
146,369,133915,2,0,B|130:377|102:373|102:373|95:335|118:303|118:303|159:315|222:308|254:282,1,242.812489798665,0|0,0:0|0:0,0:0:0:0:
397,384,134215,2,0,B|419:321|419:321|410:226,1,161.87499319911,2|0,3:2|0:0,0:0:0:0:
195,185,134515,1,0,2:0:0:0:
509,105,134665,1,8,0:0:0:0:
111,384,134965,2,0,L|144:116,1,242.812489798665,4|0,3:1|0:0,0:0:0:0:
114,50,135265,5,8,0:0:0:0:
171,115,135340,1,8,0:0:0:0:
227,180,135415,1,8,0:0:0:0:
283,245,135490,1,8,0:0:0:0:
288,151,135565,2,0,B|331:122|331:122|376:193|462:166,1,161.87499319911,4|0,3:2|0:0,0:0:0:0:
512,10,135865,1,2,3:2:0:0:
396,260,136015,2,0,L|191:222,1,161.87499319911,8|0,0:0|0:0,0:0:0:0:
372,346,136315,1,0,3:2:0:0:
446,98,136465,2,0,B|472:36|499:7|499:7|457:26|383:44|332:42,1,242.812489798665,0|0,3:0|0:0,0:0:0:0:
191,0,136765,1,8,0:0:0:0:
168,300,136915,1,8,0:0:0:0:
95,55,137065,1,0,3:2:0:0:
0,126,137215,1,0,0:0:0:0:
326,140,137365,6,0,B|358:128|374:123|359:62|359:62|368:32|434:45|434:45|465:51|471:98,1,242.812489798665,4|0,3:2|0:0,0:0:0:0:
456,252,137665,1,8,0:0:0:0:
391,196,137740,1,8,0:0:0:0:
326,140,137815,1,8,0:0:0:0:
261,83,137890,1,8,0:0:0:0:
196,26,137965,1,0,3:0:0:0:
457,20,138115,1,0,3:0:0:0:
468,333,138265,6,0,B|463:296|463:296|428:268|388:291|388:291|386:303|383:323|381:341|381:341|346:369|317:332,1,242.812489798665,0|0,3:0|0:0,0:0:0:0:
431,64,138565,1,8,0:0:0:0:
366,120,138640,1,8,0:0:0:0:
301,176,138715,1,8,0:0:0:0:
236,233,138790,1,8,0:0:0:0:
331,263,138865,6,0,L|311:166,1,80.937496599555,4|0,3:3|3:3,0:0:0:0:
218,337,139015,2,0,L|127:289,1,80.937496599555,0|0,3:3|3:3,0:0:0:0:
229,102,139165,6,0,B|222:87|221:62|221:62|187:54|142:68|112:101|112:101|108:31|82:32,1,231.249988079071,4|0,3:2|3:0,0:0:0:0:
325,53,139615,2,0,L|429:-4,1,115.624994039536,8|0,0:0|3:0,0:0:0:0:
236,233,139915,1,0,3:0:0:0:
492,177,140065,6,0,L|472:53,1,115.624994039536,8|0,0:0|3:0,0:0:0:0:
326,240,140365,2,0,L|306:116,1,115.624994039536,8|0,0:0|0:3,0:0:0:0:
464,368,140665,2,0,L|444:244,1,115.624994039536,8|0,0:0|0:0,0:0:0:0:
92,343,140965,6,0,B|30:377|30:377|12:322|23:290|65:266|65:266|43:211,1,231.249988079071,12|0,0:0|3:0,0:0:0:0:
270,348,141415,2,0,L|386:372,1,115.624994039536,8|0,0:0|3:0,0:0:0:0:
175,44,141715,1,0,3:0:0:0:
37,177,141865,6,0,L|-3:58,1,115.624994039536,8|0,0:0|3:0,0:0:0:0:
213,154,142165,2,0,L|172:35,1,115.624994039536,8|0,0:0|3:0,0:0:0:0:
151,332,142465,2,0,L|110:213,1,115.624994039536,8|0,0:0|0:0,0:0:0:0:
422,0,142765,6,0,B|433:37|428:68|428:68|468:69|526:95|526:95|508:113|502:170,1,231.249988079071,4|0,3:2|3:0,0:0:0:0:
241,39,143215,2,0,L|120:-3,1,115.624994039536,8|0,0:0|3:0,0:0:0:0:
76,279,143515,1,0,3:0:0:0:
145,101,143665,6,0,L|19:110,1,115.624994039536,8|0,0:0|3:0,0:0:0:0:
192,271,143965,2,0,L|66:280,1,115.624994039536,8|0,0:0|0:3,0:0:0:0:
332,145,144265,2,0,L|206:154,1,115.624994039536,8|0,0:0|0:0,0:0:0:0:
496,384,144565,6,0,B|487:315|487:315|429:312|411:323|387:359|387:359|362:373|332:365,1,231.249988079071,12|0,0:0|3:0,0:0:0:0:
180,106,145015,2,0,P|220:162|223:220,1,115.624994039536,8|0,0:0|3:0,0:0:0:0:
24,298,145315,1,0,3:0:0:0:
224,304,145465,5,8,0:0:0:0:
196,220,145615,1,0,3:0:0:0:
322,319,145765,5,8,0:0:0:0:
296,235,145915,1,0,3:0:0:0:
236,384,146065,5,8,0:0:0:0:
210,299,146215,1,0,0:0:0:0:
499,384,146365,6,0,B|488:356|503:333|503:333|414:302|376:311|376:311|409:300|436:278,1,231.249988079071,4|0,3:2|3:0,0:0:0:0:
275,113,146815,2,0,L|350:224,1,115.624994039536,8|0,0:0|3:0,0:0:0:0:
162,384,147115,1,0,3:0:0:0:
169,194,147265,6,0,L|52:243,1,115.624994039536,8|0,0:0|3:0,0:0:0:0:
268,338,147565,2,0,L|151:387,1,115.624994039536,8|0,0:0|0:3,0:0:0:0:
360,174,147865,2,0,L|243:223,1,115.624994039536,8|0,0:0|0:0,0:0:0:0:
478,259,148165,6,0,B|491:311|465:343|484:383|484:383|443:333|425:360|386:340,1,203.49999571991,12|0,0:0|3:0,0:0:0:0:
299,183,148615,2,0,L|307:293,1,101.749997859955,8|0,0:0|3:0,0:0:0:0:
386,94,148915,1,0,3:0:0:0:
300,239,149065,6,0,L|410:248,1,101.749997859955,8|0,0:0|3:0,0:0:0:0:
283,86,149365,2,0,L|393:95,1,101.749997859955,8|0,0:0|3:0,0:0:0:0:
144,175,149665,2,0,L|254:184,1,101.749997859955,8|0,0:0|0:0,0:0:0:0:
79,245,149965,6,0,B|65:290|60:335|60:335|96:319|123:319|123:319|127:344,1,175.749986247063,12|0,0:0|3:0,2:2:0:0:
101,133,150415,2,0,L|49:32,1,87.8749931235316,8|0,0:0|3:0,0:0:0:0:
266,39,150715,1,0,3:0:0:0:
142,113,150865,6,0,L|134:17,1,87.8749931235316,8|0,0:0|3:0,0:0:0:0:
273,127,151165,2,0,L|265:32,1,87.8749931235316,8|0,0:0|3:0,0:0:0:0:
197,246,151465,2,0,L|189:151,1,87.8749931235316,8|0,0:0|0:0,0:0:0:0:
52,303,151765,6,0,B|97:294|130:309|130:309|137:333|134:349|142:374,1,138.749998140335,12|0,0:0|3:0,0:0:0:0:
269,269,152215,2,0,L|249:182,1,69.3749990701676,8|0,0:0|3:0,0:0:0:0:
218,333,152515,1,0,3:0:0:0:
291,289,152665,1,8,0:0:0:0:
291,289,152740,1,2,0:0:0:0:
291,289,152815,1,2,3:2:0:0:
291,289,152890,1,2,0:0:0:0:
291,289,152965,2,0,L|366:303,1,69.3749990701676,8|0,0:0|3:0,0:0:0:0:
432,375,153265,1,8,0:0:0:0:
432,375,153340,1,0,0:0:0:0:
432,375,153415,1,0,0:0:0:0:
432,375,153490,1,0,0:0:0:0:
453,303,153565,6,0,P|455:242|451:184,1,115.624994039536,14|0,0:2|3:0,0:0:0:0:
275,259,153865,1,2,3:2:0:0:
409,184,154015,2,0,P|462:121|468:5,1,173.437491059303,10|0,0:0|0:0,0:0:0:0:
311,50,154315,1,0,3:0:0:0:
311,229,154465,6,0,L|379:219,1,69.3749990701676,10|0,0:0|0:0,0:0:0:0:
207,154,154765,2,0,L|275:144,1,69.3749990701676,10|0,0:0|0:0,0:0:0:0:
155,286,155065,2,0,L|223:276,1,69.3749990701676,10|0,0:0|0:0,0:0:0:0:
90,48,155365,6,0,P|104:100|92:183,1,115.624994039536,12|0,0:0|3:0,0:0:0:0:
0,23,155665,1,2,3:2:0:0:
207,154,155815,2,0,P|113:149|-2:121,1,173.437491059303,10|0,0:0|0:0,0:0:0:0:
90,48,156115,1,0,3:0:0:0:
155,286,156265,6,0,L|223:276,1,69.3749990701676,10|0,0:0|0:0,0:0:0:0:
207,154,156565,2,0,L|275:144,1,69.3749990701676,10|0,0:0|0:0,0:0:0:0:
311,229,156865,2,0,L|379:219,1,69.3749990701676,10|0,0:0|0:0,0:0:0:0:
487,0,157165,6,0,P|458:49|443:110,1,115.624994039536,12|0,0:0|3:0,0:0:0:0:
244,65,157465,1,2,3:2:0:0:
403,90,157615,2,0,P|468:194|493:280,1,173.437491059303,10|0,0:0|0:0,0:0:0:0:
420,333,157915,1,2,3:2:0:0:
275,144,158065,6,0,L|207:154,1,69.3749990701676,10|0,0:0|0:0,0:0:0:0:
311,229,158365,2,0,L|379:219,1,69.3749990701676,10|0,0:0|0:0,0:0:0:0:
223,276,158665,2,0,L|155:286,1,69.3749990701676,10|0,0:0|0:0,0:0:0:0:
199,0,158965,6,0,P|204:72|240:148,2,115.624994039536,14|0|0,0:0|0:0|3:0,0:0:0:0:
77,139,159415,2,0,P|62:208|73:298,2,115.624994039536,10|0|0,0:0|0:0|3:0,0:0:0:0:
478,68,159865,6,0,P|410:52|361:21,1,115.624994039536,10|0,0:0|3:0,0:0:0:0:
348,241,160165,2,0,P|366:167|343:100,1,115.624994039536,10|0,0:0|3:0,0:0:0:0:
392,358,160465,2,0,P|448:303|495:281,1,115.624994039536,10|0,0:0|3:0,0:0:0:0:
136,253,160765,6,0,P|45:239|9:241,1,115.624994039536,12|0,0:0|3:0,0:0:0:0:
55,365,161065,1,2,3:2:0:0:
132,217,161215,2,0,P|141:151|112:49,1,173.437491059303,10|0,0:0|0:0,0:0:0:0:
0,30,161515,1,0,3:0:0:0:
213,92,161665,6,0,L|292:42,1,69.3749990701676,10|0,0:0|0:0,0:0:0:0:
317,152,161965,2,0,L|396:102,1,69.3749990701676,10|0,0:0|0:0,0:0:0:0:
353,37,162265,2,0,L|432:-13,1,69.3749990701676,10|0,0:0|0:0,0:0:0:0:
454,301,162565,6,0,P|391:377|327:378,1,115.624994039536,12|0,0:0|3:0,0:0:0:0:
217,311,162865,1,2,3:2:0:0:
325,214,163015,2,0,P|308:152|209:111,1,173.437491059303,10|0,0:0|0:0,0:0:0:0:
142,210,163315,1,2,3:2:0:0:
303,37,163465,6,0,L|321:124,1,69.3749990701676,10|0,0:0|0:0,0:0:0:0:
214,110,163765,2,0,L|232:197,1,69.3749990701676,10|0,0:0|0:0,0:0:0:0:
325,214,164065,2,0,L|343:301,1,69.3749990701676,10|0,0:0|0:0,0:0:0:0:
22,355,164365,6,0,P|84:323|142:308,1,115.624994039536,12|0,0:0|0:0,0:0:0:0:
0,179,164665,1,2,3:2:0:0:
166,188,164815,2,0,P|239:259|275:341,1,173.437491059303,10|0,0:0|0:0,0:0:0:0:
127,310,165115,1,0,3:0:0:0:
88,97,165265,6,0,L|122:16,1,69.3749990701676,10|0,0:0|0:0,0:0:0:0:
166,188,165565,2,0,L|200:107,1,69.3749990701676,10|0,0:0|0:0,0:0:0:0:
283,122,165865,2,0,L|317:41,1,69.3749990701676,10|0,0:0|0:0,0:0:0:0:
489,324,166165,6,0,B|457:301|441:327|435:345|404:346|398:328,1,92.4999952316285,2|0,3:2|0:0,0:0:0:0:
422,290,166615,2,0,B|405:276|462:277|454:315|457:309|449:343|423:324,1,92.4999952316285,2|0,0:0|0:0,0:0:0:0:
361,123,167065,1,2,3:2:0:0:
512,160,167215,2,0,B|543:174|512:103|456:119|503:40|448:19,1,138.749992847443
485,16,167528,6,0,L|417:-7,1,71.8416658408006,0|0,3:0|0:0,0:0:0:0:
495,11,167618,6,0,L|517:103,1,71.8416658408006,0|0,3:0|0:0,0:0:0:0:
474,5,167708,6,0,L|384:30,1,71.8416658408006,0|0,3:0|0:0,0:0:0:0:
512,0,167798,6,0,L|496:105,1,71.8416658408006,0|0,3:0|0:0,0:0:0:0:
499,1,167888,1,0,3:0:0:0:
504,162,167978,6,0,P|461:146|418:143,1,80.937496599555,4|0,3:1|0:0,0:0:0:0:
340,19,168128,2,0,B|292:-13|230:7|275:110|161:110,1,208.124997210503,0|0,0:0|0:0,0:0:0:0:
51,49,168428,2,0,B|31:31|39:-1|39:-1|122:-4|163:70|139:167|82:217,1,323.74998639822,2|0,0:0|3:0,0:0:0:0:
224,379,168878,5,10,0:0:0:0:
425,221,169028,2,0,B|420:162|370:88|277:96|277:96|288:170,2,277.49999628067,0|2|0,0:0|0:0|0:0,0:0:0:0:
182,188,169778,6,0,L|79:161,1,80.937496599555,4|0,3:1|0:0,0:0:0:0:
45,357,169928,2,0,B|45:253|45:253|-21:155,1,208.124997210503,0|0,0:0|0:0,0:0:0:0:
31,64,170228,2,0,B|6:24|6:24|57:-42|158:11|133:78,1,242.812489798665,2|0,0:0|0:0,0:0:0:0:
108,223,170528,1,0,3:0:0:0:
439,127,170678,6,0,L|130:100,1,277.49999628067,8|0,0:0|3:0,0:0:0:0:
413,24,171128,1,0,0:0:0:0:
464,355,171278,2,0,B|449:383|449:383|500:349|500:349|484:270,1,173.437491059303,8|0,1:2|0:0,0:0:0:0:
277,139,171578,6,0,L|378:119,1,80.937496599555,4|0,3:1|0:0,0:0:0:0:
512,0,171728,2,0,B|499:52|438:47|385:-4|316:16,1,208.124997210503,0|0,0:0|0:0,0:0:0:0:
186,190,172028,2,0,B|166:208|174:240|174:240|257:243|298:169|274:72|217:22,1,323.74998639822,2|0,0:0|3:0,0:0:0:0:
0,72,172478,5,10,2:0:0:0:
320,22,172628,2,0,B|325:144|334:246|334:246|376:223|389:204,2,277.49999628067,0|2|0,0:0|0:0|0:0,0:0:0:0:
499,250,173378,6,0,L|408:267,1,80.937496599555,4|0,3:1|0:0,0:0:0:0:
182,351,173528,2,0,B|239:260|239:260|220:161,1,208.124997210503,0|0,0:0|0:0,0:0:0:0:
420,111,173828,2,0,B|434:192|361:207|288:187|321:74|216:67,1,277.499985694885,2|0,0:0|0:0,0:0:0:0:
108,170,174128,1,0,3:0:0:0:
463,383,174278,2,0,L|165:364,1,277.49999628067,10|0,0:0|3:0,0:0:0:0:
512,21,174728,6,0,L|460:2,1,46.2499976158142,8|8,0:0|0:0,0:0:0:0:
401,72,174878,2,0,L|341:79,1,46.2499976158142,8|8,0:0|0:0,0:0:0:0:
362,184,175028,2,0,L|327:221,1,46.2499976158142,8|8,0:0|0:0,0:0:0:0:
481,342,175178,6,0,P|449:319|388:317,1,80.937496599555,4|0,3:1|0:0,0:0:0:0:
179,376,175328,2,0,B|112:381|64:356|64:356|59:305|86:262,1,208.124997210503,0|0,0:0|0:0,0:0:0:0:
297,352,175628,2,0,B|360:321|352:223|280:211|280:211|291:259|325:273|370:262|403:214,1,323.74998639822,2|0,0:0|3:0,0:0:0:0:
261,105,176078,5,10,0:0:0:0:
505,2,176228,2,0,B|490:95|440:207|440:207|437:167|410:137,2,277.49999628067,0|2|0,0:0|0:0|0:0,0:0:0:0:
165,0,176978,6,0,L|198:100,1,85.5624952628613,4|0,3:1|0:0,0:0:0:0:
175,275,177128,2,0,B|182:298|182:298|148:310|114:294|114:294|73:244|111:169|123:134,1,256.687485788584,0|0,0:0|0:0,0:0:0:0:
0,298,177428,2,0,B|45:369|143:356|143:356|138:288|203:274,1,256.687485788584,2|0,0:0|0:0,0:0:0:0:
293,355,177728,1,0,3:0:0:0:
189,170,177878,2,0,B|148:-6|148:-6|265:104,1,342.249981051445,10|0,0:0|3:0,0:0:0:0:
512,168,178328,1,0,0:0:0:0:
443,34,178478,6,0,B|431:3|431:3|475:30|475:30|478:76|478:76|447:111|447:111|456:141,1,208.124997210503,4|0,3:1|0:0,0:0:0:0:
464,284,178778,2,0,B|472:336|505:382|505:382|465:355|364:336|364:336|319:352|289:351,1,323.74998639822,4|0,3:1|3:0,0:0:0:0:
90,349,179228,1,0,3:0:0:0:
133,140,179378,2,0,B|137:86|151:49|151:49|93:49|71:48|59:100|66:173,1,277.49999628067,2|8,0:0|0:0,0:0:0:0:
133,382,179828,1,0,0:0:0:0:
1,330,179978,2,0,L|103:296,1,92.4999952316285,0|0,3:0|0:0,0:0:0:0:
240,345,180278,6,0,B|253:384|253:384|306:383|306:383|326:367|326:367|365:376,1,115.624994039536,4|0,3:1|0:0,0:0:0:0:
466,376,180578,2,0,B|404:328|460:273|460:273|484:208|441:117,1,277.49999628067,4|0,3:1|3:0,0:0:0:0:
252,0,181028,1,0,3:0:0:0:
332,197,181178,2,0,B|477:185|477:185|480:241|486:277|436:309,1,277.49999628067,10|8,0:0|0:0,0:0:0:0:
273,371,181628,1,0,0:0:0:0:
342,104,181778,5,12,0:0:0:0:
284,128,181853,1,8,0:0:0:0:
226,152,181928,1,8,0:0:0:0:
168,176,182003,1,8,0:0:0:0:
88,132,182078,6,0,L|91:68,1,46.2499976158142,10|8,1:2|0:0,0:0:0:0:
139,63,182228,2,0,L|146:9,1,46.2499976158142,8|8,0:0|0:0,0:0:0:0:
1,25,182378,6,0,B|139:-28|240:16|271:157|530:87,1,462.499976158142,4|0,3:1|3:0,0:0:0:0:
101,93,182828,2,0,B|63:209|63:209|133:329,1,242.812489798665,2|0,0:0|0:0,0:0:0:0:
38,374,183128,1,0,3:0:0:0:
161,212,183278,6,0,P|232:210|318:229,1,138.749998140335,8|0,0:0|0:0,0:0:0:0:
130,0,183578,2,0,L|210:159,1,138.749998140335,2|0,3:2|0:0,0:0:0:0:
483,352,183878,2,0,B|445:303|445:303|471:261|471:261|462:184|462:184|411:284,1,242.812489798665,8|0,0:0|0:0,0:0:0:0:
371,368,184178,6,0,L|229:382,1,80.937496599555,4|0,3:1|0:0,0:0:0:0:
98,242,184328,2,0,B|81:189|81:189|145:139|206:149|206:149|188:212,1,242.812489798665,0|0,0:0|0:0,0:0:0:0:
11,313,184628,2,0,B|4:358|4:358|96:356|136:319|107:229,1,242.812489798665,2|0,0:0|0:0,0:0:0:0:
0,85,184928,1,0,3:0:0:0:
399,159,185078,2,0,L|522:134,1,115.624994039536,8|0,0:0|0:0,0:0:0:0:
59,309,185378,6,0,B|58:345|58:345|43:347|100:361|100:361|86:292|86:292|106:253,1,173.437491059303,2|0,3:2|0:0,0:0:0:0:
148,137,185678,2,0,B|148:69|148:69|169:42|169:42|178:92|178:92|221:91,1,173.437491059303,8|0,0:0|0:0,0:0:0:0:
335,105,185978,6,0,B|353:82|401:89|445:222|357:298|184:157|85:110|-6:165,1,462.499976158142,4|0,3:1|0:0,0:0:0:0:
243,354,186428,2,0,B|310:252|310:252|252:98,1,242.812489798665,2|0,0:0|0:0,0:0:0:0:
316,30,186728,1,0,3:0:0:0:
147,232,186878,6,0,P|91:286|36:313,1,138.749998140335,10|0,0:0|0:0,0:0:0:0:
186,122,187178,2,0,P|128:46|71:20,1,138.749998140335,2|0,3:2|0:0,0:0:0:0:
272,384,187478,2,0,B|370:359|370:359|459:382|459:382|393:327,1,242.812489798665,10|0,0:0|0:0,0:0:0:0:
382,143,187778,6,0,B|373:144|373:144|426:-5,1,161.87499319911,4|0,3:1|0:0,0:0:0:0:
285,270,188078,1,0,3:0:0:0:
81,70,188228,2,0,B|164:19|290:35|290:35|316:95|275:152,1,323.74998639822,2|0,3:2|3:0,0:0:0:0:
61,320,188678,2,0,B|119:361|119:361|51:260,1,173.437491059303,8|0,0:0|0:0,0:0:0:0:
134,157,188978,5,8,3:2:0:0:
170,181,189053,1,8,0:0:0:0:
207,208,189128,1,8,0:0:0:0:
239,229,189203,1,8,0:0:0:0:
308,204,189278,6,0,L|282:277,1,57.8124970197678,10|0,0:0|0:0,0:0:0:0:
352,289,189428,2,0,L|364:375,1,57.8124970197678,10|0,0:0|0:0,0:0:0:0:
309,358,189578,6,0,B|258:378|147:349|144:157|358:186|393:108|364:13,1,462.499976158142,4|0,3:1|3:0,0:0:0:0:
115,194,190028,2,0,B|269:157|269:157|382:212,1,242.812489798665,2|0,0:0|0:0,0:0:0:0:
451,172,190328,1,0,3:0:0:0:
169,342,190478,6,0,P|76:329|7:294,1,138.749998140335,10|0,0:0|0:0,0:0:0:0:
353,216,190778,2,0,P|294:294|290:367,1,138.749998140335,2|0,3:2|0:0,0:0:0:0:
244,30,191078,2,0,B|172:71|172:71|69:46|69:46|156:32|156:32,1,242.812489798665,8|0,0:0|0:0,0:0:0:0:
154,166,191378,6,0,L|274:142,1,80.937496599555,4|0,3:1|0:0,0:0:0:0:
465,49,191528,2,0,B|482:12|482:12|409:-15|331:43|368:128,1,242.812489798665,0|0,0:0|0:0,0:0:0:0:
455,30,191828,2,0,B|465:115|487:216|487:216|459:195|431:189,1,242.812489798665,2|0,3:2|0:0,0:0:0:0:
241,181,192128,1,0,2:0:0:0:
475,351,192278,2,0,L|371:326,1,92.4999952316285,8|0,0:0|0:0,0:0:0:0:
270,384,192578,2,0,L|172:379,1,92.4999952316285,2|0,3:2|0:0,0:0:0:0:
19,373,192878,5,8,0:0:0:0:
49,298,192953,1,8,0:0:0:0:
79,223,193028,1,8,0:0:0:0:
109,148,193103,1,8,0:0:0:0:
34,60,193178,6,0,B|205:29|205:29|372:53,1,312.187495815754,4|0,3:2|0:0,0:0:0:0:
458,86,193478,1,2,3:2:0:0:
248,363,193628,6,0,L|297:-22,1,346.874982118607,2|0,0:0|0:0,0:0:0:0:
79,38,193928,2,0,B|115:93|115:93|107:160,1,120.249988296509,2|0,3:2|0:0,0:0:0:0:
31,369,194078,6,0,B|56:253|168:240|220:383|389:337,1,381.562483969331,8|0,0:0|0:0,0:0:0:0:
452,52,194378,2,0,B|440:-8|511:-16|511:-16|564:77|531:184|432:211,1,381.562483969331,10|0,0:0|0:0,0:0:0:0:
281,51,194678,2,0,L|30:27,1,208.124997210503,8|0,0:0|0:0,0:0:0:0:
0,271,194978,6,0,B|74:204|164:212|209:384|252:390|396:367,1,416.249994421005,8|0,0:0|0:0,0:0:0:0:
512,221,195278,1,8,0:0:0:0:
322,34,195428,2,0,B|274:52|251:168|473:168|497:326|397:408,1,416.249994421005,8|0,0:0|0:0,0:0:0:0:
153,371,195728,1,0,3:0:0:0:
418,103,195878,2,0,L|108:54,1,254.374989312887,0|2,3:0|0:0,0:0:0:0:
7,379,196178,5,0,0:0:0:0:
79,327,196253,1,0,3:2:0:0:
150,276,196328,1,0,3:2:0:0:
221,224,196403,1,0,3:2:0:0:
293,172,196478,1,12,3:2:0:0:
365,120,196553,1,8,3:2:0:0:
435,69,196628,1,8,3:2:0:0:
506,18,196703,1,8,3:2:0:0:
362,11,196778,6,0,L|260:45,1,80.937496599555,4|0,3:1|0:0,0:0:0:0:
55,0,196928,2,0,B|23:48|43:110|146:65|146:179,1,208.124997210503,0|0,0:0|0:0,0:0:0:0:
42,363,197228,2,0,B|31:371|-14:374|-14:374|-44:330|0:256|95:225|168:247,1,323.74998639822,2|0,0:0|3:0,0:0:0:0:
350,368,197678,5,10,0:0:0:0:
512,189,197828,2,0,B|408:197|319:252|319:252|312:210|276:177,2,277.49999628067,0|2|0,0:0|0:0|0:0,0:0:0:0:
235,261,198578,6,0,L|127:212,1,80.937496599555,4|0,3:1|0:0,0:0:0:0:
49,73,198728,2,0,B|66:172|66:172|17:284,1,208.124997210503,0|0,0:0|0:0,0:0:0:0:
164,108,199028,2,0,B|231:118|231:118|234:-9|103:15,1,242.812489798665,2|0,0:0|0:0,0:0:0:0:
0,146,199328,1,0,3:0:0:0:
367,202,199478,6,0,L|58:229,1,277.49999628067,8|0,0:0|3:0,0:0:0:0:
354,298,199928,1,0,0:0:0:0:
362,31,200078,2,0,B|347:3|347:3|398:37|398:37|382:116,1,173.437491059303,8|0,1:2|0:0,0:0:0:0:
512,218,200378,6,0,L|424:235,1,80.937496599555,4|0,3:1|0:0,0:0:0:0:
249,189,200528,2,0,B|153:179|173:260|102:285|36:243,1,208.124997210503,0|0,0:0|0:0,0:0:0:0:
126,43,200828,2,0,B|106:25|114:-7|114:-7|197:-10|238:64|214:161|157:211,1,323.74998639822,2|0,0:0|3:0,0:0:0:0:
0,91,201278,5,10,0:0:0:0:
107,351,201428,2,0,B|278:290|278:290|244:308|231:346|260:378,2,277.49999628067,0|2|0,0:0|0:0|0:0,0:0:0:0:
472,384,202178,6,0,P|469:343|455:293,1,92.4999952316285,4|0,3:1|0:0,0:0:0:0:
379,123,202328,2,0,B|376:62|421:12|421:12|478:65|480:125,1,242.812489798665,2|0,0:0|0:0,0:0:0:0:
315,268,202628,2,0,B|161:278|240:153|177:79|0:175,1,346.874982118607,2|0,0:0|0:0,0:0:0:0:
0,384,202928,1,0,3:0:0:0:
65,0,203078,2,0,L|138:407,1,369.999980926514,14|0,0:0|3:0,0:0:0:0:
354,35,203528,6,0,L|428:14,1,69.3749990701676,8|8,0:0|0:0,0:0:0:0:
489,118,203678,2,0,L|421:103,1,69.3749990701676,8|8,0:0|0:0,0:0:0:0:
355,160,203828,2,0,L|396:215,1,69.3749990701676,8|8,0:0|0:0,0:0:0:0:
464,375,203978,6,0,P|470:335|493:303,1,80.937496599555,4|0,3:1|0:0,0:0:0:0:
222,334,204128,2,0,P|135:331|21:294,1,208.124997210503,0|0,0:0|0:0,0:0:0:0:
174,151,204428,2,0,B|185:72|134:9|65:10|65:10|28:39|51:131,1,323.74998639822,2|0,0:0|3:0,0:0:0:0:
255,0,204878,5,10,0:0:0:0:
322,197,205028,2,0,B|312:290|223:286|240:376|240:376|291:369|209:280,2,277.49999628067,0|2|0,0:0|0:0|0:0,0:0:0:0:
124,202,205778,6,0,L|211:185,1,80.937496599555,4|0,3:1|0:0,0:0:0:0:
500,255,205928,2,0,B|507:278|507:278|473:290|439:274|439:274|398:224|436:149|448:114,1,242.812489798665,0|0,0:0|0:0,0:0:0:0:
351,352,206228,2,0,B|419:320|420:249|420:249|365:194|370:103,1,242.812489798665,2|0,0:0|0:0,0:0:0:0:
512,0,206528,1,0,3:0:0:0:
245,25,206678,2,0,B|127:105|127:105|324:71,1,323.74998639822,10|0,0:0|0:0,0:0:0:0:
110,262,207128,1,0,0:0:0:0:
29,179,207278,6,0,B|7:168|7:168|41:230|41:230|103:233|103:233|131:192,1,208.124997210503,4|0,3:1|0:0,0:0:0:0:
160,64,207578,2,0,B|129:78|93:57|93:57|152:-12|204:16|204:16|263:42|338:35,1,323.74998639822,4|0,3:1|3:0,0:0:0:0:
512,0,208028,1,0,3:0:0:0:
379,211,208178,2,0,B|352:242|361:333|409:385|409:385|424:327|465:319|519:345,1,277.49999628067,2|8,0:0|0:0,0:0:0:0:
187,375,208628,1,0,0:0:0:0:
240,267,208778,2,0,L|274:369,1,92.4999952316285,0|0,3:0|0:0,0:0:0:0:
39,353,209078,6,0,B|35:317|35:317|81:292|81:292|96:240|96:240|84:201,1,173.437491059303,4|0,3:1|0:0,0:0:0:0:
58,0,209378,2,0,B|66:39|44:95|44:95|108:81|178:107|231:177,1,277.49999628067,4|0,3:1|3:0,0:0:0:0:
175,329,209828,1,0,3:0:0:0:
422,264,209978,2,0,B|496:224|496:224|471:152|381:124|324:201,1,277.49999628067,10|8,0:0|0:0,0:0:0:0:
436,384,210428,1,0,0:0:0:0:
252,262,210578,5,12,0:0:0:0:
291,212,210653,1,8,0:0:0:0:
330,163,210728,1,8,0:0:0:0:
369,114,210803,1,8,0:0:0:0:
278,109,210878,6,0,L|212:89,1,46.2499976158142,10|8,1:2|0:0,0:0:0:0:
213,161,211028,2,0,L|148:174,1,46.2499976158142,8|8,0:0|0:0,0:0:0:0:
119,97,211178,6,0,B|141:175|354:177|403:120|403:120|399:76|307:74|329:-27,1,462.499976158142,4|0,3:1|3:0,0:0:0:0:
480,173,211628,2,0,B|386:252|386:252|393:399,1,242.812489798665
512,374,211928,1,0,3:0:0:0:
198,223,212078,6,0,P|139:169|108:87,1,138.749998140335,8|0,0:0|0:0,0:0:0:0:
381,40,212378,2,0,P|455:26|518:-4,1,138.749998140335,2|0,3:2|0:0,0:0:0:0:
59,26,212678,2,0,B|100:100|100:100|88:219|88:219|58:194,1,242.812489798665,8|0,0:0|0:0,0:0:0:0:
169,15,212978,6,0,L|187:108,1,80.937496599555,4|0,3:1|0:0,0:0:0:0:
119,322,213128,2,0,B|94:392|-21:361|-21:361|-38:343|35:278,1,242.812489798665
265,384,213428,2,0,B|223:307|243:222|243:222|193:224|188:282,1,242.812489798665,2|0,0:0|0:0,0:0:0:0:
345,355,213728,1,0,3:0:0:0:
47,279,213878,2,0,L|67:156,1,115.624994039536,8|0,0:0|0:0,0:0:0:0:
65,16,214178,6,0,B|83:29|90:70|90:70|115:36|166:22|166:22|176:49|201:65,1,173.437491059303,2|0,3:2|0:0,0:0:0:0:
470,76,214478,2,0,B|484:71|492:61|492:61|463:38|449:17|448:17|448:17|404:19|378:64,1,173.437491059303,8|0,0:0|0:0,0:0:0:0:
496,189,214778,6,0,B|511:284|366:346|274:154|62:289,1,462.499976158142,4|0,3:1|0:0,0:0:0:0:
323,350,215228,2,0,B|355:370|397:342|397:342|322:277|334:183,1,242.812489798665,2|0,0:0|0:0,0:0:0:0:
419,31,215528,1,0,3:0:0:0:
253,337,215678,6,0,P|325:336|421:311,1,138.749998140335,10|0,0:0|0:0,0:0:0:0:
61,183,215978,2,0,P|66:102|53:25,1,138.749998140335,2|0,3:2|0:0,0:0:0:0:
471,223,216278,2,0,B|446:125|446:125|469:36|469:36|414:102,1,242.812489798665,10|0,0:0|0:0,0:0:0:0:
221,288,216578,6,0,B|215:294|215:294|367:317,1,161.87499319911,4|0,3:1|0:0,0:0:0:0:
180,38,216877,1,0,3:0:0:0:
42,252,217028,2,0,B|48:199|7:156|7:156|125:222|310:190,1,404.687482997775,2|0,3:2|0:0,0:0:0:0:
465,42,217478,2,0,B|420:-12|420:-12|460:103,1,173.437491059303,8|0,0:0|0:0,0:0:0:0:
394,150,217778,5,8,3:2:0:0:
345,177,217853,1,8,0:0:0:0:
308,204,217928,1,8,0:0:0:0:
276,225,218003,1,8,0:0:0:0:
278,313,218078,6,0,L|199:278,1,57.8124970197678,10|0,3:2|0:0,0:0:0:0:
201,338,218228,2,0,L|132:356,1,57.8124970197678,10|0,0:0|0:0,0:0:0:0:
114,282,218378,6,0,B|54:180|266:51|277:245|430:132|438:52|333:-21,1,462.499976158142,4|0,3:1|3:0,0:0:0:0:
411,218,218828,2,0,B|436:297|437:372|437:372|448:320|499:294,1,242.812489798665
284,384,219128,1,0,3:0:0:0:
169,42,219278,6,0,P|76:55|7:90,1,138.749998140335,10|0,0:0|0:0,0:0:0:0:
343,195,219578,2,0,P|342:261|356:364,1,138.749998140335,2|0,3:2|0:0,0:0:0:0:
31,351,219878,2,0,B|-10:279|-10:279|15:176|15:176|29:263,1,242.812489798665,8|0,0:0|0:0,0:0:0:0:
142,360,220178,6,0,L|237:343,1,80.937496599555,4|0,3:1|0:0,0:0:0:0:
502,341,220328,2,0,B|543:295|536:222|502:171|502:171|441:194,1,242.812489798665,0|0,0:0|0:0,0:0:0:0:
467,364,220628,2,0,B|382:361|309:297|309:297|247:309|212:333,1,242.812489798665,2|0,3:2|0:0,0:0:0:0:
105,379,220928,1,0,2:0:0:0:
229,47,221078,2,0,L|321:60,1,92.4999952316285,8|0,0:0|0:0,0:0:0:0:
103,202,221378,6,0,L|385:154,1,242.812489798665,4|0,3:1|0:0,0:0:0:0:
363,343,221678,5,4,3:1:0:0:
302,261,221753,1,8,0:0:0:0:
241,179,221828,1,8,0:0:0:0:
180,97,221903,1,8,0:0:0:0:
137,232,221978,1,12,0:0:0:0:
256,192,222053,12,0,236378,0:0:0:0:
