osu file format v14

[General]
AudioFilename: audio.mp3
AudioLeadIn: 0
PreviewTime: 47385
Countdown: 0
SampleSet: Soft
StackLeniency: 0.6
Mode: 0
LetterboxInBreaks: 0
WidescreenStoryboard: 1

[Editor]
Bookmarks: 1895,13124,16724,23332,48261,49161,77949,110349,139149,153549,164349,167949,182349,202137,203937
DistanceSpacing: 1.7
BeatDivisor: 4
GridSize: 32
TimelineZoom: 3.399999

[Metadata]
Title:-ERROR 2018ver.
TitleUnicode:-ERROR 2018ver.
Artist:cillia feat. Namine Ritsu
ArtistUnicode:シリア feat. 波音リツ
Creator:Bashe
Version:Nao's Insane
Source:
Tags:utau kyaami vocaloid cover niki Aeril Nao_Tomori nao tomori naotoshi -Sylvari yukiya frogyfro japanese
BeatmapID:2143883
BeatmapSetID:986100

[Difficulty]
HPDrainRate:5.4
CircleSize:3.8
OverallDifficulty:8
ApproachRate:9
SliderMultiplier:1.55999990463257
SliderTickRate:1

[Events]
//Background and Video events
0,0,"bg.jpg",0,0
//Break Periods
//Storyboard Layer 0 (Background)
//Storyboard Layer 1 (Fail)
//Storyboard Layer 2 (Pass)
//Storyboard Layer 3 (Foreground)
//Storyboard Layer 4 (Overlay)
//Storyboard Sound Samples

[TimingPoints]
-4835,300,6,2,1,60,1,0
16765,-133.333333333333,6,2,1,55,0,0
45264,-133.333333333333,6,2,1,65,0,0
45565,-117.647058823529,6,2,1,65,0,0
47364,-117.647058823529,6,2,1,70,0,0
47365,-100,6,2,1,70,0,0
48265,-133.333333333333,6,2,1,70,0,0
49165,-83.3333333333333,6,2,1,80,0,0
76464,-83.3333333333333,6,2,1,65,0,0
76765,-83.3333333333333,6,2,1,80,0,0
77965,-133.333333333333,6,2,1,55,0,0
83064,-133.333333333333,6,2,1,35,0,0
83364,-133.333333333333,6,2,1,55,0,0
84864,-133.333333333333,6,2,1,35,0,0
85164,-133.333333333333,6,2,1,55,0,0
106764,-133.333333333333,6,2,1,65,0,0
108564,-133.333333333333,6,2,1,75,0,0
108565,-117.647058823529,6,2,1,75,0,0
109465,-333.333333333333,6,2,1,75,0,0
110365,-83.3333333333333,6,2,1,80,0,0
139165,-90.9090909090909,6,2,1,70,0,0
166165,-200,6,2,1,70,0,0
166914,-200,6,2,1,5,0,0
167064,-200,6,2,1,70,0,0
167364,-200,6,2,1,50,0,0
167514,-200,6,2,1,30,0,0
167528,270.27027027027,6,2,1,60,1,0
167978,300,6,2,1,80,1,1
167978,-83.3333333333333,6,2,1,80,0,0
193178,-83.3333333333333,6,2,1,70,0,0
196777,-83.3333333333333,6,2,1,80,0,0
202177,-83.3333333333333,6,2,1,80,0,0
203977,-83.3333333333333,6,2,1,80,0,0
222128,-83.3333333333333,6,2,1,50,0,0
225127,-83.3333333333333,6,2,1,5,0,0

[Colours]
Combo1 : 255,170,255
Combo2 : 255,175,178
Combo3 : 151,207,244
Combo4 : 254,146,117

[HitObjects]
43,246,565,5,2,0:0:0:0:
96,118,715,1,0,0:0:0:0:
195,217,865,1,2,0:0:0:0:
118,207,1015,6,0,P|192:196|304:174,1,155.999990463257,2|2,0:0|0:0,0:0:0:0:
412,266,1465,2,0,B|359:251|359:251|305:299|234:281,1,155.999990463257,2|0,2:0|3:0,0:0:0:0:
487,328,1915,1,8,0:0:0:0:
487,328,1990,1,8,0:0:0:0:
487,328,2065,2,0,L|506:272,1,38.9999976158143,8|8,0:0|0:0,0:0:0:0:
398,137,2215,2,0,L|409:192,1,38.9999976158143,8|8,0:0|0:0,0:0:0:0:
267,285,2365,6,0,B|191:269|191:269|92:301,1,155.999990463257,4|0,3:1|3:0,0:0:0:0:
29,236,2815,1,0,3:0:0:0:
112,105,2965,2,0,P|124:157|106:209,1,77.9999952316285,2|0,0:0|3:0,0:0:0:0:
181,345,3265,2,0,P|177:306|189:270,1,77.9999952316285,8|0,0:0|0:0,0:0:0:0:
302,170,3565,5,2,0:0:0:0:
392,228,3715,2,0,L|499:219,1,77.9999952316285,0|2,3:0|0:0,0:0:0:0:
326,315,4015,1,0,3:0:0:0:
405,105,4165,6,0,B|454:71|521:92|521:92|483:132,1,155.999990463257,4|0,3:1|3:0,0:0:0:0:
359,18,4615,1,0,3:0:0:0:
304,98,4765,2,0,L|222:93,1,77.9999952316285,2|0,0:0|3:0,0:0:0:0:
7,192,5065,6,0,P|-6:224|8:282,1,77.9999952316285,8|0,0:0|0:0,0:0:0:0:
166,282,5365,2,0,P|179:250|165:192,1,77.9999952316285,2|0,0:0|3:0,0:0:0:0:
88,240,5665,1,2,3:2:0:0:
88,240,5815,1,0,0:0:0:0:
268,275,5965,6,0,P|402:259|453:251,1,155.999990463257,4|0,3:1|3:0,0:0:0:0:
368,169,6415,1,0,3:0:0:0:
293,358,6565,2,0,P|238:358|208:339,1,77.9999952316285,2|0,0:0|3:0,0:0:0:0:
103,184,6865,6,0,P|189:204|267:144,1,155.999990463257,8|2,0:0|3:2,0:0:0:0:
173,111,7315,1,0,3:0:0:0:
89,286,7465,2,0,L|-13:291,1,77.9999952316285,2|0,0:0|3:0,0:0:0:0:
263,352,7765,6,0,B|318:331|318:331|430:363,1,155.999990463257,4|0,3:1|3:0,0:0:0:0:
507,302,8215,1,0,3:0:0:0:
423,178,8365,2,0,L|423:277,1,77.9999952316285,0|0,3:0|3:0,0:0:0:0:
354,117,8665,6,0,P|414:88|505:135,1,155.999990463257,10|2,0:0|3:2,0:0:0:0:
316,26,9115,1,8,0:0:0:0:
244,98,9265,2,0,B|207:111|207:111|144:95,1,77.9999952316285,2|0,3:2|0:0,0:0:0:0:
16,242,9565,6,0,B|98:228|86:297|190:272,1,155.999990463257,4|0,3:1|3:0,0:0:0:0:
348,212,10015,1,0,3:0:0:0:
248,221,10165,2,0,P|257:258|261:297,1,77.9999952316285,2|0,0:0|3:0,0:0:0:0:
438,128,10465,6,0,P|442:89|448:46,1,77.9999952316285,8|0,0:0|0:0,0:0:0:0:
348,212,10765,2,0,P|344:173|338:129,1,77.9999952316285,2|0,3:2|0:0,0:0:0:0:
439,302,11065,2,0,P|442:263|448:219,1,77.9999952316285,2|0,3:2|0:0,0:0:0:0:
263,347,11365,6,0,B|201:327|201:327|159:361|96:348,1,155.999990463257,4|0,3:1|3:0,0:0:0:0:
48,241,11815,1,0,3:0:0:0:
119,186,11965,2,0,P|137:249|127:286,1,77.9999952316285,2|0,0:0|3:0,0:0:0:0:
61,94,12265,6,0,L|157:79,1,77.9999952316285,8|0,0:0|0:0,0:0:0:0:
289,139,12565,2,0,L|212:152,1,77.9999952316285,2|0,3:2|0:0,0:0:0:0:
330,51,12865,1,2,3:2:0:0:
394,122,13015,1,0,0:0:0:0:
212,152,13165,6,0,B|160:160|160:160|136:180|136:180|39:199,1,155.999990463257,4|2,3:1|3:2,0:0:0:0:
6,274,13615,1,0,3:0:0:0:
91,333,13765,2,0,P|142:325|185:344,1,77.9999952316285,10|4,0:0|3:0,0:0:0:0:
268,222,14065,6,0,L|262:311,1,77.9999952316285,10|0,0:0|0:0,0:0:0:0:
364,349,14365,2,0,L|370:272,1,77.9999952316285,2|0,3:2|0:0,0:0:0:0:
381,98,14665,1,8,0:0:0:0:
512,200,14815,1,8,0:0:0:0:
268,222,14965,6,0,P|204:214|93:204,1,155.999990463257,12|0,3:2|0:0,0:0:0:0:
109,207,15340,1,2,0:0:0:0:
105,208,15415,1,2,0:0:0:0:
101,209,15490,1,2,0:0:0:0:
97,211,15565,1,0,3:0:0:0:
326,352,15865,6,0,P|413:334|498:323,2,155.999990463257,8|0|4,0:0|3:0|3:0,0:0:0:0:
241,305,16615,1,0,0:0:0:0:
109,372,16765,6,0,P|138:351|110:270,1,116.999997310638,2|2,3:2|0:0,0:0:0:0:
30,178,17215,2,0,L|38:294,1,116.999997310638,2|10,3:2|0:0,0:0:0:0:
120,134,17665,2,0,P|118:106|113:69,1,58.4999986553192,8|0,0:0|0:0,0:0:0:0:
207,181,17965,2,0,P|213:153|225:118,1,58.4999986553192,10|0,0:0|0:0,0:0:0:0:
30,178,18265,2,0,P|18:152|1:119,1,58.4999986553192,10|8,0:0|0:0,0:0:0:0:
112,350,18565,6,0,P|117:273|120:209,1,116.999997310638,6|2,3:2|0:0,0:0:0:0:
207,181,19015,2,0,P|210:239|213:297,1,116.999997310638,2|2,3:2|0:0,0:0:0:0:
302,356,19465,2,0,P|355:342|380:345,1,58.4999986553192,8|0,0:0|0:0,0:0:0:0:
494,289,19765,2,0,L|412:274,1,58.4999986553192,8|0,0:0|0:0,0:0:0:0:
363,205,20065,2,0,L|293:212,1,58.4999986553192,8|0,0:0|0:0,0:0:0:0:
275,195,20290,1,0,0:0:0:0:
275,195,20365,6,0,L|137:186,1,116.999997310638,4|2,3:2|0:0,0:0:0:0:
33,259,20815,2,0,B|81:250|81:250|115:286|166:277,1,116.999997310638,0|2,3:2|0:0,0:0:0:0:
215,351,21265,2,0,P|247:347|283:355,1,58.4999986553192,8|0,0:0|0:0,0:0:0:0:
374,263,21565,2,0,L|317:271,1,58.4999986553192,8|0,0:0|0:0,0:0:0:0:
463,329,21865,1,8,0:0:0:0:
463,329,21940,1,8,0:0:0:0:
463,329,22015,1,8,0:0:0:0:
463,329,22090,1,8,0:0:0:0:
463,329,22165,6,0,P|478:263|453:197,1,116.999997310638,4|2,3:2|0:0,0:0:0:0:
380,149,22615,2,0,B|328:168|328:168|251:160,1,116.999997310638,8|0,0:0|3:0,0:0:0:0:
101,227,23065,6,0,P|90:194|85:156,1,58.4999986553192,10|0,0:0|0:0,0:0:0:0:
84,317,23365,2,0,P|60:343|30:366,1,58.4999986553192,8|0,0:0|0:0,0:0:0:0:
171,287,23665,1,10,0:0:0:0:
185,289,23740,1,8,0:0:0:0:
199,292,23815,1,8,0:0:0:0:
213,296,23890,1,8,0:0:0:0:
230,303,23965,6,0,L|361:292,1,116.999997310638,4|8,3:2|0:0,0:0:0:0:
495,205,24415,2,0,B|440:187|440:187|384:204,1,116.999997310638,10|2,0:0|0:0,0:0:0:0:
298,157,24865,2,0,P|284:120|289:82,1,58.4999986553192,8|0,0:0|0:0,0:0:0:0:
198,187,25165,2,0,P|212:224|207:262,1,58.4999986553192,10|0,0:0|0:0,0:0:0:0:
134,314,25465,2,0,L|56:304,1,58.4999986553192,8|0,0:0|0:0,0:0:0:0:
326,361,25765,6,0,P|391:340|443:356,1,116.999997310638,4|0,3:2|0:0,0:0:0:0:
499,255,26215,2,0,B|509:199|509:199|482:121,1,116.999997310638,10|0,0:0|0:0,0:0:0:0:
413,73,26665,2,0,B|358:62|355:101|277:81,1,116.999997310638,10|8,0:0|0:0,0:0:0:0:
130,29,27115,1,8,0:0:0:0:
211,45,27265,2,0,P|208:74|205:104,1,58.4999986553192,10|8,0:0|0:0,0:0:0:0:
46,189,27565,6,0,P|59:238|80:328,1,116.999997310638,4|8,3:2|0:0,0:0:0:0:
185,324,28015,2,0,P|171:267|157:207,1,116.999997310638,10|8,0:0|0:0,0:0:0:0:
228,126,28465,2,0,L|240:66,1,58.4999986553192,8|0,3:2|0:0,0:0:0:0:
268,56,28690,1,2,0:0:0:0:
268,56,28765,2,0,P|279:11|278:-15,1,58.4999986553192,10|0,0:0|0:0,0:0:0:0:
334,118,29065,1,10,0:0:0:0:
337,132,29140,1,8,0:0:0:0:
341,146,29215,1,8,0:0:0:0:
344,160,29290,1,8,0:0:0:0:
350,174,29365,6,0,L|478:165,1,116.999997310638,4|8,3:2|0:0,0:0:0:0:
374,267,29815,2,0,P|331:282|291:281,1,58.4999986553192,10|0,0:0|0:0,0:0:0:0:
230,241,30115,1,10,0:0:0:0:
36,295,30265,2,0,B|77:314|77:314|110:296|160:301,2,116.999997310638,10|8|10,0:0|0:0|0:0,0:0:0:0:
63,175,31015,1,8,0:0:0:0:
63,175,31090,1,8,0:0:0:0:
63,175,31165,6,0,P|108:192|186:156,1,116.999997310638,4|10,3:2|0:2,0:0:0:0:
262,81,31615,2,0,L|280:207,1,116.999997310638,10|10,0:0|0:0,0:0:0:0:
364,265,32065,2,0,P|412:255|443:259,1,58.4999986553192,2|0,3:2|0:0,0:0:0:0:
285,316,32365,2,0,L|206:304,1,58.4999986553192,10|0,0:0|0:0,0:0:0:0:
365,365,32665,2,0,L|433:356,1,58.4999986553192,10|8,0:0|0:0,0:0:0:0:
199,222,32965,6,0,P|156:247|138:318,1,116.999997310638,4|2,3:2|0:0,0:0:0:0:
294,225,33415,2,0,L|322:97,1,116.999997310638,10|10,0:0|0:0,0:0:0:0:
393,225,33865,2,0,L|409:291,1,58.4999986553192,8|0,3:2|0:0,0:0:0:0:
480,164,34165,2,0,P|487:135|484:107,1,58.4999986553192,10|0,0:0|0:0,0:0:0:0:
391,9,34465,1,10,0:0:0:0:
391,9,34540,1,8,2:0:0:0:
391,9,34615,1,8,2:0:0:0:
391,9,34690,1,8,2:0:0:0:
391,9,34765,6,0,B|371:50|371:50|390:140,1,116.999997310638,6|2,3:2|0:0,0:0:0:0:
304,203,35215,2,0,P|248:211|180:224,1,116.999997310638,10|2,0:0|0:0,0:0:0:0:
96,179,35665,2,0,P|70:150|51:115,1,58.4999986553192,8|0,0:0|0:0,0:0:0:0:
103,284,35965,2,0,P|90:321|70:354,1,58.4999986553192,8|0,0:0|0:0,0:0:0:0:
188,222,36265,2,0,P|226:213|265:215,1,58.4999986553192,2|8,0:0|0:0,0:0:0:0:
275,224,36490,1,8,0:0:0:0:
275,224,36565,6,0,P|329:245|399:228,1,116.999997310638,4|2,3:2|0:0,0:0:0:0:
234,313,37015,2,0,B|200:326|200:326|104:305,1,116.999997310638,0|8,3:2|0:0,0:0:0:0:
310,376,37465,2,0,L|380:368,1,58.4999986553192,8|0,0:0|0:0,0:0:0:0:
494,298,37765,2,0,P|451:284|415:294,1,58.4999986553192,8|0,0:0|0:0,0:0:0:0:
345,225,38065,1,8,0:0:0:0:
340,210,38140,1,0,0:0:0:0:
336,196,38215,1,8,0:0:0:0:
332,182,38290,1,8,0:0:0:0:
329,168,38365,6,0,P|329:127|336:35,1,116.999997310638,4|8,3:2|0:0,0:0:0:0:
208,100,38815,2,0,P|213:158|214:217,1,116.999997310638,10|2,0:0|0:0,0:0:0:0:
136,299,39265,2,0,P|127:347|123:382,1,58.4999986553192,2|0,3:2|0:0,0:0:0:0:
41,257,39565,2,0,L|32:185,1,58.4999986553192,10|0,0:0|0:0,0:0:0:0:
108,106,39865,1,8,0:0:0:0:
108,106,39940,1,8,0:0:0:0:
108,106,40015,1,8,0:0:0:0:
108,106,40090,1,8,0:0:0:0:
108,106,40165,6,0,P|126:43|101:-10,1,116.999997310638,4|0,3:2|0:0,0:0:0:0:
214,96,40615,2,0,B|280:84|256:128|338:112,1,116.999997310638,10|0,0:0|0:0,0:0:0:0:
412,44,41065,2,0,L|432:171,2,116.999997310638,10|8|2,0:0|0:0|0:0,0:0:0:0:
512,76,41815,1,8,0:0:0:0:
326,113,41965,6,0,P|263:100|195:91,1,116.999997310638,4|8,3:2|0:0,0:0:0:0:
13,193,42415,2,0,L|147:181,1,116.999997310638,10|8,0:0|0:0,0:0:0:0:
220,255,42865,2,0,P|274:260|291:253,1,58.4999986553192,8|0,3:2|0:0,0:0:0:0:
139,324,43165,2,0,L|64:332,1,58.4999986553192,10|0,0:0|0:0,0:0:0:0:
246,362,43465,1,10,0:0:0:0:
246,362,43540,1,8,0:0:0:0:
246,362,43615,1,8,0:0:0:0:
246,362,43690,1,8,0:0:0:0:
246,362,43765,6,0,B|297:352|297:352|372:372,1,116.999997310638,6|0,3:2|0:0,0:0:0:0:
459,312,44215,2,0,P|462:252|462:175,1,116.999997310638,8|0,0:0|0:0,0:0:0:0:
385,128,44665,2,0,L|373:50,1,58.4999986553192,10|0,0:0|0:0,0:0:0:0:
461,24,44965,2,0,P|472:52|469:81,1,58.4999986553192,8|0,0:0|0:0,0:0:0:0:
301,185,45265,2,0,P|290:157|292:127,1,58.4999986553192,10|0,0:0|0:0,0:0:0:0:
268,101,45490,1,2,3:2:0:0:
268,101,45565,6,0,B|222:123|222:123|183:100|121:108,1,132.599994422913,4|0,3:2|0:0,0:0:0:0:
34,192,46015,2,0,B|70:213|70:213|185:190,1,132.599994422913,10|0,0:0|0:0,0:0:0:0:
298,295,46465,2,0,L|152:288,1,132.599994422913,4|8,3:2|0:0,0:0:0:0:
320,203,46915,1,0,0:0:0:0:
384,368,47065,1,10,0:0:0:0:
411,264,47215,1,8,0:0:0:0:
411,264,47290,1,8,0:0:0:0:
411,264,47365,6,0,P|424:197|396:108,1,155.999990463257,4|0,3:1|0:0,0:0:0:0:
235,125,47815,2,0,P|222:192|250:281,1,155.999990463257,8|8,0:0|0:0,0:0:0:0:
148,353,48265,2,0,L|69:346,2,58.4999986553192,10|2|2,0:0|0:0|0:0,0:0:0:0:
325,195,48715,5,2,0:0:0:0:
325,195,48865,1,2,0:0:0:0:
198,161,49015,1,0,3:2:0:0:
198,161,49090,1,0,3:2:0:0:
198,161,49165,6,0,P|126:217|23:188,1,187.199982843018,4|0,3:1|3:0,0:0:0:0:
236,302,49615,1,2,0:0:0:0:
236,302,49690,1,2,0:0:0:0:
236,302,49765,2,0,P|304:288|351:282,1,93.5999914215092,0|0,3:0|3:0,0:0:0:0:
490,168,50065,2,0,P|363:160|274:140,1,187.199982843018,10|0,0:0|0:0,0:0:0:0:
148,229,50515,1,2,0:0:0:0:
168,62,50665,1,8,3:2:0:0:
236,237,50815,1,8,0:0:0:0:
236,237,50890,1,8,0:0:0:0:
236,237,50965,6,0,B|325:227|378:219|378:219|301:195,1,187.199982843018,4|0,3:1|3:0,0:0:0:0:
164,320,51415,2,0,P|104:331|18:208,1,187.199982843018,2|0,0:0|3:0,0:0:0:0:
103,54,51865,2,0,L|96:159,1,93.5999914215092,8|0,0:0|0:0,0:0:0:0:
250,208,52165,2,0,L|256:114,1,93.5999914215092,0|0,3:0|0:0,0:0:0:0:
390,28,52465,1,8,1:2:0:0:
390,28,52540,1,8,0:0:0:0:
390,28,52615,1,8,0:0:0:0:
390,28,52690,1,8,0:0:0:0:
390,28,52765,6,0,B|410:102|410:102|401:128|401:128|432:243,1,187.199982843018,4|0,3:1|3:0,0:0:0:0:
324,330,53215,1,2,0:0:0:0:
324,330,53290,1,2,0:0:0:0:
324,330,53365,2,0,P|254:312|212:324,1,93.5999914215092,0|0,3:0|3:0,0:0:0:0:
0,196,53665,2,0,B|63:183|63:183|111:233|217:214,1,187.199982843018,10|0,0:0|3:0,0:0:0:0:
295,133,54115,1,2,0:0:0:0:
162,83,54265,1,8,3:2:0:0:
275,232,54415,1,8,0:0:0:0:
275,232,54490,1,8,0:0:0:0:
275,232,54565,6,0,B|366:202|366:202|477:243,1,187.199982843018,4|0,3:1|3:0,0:0:0:0:
208,327,55015,2,0,P|162:266|201:142,1,187.199982843018,2|0,0:0|3:0,0:0:0:0:
319,7,55465,2,0,L|334:112,1,93.5999914215092,10|0,0:0|0:0,0:0:0:0:
459,142,55765,1,0,3:0:0:0:
275,232,55915,5,8,0:0:0:0:
243,229,55990,1,8,0:0:0:0:
212,227,56065,1,8,0:0:0:0:
181,225,56140,1,8,0:0:0:0:
150,223,56215,1,8,0:0:0:0:
119,220,56290,1,8,0:0:0:0:
88,218,56365,6,0,B|50:127|131:132|75:10,1,187.199982843018,4|0,3:1|3:0,0:0:0:0:
25,298,56815,1,2,0:0:0:0:
25,298,56890,1,2,0:0:0:0:
25,298,56965,2,0,P|86:321|146:303,1,93.5999914215092,0|0,3:0|3:0,0:0:0:0:
353,302,57265,2,0,P|278:290|217:394,1,187.199982843018,10|0,0:0|3:0,0:0:0:0:
320,186,57715,1,2,0:0:0:0:
191,149,57865,2,0,L|180:242,1,93.5999914215092,8|0,0:0|0:0,0:0:0:0:
107,72,58165,6,0,B|200:43|200:43|301:97,1,187.199982843018,4|0,3:1|3:0,0:0:0:0:
463,26,58615,1,2,0:0:0:0:
463,26,58690,1,2,0:0:0:0:
463,26,58765,2,0,P|439:72|441:132,1,93.5999914215092,0|0,3:0|3:0,0:0:0:0:
404,318,59065,6,0,L|382:219,1,93.5999914215092,10|0,0:0|0:0,0:0:0:0:
224,195,59365,2,0,L|244:286,1,93.5999914215092,0|0,3:0|0:0,0:0:0:0:
129,367,59665,1,4,3:1:0:0:
129,367,59740,1,0,3:0:0:0:
129,367,59815,1,0,3:0:0:0:
129,367,59890,1,0,3:0:0:0:
129,367,59965,6,0,B|76:288|76:288|98:171,1,187.199982843018,4|8,3:1|2:0,0:0:0:0:
114,18,60415,1,0,3:0:0:0:
44,88,60565,2,0,P|106:115|153:112,1,93.5999914215092,2|0,0:0|3:0,0:0:0:0:
352,52,60865,2,0,P|290:80|258:123,1,93.5999914215092,8|0,0:0|0:0,0:0:0:0:
492,213,61165,2,0,P|498:145|477:96,1,93.5999914215092,0|0,3:0|0:0,0:0:0:0:
379,169,61465,2,0,B|350:307,1,140.399987132264,4|0,3:1|0:0,0:0:0:0:
416,360,61765,6,0,P|343:329|234:380,1,187.199982843018,4|0,3:1|3:0,0:0:0:0:
57,302,62215,1,0,3:0:0:0:
189,153,62365,2,0,L|179:270,1,93.5999914215092,10|0,0:0|3:0,0:0:0:0:
63,135,62665,2,0,L|47:15,1,93.5999914215092,8|0,0:0|0:0,0:0:0:0:
2,222,62965,1,12,0:0:0:0:
23,231,63040,1,8,0:0:0:0:
46,236,63115,1,8,0:0:0:0:
69,236,63190,1,8,0:0:0:0:
92,233,63265,1,10,1:2:0:0:
114,225,63340,1,8,0:0:0:0:
134,213,63415,1,8,0:0:0:0:
152,198,63490,1,8,0:0:0:0:
169,179,63565,6,0,L|372:161,1,187.199982843018,4|0,3:1|3:0,0:0:0:0:
509,294,64015,2,0,L|322:310,1,187.199982843018,2|0,0:0|3:0,0:0:0:0:
178,372,64465,2,0,P|144:358|62:366,1,93.5999914215092,8|0,0:0|0:0,0:0:0:0:
11,195,64765,2,0,P|40:172|74:97,1,93.5999914215092,2|0,3:2|0:0,0:0:0:0:
247,138,65065,2,0,P|251:174|299:241,1,93.5999914215092,8|0,0:0|0:0,0:0:0:0:
477,367,65365,6,0,P|421:323|299:370,1,187.199982843018,4|0,3:1|3:0,0:0:0:0:
164,272,65815,1,2,0:0:0:0:
164,272,65890,1,2,0:0:0:0:
164,272,65965,2,0,P|147:194|136:147,1,93.5999914215092,0|0,3:0|3:0,0:0:0:0:
274,35,66265,2,0,L|267:154,1,93.5999914215092,8|0,0:0|0:0,0:0:0:0:
386,236,66565,2,0,P|462:254|508:239,1,93.5999914215092,2|0,3:2|0:0,0:0:0:0:
308,353,66865,1,8,0:0:0:0:
308,353,66940,1,0,3:0:0:0:
308,353,67015,1,0,3:0:0:0:
308,353,67090,1,0,3:0:0:0:
308,353,67165,6,0,B|220:329|220:329|109:362,1,187.199982843018,4|0,3:1|0:0,0:0:0:0:
4,255,67615,2,0,P|-16:200|72:108,1,187.199982843018,2|0,0:0|3:0,0:0:0:0:
216,203,68065,2,0,L|106:209,1,93.5999914215092,10|0,0:0|0:0,0:0:0:0:
335,107,68365,2,0,L|225:101,1,93.5999914215092,2|0,3:2|0:0,0:0:0:0:
482,173,68665,2,0,P|430:196|371:180,1,93.5999914215092,10|0,0:0|0:0,0:0:0:0:
236,341,68965,6,0,B|287:309|287:309|441:341,1,187.199982843018,4|0,3:1|3:0,0:0:0:0:
146,284,69415,2,0,B|100:199|178:189|105:91,1,187.199982843018,2|0,3:2|3:0,0:0:0:0:
31,278,69865,2,0,B|33:326|33:326|58:364,1,93.5999914215092,8|0,0:0|0:0,0:0:0:0:
242,149,70165,2,0,B|240:101|240:101|215:63,1,93.5999914215092,8|8,3:2|0:0,0:0:0:0:
339,213,70465,2,0,P|423:193|451:189,1,93.5999914215092,10|0,3:2|0:0,0:0:0:0:
246,299,70765,6,0,B|184:316|136:287|136:287|87:296|61:339,1,187.199982843018,4|0,3:1|3:0,0:0:0:0:
260,118,71215,2,0,B|256:98|232:80|232:80|179:158|221:247,1,187.199982843018,2|0,0:0|3:0,0:0:0:0:
336,332,71665,2,0,P|411:344|460:353,1,93.5999914215092,10|0,0:0|0:0,0:0:0:0:
208,213,71965,2,0,L|116:230,1,93.5999914215092,2|0,3:2|0:0,0:0:0:0:
260,118,72265,1,8,0:0:0:0:
302,248,72415,1,8,0:0:0:0:
302,248,72490,1,8,0:0:0:0:
302,248,72565,6,0,L|112:229,1,187.199982843018,4|0,3:1|3:0,0:0:0:0:
360,338,73015,2,0,P|411:274|369:166,1,187.199982843018,2|0,3:2|2:0,0:0:0:0:
271,41,73465,2,0,L|263:138,1,93.5999914215092,8|0,0:0|0:0,0:0:0:0:
115,229,73765,2,0,B|74:214|74:214|-5:219,1,93.5999914215092,4|0,3:1|0:0,0:0:0:0:
181,340,74065,1,8,3:2:0:0:
181,340,74140,1,8,0:0:0:0:
181,340,74215,1,8,0:0:0:0:
181,340,74290,1,8,0:0:0:0:
181,340,74365,6,0,P|243:314|359:350,1,187.199982843018,4|0,3:1|3:0,0:0:0:0:
493,266,74815,1,8,0:0:0:0:
368,180,74965,2,0,L|359:69,1,93.5999914215092,8|0,0:0|3:0,0:0:0:0:
183,63,75265,6,0,L|166:238,1,140.399987132264,4|0,3:2|0:0,0:0:0:0:
101,252,75565,1,8,0:0:0:0:
258,146,75715,1,8,0:0:0:0:
133,0,75865,2,0,P|102:50|118:113,1,93.5999914215092,0|0,3:0|0:0,0:0:0:0:
238,282,76165,6,0,B|331:261|331:261|431:291,1,187.199982843018,4|8,3:2|0:0,0:0:0:0:
436,257,76540,1,8,0:0:0:0:
441,223,76615,1,8,0:0:0:0:
433,189,76690,1,8,0:0:0:0:
411,161,76765,2,0,P|385:107|392:50,1,93.5999914215092,8|0,0:0|3:0,0:0:0:0:
248,189,77065,2,0,L|236:294,1,93.5999914215092,8|0,0:0|0:0,0:0:0:0:
115,357,77365,2,0,P|44:346|0:367,1,93.5999914215092,0|0,3:0|3:0,0:0:0:0:
111,187,77665,2,0,B|162:203|162:203|261:186,1,140.399987132264,4|0,3:2|0:0,0:0:0:0:
320,130,77965,6,0,P|372:118|437:160,1,116.999997310638,2|2,3:2|0:0,0:0:0:0:
270,54,78415,2,0,P|218:66|153:24,1,116.999997310638,2|10,3:2|0:0,0:0:0:0:
80,74,78865,2,0,L|54:147,1,58.4999986553192,8|0,0:0|0:0,0:0:0:0:
125,195,79165,2,0,L|118:273,1,58.4999986553192,10|0,0:0|0:0,0:0:0:0:
216,271,79465,2,0,L|225:353,1,58.4999986553192,10|8,0:0|0:0,0:0:0:0:
309,227,79765,6,0,L|316:99,1,116.999997310638,6|2,3:2|0:0,0:0:0:0:
401,196,80215,2,0,P|414:247|367:317,1,116.999997310638,8|2,0:0|0:0,0:0:0:0:
302,356,80665,2,0,P|254:345|226:339,1,58.4999986553192,8|0,0:0|0:0,0:0:0:0:
109,301,80965,2,0,P|163:289|192:281,1,58.4999986553192,8|0,0:0|0:0,0:0:0:0:
281,224,81265,2,0,P|248:220|211:211,1,58.4999986553192,8|0,0:0|0:0,0:0:0:0:
102,120,81565,6,0,P|55:104|-24:121,1,116.999997310638,4|10,3:2|0:2,0:0:0:0:
134,37,82015,2,0,P|175:51|263:43,1,116.999997310638,10|10,0:0|0:0,0:0:0:0:
342,80,82465,2,0,P|350:115|348:151,1,58.4999986553192,2|0,3:2|0:0,0:0:0:0:
278,215,82765,2,0,P|265:257|266:297,1,58.4999986553192,10|0,0:0|0:0,0:0:0:0:
306,337,82990,1,2,0:0:0:0:
306,337,83065,2,0,P|366:332|381:329,1,58.4999986553192,8|8,0:0|0:0,0:0:0:0:
494,360,83365,6,0,B|508:305|508:305|490:241,1,116.999997310638,4|8,3:2|0:0,0:0:0:0:
418,156,83815,2,0,L|407:89,2,58.4999986553192,8|0|0,0:0|0:0|3:0,0:0:0:0:
343,228,84265,2,0,P|308:235|263:222,1,58.4999986553192,10|0,0:0|0:0,0:0:0:0:
194,174,84565,2,0,P|159:167|114:180,1,58.4999986553192,8|0,0:0|0:0,0:0:0:0:
49,229,84865,1,10,0:0:0:0:
47,243,84940,1,8,0:0:0:0:
46,258,85015,1,8,0:0:0:0:
45,272,85090,1,8,0:0:0:0:
44,291,85165,6,0,L|187:279,1,116.999997310638,4|8,3:2|0:0,0:0:0:0:
259,341,85615,2,0,P|305:321|393:340,1,116.999997310638,10|2,0:0|0:0,0:0:0:0:
475,283,86065,2,0,P|487:241|481:209,1,58.4999986553192,8|0,0:0|0:0,0:0:0:0:
386,113,86365,2,0,L|394:197,1,58.4999986553192,10|0,0:0|0:0,0:0:0:0:
291,218,86665,2,0,L|285:159,1,58.4999986553192,8|8,0:0|0:0,0:0:0:0:
201,191,86890,1,8,0:0:0:0:
201,191,86965,6,0,B|150:174|146:230|77:213,1,116.999997310638,4|0,3:2|0:0,0:0:0:0:
3,144,87415,2,0,P|-12:100|24:37,1,116.999997310638,10|0,0:0|0:0,0:0:0:0:
147,94,87865,2,0,L|78:103,2,58.4999986553192,10|0|8,0:0|0:0|0:0,0:0:0:0:
229,135,88315,1,8,0:0:0:0:
308,79,88465,1,10,0:0:0:0:
308,79,88540,1,8,0:0:0:0:
308,79,88615,1,8,0:0:0:0:
308,79,88690,1,8,0:0:0:0:
308,79,88765,6,0,P|363:60|427:84,1,116.999997310638,4|8,3:2|0:0,0:0:0:0:
487,150,89215,2,0,P|466:193|452:268,1,116.999997310638,10|8,0:0|0:0,0:0:0:0:
371,326,89665,2,0,P|355:279|343:259,1,58.4999986553192,10|8,0:0|0:0,0:0:0:0:
256,223,89965,2,0,P|251:251|243:280,1,58.4999986553192,8|0,0:0|0:0,0:0:0:0:
160,345,90265,1,10,0:0:0:0:
138,341,90340,1,8,0:0:0:0:
116,337,90415,1,8,0:0:0:0:
95,334,90490,1,8,0:0:0:0:
71,330,90565,6,0,P|39:273|54:210,1,116.999997310638,6|10,3:2|0:0,0:0:0:0:
109,145,91015,1,8,0:0:0:0:
224,218,91165,2,0,P|273:202|302:192,1,58.4999986553192,2|0,0:0|0:0,0:0:0:0:
358,221,91390,1,0,0:0:0:0:
358,221,91465,2,0,L|479:242,2,116.999997310638,10|8|10,0:0|0:0|0:0,0:0:0:0:
248,137,92215,1,8,0:0:0:0:
248,137,92290,1,8,0:0:0:0:
248,137,92365,6,0,P|194:152|120:127,1,116.999997310638,4|10,3:2|0:0,0:0:0:0:
41,192,92815,2,0,P|15:238|33:315,1,116.999997310638,10|8,0:0|0:0,0:0:0:0:
112,374,93265,2,0,L|184:366,1,58.4999986553192,2|0,3:2|0:0,0:0:0:0:
258,323,93565,2,0,L|330:315,1,58.4999986553192,10|0,0:0|0:0,0:0:0:0:
412,355,93865,1,10,0:0:0:0:
426,353,93940,1,8,0:0:0:0:
441,351,94015,1,8,0:0:0:0:
455,350,94090,1,8,0:0:0:0:
468,348,94165,6,0,B|486:293|486:293|466:223,1,116.999997310638,4|8,3:2|0:0,0:0:0:0:
368,153,94615,2,0,L|363:275,1,116.999997310638,10|10,0:0|0:0,0:0:0:0:
268,208,95065,2,0,P|223:200|190:204,1,58.4999986553192,10|0,0:0|0:0,0:0:0:0:
57,250,95365,2,0,P|86:249|115:243,1,58.4999986553192,10|0,0:0|0:0,0:0:0:0:
126,153,95665,2,0,L|113:87,1,58.4999986553192,10|8,0:0|0:0,0:0:0:0:
177,40,95890,1,8,0:0:0:0:
177,40,95965,6,0,B|239:27|228:71|300:63,1,116.999997310638,4|8,3:2|0:0,0:0:0:0:
411,31,96415,2,0,P|379:66|379:151,1,116.999997310638,10|10,0:0|0:0,0:0:0:0:
447,226,96865,2,0,P|457:268|448:304,1,58.4999986553192,2|0,3:2|0:0,0:0:0:0:
296,303,97165,2,0,P|286:261|295:225,1,58.4999986553192,10|8,0:0|0:0,0:0:0:0:
378,275,97465,1,8,0:0:0:0:
377,296,97540,1,8,0:0:0:0:
376,318,97615,1,8,0:0:0:0:
375,340,97690,1,8,0:0:0:0:
376,366,97765,6,0,P|436:332|496:331,1,116.999997310638,4|8,3:2|0:0,0:0:0:0:
500,214,98215,2,0,P|455:239|383:227,1,116.999997310638,8|10,0:0|0:0,0:0:0:0:
298,157,98665,2,0,L|291:83,1,58.4999986553192,10|0,0:0|0:0,0:0:0:0:
212,202,98965,2,0,P|201:232|205:283,1,58.4999986553192,10|0,0:0|0:0,0:0:0:0:
151,108,99265,2,0,L|74:91,1,58.4999986553192,10|8,0:0|0:0,0:0:0:0:
19,116,99490,1,8,0:0:0:0:
19,116,99565,6,0,P|34:154|120:177,1,116.999997310638,4|8,3:2|0:0,0:0:0:0:
263,238,100015,2,0,P|207:241|163:295,1,116.999997310638,10|2,0:0|0:0,0:0:0:0:
346,349,100465,2,0,P|345:310|336:269,1,58.4999986553192,2|0,3:2|0:0,0:0:0:0:
413,166,100765,2,0,P|408:194|408:224,1,58.4999986553192,10|0,0:0|0:0,0:0:0:0:
512,266,101065,1,8,0:0:0:0:
512,266,101140,1,8,0:0:0:0:
512,266,101215,1,8,0:0:0:0:
512,266,101290,1,8,0:0:0:0:
512,266,101365,6,0,P|450:243|381:271,1,116.999997310638,4|0,3:2|0:0,0:0:0:0:
307,193,101815,2,0,B|265:212|265:212|185:194,1,116.999997310638,10|0,0:0|0:0,0:0:0:0:
98,247,102265,2,0,P|78:210|89:131,2,116.999997310638,10|8|2,0:0|0:0|0:0,0:0:0:0:
86,270,102940,1,8,0:0:0:0:
86,270,103015,1,8,0:0:0:0:
86,270,103090,1,8,0:0:0:0:
86,270,103165,6,0,L|222:257,1,116.999997310638,4|8,3:2|0:0,0:0:0:0:
283,323,103615,2,0,B|317:334|317:334|354:314|424:327,1,116.999997310638,10|8,0:0|0:0,0:0:0:0:
483,270,104065,2,0,P|495:227|491:193,1,58.4999986553192,8|0,3:2|0:0,0:0:0:0:
395,94,104365,2,0,L|405:219,1,116.999997310638,8|10,0:0|0:0,0:0:0:0:
386,227,104740,1,8,0:0:0:0:
386,227,104815,1,8,0:0:0:0:
386,227,104890,1,8,0:0:0:0:
386,227,104965,6,0,P|342:204|262:200,1,116.999997310638,6|0,3:2|0:0,0:0:0:0:
156,246,105415,2,0,P|107:259|30:241,1,116.999997310638,8|8,0:0|0:0,0:0:0:0:
7,182,105790,1,2,0:0:0:0:
7,182,105865,2,0,L|1:116,1,58.4999986553192,10|0,0:0|0:0,0:0:0:0:
90,41,106165,2,0,L|95:99,1,58.4999986553192,8|0,0:0|0:0,0:0:0:0:
179,163,106465,1,10,0:0:0:0:
193,160,106540,1,0,3:0:0:0:
207,157,106615,1,0,3:0:0:0:
222,155,106690,1,0,3:0:0:0:
237,152,106765,6,0,B|303:140|281:183|361:178,1,116.999997310638,4|0,3:2|0:0,0:0:0:0:
464,100,107215,2,0,L|455:219,1,116.999997310638,10|0,0:0|0:0,0:0:0:0:
324,332,107665,6,0,L|308:204,1,116.999997310638,4|8,3:2|0:0,0:0:0:0:
201,288,108115,2,0,L|188:368,2,58.4999986553192,0|10|8,0:0|0:0|0:0,0:0:0:0:
71,214,108565,6,0,P|52:164|81:75,1,132.599994422913,4|0,3:1|0:0,0:0:0:0:
206,23,109015,2,0,L|188:173,1,132.599994422913,4|0,3:1|0:0,0:0:0:0:
290,218,109465,6,0,P|324:212|338:208,1,46.7999957107546,10|2,0:0|0:0,0:0:0:0:
463,262,109915,2,0,P|429:256|415:252,1,46.7999957107546,10|8,0:0|0:0,0:0:0:0:
408,280,110365,6,0,L|201:297,1,187.199982843018,4|0,3:1|3:0,0:0:0:0:
16,229,110815,1,2,0:0:0:0:
16,229,110890,1,2,0:0:0:0:
16,229,110965,2,0,P|-1:176|10:127,1,93.5999914215092,0|0,3:0|3:0,0:0:0:0:
124,192,111265,2,0,B|133:238|133:238|110:306,1,93.5999914215092,10|0,0:0|0:0,0:0:0:0:
214,367,111565,1,0,3:0:0:0:
357,299,111715,2,0,L|478:282,2,93.5999914215092,2|8|0,0:0|3:2|0:0,0:0:0:0:
208,154,112165,6,0,P|261:187|392:122,1,187.199982843018,4|0,3:1|3:0,0:0:0:0:
295,0,112615,1,2,0:0:0:0:
295,0,112690,1,2,0:0:0:0:
295,0,112765,2,0,L|292:99,1,93.5999914215092,0|0,3:0|3:0,0:0:0:0:
176,244,113065,2,0,B|134:229|134:229|51:238,1,93.5999914215092,8|0,0:0|0:0,0:0:0:0:
241,342,113365,2,0,B|294:321|294:321|355:368|434:347,1,187.199982843018,0|8,3:0|1:2,0:0:0:0:
499,249,113815,1,8,0:0:0:0:
499,249,113890,1,8,0:0:0:0:
499,249,113965,6,0,P|500:172|502:56,1,187.199982843018,4|0,3:1|3:0,0:0:0:0:
348,5,114415,2,0,P|347:103|345:192,1,187.199982843018,2|0,0:0|3:0,0:0:0:0:
226,283,114865,2,0,P|153:261|66:287,1,140.399987132264,10|0,2:0|0:0,0:0:0:0:
27,319,115165,2,0,P|57:249|60:207,1,93.5999914215092,0|2,3:0|0:0,0:0:0:0:
9,35,115465,2,0,L|20:152,1,93.5999914215092,8|0,3:2|0:0,0:0:0:0:
96,67,115690,1,2,0:0:0:0:
96,67,115765,6,0,B|193:48|179:124|290:99,1,187.199982843018,4|0,3:1|0:0,0:0:0:0:
460,63,116215,1,2,0:0:0:0:
374,7,116365,2,0,B|363:53|363:53|376:128,1,93.5999914215092,0|0,3:0|3:0,0:0:0:0:
484,244,116665,2,0,P|418:220|312:289,1,187.199982843018,10|0,0:0|3:0,0:0:0:0:
156,222,117115,1,8,0:0:0:0:
153,206,117190,1,8,0:0:0:0:
151,191,117265,1,8,0:0:0:0:
149,175,117340,1,8,0:0:0:0:
147,160,117415,1,8,0:0:0:0:
145,144,117490,1,8,0:0:0:0:
142,131,117565,6,0,P|88:164|77:289,1,187.199982843018,4|0,3:1|3:0,0:0:0:0:
322,359,118015,2,0,B|264:337|264:337|135:360,1,187.199982843018,2|0,0:0|3:0,0:0:0:0:
411,315,118465,2,0,P|424:252|412:215,1,93.5999914215092,10|0,0:0|0:0,0:0:0:0:
310,103,118765,2,0,L|318:208,1,93.5999914215092,0|2,3:0|0:0,0:0:0:0:
202,247,119065,2,0,L|194:153,1,93.5999914215092,8|0,0:0|0:0,0:0:0:0:
0,344,119365,6,0,B|101:378|82:306|211:350,1,187.199982843018,4|0,3:1|3:0,0:0:0:0:
363,284,119815,1,2,0:0:0:0:
363,284,119890,1,2,0:0:0:0:
363,284,119965,2,0,L|377:186,1,93.5999914215092,0|0,3:0|3:0,0:0:0:0:
235,46,120265,2,0,L|255:250,2,187.199982843018,10|0|4,0:0|3:0|3:1,0:0:0:0:
367,98,121015,1,8,0:0:0:0:
197,318,121165,6,0,P|157:251|184:171,1,140.399987132264,4|0,3:1|0:0,0:0:0:0:
109,132,121465,2,0,L|0:104,1,93.5999914215092,0|0,3:0|3:0,0:0:0:0:
253,232,121765,2,0,L|376:209,1,93.5999914215092,2|0,0:0|3:0,0:0:0:0:
239,32,122065,2,0,P|221:91|247:143,1,93.5999914215092,8|0,0:0|0:0,0:0:0:0:
418,98,122365,2,0,B|378:80|378:80|325:83,1,93.5999914215092,0|0,3:0|0:0,0:0:0:0:
472,229,122665,1,4,3:1:0:0:
472,229,122740,1,0,3:0:0:0:
472,229,122815,1,0,3:0:0:0:
472,229,122890,1,0,3:0:0:0:
472,229,122965,6,0,B|350:214|415:286|273:269,1,187.199982843018,4|0,3:1|3:0,0:0:0:0:
169,249,123415,1,0,3:0:0:0:
169,249,123490,1,0,3:0:0:0:
169,249,123565,2,0,P|161:315|154:380,1,93.5999914215092,10|0,0:0|3:0,0:0:0:0:
316,168,123865,2,0,L|292:51,1,93.5999914215092,8|0,0:0|0:0,0:0:0:0:
422,244,124165,5,12,3:2:0:0:
393,280,124240,1,8,0:0:0:0:
351,299,124315,1,8,0:0:0:0:
304,298,124390,1,8,0:0:0:0:
263,277,124465,5,10,1:2:0:0:
230,263,124540,1,8,0:0:0:0:
195,260,124615,1,8,0:0:0:0:
161,267,124690,1,8,0:0:0:0:
131,285,124765,6,0,B|93:202|93:202|117:95,1,187.199982843018,4|0,3:1|3:0,0:0:0:0:
254,22,125215,1,2,0:0:0:0:
254,22,125290,1,2,0:0:0:0:
254,22,125365,2,0,L|265:134,1,93.5999914215092,0|0,3:0|3:0,0:0:0:0:
384,226,125665,2,0,P|445:208|510:225,1,93.5999914215092,8|0,0:0|0:0,0:0:0:0:
262,299,125965,2,0,L|158:287,1,93.5999914215092,2|0,3:2|0:0,0:0:0:0:
372,377,126265,1,8,0:0:0:0:
384,226,126415,1,8,0:0:0:0:
384,226,126490,1,8,0:0:0:0:
384,226,126565,6,0,P|404:138|469:33,1,187.199982843018,4|0,3:1|3:0,0:0:0:0:
484,210,127015,1,2,0:0:0:0:
323,103,127165,2,0,L|215:91,1,93.5999914215092,0|0,3:0|3:0,0:0:0:0:
25,186,127465,2,0,B|75:193|75:193|131:178,1,93.5999914215092,8|0,0:0|0:0,0:0:0:0:
253,257,127765,2,0,P|272:309|262:376,1,93.5999914215092,2|0,3:2|0:0,0:0:0:0:
229,92,128065,2,0,P|229:45|247:2,1,93.5999914215092,8|0,0:0|0:0,0:0:0:0:
512,50,128365,6,0,B|459:81|459:81|324:60,1,187.199982843018,4|0,3:1|0:0,0:0:0:0:
225,218,128815,2,0,P|287:183|405:197,1,187.199982843018,2|0,0:0|3:0,0:0:0:0:
149,285,129265,2,0,B|127:242|127:242|129:169,1,93.5999914215092,10|0,0:0|0:0,0:0:0:0:
179,32,129565,2,0,B|201:75|201:75|199:148,1,93.5999914215092,2|0,3:2|0:0,0:0:0:0:
46,257,129865,2,0,P|25:191|62:123,1,140.399987132264,10|0,0:0|0:0,0:0:0:0:
128,196,130165,6,0,L|321:211,1,187.199982843018,4|0,3:1|3:0,0:0:0:0:
496,324,130615,2,0,P|431:294|327:359,1,187.199982843018,2|0,3:2|3:0,0:0:0:0:
498,203,131065,2,0,P|513:157|507:101,1,93.5999914215092,8|0,0:0|0:0,0:0:0:0:
299,38,131365,1,0,3:0:0:0:
412,132,131515,1,8,0:0:0:0:
412,132,131590,1,8,0:0:0:0:
412,132,131665,2,0,L|411:19,1,93.5999914215092,10|0,0:0|0:0,0:0:0:0:
313,215,131965,6,0,P|243:188|114:243,1,187.199982843018,4|0,3:1|3:0,0:0:0:0:
0,70,132415,2,0,B|65:64|65:64|110:115|210:91,1,187.199982843018,2|0,0:0|3:0,0:0:0:0:
317,29,132865,2,0,B|301:70|301:70|322:155,1,93.5999914215092,10|0,0:0|0:0,0:0:0:0:
495,133,133165,2,0,B|511:92|511:92|490:7,1,93.5999914215092,2|0,3:2|0:0,0:0:0:0:
406,87,133465,2,0,L|388:260,1,140.399987132264,8|0,0:0|0:0,0:0:0:0:
427,307,133765,6,0,P|354:263|235:293,1,187.199982843018,4|0,3:1|3:0,0:0:0:0:
109,361,134215,1,2,3:2:0:0:
109,361,134290,1,0,3:0:0:0:
109,361,134365,2,0,P|90:302|78:248,1,93.5999914215092,0|0,3:0|2:0,0:0:0:0:
199,98,134665,2,0,L|195:218,1,93.5999914215092,8|0,0:0|0:0,0:0:0:0:
330,339,134965,2,0,L|326:245,1,93.5999914215092,4|0,3:1|0:0,0:0:0:0:
470,125,135265,1,8,0:0:0:0:
464,147,135340,1,8,0:0:0:0:
458,170,135415,1,8,0:0:0:0:
451,192,135490,1,8,0:0:0:0:
442,214,135565,6,0,B|381:205|381:205|340:217|340:217|234:204,1,187.199982843018,4|2,3:2|3:2,0:0:0:0:
75,266,136015,2,0,P|145:288|190:276,1,93.5999914215092,8|2,0:0|3:2,0:0:0:0:
142,171,136315,1,0,3:2:0:0:
235,349,136465,6,0,L|338:342,1,93.5999914215092,0|0,3:0|0:0,0:0:0:0:
482,274,136765,1,8,0:0:0:0:
384,157,136915,1,8,0:0:0:0:
384,157,137065,2,0,P|368:213|390:281,1,93.5999914215092,0|0,3:2|0:0,0:0:0:0:
499,66,137365,6,0,B|444:86|444:86|306:49,1,187.199982843018,4|8,3:2|0:0,0:0:0:0:
287,66,137740,1,8,0:0:0:0:
263,91,137815,1,8,0:0:0:0:
249,123,137890,1,8,0:0:0:0:
249,158,137965,2,0,P|255:212|235:276,1,93.5999914215092,0|0,3:0|3:0,0:0:0:0:
100,339,138265,6,0,L|84:228,1,93.5999914215092,0|0,3:0|0:0,0:0:0:0:
13,118,138565,1,8,0:0:0:0:
29,62,138640,1,8,0:0:0:0:
75,28,138715,1,8,0:0:0:0:
133,27,138790,1,8,0:0:0:0:
180,59,138865,5,4,3:3:0:0:
201,69,138940,1,0,3:3:0:0:
223,75,139015,1,0,3:3:0:0:
247,76,139090,1,0,3:3:0:0:
271,72,139165,6,0,B|286:113|286:113|241:187|270:256,1,171.599994746399,4|0,3:2|3:0,0:0:0:0:
424,342,139615,2,0,L|413:169,1,171.599994746399,8|0,0:0|3:0,0:0:0:0:
180,228,140065,2,0,P|239:241|275:229,1,85.7999973731995,8|0,0:0|3:0,0:0:0:0:
173,68,140365,2,0,P|132:112|124:149,1,85.7999973731995,8|0,0:0|0:3,0:0:0:0:
315,141,140665,2,0,P|296:83|268:58,1,85.7999973731995,8|0,0:0|0:0,0:0:0:0:
58,132,140965,6,0,B|107:158|107:158|248:143,1,171.599994746399,12|0,0:0|3:0,0:0:0:0:
432,217,141415,2,0,P|363:204|291:284,1,171.599994746399,8|0,0:0|3:0,0:0:0:0:
77,113,141865,6,0,P|133:129|168:163,1,85.7999973731995,8|0,0:0|3:0,0:0:0:0:
268,56,142165,2,0,P|300:104|305:152,1,85.7999973731995,8|0,0:0|3:0,0:0:0:0:
450,135,142465,2,0,P|443:192|416:233,1,85.7999973731995,8|0,0:0|0:0,0:0:0:0:
180,229,142765,6,0,B|223:199|223:199|273:251|354:232,1,171.599994746399,4|0,3:2|3:0,0:0:0:0:
116,295,143215,2,0,P|87:233|142:141,1,171.599994746399,8|0,0:0|3:0,0:0:0:0:
331,235,143665,2,0,L|326:323,1,85.7999973731995,8|0,0:0|3:0,0:0:0:0:
439,127,143965,2,0,L|444:215,1,85.7999973731995,8|0,0:0|0:3,0:0:0:0:
232,173,144265,2,0,L|227:261,1,85.7999973731995,8|0,0:0|0:0,0:0:0:0:
312,103,144565,6,0,P|240:68|133:125,1,171.599994746399,12|0,0:0|3:0,0:0:0:0:
367,244,145015,2,0,B|489:228|489:228|430:208,1,171.599994746399,8|0,0:0|3:0,0:0:0:0:
254,201,145465,5,8,0:0:0:0:
287,321,145615,1,0,3:0:0:0:
237,173,145765,5,8,0:0:0:0:
204,293,145915,1,0,3:0:0:0:
143,155,146065,5,8,0:0:0:0:
176,275,146215,1,0,0:0:0:0:
32,147,146365,5,4,3:2:0:0:
224,204,146515,2,0,L|331:198,1,85.7999973731995,0|0,0:0|3:0,0:0:0:0:
160,298,146815,5,8,0:0:0:0:
255,114,146965,2,0,P|304:97|371:118,1,85.7999973731995,0|0,3:0|3:0,0:0:0:0:
135,104,147265,6,0,L|116:0,1,85.7999973731995,8|0,0:0|3:0,0:0:0:0:
34,238,147565,2,0,L|53:133,1,85.7999973731995,8|0,0:0|0:3,0:0:0:0:
196,277,147865,2,0,P|149:304|83:296,1,85.7999973731995,8|0,0:0|0:0,0:0:0:0:
297,350,148165,5,12,0:0:0:0:
352,284,148315,1,0,3:0:0:0:
417,347,148465,1,0,3:0:0:0:
504,160,148615,5,8,0:0:0:0:
449,226,148765,1,0,3:0:0:0:
384,163,148915,1,0,3:0:0:0:
237,244,149065,6,0,P|308:254|354:234,1,85.7999973731995,8|0,0:0|3:0,0:0:0:0:
241,76,149365,2,0,P|196:132|191:182,1,85.7999973731995,8|0,0:0|3:0,0:0:0:0:
384,163,149665,2,0,P|357:96|316:66,1,85.7999973731995,8|0,0:0|0:0,0:0:0:0:
122,62,149965,5,12,0:0:0:0:
40,126,150115,2,0,L|27:221,1,85.7999973731995,0|0,3:0|3:0,0:0:0:0:
8,20,150415,5,8,0:0:0:0:
121,173,150565,2,0,P|139:223|114:280,1,85.7999973731995,0|0,3:0|3:0,0:0:0:0:
186,85,150865,6,0,B|228:72|228:72|295:81,1,85.7999973731995,8|0,0:0|3:0,0:0:0:0:
442,154,151165,2,0,B|401:160|401:160|359:147,1,85.7999973731995,8|0,0:0|3:0,0:0:0:0:
248,277,151465,2,0,P|240:217|271:164,1,85.7999973731995,8|0,0:0|0:0,0:0:0:0:
339,320,151765,5,12,0:0:0:0:
146,254,151915,2,0,L|36:246,1,85.7999973731995,0|0,3:0|3:0,0:0:0:0:
247,194,152215,5,8,0:0:0:0:
175,355,152365,2,0,P|132:357|92:343,1,85.7999973731995,0|0,3:0|3:0,0:0:0:0:
280,276,152665,5,8,0:0:0:0:
287,296,152740,1,8,0:0:0:0:
294,316,152815,1,8,2:0:0:0:
301,336,152890,1,8,0:0:0:0:
307,355,152965,2,0,L|412:341,1,85.7999973731995,8|0,0:0|3:0,0:0:0:0:
491,218,153265,5,8,0:0:0:0:
504,189,153340,1,8,0:3:0:0:
502,157,153415,1,8,0:3:0:0:
484,130,153490,1,8,0:3:0:0:
456,116,153565,6,0,B|350:98|385:174|272:141,1,171.599994746399,14|2,0:2|3:2,0:0:0:0:
117,138,154015,2,0,B|144:92|144:92|163:249,1,171.599994746399,10|0,0:0|3:0,0:0:0:0:
25,72,154465,2,0,P|18:33|33:-16,1,85.7999973731995,10|0,0:0|3:0,0:0:0:0:
22,178,154765,2,0,L|9:278,1,85.7999973731995,10|0,0:0|3:0,0:0:0:0:
201,137,155065,2,0,P|158:130|116:137,1,85.7999973731995,10|0,0:0|3:0,0:0:0:0:
238,316,155365,6,0,B|352:304|352:304|408:348,1,171.599994746399,12|2,0:0|3:2,0:0:0:0:
192,227,155815,2,0,P|146:277|160:382,1,171.599994746399,10|0,0:0|3:0,0:0:0:0:
290,219,156265,2,0,L|279:119,1,85.7999973731995,10|0,0:0|3:0,0:0:0:0:
126,78,156565,2,0,L|116:163,1,85.7999973731995,10|0,0:0|3:0,0:0:0:0:
0,317,156865,2,0,P|40:302|82:305,1,85.7999973731995,10|0,0:0|3:0,0:0:0:0:
333,323,157165,6,0,P|250:367|142:353,1,171.599994746399,12|2,0:0|3:2,0:0:0:0:
26,204,157615,2,0,B|131:179|93:241|227:212,1,171.599994746399,10|2,0:0|3:2,0:0:0:0:
385,127,158065,2,0,B|396:87|396:87|375:30,1,85.7999973731995,10|0,0:0|3:0,0:0:0:0:
189,136,158365,2,0,B|178:176|178:176|199:233,1,85.7999973731995,10|0,0:0|3:0,0:0:0:0:
386,304,158665,2,0,L|505:284,1,85.7999973731995,10|0,0:0|3:0,0:0:0:0:
271,372,158965,6,0,P|213:345|169:351,2,85.7999973731995,14|0|0,0:0|0:0|3:0,0:0:0:0:
123,269,159415,2,0,P|92:315|90:368,2,85.7999973731995,14|0|0,0:0|0:0|3:0,0:0:0:0:
259,154,159865,2,8,P|230:185|190:202,1,85.7999973731995,10|0,0:0|3:0,0:0:0:0:
98,73,160165,2,0,P|140:82|174:109,1,85.7999973731995,10|0,0:0|3:0,0:0:0:0:
104,251,160465,2,0,L|107:153,1,85.7999973731995,10|0,0:0|3:0,0:0:0:0:
274,35,160765,6,0,B|299:90|299:90|275:212,1,171.599994746399,12|2,0:0|3:2,0:0:0:0:
478,333,161215,2,0,L|452:156,1,171.599994746399,10|0,0:0|3:0,0:0:0:0:
223,276,161665,2,0,P|278:291|331:277,1,85.7999973731995,10|0,0:0|3:0,0:0:0:0:
117,293,161965,2,0,P|76:333|62:386,1,85.7999973731995,10|0,0:0|3:0,0:0:0:0:
155,192,162265,2,0,P|140:136|101:97,1,85.7999973731995,10|0,0:0|3:0,0:0:0:0:
320,31,162565,6,0,P|277:95|304:208,1,171.599994746399,12|2,0:0|3:2,0:0:0:0:
431,292,163015,2,0,B|367:267|367:267|314:304|244:290,1,171.599994746399,10|2,0:0|3:2,0:0:0:0:
512,137,163465,2,0,B|522:184|522:184|501:256,1,85.7999973731995,10|0,0:0|3:0,0:0:0:0:
418,92,163765,2,0,L|414:-11,1,85.7999973731995,10|0,0:0|3:0,0:0:0:0:
244,128,164065,2,0,P|299:144|354:118,1,85.7999973731995,10|0,0:0|3:0,0:0:0:0:
147,91,164365,6,0,B|123:198|183:146|149:291,1,171.599994746399,12|2,0:0|3:2,0:0:0:0:
302,351,164815,2,0,P|368:315|475:339,1,171.599994746399,10|0,0:0|3:0,0:0:0:0:
280,160,165265,2,0,P|281:202|267:242,1,85.7999973731995,10|0,0:0|3:0,0:0:0:0:
110,340,165565,2,0,L|-4:322,1,85.7999973731995,10|0,0:0|3:0,0:0:0:0:
182,255,165865,2,0,L|267:242,1,85.7999973731995,10|0,0:0|3:0,0:0:0:0:
364,304,166165,6,0,B|409:293|409:293|482:298,2,116.999992847443,2|0|2,0:0|0:0|0:0,0:0:0:0:
256,192,167140,12,0,167865,0:0:0:0:
351,320,167978,6,0,L|158:302,1,187.199982843018,4|0,3:1|3:0,0:0:0:0:
24,215,168428,1,2,0:0:0:0:
24,215,168503,1,2,0:0:0:0:
24,215,168578,2,0,P|0:159|23:95,1,93.5999914215092,0|0,3:0|3:0,0:0:0:0:
133,3,168878,2,0,B|158:65|158:65|134:204,1,187.199982843018,10|0,0:0|3:0,0:0:0:0:
103,351,169328,1,2,0:0:0:0:
267,286,169478,2,0,L|378:276,1,93.5999914215092,8|0,3:2|0:0,0:0:0:0:
185,78,169778,6,0,B|71:60|119:145|-10:118,1,187.199982843018,4|0,3:1|3:0,0:0:0:0:
266,174,170228,2,0,B|354:144|354:144|462:172,1,187.199982843018,2|0,0:0|3:0,0:0:0:0:
221,296,170678,2,0,P|160:280|93:278,1,93.5999914215092,8|0,0:0|0:0,0:0:0:0:
311,361,170978,2,0,P|393:343|431:321,1,93.5999914215092,0|0,3:0|0:0,0:0:0:0:
502,277,171278,1,8,1:2:0:0:
502,277,171353,1,8,0:0:0:0:
502,277,171428,1,8,0:0:0:0:
502,277,171503,1,8,0:0:0:0:
502,277,171578,6,0,P|508:136|518:54,1,187.199982843018,4|0,3:1|3:0,0:0:0:0:
365,30,172028,1,2,0:0:0:0:
365,30,172103,1,2,0:0:0:0:
365,30,172178,2,0,P|382:96|388:151,1,93.5999914215092,0|0,3:0|3:0,0:0:0:0:
303,235,172478,2,0,B|257:228|257:228|183:251,1,93.5999914215092,10|0,2:0|0:0,0:0:0:0:
8,310,172778,2,0,B|54:317|54:317|128:294,1,93.5999914215092,0|2,3:0|0:0,0:0:0:0:
51,115,173078,2,0,L|49:225,1,93.5999914215092,8|0,3:2|0:0,0:0:0:0:
249,350,173378,6,0,B|307:341|307:341|377:356|377:356|455:344,1,187.199982843018,4|0,3:1|3:2,0:0:0:0:
502,170,173828,2,0,P|425:146|335:229,1,187.199982843018,2|0,0:0|3:0,0:0:0:0:
127,204,174278,2,0,B|92:123|92:123|129:14,1,187.199982843018,10|0,0:0|3:0,0:0:0:0:
302,118,174728,1,8,0:0:0:0:
286,118,174803,1,8,0:0:0:0:
270,118,174878,1,8,0:0:0:0:
255,118,174953,1,8,0:0:0:0:
239,118,175028,1,8,0:0:0:0:
224,118,175103,1,8,0:0:0:0:
208,118,175178,6,0,L|205:329,1,187.199982843018,4|0,3:1|3:0,0:0:0:0:
66,370,175628,1,2,0:0:0:0:
66,370,175703,1,2,0:0:0:0:
66,370,175778,2,0,P|8:366|-57:368,1,93.5999914215092,0|0,3:0|3:0,0:0:0:0:
178,304,176078,2,0,P|223:321|378:270,1,187.199982843018,10|0,0:0|3:0,0:0:0:0:
412,161,176528,1,2,0:0:0:0:
300,184,176678,1,8,0:0:0:0:
445,259,176828,1,0,0:0:0:0:
269,179,176978,6,0,P|163:175|59:174,1,187.199982843018,4|0,3:1|3:0,0:0:0:0:
266,63,177428,2,0,P|361:62|495:57,1,187.199982843018,2|0,0:0|3:0,0:0:0:0:
205,0,177878,2,0,P|179:51|192:115,1,93.5999914215092,10|0,0:0|0:0,0:0:0:0:
276,193,178178,2,0,P|336:179|390:187,1,93.5999914215092,0|0,3:0|0:0,0:0:0:0:
174,275,178478,2,0,L|20:256,1,140.399987132264,4|0,3:1|0:0,0:0:0:0:
12,336,178778,6,0,L|215:289,1,187.199982843018,4|0,3:1|3:0,0:0:0:0:
342,356,179228,1,0,3:0:0:0:
459,278,179378,2,0,P|471:220|447:168,1,93.5999914215092,2|0,0:0|3:0,0:0:0:0:
336,28,179678,2,0,L|351:214,2,187.199982843018,8|0|4,0:0|3:0|3:1,0:0:0:0:
436,96,180428,1,0,0:0:0:0:
260,193,180578,6,0,P|187:211|87:133,1,187.199982843018,4|0,3:1|3:0,0:0:0:0:
174,15,181028,1,0,3:0:0:0:
174,15,181103,1,0,3:0:0:0:
174,15,181178,2,0,L|175:140,1,93.5999914215092,10|0,0:0|3:0,0:0:0:0:
92,265,181478,2,0,B|45:259|45:259|-20:273,1,93.5999914215092,8|0,0:0|0:0,0:0:0:0:
140,335,181778,5,12,0:0:0:0:
180,357,181853,1,8,0:0:0:0:
226,362,181928,1,8,0:0:0:0:
270,347,182003,1,8,0:0:0:0:
305,316,182078,5,10,1:2:0:0:
325,305,182153,1,8,0:0:0:0:
347,297,182228,1,8,0:0:0:0:
370,292,182303,1,8,0:0:0:0:
397,290,182378,6,0,B|418:240|404:198|404:198|355:156|384:90,1,187.199982843018,4|0,3:1|3:0,0:0:0:0:
171,11,182828,2,0,L|188:212,1,187.199982843018,2|0,0:0|3:0,0:0:0:0:
91,352,183278,2,0,B|44:360|44:360|-16:344,1,93.5999914215092,8|0,0:0|0:0,0:0:0:0:
186,197,183578,2,0,B|216:233|216:233|232:293,1,93.5999914215092,2|0,3:2|0:0,0:0:0:0:
5,193,183878,2,0,B|21:148|21:148|65:104,1,93.5999914215092,8|0,0:0|0:0,0:0:0:0:
236,43,184178,6,0,P|284:80|430:38,1,187.199982843018,4|0,3:1|3:0,0:0:0:0:
491,200,184628,1,2,0:0:0:0:
491,200,184703,1,0,0:0:0:0:
491,200,184778,2,0,P|470:263|478:313,1,93.5999914215092,0|0,3:0|3:0,0:0:0:0:
359,374,185078,2,0,L|340:210,1,140.399987132264,8|0,0:0|0:0,0:0:0:0:
307,228,185378,2,0,P|293:166|279:111,1,93.5999914215092,2|0,3:2|0:0,0:0:0:0:
114,215,185678,2,0,P|110:271|108:328,1,93.5999914215092,8|0,0:0|0:0,0:0:0:0:
20,150,185978,6,0,P|92:110|207:154,1,187.199982843018,4|0,3:1|0:0,0:0:0:0:
329,63,186428,2,0,L|315:258,1,187.199982843018,2|0,0:0|3:0,0:0:0:0:
451,352,186878,2,0,P|478:303|467:240,1,93.5999914215092,10|0,0:0|0:0,0:0:0:0:
234,177,187178,2,0,P|207:226|218:289,1,93.5999914215092,2|0,3:2|0:0,0:0:0:0:
426,193,187478,2,0,L|409:74,1,93.5999914215092,10|0,0:0|0:0,0:0:0:0:
118,80,187778,6,0,B|107:147|107:147|124:180|124:180|107:305,1,187.199982843018,4|0,3:1|3:0,0:0:0:0:
276,359,188228,2,0,B|329:340|329:340|466:368,1,187.199982843018,2|0,3:2|3:0,0:0:0:0:
267,254,188678,2,0,P|252:206|271:150,1,93.5999914215092,8|0,0:0|0:0,0:0:0:0:
424,174,188978,5,0,3:0:0:0:
434,194,189053,1,0,3:0:0:0:
438,217,189128,1,8,0:0:0:0:
437,241,189203,1,8,0:0:0:0:
428,262,189278,5,10,0:0:0:0:
416,260,189353,1,8,0:0:0:0:
404,259,189428,1,8,0:3:0:0:
393,258,189503,1,4,0:3:0:0:
379,256,189578,6,0,B|263:243|337:304|169:276,1,187.199982843018,4|0,3:1|3:0,0:0:0:0:
44,192,190028,1,2,0:0:0:0:
44,192,190103,1,2,0:0:0:0:
44,192,190178,2,0,P|30:134|19:75,1,93.5999914215092,0|0,3:0|3:0,0:0:0:0:
157,169,190478,2,0,P|175:104|185:55,1,93.5999914215092,10|0,0:0|0:0,0:0:0:0:
301,135,190778,2,0,P|307:194|315:254,1,93.5999914215092,2|0,3:2|0:0,0:0:0:0:
436,335,191078,2,0,P|445:270|452:219,1,93.5999914215092,8|0,0:0|0:0,0:0:0:0:
450,33,191378,6,0,B|385:67|385:67|336:20|242:34,1,187.199982843018,4|0,3:1|3:0,0:0:0:0:
110,112,191828,1,2,3:2:0:0:
236,234,191978,2,0,L|234:118,1,93.5999914215092,2|0,3:2|2:0,0:0:0:0:
141,294,192278,2,0,P|221:341|324:293,2,187.199982843018,8|4|8,0:0|3:1|0:0,0:0:0:0:
116,299,192953,1,8,0:0:0:0:
93,304,193028,1,8,0:0:0:0:
70,309,193103,1,8,0:0:0:0:
46,343,193178,6,0,L|55:140,1,187.199982843018,4|0,3:2|3:2,0:0:0:0:
199,25,193628,2,0,L|208:213,1,187.199982843018,8|2,0:0|3:2,0:0:0:0:
348,309,194078,2,0,P|412:320|471:297,1,93.5999914215092,8|2,0:0|3:2,0:0:0:0:
208,212,194378,2,0,L|105:222,1,93.5999914215092,10|8,0:0|0:0,0:0:0:0:
342,171,194678,2,0,L|372:59,1,93.5999914215092,8|0,0:0|0:0,0:0:0:0:
480,295,194978,6,0,B|376:261|411:340|282:300,1,187.199982843018,4|8,3:1|0:0,0:0:0:0:
22,176,195428,2,0,L|216:155,1,187.199982843018,8|0,0:0|3:0,0:0:0:0:
479,53,195878,2,0,B|428:50|391:23|391:23|346:24|302:61,1,187.199982843018,4|0,3:1|0:0,0:0:0:0:
397,172,196328,1,0,3:2:0:0:
413,174,196403,1,0,3:2:0:0:
428,177,196478,1,12,3:2:0:0:
444,179,196553,1,8,3:2:0:0:
459,182,196628,1,8,3:2:0:0:
474,184,196703,1,8,3:2:0:0:
490,186,196778,6,0,P|377:171|318:240,1,187.199982843018,4|0,3:1|3:0,0:0:0:0:
185,148,197228,1,2,0:0:0:0:
185,148,197303,1,2,0:0:0:0:
185,148,197378,2,0,P|180:218|172:267,1,93.5999914215092,0|0,3:0|3:0,0:0:0:0:
38,350,197678,2,0,P|28:269|19:154,1,187.199982843018,10|0,0:0|0:0,0:0:0:0:
113,40,198128,1,2,0:0:0:0:
185,148,198278,2,0,P|259:139|320:132,1,93.5999914215092,8|0,3:2|0:0,0:0:0:0:
483,290,198578,6,0,B|416:278|416:278|381:292|381:292|279:272,1,187.199982843018,4|0,3:1|3:0,0:0:0:0:
41,357,199028,2,0,P|97:329|234:386,1,187.199982843018,2|0,0:0|3:0,0:0:0:0:
26,254,199478,2,0,P|11:197|24:134,1,93.5999914215092,8|0,0:0|0:0,0:0:0:0:
145,73,199778,2,0,L|136:191,1,93.5999914215092,0|0,3:0|0:0,0:0:0:0:
257,233,200078,2,0,B|303:216|303:216|409:226,1,140.399987132264,8|0,1:2|0:0,0:0:0:0:
464,266,200378,6,0,P|492:210|446:72,1,187.199982843018,4|0,3:1|3:0,0:0:0:0:
327,25,200828,1,2,0:0:0:0:
327,25,200903,1,2,0:0:0:0:
327,25,200978,2,0,P|314:90|301:150,1,93.5999914215092,0|0,3:0|3:0,0:0:0:0:
173,227,201278,2,0,P|153:146|144:107,1,93.5999914215092,10|0,0:0|0:0,0:0:0:0:
104,327,201578,2,0,P|166:343|230:331,1,93.5999914215092,0|2,3:0|0:0,0:0:0:0:
352,282,201878,2,0,P|435:274|470:280,1,93.5999914215092,8|0,3:2|0:0,0:0:0:0:
245,195,202178,6,0,L|219:-10,1,187.199982843018,4|0,3:1|3:0,0:0:0:0:
344,294,202628,2,0,B|264:335|264:335|140:301,1,187.199982843018,2|0,0:0|3:0,0:0:0:0:
441,187,203078,2,0,L|430:381,1,187.199982843018,10|0,0:0|3:0,0:0:0:0:
493,86,203528,1,8,0:0:0:0:
493,86,203603,1,8,0:0:0:0:
493,86,203678,2,0,L|425:70,1,46.7999957107546,8|8,0:0|0:0,0:0:0:0:
323,111,203828,2,0,L|265:124,1,46.7999957107546,8|8,0:0|0:0,0:0:0:0:
7,40,203978,6,0,P|74:39|214:55,1,187.199982843018,4|0,3:1|3:0,0:0:0:0:
355,206,204428,2,0,P|297:232|188:177,1,187.199982843018,2|0,0:0|3:0,0:0:0:0:
445,156,204878,2,0,B|457:202|457:202|437:279,1,93.5999914215092,10|0,0:0|0:0,0:0:0:0:
285,136,205178,1,0,3:0:0:0:
285,136,205328,2,0,L|295:24,2,93.5999914215092,2|8|0,0:0|0:0|0:0,0:0:0:0:
0,257,205778,6,0,B|95:230|86:315|209:266,1,187.199982843018,4|0,3:1|3:0,0:0:0:0:
443,258,206228,2,0,P|387:217|261:239,1,187.199982843018,2|0,0:0|3:0,0:0:0:0:
439,131,206678,2,0,L|457:22,1,93.5999914215092,10|0,0:0|0:0,0:0:0:0:
274,228,206978,2,0,L|283:324,1,93.5999914215092,0|0,3:2|0:0,0:0:0:0:
83,219,207278,2,0,P|58:166|93:74,1,140.399987132264,4|0,3:1|0:0,0:0:0:0:
157,68,207578,6,0,B|176:124|176:124|162:177|162:177|195:285,1,187.199982843018,4|0,3:1|3:0,0:0:0:0:
341,329,208028,1,0,3:0:0:0:
472,226,208178,2,0,L|485:119,1,93.5999914215092,2|0,0:0|3:0,0:0:0:0:
305,23,208478,2,0,L|325:150,1,93.5999914215092,8|0,0:0|0:0,0:0:0:0:
219,222,208778,2,0,P|159:205|90:211,1,93.5999914215092,0|0,3:0|0:0,0:0:0:0:
283,324,209078,2,0,L|396:309,1,93.5999914215092,4|0,3:1|0:0,0:0:0:0:
175,367,209378,6,0,B|130:339|130:339|69:379|-17:359,1,187.199982843018,4|0,3:1|3:0,0:0:0:0:
37,175,209828,1,0,3:0:0:0:
171,240,209978,2,0,P|223:230|281:229,1,93.5999914215092,10|0,0:0|3:0,0:0:0:0:
466,114,210278,2,0,P|398:145|278:90,1,187.199982843018,8|12,0:0|0:0,0:0:0:0:
308,91,210653,1,8,0:0:0:0:
326,76,210728,1,8,0:0:0:0:
347,66,210803,1,8,0:0:0:0:
371,64,210878,6,0,L|374:136,1,46.7999957107546,10|8,1:2|0:0,0:0:0:0:
459,193,211028,2,0,L|461:147,1,46.7999957107546,8|8,0:0|0:0,0:0:0:0:
489,291,211178,6,0,P|418:265|305:328,1,187.199982843018,4|0,3:1|3:0,0:0:0:0:
171,246,211628,1,2,0:0:0:0:
171,246,211703,1,2,0:0:0:0:
171,246,211778,2,0,P|163:196|159:133,1,93.5999914215092,0|2,3:0|2:0,0:0:0:0:
204,88,212003,1,2,0:0:0:0:
204,88,212078,2,0,P|213:33|218:-11,1,93.5999914215092,8|0,3:2|3:2,0:0:0:0:
367,126,212378,2,0,P|304:151|252:135,1,93.5999914215092,2|0,3:2|0:0,0:0:0:0:
446,66,212678,2,0,B|465:109|465:109|463:181,1,93.5999914215092,8|0,0:0|0:0,0:0:0:0:
303,302,212978,6,0,B|212:274|227:352|112:312,1,187.199982843018,4|0,3:1|3:0,0:0:0:0:
288,200,213428,1,2,0:0:0:0:
382,355,213578,2,0,P|446:372|500:290,1,140.399987132264,0|0,3:0|0:0,0:0:0:0:
432,184,213878,2,0,L|427:291,1,93.5999914215092,8|0,0:0|0:0,0:0:0:0:
303,141,214178,2,0,L|291:19,1,93.5999914215092,2|0,3:2|0:0,0:0:0:0:
188,216,214478,2,0,B|144:201|144:201|69:219,1,93.5999914215092,8|0,0:0|0:0,0:0:0:0:
10,36,214778,6,0,P|64:53|192:-11,1,187.199982843018,4|0,3:1|0:0,0:0:0:0:
398,36,215228,2,0,B|361:142|441:98|384:251,1,187.199982843018,2|0,0:0|3:0,0:0:0:0:
246,277,215678,2,0,P|229:219|255:157,1,93.5999914215092,10|0,0:0|0:0,0:0:0:0:
489,165,215978,2,0,P|506:223|480:285,1,93.5999914215092,2|0,3:2|0:0,0:0:0:0:
301,123,216278,2,0,L|313:4,1,93.5999914215092,10|0,0:0|0:0,0:0:0:0:
38,89,216578,6,0,P|119:54|208:112,1,187.199982843018,4|0,3:1|3:0,0:0:0:0:
125,342,217028,2,0,P|120:251|112:130,1,187.199982843018,2|0,3:2|3:0,0:0:0:0:
213,292,217478,2,0,P|228:341|214:397,1,93.5999914215092,8|0,0:0|0:0,0:0:0:0:
29,248,217778,5,8,3:2:0:0:
113,155,217928,1,8,0:0:0:0:
213,292,218078,2,0,P|279:304|332:262,1,140.399987132264,10|0,3:2|0:0,0:0:0:0:
375,340,218378,6,0,L|370:138,1,187.199982843018,4|0,3:1|3:0,0:0:0:0:
237,15,218828,2,0,L|233:203,1,187.199982843018,2|0,0:0|3:0,0:0:0:0:
142,308,219278,2,0,P|103:294|42:302,1,93.5999914215092,10|0,0:0|0:0,0:0:0:0:
233,202,219578,2,0,L|354:185,1,93.5999914215092,2|0,3:2|0:0,0:0:0:0:
124,55,219878,2,0,B|112:102|112:102|135:177,1,93.5999914215092,8|0,0:0|0:0,0:0:0:0:
312,303,220178,6,0,B|401:268|406:341|499:296,1,187.199982843018,4|0,3:1|3:0,0:0:0:0:
259,213,220628,2,0,P|220:256|249:383,1,187.199982843018,2|0,3:2|2:0,0:0:0:0:
353,204,221078,2,0,L|337:93,1,93.5999914215092,8|0,0:0|0:0,0:0:0:0:
129,217,221378,2,0,L|112:322,1,93.5999914215092,4|0,3:1|0:0,0:0:0:0:
49,153,221678,1,4,3:1:0:0:
73,128,221753,1,8,0:0:0:0:
105,114,221828,1,8,0:0:0:0:
140,113,221903,1,8,0:0:0:0:
173,125,221978,5,12,0:0:0:0:
256,192,222053,12,0,225128,0:0:0:0:
