osu file format v14

[General]
AudioFilename: audio.mp3
AudioLeadIn: 0
PreviewTime: 47385
Countdown: 0
SampleSet: Soft
StackLeniency: 0.2
Mode: 0
LetterboxInBreaks: 0
WidescreenStoryboard: 1

[Editor]
Bookmarks: 1895,13124,16724,48261,49161,77949,110349,139149,153549,164349,167949,182349,202137,203937
DistanceSpacing: 1.7
BeatDivisor: 4
GridSize: 32
TimelineZoom: 1.8

[Metadata]
Title:-ERROR 2018ver.
TitleUnicode:-ERROR 2018ver.
Artist:cillia feat. Namine Ritsu
ArtistUnicode:シリア feat. 波音リツ
Creator:Bashe
Version:Breathe
Source:
Tags:utau kyaami vocaloid cover niki Aeril Nao_Tomori nao tomori naotoshi -Sylvari yukiya frogyfro japanese
BeatmapID:2062996
BeatmapSetID:986100

[Difficulty]
HPDrainRate:5
CircleSize:4.3
OverallDifficulty:9
ApproachRate:9.3
SliderMultiplier:1.69999990463257
SliderTickRate:1

[Events]
//Background and Video events
0,0,"bg.jpg",0,0
//Break Periods
//Storyboard Layer 0 (Background)
//Storyboard Layer 1 (Fail)
//Storyboard Layer 2 (Pass)
//Storyboard Layer 3 (Foreground)
//Storyboard Layer 4 (Overlay)
//Storyboard Sound Samples

[TimingPoints]
-4835,300,6,2,1,60,1,0
565,-133.333333333333,6,2,1,60,0,0
1840,-100,6,2,1,40,0,0
2140,-100,6,2,1,70,0,0
2365,-71.4285714285714,6,2,1,75,0,0
7465,-100,6,2,1,75,0,0
7765,-71.4285714285714,6,2,1,75,0,0
9265,-100,6,2,1,75,0,0
9565,-71.4285714285714,6,2,1,75,0,0
10465,-83.3333333333333,6,2,1,75,0,0
11365,-71.4285714285714,6,2,1,75,0,0
12865,-111.111111111111,6,2,1,75,0,0
13165,-100,6,2,1,75,0,0
16764,-125,6,2,1,55,0,0
30264,-133.333333333333,6,2,1,55,0,0
31164,-125,6,2,1,55,0,0
38364,-133.333333333333,6,2,1,55,0,0
45264,-111.111111111111,6,2,1,65,0,0
47364,-100,6,2,1,70,0,0
49165,-83.3333333333333,6,2,1,80,0,1
52464,-100,6,2,1,80,0,1
52764,-83.3333333333333,6,2,1,80,0,1
62665,-71.4285714285714,6,2,1,80,0,1
63564,-76.9230769230769,6,2,1,80,0,1
67164,-74.0740740740741,6,2,1,80,0,1
76464,-74.0740740740741,6,2,1,65,0,1
76765,-74.0740740740741,6,2,1,80,0,1
77965,-125,6,2,1,55,0,0
83064,-125,6,2,1,35,0,0
83364,-125,6,2,1,55,0,0
84864,-125,6,2,1,35,0,0
85164,-125,6,2,1,55,0,0
99564,-133.333333333333,6,2,1,55,0,0
106764,-111.111111111111,6,2,1,65,0,0
108564,-100,6,2,1,75,0,0
109914,-90.9090909090909,6,2,1,75,0,0
110365,-83.3333333333333,6,2,1,80,0,1
113664,-100,6,2,1,80,0,1
113964,-83.3333333333333,6,2,1,80,0,1
117564,-76.9230769230769,6,2,1,80,0,1
124764,-74.0740740740741,6,2,1,80,0,1
128364,-71.4285714285714,6,2,1,80,0,1
139165,-83.3333333333333,6,2,1,70,0,0
166914,-83.3333333333333,6,2,1,5,0,0
167064,-83.3333333333333,6,2,1,70,0,0
167364,-83.3333333333333,6,2,1,50,0,0
167514,-83.3333333333333,6,2,1,35,0,0
167528,270.27027027027,6,2,1,60,1,0
167978,300,6,2,1,80,1,1
167978,-80,6,2,1,80,0,1
181478,-68.9655172413793,6,2,1,80,0,1
182378,-80,6,2,1,80,0,1
193178,-74.0740740740741,6,2,1,70,0,0
196778,-76.9230769230769,6,2,1,80,0,1
202177,-55.5555555555556,6,2,1,80,0,1
203977,-76.9230769230769,6,2,1,80,0,1
210278,-66.6666666666667,6,2,1,80,0,1
211178,-76.9230769230769,6,2,1,80,0,1
222128,-76.9230769230769,6,2,1,50,0,0
236378,-76.9230769230769,6,2,1,5,0,0

[Colours]
Combo1 : 255,170,255
Combo2 : 255,175,178
Combo3 : 128,0,0
Combo4 : 254,146,117

[HitObjects]
61,37,565,6,0,P|55:84|57:124,1,63.7499988555908
83,211,865,1,0,0:0:0:0:
83,211,1015,2,0,P|139:194|191:241,1,127.499997711182
278,310,1465,2,0,P|259:252|277:180,1,127.499997711182,0|0,3:0|3:0,3:0:0:0:
285,147,1840,1,8,0:0:0:0:
269,116,1915,1,8,0:0:0:0:
239,99,1990,1,8,0:0:0:0:
207,64,2065,5,8,0:0:0:0:
247,26,2140,1,8,0:0:0:0:
308,39,2215,1,8,0:0:0:0:
333,92,2290,1,8,0:0:0:0:
329,145,2365,6,0,P|302:219|240:257,1,118.999993030548,4|0,3:1|0:0,0:0:0:0:
172,280,2665,1,0,3:0:0:0:
35,351,2815,1,0,3:0:0:0:
222,377,2965,1,2,0:0:0:0:
88,242,3115,1,0,3:0:0:0:
166,106,3265,6,0,L|41:105,1,118.999993030548,8|0,0:0|0:0,0:0:0:0:
257,17,3565,2,0,P|264:75|248:139,1,118.999993030548,2|0,0:0|3:0,0:0:0:0:
288,297,3865,2,0,B|286:239|313:176,1,118.999993030548,2|0,0:0|3:0,0:0:0:0:
392,44,4165,6,0,P|423:117|403:177,1,118.999993030548,4|0,3:1|0:2,0:0:0:0:
386,257,4465,1,0,3:0:0:0:
292,379,4615,1,0,3:0:0:0:
472,324,4765,1,2,0:0:0:0:
294,259,4915,1,0,3:0:0:0:
43,272,5065,6,0,P|101:261|161:265,1,118.999993030548,8|0,0:0|0:0,0:0:0:0:
59,82,5365,2,0,P|49:142|52:202,1,118.999993030548,2|0,0:0|3:0,0:0:0:0:
155,384,5665,2,0,B|172:312|158:250,1,118.999993030548,2|0,3:2|0:0,0:0:0:0:
297,148,5965,6,0,P|234:140|146:156,1,118.999993030548,4|0,3:1|0:0,0:0:0:0:
96,130,6265,1,0,3:0:0:0:
227,47,6415,1,0,3:0:0:0:
162,211,6565,1,2,0:0:0:0:
107,39,6715,1,0,3:0:0:0:
251,164,6865,6,0,P|268:246|312:313,1,118.999993030548,8|0,0:0|0:0,0:0:0:0:
337,340,7165,1,2,3:2:0:0:
189,349,7315,1,0,3:0:0:0:
56,205,7465,2,0,L|88:323,1,84.9999976158143,2|0,0:0|3:0,0:0:0:0:
253,373,7765,6,0,P|297:299|301:244,1,118.999993030548,4|0,3:1|0:0,0:0:0:0:
297,183,8065,1,0,3:0:0:0:
166,99,8215,1,0,3:0:0:0:
205,273,8365,1,0,3:0:0:0:
391,186,8515,1,0,3:0:0:0:
391,186,8590,1,0,3:0:0:0:
391,186,8665,6,0,L|231:192,1,118.999993030548,10|0,0:0|0:0,0:0:0:0:
164,192,8965,1,2,3:2:0:0:
57,83,9115,1,8,0:0:0:0:
64,252,9265,2,0,P|75:305|94:348,1,84.9999976158142,2|0,3:2|0:0,0:0:0:0:
207,91,9565,6,0,P|272:29|319:20,1,118.999993030548,4|0,3:1|0:0,0:0:0:0:
405,23,9865,1,0,3:0:0:0:
438,174,10015,1,0,3:0:0:0:
512,0,10165,1,2,0:0:0:0:
347,95,10315,1,0,3:0:0:0:
488,176,10465,6,0,L|383:177,1,101.999994026184,8|0,0:0|0:0,0:0:0:0:
251,128,10765,2,0,L|251:231,1,101.999994026184,2|0,3:2|0:0,0:0:0:0:
382,132,11065,2,0,L|381:24,1,101.999994026184,2|0,3:2|0:0,0:0:0:0:
248,9,11365,6,0,P|254:80|247:152,1,118.999993030548,4|0,3:1|0:0,0:0:0:0:
203,225,11665,1,0,3:0:0:0:
320,326,11815,1,0,3:0:0:0:
138,354,11965,1,2,0:0:0:0:
296,225,12115,1,0,3:0:0:0:
212,99,12265,6,0,P|189:56|98:3,1,118.999993030548,8|0,0:0|0:0,0:0:0:0:
26,16,12565,1,2,3:2:0:0:
131,121,12715,1,0,0:0:0:0:
71,294,12865,2,0,P|70:250|85:212,1,76.4999955196382,2|0,3:2|0:0,0:0:0:0:
296,93,13165,6,0,P|243:96|190:86,1,84.9999976158143,4|0,3:1|0:0,0:0:0:0:
114,18,13465,1,2,3:2:0:0:
174,173,13615,1,0,3:0:0:0:
289,20,13765,1,10,0:0:0:0:
330,132,13915,1,4,3:0:0:0:
384,68,14065,5,10,0:0:0:0:
416,7,14365,1,2,3:2:0:0:
501,298,14665,1,8,0:0:0:0:
392,210,14815,1,8,0:0:0:0:
281,314,14965,2,0,L|190:325,1,84.9999976158142,12|0,3:2|0:0,0:0:0:0:
84,249,15265,5,0,0:0:0:0:
93,265,15340,1,0,0:0:0:0:
97,283,15415,1,0,0:0:0:0:
95,301,15490,1,0,0:0:0:0:
81,336,15565,5,0,3:0:0:0:
191,107,15865,1,8,0:0:0:0:
121,62,16165,1,0,3:0:0:0:
177,115,16465,1,4,3:0:0:0:
245,49,16765,6,0,P|305:35|400:75,1,135.999996185303,2|2,3:2|0:0,0:0:0:0:
471,163,17215,2,0,P|399:173|317:166,1,135.999996185303,2|10,3:2|0:0,0:0:0:0:
359,325,17665,2,0,P|409:332|458:320,1,102,8|0,0:0|0:0,0:0:0:0:
307,255,17965,2,0,P|256:247|207:259,1,102,10|0,0:0|0:0,0:0:0:0:
130,320,18265,2,0,L|136:285,1,34,10|0,0:0|0:0,0:0:0:0:
149,179,18415,1,8,0:0:0:0:
149,179,18490,1,8,0:0:0:0:
149,179,18565,6,0,P|231:167|274:106,1,135.999996185303,6|2,3:2|0:0,0:0:0:0:
161,67,19015,2,0,P|79:83|44:142,1,135.999996185303,2|2,3:2|0:0,0:0:0:0:
147,211,19465,2,0,P|149:263|131:315,1,101.999997138977,8|0,0:0|0:0,0:0:0:0:
266,347,19765,2,0,P|318:351|370:318,1,102,8|0,0:0|0:0,0:0:0:0:
288,259,20065,2,0,P|288:196|268:137,1,102,8|0,0:0|0:0,0:0:0:0:
198,44,20365,6,0,P|177:122|191:172,1,102,4|0,3:2|0:0,0:0:0:0:
176,229,20665,2,0,L|119:244,1,34,2|0,0:0|0:0,0:0:0:0:
118,263,20815,2,0,P|161:259|233:233,1,102,0|0,3:2|0:0,0:0:0:0:
309,174,21115,2,0,L|255:165,1,33.9999990463257,2|0,0:0|0:0,0:0:0:0:
254,144,21265,2,0,P|332:150|377:142,1,102,8|0,0:0|0:0,0:0:0:0:
454,47,21565,2,0,P|475:108|463:165,1,102,8|0,0:0|0:0,0:0:0:0:
405,283,21865,2,0,L|397:240,1,34,8|0,0:0|0:0,0:0:0:0:
355,146,22015,1,8,0:0:0:0:
355,146,22090,1,8,0:0:0:0:
355,146,22165,6,4,P|308:159|228:136,1,101.999997138977,4|0,3:2|0:0,0:0:0:0:
187,58,22465,2,0,L|237:54,1,34,2|0,0:0|0:0,0:0:0:0:
260,50,22615,2,0,P|213:76|117:89,1,136,8|0,0:0|3:0,0:0:0:0:
16,172,23065,2,0,P|73:188|106:184,1,68,10|0,0:0|0:0,0:0:0:0:
224,186,23365,2,0,P|264:182|332:138,1,101.999997138977,8|0,0:0|0:0,0:0:0:0:
414,71,23665,5,10,0:0:0:0:
426,59,23740,1,8,0:0:0:0:
442,54,23815,1,8,0:0:0:0:
457,60,23890,1,8,0:0:0:0:
470,69,23965,6,0,P|402:101|332:82,1,135.999996185303,4|8,3:2|0:0,0:0:0:0:
162,13,24415,2,0,P|116:70|94:142,1,136,10|2,0:0|0:0,0:0:0:0:
62,310,24865,2,0,P|102:286|127:255,1,68,8|0,0:0|0:0,0:0:0:0:
262,102,25165,2,0,P|261:191|243:241,1,136,10|8,0:0|0:0,0:0:0:0:
166,371,25615,1,8,0:0:0:0:
166,371,25690,1,8,0:0:0:0:
166,371,25765,6,0,P|260:367|314:337,1,136,4|0,3:2|0:0,0:0:0:0:
136,249,26215,2,0,P|70:241|4:271,1,136,10|0,0:0|0:0,0:0:0:0:
210,303,26665,2,0,P|280:305|357:271,1,136,10|8,0:0|0:0,0:0:0:0:
473,212,27115,1,8,0:0:0:0:
284,171,27265,2,0,L|334:156,1,34,10|0,0:0|0:0,0:0:0:0:
421,110,27415,1,8,0:0:0:0:
421,110,27490,1,8,0:0:0:0:
421,110,27565,6,0,P|357:63|277:57,1,136,4|8,3:2|0:0,0:0:0:0:
102,88,28015,2,0,P|136:123|174:137,1,68,10|0,0:0|0:0,0:0:0:0:
284,171,28315,1,8,0:0:0:0:
168,309,28465,2,0,P|160:255|179:185,1,102,8|0,3:2|0:0,0:0:0:0:
288,70,28765,2,0,P|287:119|280:218,1,136,10|10,0:0|0:0,0:0:0:0:
255,338,29215,1,8,0:0:0:0:
255,338,29290,1,8,0:0:0:0:
255,338,29365,6,0,B|303:358|355:295|413:348,1,136,4|8,3:2|0:0,0:0:0:0:
476,378,29815,2,0,P|496:318|450:253,1,136,10|0,0:0|0:0,0:0:0:0:
298,242,30265,2,0,P|341:180|412:177,1,127.500004863739,10|8,0:0|0:0,0:0:0:0:
511,172,30715,1,0,3:0:0:0:
382,77,30865,1,10,0:0:0:0:
400,228,31015,1,8,0:0:0:0:
400,228,31090,1,8,0:0:0:0:
400,228,31165,6,0,P|387:167|384:80,1,135.999996185303,4|10,3:2|0:2,0:0:0:0:
265,6,31615,2,0,P|262:62|248:99,1,68,10|0,0:0|0:0,0:0:0:0:
179,173,31915,2,0,L|133:177,1,34,10|0,0:0|0:0,0:0:0:0:
120,194,32065,2,0,P|176:214|248:207,1,102,2|0,3:2|0:0,0:0:0:0:
406,149,32365,2,0,P|346:133|291:137,1,102,10|0,0:0|0:0,0:0:0:0:
337,158,32665,2,0,L|375:156,1,34,10|0,0:0|0:0,0:0:0:0:
490,174,32815,1,8,0:0:0:0:
490,174,32890,1,8,0:0:0:0:
490,174,32965,6,0,P|500:234|491:299,1,102,4|0,3:2|0:0,0:0:0:0:
417,342,33265,2,0,L|382:347,1,34,2|0,0:0|0:0,0:0:0:0:
341,354,33415,2,0,P|453:361|463:356,1,101.999997138977,10|0,0:0|0:0,0:0:0:0:
303,290,33715,2,0,L|268:285,1,34,10|0,0:0|0:0,0:0:0:0:
235,272,33865,2,0,P|347:265|355:268,1,102,8|0,3:2|0:0,0:0:0:0:
510,230,34165,2,0,P|430:218|384:200,1,102,10|0,0:0|0:0,0:0:0:0:
225,127,34465,2,0,P|284:116|350:124,1,102,10|0,0:0|0:0,0:0:0:0:
276,226,34765,6,0,L|149:219,1,101.999997138977,6|0,3:2|0:0,0:0:0:0:
80,200,35065,1,2,0:0:0:0:
157,108,35215,2,8,P|96:113|38:104,1,101.999997138977,10|0,0:0|0:0,0:0:0:0:
0,47,35515,1,2,0:0:0:0:
2,183,35665,2,0,P|1:237|3:291,1,101.999997138977,8|0,0:0|0:0,0:0:0:0:
90,380,35965,2,0,P|86:323|92:279,1,101.999997138977,8|0,0:0|0:0,0:0:0:0:
144,157,36265,2,0,L|151:197,1,33.9999990463257,2|0,0:0|0:0,0:0:0:0:
185,296,36415,1,8,0:0:0:0:
185,296,36490,1,8,0:0:0:0:
185,296,36565,6,0,P|235:296|282:277,1,102,4|0,3:2|0:0,0:0:0:0:
412,280,36865,2,0,L|392:320,1,33.9999990463257,2|0,0:0|0:0,0:0:0:0:
383,354,37015,2,0,P|379:311|426:216,1,135.999996185303,10|8,3:2|0:0,0:0:0:0:
511,121,37465,2,0,P|461:106|410:119,1,101.999997138977,8|0,0:0|0:0,0:0:0:0:
318,192,37765,2,0,P|311:141|331:91,1,101.999997138977,8|0,0:0|0:0,0:0:0:0:
403,19,38065,2,0,L|358:20,1,33.9999990463257,8|0,0:0|0:0,0:0:0:0:
183,30,38215,1,8,0:0:0:0:
183,30,38290,1,8,0:0:0:0:
183,30,38365,6,0,P|197:102|241:142,1,127.50000128746,4|8,3:2|0:0,0:0:0:0:
468,139,38815,2,0,P|460:212|426:274,1,127.50000128746,10|2,0:0|0:0,0:0:0:0:
173,335,39265,2,0,L|283:287,1,95.6250009655953,2|0,3:2|0:0,0:0:0:0:
324,160,39565,2,0,P|261:158|204:186,1,127.50000128746,10|8,0:0|0:0,0:0:0:0:
85,369,40015,1,8,0:0:0:0:
85,369,40090,1,8,0:0:0:0:
85,369,40165,6,0,P|80:293|109:233,1,127.50000128746,4|0,3:2|0:0,0:0:0:0:
248,106,40615,2,0,P|176:103|98:131,1,127.50000128746,10|0,0:0|0:0,0:0:0:0:
282,5,41065,2,0,P|343:7|427:38,1,127.50000128746,10|8,0:0|0:0,0:0:0:0:
488,86,41515,1,8,0:0:0:0:
414,174,41665,2,0,L|366:184,1,31.8750003218651,2|0,0:0|0:0,0:0:0:0:
216,226,41815,1,8,0:0:0:0:
216,226,41890,1,8,0:0:0:0:
216,226,41965,6,0,P|243:174|245:88,1,127.50000128746,4|8,3:2|0:0,0:0:0:0:
118,0,42415,2,0,L|111:68,1,63.7500006437302,10|0,0:0|0:0,0:0:0:0:
97,162,42715,1,8,0:0:0:0:
257,251,42865,2,0,P|201:264|158:251,1,95.6250009655953,8|0,3:2|0:0,0:0:0:0:
10,347,43165,2,0,L|155:338,1,127.50000128746,10|10,0:0|0:0,0:0:0:0:
296,330,43615,1,8,0:0:0:0:
296,330,43690,1,8,0:0:0:0:
296,330,43765,6,0,P|302:257|283:196,1,127.50000128746,6|0,3:2|0:0,0:0:0:0:
144,114,44215,2,0,P|210:86|281:104,1,127.50000128746,8|0,0:0|0:0,0:0:0:0:
490,161,44665,2,0,P|440:175|350:168,1,127.50000128746,10|8,0:0|0:0,0:0:0:0:
263,94,45115,1,0,0:0:0:0:
407,0,45265,2,0,P|395:59|424:122,1,114.749993279457,10|0,0:0|0:0,0:0:0:0:
506,235,45565,6,0,P|456:273|320:248,1,191.249988799096,4|0,3:2|0:0,0:0:0:0:
236,176,46015,2,0,P|158:153|39:193,1,191.249988799096,10|0,0:0|0:0,0:0:0:0:
142,270,46465,2,0,P|196:279|254:255,1,114.749993279457,4|0,3:2|0:0,0:0:0:0:
343,187,46765,2,0,P|411:160|478:167,1,114.749993279457,8|0,0:0|0:0,0:0:0:0:
512,98,47065,2,0,L|474:69,1,38.2499977598191,10|0,0:0|0:0,0:0:0:0:
366,16,47215,1,8,0:0:0:0:
366,16,47290,1,8,0:0:0:0:
366,16,47365,6,0,P|280:2|191:33,1,169.999995231629,4|0,3:1|0:0,0:0:0:0:
51,135,47815,1,8,0:0:0:0:
263,177,47965,1,8,0:0:0:0:
136,1,48115,1,8,0:0:0:0:
112,220,48265,6,0,P|130:261|155:300,1,84.9999976158143,10|2,0:0|0:0,0:0:0:0:
335,305,48565,1,2,0:0:0:0:
107,329,48715,1,2,0:0:0:0:
366,300,48865,1,2,0:0:0:0:
250,213,49015,1,0,3:2:0:0:
241,202,49090,1,0,3:2:0:0:
234,193,49165,6,0,P|213:138|252:-3,1,203.999988052369,4|0,3:1|3:0,0:0:0:0:
451,22,49615,2,0,L|396:73,1,50.9999970130922,2|0,0:0|0:0,0:0:0:0:
319,204,49765,1,0,0:0:0:0:
143,25,49915,1,0,3:0:0:0:
48,215,50065,2,0,P|143:203|230:103,1,203.999988052369,10|0,0:0|0:0,0:0:0:0:
439,43,50515,2,0,L|377:47,1,50.9999955825808,2|0,0:0|0:0,0:0:0:0:
213,8,50665,2,0,P|276:22|406:5,1,152.999991039276,8|0,3:2|0:0,0:0:0:0:
508,70,50965,6,0,P|507:147|476:270,1,203.999988052369,4|0,3:1|3:0,0:0:0:0:
293,375,51415,2,0,L|321:305,1,50.9999970130922,2|0,0:0|0:0,0:0:0:0:
364,159,51565,1,0,0:0:0:0:
258,239,51715,1,0,3:0:0:0:
301,15,51865,2,0,P|273:112|203:185,1,203.999988052369,8|0,0:0|3:0,0:0:0:0:
109,268,52315,1,0,0:0:0:0:
300,350,52465,2,0,P|241:363|163:338,1,127.499996423721,8|0,1:2|0:0,0:0:0:0:
10,218,52765,6,0,P|74:196|214:210,1,203.999988052369,4|0,3:1|3:0,0:0:0:0:
411,286,53215,2,0,L|347:299,1,50.9999970130922,2|0,0:0|0:0,0:0:0:0:
188,330,53365,1,0,0:0:0:0:
241,186,53515,1,0,3:0:0:0:
52,29,53665,2,0,P|110:104|101:236,1,203.999988052369,10|0,0:0|3:0,0:0:0:0:
0,378,54115,2,0,L|62:374,1,50.9999970130922,2|0,0:0|0:0,0:0:0:0:
186,283,54265,2,0,P|133:320|7:355,1,152.999991039276,8|0,3:2|0:0,0:0:0:0:
41,224,54565,6,0,P|65:299|174:364,1,203.999988052369,4|0,3:1|3:0,0:0:0:0:
293,375,55015,2,0,L|321:305,1,50.9999970130922,2|0,0:0|0:0,0:0:0:0:
324,141,55165,1,0,0:0:0:0:
150,225,55315,1,0,3:0:0:0:
214,9,55465,2,0,P|241:133|328:182,1,203.999982330323,10|0,0:0|3:0,0:0:0:0:
480,248,55915,5,8,0:0:0:0:
432,228,55990,1,8,0:0:0:0:
410,181,56065,1,8,0:0:0:0:
361,164,56140,1,8,0:0:0:0:
327,126,56215,1,8,0:0:0:0:
276,119,56290,1,8,0:0:0:0:
229,105,56365,6,0,B|221:97|213:89|150:66|44:-19,1,203.999988052369,4|0,3:1|3:0,0:0:0:0:
16,205,56815,2,0,L|79:175,1,50.9999970130922,2|0,0:0|0:0,0:0:0:0:
229,105,56965,1,0,0:0:0:0:
135,342,57115,1,0,3:0:0:0:
391,151,57265,2,0,P|295:147|166:175,1,203.999988052369,10|0,0:0|3:0,0:0:0:0:
34,294,57715,2,0,L|35:222,1,50.9999970130922,2|0,0:0|0:0,0:0:0:0:
97,77,57865,2,0,P|71:232|72:261,1,152.999991039276,8|0,0:0|0:0,0:0:0:0:
23,365,58165,6,0,P|61:323|225:334,1,203.999988052369,4|0,3:1|3:0,0:0:0:0:
325,378,58615,2,0,L|303:314,1,50.9999970130922,2|0,0:0|0:0,0:0:0:0:
256,146,58765,1,0,0:0:0:0:
128,237,58915,1,0,3:0:0:0:
414,196,59065,2,0,P|300:194|233:86,1,203.999988052369,10|0,0:0|0:0,0:0:0:0:
214,24,59515,1,0,0:0:0:0:
7,115,59665,2,0,P|92:109|85:185,1,152.999986747742,4|0,3:1|0:0,0:0:0:0:
339,22,59965,6,0,L|93:38,1,203.999988052369,4|0,3:1|3:0,0:0:0:0:
30,46,60415,1,0,3:0:0:0:
46,242,60565,2,0,L|91:178,1,50.9999970130922,2|0,0:0|0:0,0:0:0:0:
184,36,60715,1,0,3:0:0:0:
214,259,60865,2,0,L|272:164,1,101.999994026184,8|0,0:0|0:0,0:0:0:0:
376,9,61165,2,0,L|377:125,1,101.999994026184,0|0,3:0|0:0,0:0:0:0:
384,364,61465,2,0,P|415:269|486:288,1,152.999986747742,4|0,3:1|0:0,0:0:0:0:
440,8,61765,6,0,P|392:58|360:195,1,203.999988052369,4|0,3:1|3:0,0:0:0:0:
386,303,62215,1,0,3:0:0:0:
191,137,62365,1,10,0:0:0:0:
495,130,62515,1,0,3:0:0:0:
180,297,62665,2,0,P|270:217|277:124,1,178.499984539033,8|0,0:0|0:0,0:0:0:0:
264,2,62965,5,12,3:2:0:0:
242,31,63040,1,8,0:0:0:0:
253,62,63115,1,8,0:0:0:0:
230,97,63190,1,8,0:0:0:0:
256,146,63265,1,10,1:2:0:0:
231,196,63340,1,8,0:0:0:0:
261,251,63415,1,8,0:0:0:0:
238,314,63490,1,8,0:0:0:0:
282,368,63565,6,0,P|352:363|504:259,1,220.999983684541,4|0,3:1|3:0,0:0:0:0:
489,115,64015,2,0,L|423:155,1,55.2499959211352,2|0,0:0|0:0,0:0:0:0:
261,251,64165,1,0,0:0:0:0:
333,46,64315,1,0,3:0:0:0:
404,248,64465,2,0,L|312:165,1,110.49999184227,8|0,0:0|0:0,0:0:0:0:
179,42,64765,2,0,L|178:169,1,110.49999184227,2|0,3:2|0:0,0:0:0:0:
46,297,65065,2,0,P|150:303|166:368,1,165.749983114243,8|0,0:0|0:0,0:0:0:0:
381,206,65365,6,0,P|282:176|166:204,1,220.999983684541,4|0,3:1|3:0,0:0:0:0:
34,335,65815,2,0,L|58:240,1,55.2499959211352,2|0,0:0|0:0,0:0:0:0:
94,76,65965,1,0,0:0:0:0:
254,34,66115,1,0,3:0:0:0:
1,159,66265,2,0,L|161:152,1,110.49999184227,8|0,0:0|0:0,0:0:0:0:
321,63,66565,2,0,L|188:71,1,110.49999184227,2|0,3:2|0:0,0:0:0:0:
77,15,66865,2,0,P|86:78|-11:75,1,165.749983114243,8|0,0:0|0:0,0:0:0:0:
103,372,67165,6,0,P|124:312|122:147,1,229.499994438171,4|0,3:1|0:0,0:0:0:0:
62,22,67615,2,0,L|134:43,1,57.3749986095429,2|0,0:0|0:0,0:0:0:0:
327,93,67765,1,0,0:0:0:0:
216,225,67915,1,0,3:0:0:0:
183,2,68065,2,0,L|184:132,1,114.749997219086,10|0,0:0|0:0,0:0:0:0:
278,223,68365,2,0,L|136:227,1,114.749997219086,2|0,3:2|0:0,0:0:0:0:
0,108,68665,2,0,P|83:101|78:186,1,172.124991000652,10|0,0:0|0:0,0:0:0:0:
327,38,68965,6,0,L|189:45,1,114.749997219086,4|0,3:1|0:0,0:0:0:0:
75,18,69265,1,0,3:0:0:0:
252,0,69415,2,0,P|284:49|230:198,1,229.499994438171,2|0,3:2|3:0,0:0:0:0:
130,293,69865,2,0,P|72:293|18:276,1,114.749994000435,8|0,0:0|0:0,0:0:0:0:
274,331,70165,5,8,3:2:0:0:
307,315,70240,1,8,0:0:0:0:
307,252,70315,1,8,0:0:0:0:
353,199,70390,1,8,0:0:0:0:
431,186,70465,2,0,P|351:157|231:171,1,172.124995828629,10|0,3:2|0:0,0:0:0:0:
121,93,70765,6,0,P|182:61|347:60,1,229.499994438171,4|0,3:1|3:0,0:0:0:0:
490,108,71215,2,0,L|409:130,1,57.3749986095429,2|0,0:0|0:0,0:0:0:0:
221,168,71365,1,0,0:0:0:0:
372,270,71515,1,0,3:0:0:0:
362,6,71665,2,0,L|221:61,1,114.749997219086,10|0,0:0|0:0,0:0:0:0:
125,226,71965,2,0,L|246:171,1,114.749997219086,2|0,3:2|0:0,0:0:0:0:
505,103,72265,2,0,P|415:143|447:189,1,172.124991000652,8|0,0:0|0:0,0:0:0:0:
295,341,72565,6,0,P|234:338|213:192,1,229.499994438171,4|0,3:1|3:0,0:0:0:0:
348,75,73015,2,0,L|196:88,1,114.749997219086,2|0,3:2|0:0,0:0:0:0:
39,102,73315,1,0,2:0:0:0:
170,272,73465,2,0,L|168:142,1,114.749997219086,8|0,0:0|0:0,0:0:0:0:
55,222,73765,2,0,L|51:354,1,114.749997219086,4|0,3:1|0:0,0:0:0:0:
284,272,74065,1,8,3:2:0:0:
297,198,74140,1,8,0:0:0:0:
226,178,74215,1,8,0:0:0:0:
164,135,74290,1,8,0:0:0:0:
165,66,74365,6,0,P|129:144|160:291,1,229.499994438171,4|0,3:1|3:0,0:0:0:0:
310,369,74815,1,8,0:0:0:0:
82,323,74965,1,8,0:0:0:0:
246,229,75115,1,0,3:0:0:0:
67,62,75265,2,0,L|89:190,1,114.749997219086,4|0,3:2|0:0,0:0:0:0:
125,381,75565,1,8,0:0:0:0:
217,118,75715,1,8,0:0:0:0:
0,248,75865,2,0,L|128:262,1,114.749997219086,0|0,3:0|0:0,0:0:0:0:
383,197,76165,2,0,P|329:209|252:189,1,114.749997219086,4|0,3:2|0:0,0:0:0:0:
77,120,76465,1,8,0:0:0:0:
139,108,76540,1,8,0:0:0:0:
199,127,76615,1,8,0:0:0:0:
261,115,76690,1,8,0:0:0:0:
323,123,76765,1,8,0:0:0:0:
237,8,76915,1,0,3:0:0:0:
250,296,77065,1,8,0:0:0:0:
246,99,77365,1,0,3:0:0:0:
247,127,77440,1,0,3:0:0:0:
246,155,77515,1,0,3:0:0:0:
246,183,77590,1,0,3:0:0:0:
246,228,77665,1,4,3:2:0:0:
225,326,77965,6,0,P|294:331|384:322,1,135.999996185303,2|2,3:2|0:0,0:0:0:0:
470,251,78415,2,0,P|398:241|316:248,1,135.999996185303,2|10,3:2|0:0,0:0:0:0:
155,210,78865,2,0,L|286:196,1,101.999997138977,8|0,0:0|0:0,0:0:0:0:
319,146,79165,2,0,L|207:117,1,101.999997138977,10|0,0:0|0:0,0:0:0:0:
129,94,79465,1,10,0:0:0:0:
204,14,79615,1,8,0:0:0:0:
204,14,79690,1,8,0:0:0:0:
204,14,79765,6,0,L|76:20,1,101.999997138977,6|2,3:2|0:0,0:0:0:0:
220,120,80065,2,0,L|274:119,1,33.9999990463257,2|0,0:0|0:0,0:0:0:0:
303,143,80215,2,0,L|184:146,1,101.999997138977,8|0,0:0|0:0,0:0:0:0:
88,203,80515,2,0,L|133:202,1,33.9999990463257,2|0,0:0|0:0,0:0:0:0:
174,226,80665,2,0,L|41:230,1,101.999997138977,8|0,0:0|0:0,0:0:0:0:
169,298,80965,2,0,L|284:294,1,101.999997138977,8|0,0:0|0:0,0:0:0:0:
353,249,81265,2,0,P|359:299|344:347,1,101.999997138977,8|0,0:0|0:0,0:0:0:0:
270,294,81565,6,0,P|257:233|295:165,1,135.999996185303,4|10,3:2|0:2,0:0:0:0:
455,106,82015,2,0,P|399:103|362:89,1,68,10|0,0:0|0:0,0:0:0:0:
266,22,82315,2,0,L|220:26,1,34,10|0,0:0|0:0,0:0:0:0:
178,47,82465,2,0,P|234:67|303:51,1,101.999997138977,2|0,3:2|0:0,0:0:0:0:
478,24,82765,2,0,P|418:8|363:12,1,102,10|0,0:0|0:0,0:0:0:0:
275,64,83065,1,8,0:0:0:0:
262,75,83140,1,8,0:0:0:0:
251,88,83215,1,8,0:0:0:0:
241,102,83290,1,8,0:0:0:0:
233,117,83365,6,4,P|283:113|384:128,1,135.999996185303,4|8,3:2|0:0,3:2:0:0:
498,226,83815,2,0,P|441:239|356:222,1,135.999996185303,8|0,0:0|3:0,0:0:0:0:
250,96,84265,2,0,P|208:149|148:172,1,101.999997138977,10|0,0:0|0:0,0:0:0:0:
63,230,84565,2,0,P|117:264|161:265,1,101.999997138977,8|0,0:0|0:0,0:0:0:0:
283,302,84865,5,10,0:0:0:0:
297,310,84940,1,8,0:0:0:0:
309,321,85015,1,8,0:0:0:0:
315,329,85090,1,8,0:0:0:0:
315,329,85165,6,0,P|247:361|177:342,1,135.999996185303,4|8,3:2|0:0,0:0:0:0:
11,262,85615,2,0,P|61:193|130:183,1,135.999996185303,10|2,0:0|0:0,0:0:0:0:
316,103,86065,2,0,P|270:114|231:110,1,68,8|0,0:0|0:0,0:0:0:0:
71,47,86365,2,0,P|154:16|206:22,1,135.999996185303,10|8,0:0|0:0,0:0:0:0:
377,77,86815,1,8,0:0:0:0:
377,77,86890,1,8,0:0:0:0:
377,77,86965,6,0,P|290:113|228:108,1,136,4|0,3:2|0:0,0:0:0:0:
101,44,87415,2,0,P|52:97|67:161,1,135.999996185303,10|0,0:0|0:0,0:0:0:0:
261,277,87865,2,0,P|197:300|130:297,1,136,10|8,0:0|0:0,0:0:0:0:
28,244,88315,1,8,0:0:0:0:
169,174,88465,2,0,L|206:222,1,33.9999990463257,10|0,0:0|0:0,0:0:0:0:
303,362,88615,1,8,0:0:0:0:
303,362,88690,1,8,0:0:0:0:
303,362,88765,6,0,P|350:298|356:218,1,136,4|8,3:2|0:0,0:0:0:0:
265,157,89215,2,0,P|326:125|416:155,1,135.999996185303,10|8,0:0|0:0,0:0:0:0:
484,264,89665,2,0,L|437:189,1,67.9999980926514,10|8,0:0|0:0,0:0:0:0:
306,85,89965,2,0,P|311:155|304:211,1,101.999997138977,8|0,0:0|0:0,0:0:0:0:
223,277,90265,2,0,L|209:219,1,33.9999990463257,10|0,0:0|0:0,0:0:0:0:
134,83,90415,1,8,0:0:0:0:
134,83,90490,1,8,0:0:0:0:
134,83,90565,6,0,P|139:144|58:187,1,135.999996185303,6|10,3:2|0:0,0:0:0:0:
0,121,91015,1,8,0:0:0:0:
83,11,91165,2,0,L|179:11,1,67.9999980926514,2|0,0:0|0:0,0:0:0:0:
292,93,91465,2,0,L|217:94,1,67.9999980926514,10|0,0:0|0:0,0:0:0:0:
82,177,91765,2,0,L|162:176,1,67.9999980926514,8|0,0:0|0:0,0:0:0:0:
290,199,92065,2,0,L|276:167,1,33.9999990463257,10|0,0:0|0:0,0:0:0:0:
227,23,92215,1,8,0:0:0:0:
227,23,92290,1,8,0:0:0:0:
227,23,92365,6,0,P|302:44|363:12,1,135.999996185303,4|10,3:2|0:0,0:0:0:0:
490,100,92815,2,0,P|434:92|344:117,1,135.999996185303,10|8,0:0|0:0,0:0:0:0:
249,203,93265,2,0,L|336:200,1,67.9999980926514,2|0,3:2|0:0,0:0:0:0:
470,199,93565,2,0,P|478:257|444:313,1,101.999997138977,10|0,0:0|0:0,0:0:0:0:
368,365,93865,2,0,L|372:313,1,33.9999990463257,10|0,0:0|0:0,0:0:0:0:
385,149,94015,1,8,0:0:0:0:
385,149,94090,1,8,0:0:0:0:
385,149,94165,6,0,P|306:130|238:143,1,135.999996185303,4|8,3:2|0:0,0:0:0:0:
138,231,94615,2,0,L|146:132,1,67.9999980926514,10|0,0:0|0:0,0:0:0:0:
158,40,94915,2,0,L|189:25,1,33.9999990463257,10|0,0:0|0:0,0:0:0:0:
243,27,95065,2,0,P|201:64|128:65,1,101.999997138977,10|0,0:0|0:0,0:0:0:0:
0,166,95365,2,0,L|108:188,1,101.999997138977,10|0,0:0|0:0,0:0:0:0:
202,194,95665,2,0,L|217:164,1,33.9999990463257,10|0,0:0|0:0,0:0:0:0:
320,22,95815,1,8,0:0:0:0:
320,22,95890,1,8,0:0:0:0:
320,22,95965,6,0,P|244:4|166:38,1,135.999996185303,4|8,3:2|0:0,0:0:0:0:
280,140,96415,2,0,P|336:154|417:128,1,135.999996185303,10|10,0:0|0:0,0:0:0:0:
491,2,96865,2,0,L|492:89,1,67.9999980926514,2|0,3:2|0:0,0:0:0:0:
415,199,97165,2,0,P|416:155|399:115,1,67.9999980926514,10|8,0:0|0:0,0:0:0:0:
310,70,97465,1,8,0:0:0:0:
293,64,97540,1,8,0:0:0:0:
279,53,97615,1,8,0:0:0:0:
269,38,97690,1,8,0:0:0:0:
274,21,97765,6,0,P|289:102|272:168,1,135.999996185303,4|8,3:2|0:0,0:0:0:0:
166,251,98215,2,0,L|263:245,1,67.9999980926514,8|8,0:0|0:0,0:0:0:0:
364,224,98515,1,10,0:0:0:0:
221,118,98665,2,0,P|282:107|334:120,1,101.999997138977,10|0,0:0|0:0,0:0:0:0:
463,202,98965,2,0,P|417:218|341:221,1,101.999997138977,10|0,0:0|0:0,0:0:0:0:
250,229,99265,2,0,L|237:265,1,33.9999990463257,10|0,0:0|0:0,0:0:0:0:
169,373,99415,1,8,0:0:0:0:
169,373,99490,1,8,0:0:0:0:
169,373,99565,6,0,P|126:326|117:264,1,127.50000128746,4|8,3:2|0:0,0:0:0:0:
43,62,100015,2,0,P|35:135|1:197,1,127.50000128746,10|2,0:0|0:0,0:0:0:0:
117,264,100465,2,0,L|227:216,1,95.6250009655953,2|0,3:2|0:0,0:0:0:0:
368,201,100765,2,0,P|338:129|278:108,1,127.50000128746,10|8,0:0|0:0,0:0:0:0:
137,37,101215,1,8,0:0:0:0:
137,37,101290,1,8,0:0:0:0:
137,37,101365,6,0,P|199:5|269:10,1,127.50000128746,4|0,3:2|0:0,0:0:0:0:
436,40,101815,2,0,P|442:113|411:190,1,127.50000128746,10|0,0:0|0:0,0:0:0:0:
210,283,102265,2,0,P|271:281|355:250,1,127.50000128746,10|8,0:0|0:0,0:0:0:0:
426,164,102715,1,8,0:0:0:0:
486,248,102865,2,0,L|456:302,1,31.8750003218651,2|0,0:0|0:0,0:0:0:0:
301,381,103015,1,8,0:0:0:0:
301,381,103090,1,8,0:0:0:0:
301,381,103165,6,0,P|328:329|330:243,1,127.50000128746,4|8,3:2|0:0,0:0:0:0:
245,75,103615,2,0,L|238:143,1,63.7500006437302,10|0,0:0|0:0,0:0:0:0:
230,234,103915,1,8,0:0:0:0:
50,149,104065,2,0,P|95:162|141:152,1,95.6250009655953,8|0,3:2|0:0,0:0:0:0:
284,74,104365,2,0,P|211:75|142:53,1,127.50000128746,8|10,0:0|0:0,0:0:0:0:
0,15,104815,1,8,0:0:0:0:
0,15,104890,1,8,0:0:0:0:
0,15,104965,6,0,P|-6:88|13:149,1,127.50000128746,6|0,3:2|0:0,0:0:0:0:
162,307,105415,2,0,P|176:245|172:181,1,127.50000128746,8|8,0:0|0:0,0:0:0:0:
86,46,105865,2,0,P|136:32|226:39,1,127.50000128746,10|8,0:0|0:0,0:0:0:0:
326,66,106315,1,0,0:0:0:0:
212,161,106465,2,0,P|161:176|96:162,1,95.6250009655953,10|0,0:0|0:0,0:0:0:0:
5,234,106765,6,0,P|86:281|177:259,1,191.249988799096,4|0,3:2|0:0,0:0:0:0:
277,207,107215,2,0,P|367:173|458:201,1,191.249988799096,10|0,0:0|0:0,0:0:0:0:
373,319,107665,2,0,P|319:328|261:304,1,114.749993279457,4|0,3:2|0:0,0:0:0:0:
160,212,107965,2,0,P|133:144|140:77,1,114.749993279457,8|0,0:0|0:0,0:0:0:0:
198,6,108265,2,0,L|243:28,1,38.2499977598191,10|0,0:0|0:0,0:0:0:0:
381,78,108415,1,8,0:0:0:0:
381,78,108490,1,8,0:0:0:0:
381,78,108565,6,0,P|395:164|364:253,1,169.999995231629,4|0,3:1|0:0,0:0:0:0:
236,333,109015,2,0,P|305:348|441:323,1,169.999995231629,4|0,3:1|0:0,0:0:0:0:
292,233,109465,6,2,L|196:225,1,84.9999976158143,10|0,0:0|0:0,0:0:0:0:
15,204,109765,1,2,0:0:0:0:
188,37,109915,2,0,L|183:132,1,93.5000002307892,10|0,0:0|0:0,0:0:0:0:
110,384,110215,1,8,0:0:0:0:
113,342,110290,1,8,0:0:0:0:
102,293,110365,6,0,P|86:210|155:110,1,203.999988052369,4|0,3:1|3:0,0:0:0:0:
322,8,110815,2,0,L|246:14,1,50.9999970130922,2|0,0:0|0:0,0:0:0:0:
90,0,110965,1,0,0:0:0:0:
260,189,111115,1,0,3:0:0:0:
423,179,111265,2,0,P|369:258|241:291,1,203.999988052369,10|0,0:0|3:0,0:0:0:0:
14,254,111715,2,0,L|10:192,1,50.9999970130922,2|0,0:0|0:0,0:0:0:0:
58,34,111865,2,0,P|44:97|61:227,1,152.999991039276,8|0,3:2|0:0,0:0:0:0:
95,332,112165,6,0,P|172:331|295:300,1,203.999988052369,4|0,3:1|3:0,0:0:0:0:
487,182,112615,2,0,L|417:154,1,50.9999970130922,2|0,0:0|0:0,0:0:0:0:
237,107,112765,1,0,0:0:0:0:
359,229,112915,1,0,3:0:0:0:
265,1,113065,2,0,P|232:84|250:196,1,203.999988052369,8|0,0:0|3:0,0:0:0:0:
317,309,113515,1,0,0:0:0:0:
490,201,113665,2,0,P|431:206|416:149,1,127.499992847443,8|0,1:2|0:0,0:0:0:0:
199,323,113965,6,0,P|233:281|237:123,1,203.999988052369,4|0,3:1|3:0,0:0:0:0:
50,18,114415,2,0,L|62:73,1,50.9999970130922,2|0,0:0|0:0,0:0:0:0:
134,233,114565,1,0,0:0:0:0:
262,315,114715,1,0,3:0:0:0:
357,36,114865,2,0,P|282:144|267:237,1,203.999988052369,10|0,2:0|3:0,0:0:0:0:
327,379,115315,2,0,L|406:382,1,50.9999955825808,2|0,0:0|0:0,0:0:0:0:
503,259,115465,2,0,P|440:336|363:375,1,152.999991039276,8|0,3:2|0:0,0:0:0:0:
126,306,115765,6,0,P|201:330|327:294,1,203.999988052369,4|0,3:1|0:0,0:0:0:0:
487,148,116215,2,0,L|401:174,1,50.9999970130922,2|0,0:0|0:0,0:0:0:0:
243,190,116365,1,0,3:0:0:0:
424,10,116515,1,0,3:0:0:0:
370,164,116665,2,0,P|325:267|318:360,1,203.999988052369,10|0,0:0|3:0,0:0:0:0:
126,282,117115,5,8,0:0:0:0:
84,245,117190,1,8,0:0:0:0:
100,188,117265,1,8,0:0:0:0:
76,136,117340,1,8,0:0:0:0:
123,89,117415,1,8,0:0:0:0:
112,28,117490,1,8,0:0:0:0:
80,0,117565,6,0,P|73:88|30:214,1,220.999983684541,4|0,3:1|3:0,0:0:0:0:
2,381,118015,2,0,L|1:314,1,55.2499959211352,2|0,0:0|0:0,0:0:0:0:
2,113,118165,1,0,3:0:0:0:
102,244,118315,1,0,3:0:0:0:
357,113,118465,2,0,P|289:117|143:198,1,220.999983684541,10|0,0:0|3:0,0:0:0:0:
26,351,118915,2,0,P|67:341|125:346,1,55.2499943714145,2|0,0:0|0:0,0:0:0:0:
264,296,119065,2,0,P|164:330|68:309,1,165.749987763406,8|0,0:0|0:0,0:0:0:0:
89,180,119365,6,0,P|141:235|197:382,1,220.999983684541,4|0,3:1|3:0,0:0:0:0:
14,324,119815,2,0,L|72:282,1,55.2499959211352,2|0,0:0|0:0,0:0:0:0:
268,199,119965,1,0,3:0:0:0:
153,349,120115,1,0,3:0:0:0:
343,207,120265,2,0,P|256:257|139:200,1,220.999983684541,10|0,0:0|3:0,0:0:0:0:
73,120,120715,1,0,0:0:0:0:
286,145,120865,2,0,P|246:66|172:115,1,165.749983114243,4|0,3:1|0:0,0:0:0:0:
366,54,121165,6,0,P|440:132|464:244,1,220.999983684541,4|0,3:1|3:0,0:0:0:0:
454,352,121615,1,0,3:0:0:0:
512,101,121765,2,0,L|476:150,1,55.2499959211352,2|0,0:0|0:0,0:0:0:0:
343,309,121915,1,0,3:0:0:0:
349,147,122065,2,0,L|408:46,1,110.49999184227,8|0,0:0|0:0,0:0:0:0:
222,200,122365,2,0,L|145:305,1,110.49999184227,0|0,3:0|0:0,0:0:0:0:
48,100,122665,2,0,P|126:42|101:2,1,165.749983114243,4|0,3:1|0:0,0:0:0:0:
428,12,122965,6,0,P|369:66|218:98,1,220.999983684541,4|0,3:1|3:0,0:0:0:0:
80,99,123415,1,0,3:0:0:0:
269,192,123565,1,10,0:0:0:0:
438,85,123715,1,0,3:0:0:0:
276,0,123865,2,0,P|217:40|108:30,1,165.749983114243,8|0,0:0|0:0,0:0:0:0:
136,159,124165,5,12,3:2:0:0:
194,156,124240,1,8,0:0:0:0:
227,205,124315,1,8,0:0:0:0:
290,194,124390,1,8,0:0:0:0:
323,250,124465,1,10,1:2:0:0:
373,293,124540,1,8,0:0:0:0:
434,273,124615,1,8,0:0:0:0:
496,306,124690,1,8,0:0:0:0:
512,369,124765,6,0,P|492:297|510:139,1,229.49998800087,4|0,3:1|3:0,0:0:0:0:
329,0,125215,2,0,L|359:63,1,57.3749986095429,2|0,0:0|0:0,0:0:0:0:
483,227,125365,1,0,3:0:0:0:
481,0,125515,1,0,3:0:0:0:
364,148,125665,2,0,L|371:276,1,114.749997219086,8|0,0:0|0:0,0:0:0:0:
269,141,125965,2,0,L|269:9,1,114.749997219086,2|0,3:2|0:0,0:0:0:0:
148,193,126265,2,0,P|204:291|166:341,1,172.124991000652,8|0,0:0|0:0,0:0:0:0:
441,350,126565,6,0,P|471:251|441:130,1,229.499994438171,4|0,3:1|3:0,0:0:0:0:
238,0,127015,2,0,L|212:99,1,57.3749986095429,2|0,0:0|0:0,0:0:0:0:
137,263,127165,1,0,3:0:0:0:
300,210,127315,1,0,3:0:0:0:
237,5,127465,2,0,L|80:5,1,114.749997219086,8|0,0:0|0:0,0:0:0:0:
0,141,127765,2,0,L|134:139,1,114.749997219086,2|0,3:2|0:0,0:0:0:0:
278,69,128065,2,0,P|315:124|241:174,1,172.124991000652,8|0,0:0|0:0,0:0:0:0:
31,282,128365,6,0,P|120:262|268:293,1,237.999986061097,4|0,3:1|0:0,0:0:0:0:
485,372,128815,2,0,L|391:367,1,59.4999965152742,2|0,0:0|0:0,0:0:0:0:
200,350,128965,1,0,3:0:0:0:
354,169,129115,1,0,3:0:0:0:
226,31,129265,2,0,L|227:163,1,118.999993030548,10|0,0:0|0:0,0:0:0:0:
355,287,129565,2,0,L|353:140,1,118.999993030548,2|0,3:2|0:0,0:0:0:0:
226,31,129865,2,0,P|123:58|75:-10,1,178.499984539033,10|0,0:0|0:0,0:0:0:0:
139,181,130165,6,0,L|260:177,1,118.999993030548,4|0,3:1|0:0,0:0:0:0:
441,164,130465,1,0,3:0:0:0:
263,0,130615,2,0,P|227:57|303:207,1,237.999986061097,2|0,3:2|3:0,0:0:0:0:
460,275,131065,2,0,P|369:325|184:326,1,237.999986061097,8|0,0:0|3:0,0:0:0:0:
54,272,131515,1,8,0:0:0:0:
54,272,131590,1,8,0:0:0:0:
109,202,131665,2,0,P|112:134|84:25,1,178.499989545823,10|0,0:0|0:0,0:0:0:0:
0,140,131965,6,0,P|61:172|230:154,1,237.999986061097,4|0,3:1|3:0,0:0:0:0:
425,26,132415,2,0,L|397:78,1,59.4999965152742,2|0,0:0|0:0,0:0:0:0:
261,263,132565,1,0,3:0:0:0:
489,195,132715,1,0,3:0:0:0:
313,343,132865,2,0,L|170:386,1,118.999993030548,10|0,0:0|0:0,0:0:0:0:
240,188,133165,2,0,L|372:178,1,118.999993030548,2|0,3:2|0:0,0:0:0:0:
333,50,133465,2,0,P|241:79|222:10,1,178.499984539033,8|0,0:0|0:0,0:0:0:0:
20,128,133765,6,0,P|68:219|41:359,1,237.999986061097,4|0,3:1|3:0,0:0:0:0:
182,306,134215,2,0,L|205:175,1,118.999993030548,2|0,3:2|0:0,0:0:0:0:
234,37,134515,1,0,2:0:0:0:
431,191,134665,2,0,L|301:193,1,118.999993030548,8|0,0:0|0:0,0:0:0:0:
90,267,134965,2,0,L|223:273,1,118.999993030548,4|0,3:1|0:0,0:0:0:0:
489,269,135265,5,8,0:0:0:0:
456,308,135340,1,8,0:0:0:0:
378,319,135415,1,8,0:0:0:0:
314,273,135490,1,8,0:0:0:0:
269,208,135565,6,0,P|209:131|177:69,1,118.999993030548,4|0,3:2|0:0,0:0:0:0:
138,0,135865,1,2,3:2:0:0:
15,240,136015,1,8,0:0:0:0:
246,229,136165,1,2,3:2:0:0:
341,77,136315,1,0,0:0:0:0:
112,45,136465,2,0,L|123:175,1,118.999989692688,4|0,3:2|3:0,0:0:0:0:
228,319,136765,1,8,0:0:0:0:
235,4,136915,1,8,0:0:0:0:
457,190,137065,2,0,P|383:175|218:220,1,237.999986061097,0|4,3:2|3:2,0:0:0:0:
36,355,137665,5,8,0:0:0:0:
94,365,137740,1,8,0:0:0:0:
151,348,137815,1,8,0:0:0:0:
209,356,137890,1,8,0:0:0:0:
265,337,137965,1,0,3:0:0:0:
372,285,138115,1,0,3:0:0:0:
178,239,138265,1,0,3:0:0:0:
453,141,138565,5,8,0:0:0:0:
397,141,138640,1,8,0:0:0:0:
347,120,138715,1,8,0:0:0:0:
302,149,138790,1,8,0:0:0:0:
256,121,138865,5,4,3:3:0:0:
233,162,138940,1,0,3:3:0:0:
229,209,139015,1,0,3:3:0:0:
190,237,139090,1,0,3:3:0:0:
178,282,139165,6,0,L|120:373,1,101.999994026184,4|0,3:2|0:0,0:0:0:0:
18,340,139465,1,0,3:0:0:0:
75,255,139615,2,0,L|6:356,1,101.999994026184,8|0,0:0|3:0,0:0:0:0:
18,340,139915,1,0,3:0:0:0:
186,293,140065,2,0,P|193:237|183:180,1,101.999994026184,8|0,0:0|3:0,0:0:0:0:
183,29,140365,2,0,B|219:76|282:110,1,101.999994026184,8|0,0:0|0:3,0:0:0:0:
400,179,140665,2,0,P|426:139|417:46,1,101.999994026184,8|0,0:0|0:0,0:0:0:0:
269,0,140965,6,0,L|360:58,1,101.999994026184,12|0,0:0|3:0,0:0:0:0:
327,160,141265,1,0,3:0:0:0:
242,103,141415,2,0,L|343:172,1,101.999994026184,8|0,0:0|3:0,0:0:0:0:
408,324,141715,1,0,3:0:0:0:
501,171,141865,1,8,0:0:0:0:
324,338,142015,1,0,3:0:0:0:
427,185,142165,1,8,0:0:0:0:
228,342,142315,1,0,3:0:0:0:
326,160,142465,2,0,L|238:280,1,101.999994026184,8|0,0:0|0:0,0:0:0:0:
75,214,142765,6,0,L|140:124,1,101.999994026184,4|0,3:2|0:0,0:0:0:0:
299,25,143065,1,0,3:0:0:0:
242,110,143215,2,0,L|311:9,1,101.999994026184,8|0,0:0|3:0,0:0:0:0:
397,2,143515,1,0,3:0:0:0:
512,121,143665,2,0,P|456:114|399:132,1,101.999994026184,8|0,0:0|3:0,0:0:0:0:
272,257,143965,2,0,B|264:199|300:141,1,101.999994026184,8|0,0:0|0:3,0:0:0:0:
208,27,144265,2,0,P|182:67|191:160,1,101.999994026184,8|0,0:0|0:0,0:0:0:0:
182,217,144565,6,0,L|89:285,1,101.999994026184,12|0,0:0|3:0,0:0:0:0:
22,169,144865,1,0,3:0:0:0:
100,103,145015,2,0,L|12:176,1,101.999994026184,8|0,0:0|3:0,0:0:0:0:
162,182,145315,1,0,3:0:0:0:
128,43,145465,1,8,0:0:0:0:
235,142,145615,1,0,3:0:0:0:
44,85,145765,1,8,0:0:0:0:
255,65,145915,1,0,3:0:0:0:
65,155,146065,2,0,L|160:119,1,101.999994026184,8|0,0:0|0:0,0:0:0:0:
365,14,146365,6,0,L|271:57,1,101.999994026184,4|0,3:2|0:0,0:0:0:0:
160,119,146665,1,0,3:0:0:0:
259,139,146815,2,0,L|125:111,1,101.999994026184,8|0,0:0|3:0,0:0:0:0:
96,24,147115,1,0,3:0:0:0:
143,198,147265,2,0,P|149:248|142:298,1,101.999994026184,8|0,0:0|3:0,0:0:0:0:
289,384,147565,2,0,B|296:325|276:256,1,101.999994026184,8|0,0:0|0:3,0:0:0:0:
399,86,147865,2,0,L|402:196,1,101.999994026184,8|0,0:0|0:0,0:0:0:0:
398,346,148165,6,0,L|485:292,1,101.999994026184,12|0,0:0|3:0,0:0:0:0:
401,187,148465,1,0,3:0:0:0:
483,126,148615,2,0,L|383:197,1,101.999994026184,8|0,0:0|3:0,0:0:0:0:
249,291,148915,1,0,3:0:0:0:
258,79,149065,1,8,0:0:0:0:
175,278,149215,1,0,3:0:0:0:
341,118,149365,1,8,0:0:0:0:
126,223,149515,1,0,3:0:0:0:
381,195,149665,2,0,L|242:207,1,101.999994026184,8|0,0:0|0:0,0:0:0:0:
113,138,149965,6,0,L|218:114,1,101.999994026184,12|0,0:0|3:0,2:0:0:0:
347,42,150265,1,0,3:0:0:0:
357,143,150415,2,0,L|344:20,1,101.999994026184,8|0,0:0|3:0,0:0:0:0:
254,197,150715,1,0,3:0:0:0:
457,95,150865,1,8,0:0:0:0:
239,150,151015,1,0,3:0:0:0:
476,189,151165,1,8,0:0:0:0:
234,106,151315,1,0,3:0:0:0:
465,277,151465,2,0,L|326:226,1,101.999994026184,8|0,0:0|0:0,0:0:0:0:
93,205,151765,6,0,L|141:302,1,101.999994026184,12|0,0:0|3:0,0:0:0:0:
169,144,152065,1,0,3:0:0:0:
247,248,152215,2,0,P|279:292|340:333,1,101.999994026184,8|0,0:0|3:0,0:0:0:0:
446,354,152515,1,0,3:0:0:0:
359,149,152665,1,8,0:0:0:0:
285,359,152815,1,0,3:0:0:0:
416,102,152965,1,8,0:0:0:0:
363,355,153115,1,0,3:0:0:0:
321,47,153265,2,0,L|259:181,1,101.999994026184,8|0,0:0|0:0,0:0:0:0:
156,224,153565,6,0,P|163:163|196:119,1,101.999994026184,14|0,0:2|3:0,0:0:0:0:
133,10,153865,2,0,L|91:39,1,50.9999970130922,2|0,3:2|0:0,0:0:0:0:
1,121,154015,2,0,L|176:17,1,203.999988052369,10|0,0:0|3:0,0:0:0:0:
0,221,154465,2,0,L|82:162,1,101.999994026184,10|0,0:0|3:0,0:0:0:0:
221,218,154765,2,0,L|102:271,1,101.999994026184,10|0,0:0|3:0,0:0:0:0:
0,376,155065,2,0,L|145:348,1,101.999994026184,10|0,0:0|3:0,0:0:0:0:
409,294,155365,6,0,L|279:274,1,101.999994026184,12|0,0:0|3:0,0:0:0:0:
295,178,155665,2,0,L|336:148,1,50.9999970130922,2|0,3:2|0:0,0:0:0:0:
469,102,155815,2,0,P|385:156|293:205,1,203.999988052369,10|0,0:0|3:0,0:0:0:0:
324,376,156265,2,0,L|357:279,1,101.999994026184,10|0,0:0|3:0,0:0:0:0:
497,148,156565,2,0,L|450:269,1,101.999994026184,10|0,0:0|3:0,0:0:0:0:
316,110,156865,2,0,L|373:25,1,101.999994026184,10|0,0:0|3:0,0:0:0:0:
178,0,157165,38,0,L|123:121,1,101.999994026184,12|0,0:0|3:0,0:0:0:0:
40,271,157465,2,0,L|76:232,1,50.9999970130922,2|0,3:2|0:0,0:0:0:0:
157,188,157615,2,0,L|74:296,1,101.999994026184,10|0,0:0|3:0,0:0:0:0:
4,378,157915,1,2,3:2:0:0:
224,326,158065,2,0,L|119:347,1,101.999994026184,10|0,0:0|3:0,0:0:0:0:
0,232,158365,2,0,L|93:190,1,101.999994026184,10|0,0:0|3:0,0:0:0:0:
205,50,158665,2,0,P|191:110|191:194,1,101.999994026184,10|0,0:0|3:0,0:0:0:0:
297,318,158965,6,0,P|291:209|317:108,1,203.999988052369,14|0,0:0|3:0,0:0:0:0:
489,31,159415,2,0,P|389:42|288:10,1,203.999988052369,14|0,0:0|3:0,0:0:0:0:
480,113,159865,2,0,L|477:237,1,101.999994026184,10|0,0:0|3:0,0:0:0:0:
394,358,160165,2,0,L|400:248,1,101.999994026184,10|0,0:0|3:0,0:0:0:0:
299,102,160465,2,0,L|298:245,1,101.999994026184,10|0,0:0|3:0,0:0:0:0:
214,384,160765,38,0,L|214:254,1,101.999994026184,12|0,0:0|3:0,0:0:0:0:
218,127,161065,2,0,L|183:181,1,50.9999970130922,2|0,3:2|0:0,0:0:0:0:
111,267,161215,2,0,P|146:177|207:81,1,203.999988052369,10|0,0:0|3:0,0:0:0:0:
20,0,161665,2,0,P|59:42|76:86,1,101.999994026184,10|0,0:0|3:0,0:0:0:0:
198,244,161965,2,0,P|144:222|100:180,1,101.999994026184,10|0,0:0|3:0,0:0:0:0:
90,345,162265,2,0,P|147:377|195:385,1,101.999994026184,10|0,0:0|3:0,0:0:0:0:
361,265,162565,6,0,P|370:314|370:365,1,101.999994026184,12|0,0:0|3:0,0:0:0:0:
444,257,162865,2,0,L|462:203,1,50.9999970130922,2|0,3:2|0:0,0:0:0:0:
496,118,163015,2,0,L|480:242,1,101.999994026184,10|0,0:0|3:0,0:0:0:0:
481,345,163315,1,2,3:2:0:0:
298,345,163465,2,0,L|363:259,1,101.999994026184,10|0,0:0|3:0,0:0:0:0:
464,132,163765,2,0,L|345:184,1,101.999994026184,10|0,0:0|3:0,0:0:0:0:
291,65,164065,2,0,L|381:17,1,101.999994026184,10|0,0:0|3:0,0:0:0:0:
295,182,164365,6,0,P|233:194|172:82,1,203.999988052369,12|2,0:0|3:2,0:0:0:0:
271,8,164815,2,0,L|263:99,1,50.9999970130922,10|0,0:0|0:0,0:0:0:0:
273,145,164965,2,0,L|292:10,1,101.999994026184,2|0,3:2|3:0,0:0:0:0:
157,123,165265,2,0,L|153:238,1,101.999994026184,10|0,0:0|3:0,0:0:0:0:
258,351,165565,2,0,L|269:227,1,101.999994026184,10|0,0:0|3:0,0:0:0:0:
371,129,165865,2,0,L|250:145,1,101.999994026184,10|0,0:0|3:0,0:0:0:0:
256,192,166165,12,0,166915,0:0:0:0:
86,90,167065,5,2,0:0:0:0:
380,70,167215,1,2,0:0:0:0:
205,4,167365,1,2,0:0:0:0:
233,141,167528,5,0,3:0:0:0:
255,175,167618,1,0,3:0:0:0:
250,204,167708,1,0,3:0:0:0:
250,204,167798,1,0,3:0:0:0:
250,204,167888,1,0,3:0:0:0:
219,224,167978,6,0,B|115:194|125:137|-5:126,1,212.499994039536,4|0,3:1|3:0,0:0:0:0:
140,0,168428,2,0,L|136:83,1,53.1249985098839,2|0,0:0|0:0,0:0:0:0:
123,254,168578,1,0,0:0:0:0:
289,47,168728,1,0,3:0:0:0:
153,168,168878,2,0,P|232:183|391:129,1,212.499994039536,10|0,0:0|3:0,0:0:0:0:
512,40,169328,2,0,L|458:37,1,53.1249985098839,2|0,0:0|0:0,0:0:0:0:
296,17,169478,2,0,P|373:0|452:5,1,159.374995529652,8|0,3:2|0:0,0:0:0:0:
298,164,169778,6,0,P|204:220|123:162,1,212.499994039536,4|0,3:1|3:0,0:0:0:0:
11,4,170228,2,0,L|70:33,1,53.1249985098839,2|0,0:0|0:0,0:0:0:0:
245,104,170378,1,0,0:0:0:0:
85,114,170528,1,0,3:0:0:0:
222,379,170678,2,0,P|257:299|231:167,1,212.499994039536,8|0,0:0|3:0,0:0:0:0:
158,85,171128,1,0,0:0:0:0:
360,0,171278,2,0,P|336:65|406:97,1,159.374991059303,8|0,1:2|0:0,0:0:0:0:
470,384,171578,6,0,P|504:342|508:179,1,212.499994039536,4|0,3:1|3:0,0:0:0:0:
458,22,172028,2,0,L|432:82,1,53.1249985098839,2|0,0:0|0:0,0:0:0:0:
354,255,172178,1,0,0:0:0:0:
200,299,172328,1,0,3:0:0:0:
373,162,172478,2,0,P|265:124|172:177,1,212.499994039536,10|0,2:0|3:0,0:0:0:0:
8,332,172928,2,0,L|78:343,1,53.1249970197678,2|0,0:0|0:0,0:0:0:0:
230,301,173078,2,0,P|124:310|41:284,1,159.374995529652,8|0,3:2|0:0,0:0:0:0:
148,205,173378,6,0,P|235:175|365:226,1,212.499994039536,4|0,3:1|0:0,0:0:0:0:
464,356,173828,2,0,L|451:293,1,53.1249985098839,2|0,0:0|0:0,0:0:0:0:
420,104,173978,1,0,3:0:0:0:
155,123,174128,1,0,3:0:0:0:
341,115,174278,2,0,P|442:93|499:-12,1,212.499994039536,10|0,0:0|3:0,0:0:0:0:
292,0,174728,5,8,0:0:0:0:
331,42,174803,1,8,0:0:0:0:
292,93,174878,1,8,0:0:0:0:
252,149,174953,1,8,0:0:0:0:
306,199,175028,1,8,0:0:0:0:
301,275,175103,1,8,0:0:0:0:
351,320,175178,6,0,P|270:295|130:347,1,212.499994039536,4|0,3:1|3:0,0:0:0:0:
0,383,175628,2,0,L|29:330,1,53.1249985098839,2|0,0:0|0:0,0:0:0:0:
139,166,175778,1,0,3:0:0:0:
390,80,175928,1,0,3:0:0:0:
219,30,176078,2,0,P|151:34|16:112,1,212.499994039536,10|0,0:0|3:0,0:0:0:0:
216,158,176528,2,0,L|297:156,1,53.1249970197678,2|0,0:0|0:0,0:0:0:0:
441,64,176678,2,0,P|391:98|248:101,1,159.374995529652,8|0,0:0|0:0,0:0:0:0:
127,210,176978,6,0,P|116:89|198:-1,1,212.499994039536,4|0,3:1|3:0,0:0:0:0:
385,0,177428,2,0,L|332:60,1,53.1249985098839,2|0,0:0|0:0,0:0:0:0:
231,203,177578,1,0,3:0:0:0:
378,263,177728,1,0,3:0:0:0:
194,133,177878,2,0,P|92:174|0:133,1,212.499994039536,10|0,0:0|3:0,0:0:0:0:
0,36,178328,1,0,0:0:0:0:
106,172,178478,2,0,P|180:197|150:287,1,159.374991059303,4|0,3:1|0:0,0:0:0:0:
403,185,178778,6,0,L|256:29,1,212.499994039536,4|0,3:1|3:0,0:0:0:0:
117,8,179228,1,0,3:0:0:0:
59,198,179378,2,0,L|110:158,1,53.1249985098839,2|0,0:0|0:0,0:0:0:0:
257,30,179528,1,0,3:0:0:0:
164,302,179678,2,0,P|211:235|245:205,1,106.249997019768,8|0,0:0|0:0,0:0:0:0:
418,23,179978,2,0,P|410:81|380:132,1,106.249997019768,0|0,3:0|0:0,0:0:0:0:
284,301,180278,2,0,P|360:280|422:330,1,159.374991059303,4|0,3:1|0:0,0:0:0:0:
476,48,180578,6,0,L|218:98,1,212.499994039536,4|0,3:1|3:0,0:0:0:0:
88,106,181028,1,0,3:0:0:0:
244,320,181178,1,10,0:0:0:0:
0,213,181328,1,0,3:0:0:0:
279,16,181478,2,0,P|212:82|81:83,1,184.874995270729,8|0,0:0|0:0,0:0:0:0:
0,7,181778,5,12,3:2:0:0:
21,48,181853,1,8,0:0:0:0:
88,45,181928,1,8,0:0:0:0:
136,101,182003,1,8,0:0:0:0:
207,99,182078,1,10,1:2:0:0:
264,55,182153,1,8,0:0:0:0:
306,116,182228,1,8,0:0:0:0:
379,125,182303,1,8,0:0:0:0:
438,80,182378,6,0,P|377:116|280:239,1,212.499994039536,4|0,3:1|3:0,0:0:0:0:
329,0,182828,2,0,L|325:68,1,53.1249985098839,2|0,0:0|0:0,0:0:0:0:
263,245,182978,1,0,3:0:0:0:
486,102,183128,1,0,3:0:0:0:
379,345,183278,2,0,L|377:235,1,106.249997019768,8|0,0:0|0:0,0:0:0:0:
255,2,183578,2,0,L|254:108,1,106.249997019768,2|0,3:2|0:0,0:0:0:0:
41,267,183878,2,0,P|131:277|140:338,1,159.374991059303,8|0,0:0|0:0,0:0:0:0:
384,320,184178,6,0,P|470:251|430:128,1,212.499994039536,4|0,3:1|3:0,0:0:0:0:
307,15,184628,2,0,L|260:95,1,53.1249985098839,2|0,0:0|0:0,0:0:0:0:
180,236,184778,1,0,3:0:0:0:
28,185,184928,1,0,3:0:0:0:
237,5,185078,2,0,L|87:6,1,106.249997019768,8|0,0:0|0:0,0:0:0:0:
0,141,185378,2,0,L|131:137,1,106.249997019768,2|0,3:2|0:0,0:0:0:0:
322,79,185678,2,0,P|350:135|250:165,1,159.374991059303,8|0,0:0|0:0,0:0:0:0:
60,282,185978,6,0,P|139:262|287:293,1,212.499994039536,4|0,3:1|0:0,0:0:0:0:
481,371,186428,2,0,L|391:367,1,53.1249985098839,2|0,0:0|0:0,0:0:0:0:
223,358,186578,1,0,3:0:0:0:
397,158,186728,1,0,3:0:0:0:
226,31,186878,2,0,L|226:157,1,106.249997019768,10|0,0:0|0:0,0:0:0:0:
354,286,187178,2,0,L|354:144,1,106.249997019768,2|0,3:2|0:0,0:0:0:0:
226,31,187478,2,0,P|164:79|128:17,1,159.374991059303,10|0,0:0|0:0,0:0:0:0:
274,183,187778,6,0,P|335:193|394:182,1,106.249997019768,4|0,3:1|0:0,0:0:0:0:
502,18,188078,1,0,3:0:0:0:
262,1,188228,2,0,P|226:58|302:196,1,212.499994039536,2|0,3:2|3:0,0:0:0:0:
441,281,188678,2,0,P|369:325|196:313,1,212.499994039536,8|0,0:0|3:0,0:0:0:0:
31,217,189128,1,8,0:0:0:0:
31,217,189203,1,8,0:0:0:0:
110,259,189278,2,0,P|178:262|201:170,1,159.374991059303,10|0,0:0|0:0,0:0:0:0:
368,70,189578,6,0,P|400:131|381:298,1,212.499994039536,4|0,3:1|3:0,0:0:0:0:
230,381,190028,2,0,L|255:334,1,53.1249985098839,2|0,0:0|0:0,0:0:0:0:
318,142,190178,1,0,3:0:0:0:
483,350,190328,1,0,3:0:0:0:
472,137,190478,2,0,L|405:52,1,106.249997019768,10|0,0:0|0:0,0:0:0:0:
150,41,190778,2,0,L|220:132,1,106.249997019768,2|0,3:2|0:0,0:0:0:0:
409,337,191078,2,0,P|346:278|395:222,1,159.374991059303,8|0,0:0|0:0,0:0:0:0:
147,0,191378,6,0,P|167:92|130:230,1,212.499994039536,4|0,3:1|3:0,0:0:0:0:
10,381,191828,2,0,L|31:251,1,106.249997019768,2|0,3:2|0:0,0:0:0:0:
143,111,192128,1,0,2:0:0:0:
390,205,192278,2,0,L|264:205,1,106.249997019768,8|0,0:0|0:0,0:0:0:0:
483,30,192578,2,0,P|499:98|494:149,1,106.249994039536,4|0,3:1|0:0,0:0:0:0:
442,326,192878,5,8,0:0:0:0:
370,306,192953,1,8,0:0:0:0:
374,226,193028,1,8,0:0:0:0:
323,164,193103,1,8,0:0:0:0:
323,94,193178,6,0,L|201:34,1,114.749994000435,4|0,3:2|0:0,0:0:0:0:
30,1,193478,1,0,3:2:0:0:
215,143,193628,1,8,0:0:0:0:
6,248,193778,1,2,3:2:0:0:
123,34,193928,1,2,3:2:0:0:
214,260,194078,1,8,0:0:0:0:
351,58,194228,1,2,3:2:0:0:
96,189,194378,1,10,0:0:0:0:
382,186,194528,1,8,0:0:0:0:
141,378,194678,1,8,0:0:0:0:
240,86,194828,1,0,0:0:0:0:
364,367,194978,1,8,0:0:0:0:
239,50,195128,1,0,0:0:0:0:
11,273,195278,5,8,0:0:0:0:
47,274,195353,1,8,0:0:0:0:
102,234,195428,1,8,0:0:0:0:
322,14,195578,1,0,3:0:0:0:
50,200,195728,1,0,3:0:0:0:
90,256,195803,1,0,3:0:0:0:
156,278,195878,1,0,3:0:0:0:
451,268,196028,2,0,P|388:270|321:231,1,114.749994000435,2|0,0:0|0:0,0:0:0:0:
275,217,196253,5,0,3:2:0:0:
235,185,196328,1,0,3:2:0:0:
210,118,196403,1,0,3:2:0:0:
224,44,196478,5,12,3:2:0:0:
258,111,196553,1,8,3:2:0:0:
246,196,196628,1,8,3:2:0:0:
180,246,196703,1,8,3:2:0:0:
106,317,196778,6,0,P|170:303|345:332,1,220.999977485658,4|0,3:1|3:0,0:0:0:0:
497,244,197228,2,0,L|403:271,1,55.2499959211352,2|0,0:0|0:0,0:0:0:0:
238,314,197378,1,0,0:0:0:0:
416,103,197528,1,0,3:0:0:0:
219,1,197678,2,0,P|231:96|181:223,1,220.999983684541,10|0,0:0|0:0,0:0:0:0:
17,357,198128,2,0,L|14:286,1,55.2499959211352,2|0,0:0|0:0,0:0:0:0:
69,131,198278,2,0,P|51:205|68:335,1,165.749987763406,8|0,3:2|0:0,0:0:0:0:
209,210,198578,6,0,P|241:133|226:-15,1,220.999983684541,4|0,3:1|3:0,0:0:0:0:
72,5,199028,2,0,L|133:55,1,55.2499959211352,2|0,0:0|0:0,0:0:0:0:
284,184,199178,1,0,0:0:0:0:
453,122,199328,1,0,3:0:0:0:
143,299,199478,2,0,P|240:271|280:157,1,220.999983684541,8|0,0:0|3:0,0:0:0:0:
272,43,199928,1,0,0:0:0:0:
427,0,200078,2,0,P|440:59|417:131,1,110.499988742829,8|0,1:2|0:0,0:0:0:0:
125,222,200378,6,0,P|189:200|344:235,1,220.999983684541,4|0,3:1|3:0,0:0:0:0:
472,350,200828,2,0,L|406:350,1,55.2499943714145,2|0,0:0|0:0,0:0:0:0:
215,361,200978,1,0,0:0:0:0:
361,236,201128,1,0,3:0:0:0:
117,99,201278,2,0,P|119:196|242:244,1,220.999983684541,10|0,0:0|3:0,0:0:0:0:
507,182,201728,2,0,L|465:144,1,55.2499959211352,2|0,0:0|0:0,0:0:0:0:
289,113,201878,2,0,P|352:124|468:193,1,165.749987763406,8|0,3:2|0:0,0:0:0:0:
37,216,202178,6,0,P|65:299|267:365,1,305.999973495485,4|0,3:1|3:0,0:0:0:0:
397,308,202628,2,0,L|306:249,1,76.4999933738711,2|0,0:0|0:0,0:0:0:0:
132,132,202778,1,0,0:0:0:0:
427,173,202928,1,0,3:0:0:0:
254,21,203078,2,0,P|121:98|-10:35,1,305.999973495485,10|0,0:0|3:0,0:0:0:0:
102,315,203528,5,8,0:0:0:0:
172,309,203603,1,8,0:0:0:0:
205,241,203678,1,8,0:0:0:0:
283,243,203753,1,8,0:0:0:0:
301,167,203828,1,8,0:0:0:0:
374,144,203903,1,8,0:0:0:0:
394,73,203978,6,0,P|354:116|333:299,1,220.999983684541,4|0,3:1|3:0,0:0:0:0:
512,362,204428,2,0,L|500:299,1,55.2499959211352,2|0,0:0|0:0,0:0:0:0:
473,99,204578,1,0,0:0:0:0:
389,362,204728,1,0,3:0:0:0:
267,234,204878,2,0,P|275:146|346:28,1,220.999983684541,10|0,0:0|3:0,0:0:0:0:
160,0,205328,2,0,L|104:58,1,55.2499959211352,2|0,0:0|0:0,0:0:0:0:
49,173,205478,2,0,P|127:103|167:25,1,165.749983114243,8|0,0:0|0:0,3:0:0:0:
452,30,205778,6,0,P|425:83|260:50,1,220.999983684541,4|0,3:1|3:0,0:0:0:0:
123,2,206228,2,0,L|149:68,1,55.2499959211352,2|0,0:0|0:0,0:0:0:0:
262,233,206378,1,0,0:0:0:0:
427,296,206528,1,0,3:0:0:0:
148,172,206678,2,0,P|138:57|23:35,1,220.999983684541,10|0,0:0|0:0,0:0:0:0:
30,147,207128,1,0,0:0:0:0:
316,109,207278,2,0,P|401:135|429:75,1,165.749983114243,4|0,3:1|0:0,0:0:0:0:
512,333,207578,6,0,L|247:316,1,220.999983684541,4|0,3:1|3:0,0:0:0:0:
170,302,208028,1,0,3:0:0:0:
279,47,208178,2,0,L|233:111,1,55.2499959211352,2|0,0:0|0:0,0:0:0:0:
92,238,208328,1,0,3:0:0:0:
366,268,208478,2,0,L|478:299,1,110.49999184227,8|0,0:0|0:0,0:0:0:0:
428,11,208778,2,0,L|311:5,1,110.49999184227,0|0,3:0|0:0,0:0:0:0:
64,19,209078,2,0,P|78:118|11:142,1,165.749983114243,4|0,3:1|0:0,0:0:0:0:
151,373,209378,6,0,P|204:333|248:169,1,220.999983684541,4|0,3:1|3:0,0:0:0:0:
248,47,209828,1,0,3:0:0:0:
30,217,209978,1,10,0:0:0:0:
381,183,210128,1,0,3:0:0:0:
239,11,210278,2,0,P|255:106|170:119,1,191.249996566773,8|0,0:0|0:0,0:0:0:0:
61,207,210578,5,12,3:2:0:0:
133,223,210653,1,8,0:0:0:0:
173,168,210728,1,8,0:0:0:0:
247,178,210803,1,8,0:0:0:0:
274,112,210878,1,10,1:2:0:0:
350,109,210953,1,8,0:0:0:0:
380,41,211028,1,8,0:0:0:0:
459,52,211103,1,8,0:0:0:0:
512,2,211178,6,0,P|497:76|516:236,1,220.999977485658,4|0,3:1|3:0,0:0:0:0:
436,384,211628,2,0,L|391:318,1,55.2499959211352,2|0,0:0|0:0,0:0:0:0:
286,161,211778,1,0,0:0:0:0:
98,366,211928,1,0,3:0:0:0:
2,106,212078,2,0,L|27:242,1,110.49999184227,8|0,0:0|0:0,0:0:0:0:
247,377,212378,2,0,L|209:269,1,110.49999184227,2|0,3:2|0:0,0:0:0:0:
54,44,212678,2,0,P|144:31|137:114,1,165.749983114243,8|0,0:0|0:0,0:0:0:0:
372,286,212978,6,0,P|404:174|373:69,1,220.999983684541,4|0,3:1|3:0,0:0:0:0:
273,0,213428,2,0,L|285:87,1,55.2499959211352,2|0,0:0|0:0,0:0:0:0:
299,263,213578,1,0,0:0:0:0:
471,301,213728,1,0,3:0:0:0:
226,155,213878,2,0,L|386:148,1,110.49999184227,8|0,0:0|0:0,0:0:0:0:
504,369,214178,2,0,L|371:377,1,110.49999184227,2|0,3:2|0:0,0:0:0:0:
224,204,214478,2,0,P|244:137|169:103,1,165.749983114243,8|0,0:0|0:0,0:0:0:0:
355,244,214778,6,0,P|312:292|142:270,1,220.999983684541,4|0,3:1|0:0,0:0:0:0:
35,215,215228,2,0,L|95:259,1,55.2499959211352,2|0,0:0|0:0,0:0:0:0:
273,334,215378,1,0,0:0:0:0:
472,142,215528,1,0,3:0:0:0:
212,42,215678,2,0,L|77:42,1,110.49999184227,10|0,0:0|0:0,0:0:0:0:
305,235,215978,2,0,L|436:233,1,110.49999184227,2|0,3:2|0:0,0:0:0:0:
171,362,216278,2,0,P|73:373|-8:349,1,165.749987763406,10|0,0:0|0:0,0:0:0:0:
185,38,216578,6,0,L|348:41,1,110.49999184227,4|0,3:1|0:0,0:0:0:0:
428,44,216878,1,0,3:0:0:0:
477,234,217028,2,0,P|343:267|228:208,1,220.999983684541,2|0,3:2|3:0,0:0:0:0:
21,112,217478,2,0,L|174:112,1,110.49999184227,8|0,0:0|0:0,0:0:0:0:
402,78,217778,5,8,3:2:0:0:
429,127,217853,1,8,0:0:0:0:
382,200,217928,1,8,0:0:0:0:
397,274,218003,1,8,0:0:0:0:
454,337,218078,2,0,P|374:308|255:343,1,165.749987763406,10|0,3:2|0:0,0:0:0:0:
0,174,218378,6,0,P|79:206|224:132,1,220.999983684541,4|0,3:1|3:0,0:0:0:0:
326,0,218828,2,0,L|245:26,1,55.2499959211352,2|0,0:0|0:0,0:0:0:0:
70,79,218978,1,0,0:0:0:0:
255,283,219128,1,0,3:0:0:0:
430,69,219278,2,0,L|430:203,1,110.49999184227,10|0,0:0|0:0,0:0:0:0:
221,360,219578,2,0,L|226:205,1,110.49999184227,2|0,3:2|0:0,0:0:0:0:
430,69,219878,2,0,P|356:93|318:27,1,165.749983114243,8|0,0:0|0:0,0:0:0:0:
45,212,220178,6,0,P|12:107|31:0,1,220.999983684541,4|0,3:1|3:0,0:0:0:0:
151,234,220628,2,0,P|206:273|266:276,1,110.49999184227,2|0,3:2|0:0,0:0:0:0:
396,261,220928,1,0,2:0:0:0:
263,18,221078,2,0,L|261:137,1,110.49999184227,8|0,0:0|0:0,0:0:0:0:
469,309,221378,2,0,L|478:170,1,110.49999184227,4|0,3:1|0:0,0:0:0:0:
362,0,221678,5,4,3:1:0:0:
315,55,221753,1,8,0:0:0:0:
325,137,221828,1,8,0:0:0:0:
251,184,221903,1,8,0:0:0:0:
235,276,221978,1,12,0:0:0:0:
256,192,222128,12,0,236378,0:0:0:0:
