osu file format v14

[General]
AudioFilename: audio.mp3
AudioLeadIn: 0
PreviewTime: 47385
Countdown: 0
SampleSet: Soft
StackLeniency: 0.7
Mode: 0
LetterboxInBreaks: 0
WidescreenStoryboard: 1

[Editor]
Bookmarks: 1895,13124,16724,48261,49161,77949,110349,139149,153549,164349,167949,182349,202137,203937
DistanceSpacing: 1
BeatDivisor: 4
GridSize: 32
TimelineZoom: 1.8

[Metadata]
Title:-ERROR 2018ver.
TitleUnicode:-ERROR 2018ver.
Artist:cillia feat. Namine Ritsu
ArtistUnicode:シリア feat. 波音リツ
Creator:Bashe
Version:Aeril's Hard
Source:
Tags:utau kyaami vocaloid cover niki Aeril Nao_Tomori nao tomori naotoshi -Sylvari yukiya frogyfro japanese
BeatmapID:2098598
BeatmapSetID:986100

[Difficulty]
HPDrainRate:5
CircleSize:3.5
OverallDifficulty:6
ApproachRate:8
SliderMultiplier:1.19999990463257
SliderTickRate:1

[Events]
//Background and Video events
0,0,"bg.jpg",0,0
//Break Periods
2,78165,91615
2,166365,167228
//Storyboard Layer 0 (Background)
//Storyboard Layer 1 (Fail)
//Storyboard Layer 2 (Pass)
//Storyboard Layer 3 (Foreground)
//Storyboard Layer 4 (Overlay)
//Storyboard Sound Samples

[TimingPoints]
-4835,300,6,2,1,60,1,0
1840,-125,6,2,1,40,0,0
2065,-83.3333333333333,6,2,1,40,0,0
2140,-83.3333333333333,6,2,1,70,0,0
2365,-90.9090909090909,6,2,1,75,0,0
16764,-166.666666666667,6,2,1,55,0,0
17664,-83.3333333333334,6,2,1,55,0,0
18564,-166.666666666667,6,2,1,55,0,0
19464,-83.3333333333334,6,2,1,55,0,0
20364,-166.666666666667,6,2,1,55,0,0
21264,-83.3333333333334,6,2,1,55,0,0
23064,-111.111111111111,6,2,1,55,0,0
23964,-83.3333333333334,6,2,1,55,0,0
24864,-166.666666666667,6,2,1,55,0,0
25614,-83.3333333333334,6,2,1,55,0,0
26664,-166.666666666667,6,2,1,55,0,0
27264,-111.111111111111,6,2,1,55,0,0
27564,-83.3333333333334,6,2,1,55,0,0
28464,-166.666666666667,6,2,1,55,0,0
29214,-83.3333333333334,6,2,1,55,0,0
29364,-111.111111111111,6,2,1,55,0,0
30264,-166.666666666667,6,2,1,55,0,0
32064,-83.3333333333334,6,2,1,55,0,0
32964,-166.666666666667,6,2,1,55,0,0
33864,-83.3333333333334,6,2,1,55,0,0
34765,-166.666666666667,6,2,1,55,0,0
35665,-83.3333333333334,6,2,1,55,0,0
37465,-111.111111111111,6,2,1,55,0,0
38365,-83.3333333333334,6,2,1,55,0,0
39265,-166.666666666667,6,2,1,55,0,0
40015,-83.3333333333334,6,2,1,55,0,0
41065,-166.666666666667,6,2,1,55,0,0
41665,-111.111111111111,6,2,1,55,0,0
41965,-83.3333333333334,6,2,1,55,0,0
42865,-166.666666666667,6,2,1,55,0,0
43615,-83.3333333333334,6,2,1,55,0,0
44665,-166.666666666667,6,2,1,55,0,0
45264,-166.666666666667,6,2,1,65,0,0
46465,-111.111111111111,6,2,1,65,0,0
47364,-111.111111111111,6,2,1,70,0,0
47365,-83.3333333333334,6,2,1,70,0,0
49165,-71.4285714285714,6,2,1,80,0,1
69415,-62.5,6,2,1,80,0,1
70165,-71.4285714285714,6,2,1,80,0,1
73765,-100,6,2,1,80,0,1
74065,-83.3333333333333,6,2,1,80,0,1
76464,-83.3333333333333,6,2,1,65,0,1
76765,-83.3333333333333,6,2,1,80,0,1
77365,-166.666666666667,6,2,1,80,0,0
77965,-166.666666666667,6,2,1,55,0,0
83064,-166.666666666667,6,2,1,35,0,0
83364,-166.666666666667,6,2,1,55,0,0
84864,-166.666666666667,6,2,1,35,0,0
85164,-166.666666666667,6,2,1,55,0,0
94015,-83.3333333333334,6,2,1,55,0,0
94165,-111.111111111111,6,2,1,55,0,0
95965,-166.666666666667,6,2,1,55,0,0
99415,-83.3333333333334,6,2,1,55,0,0
99565,-111.111111111111,6,2,1,55,0,0
101365,-83.3333333333333,6,2,1,55,0,0
102265,-166.666666666667,6,2,1,55,0,0
102865,-111.111111111111,6,2,1,55,0,0
105865,-166.666666666667,6,2,1,55,0,0
106764,-166.666666666667,6,2,1,65,0,0
107665,-111.111111111111,6,2,1,65,0,0
108564,-111.111111111111,6,2,1,75,0,0
108565,-83.3333333333333,6,2,1,75,0,0
110365,-71.4285714285714,6,2,1,80,0,1
130615,-62.5,6,2,1,80,0,1
131365,-71.4285714285714,6,2,1,80,0,1
134965,-100,6,2,1,80,0,1
138565,-111.111111111111,6,2,1,80,0,0
139165,-111.111111111111,6,2,1,70,0,0
153565,-166.666666666666,6,2,1,70,0,0
154465,-83.3333333333334,6,2,1,70,0,0
155365,-166.666666666666,6,2,1,70,0,0
156265,-83.3333333333334,6,2,1,70,0,0
157165,-166.666666666666,6,2,1,70,0,0
158065,-83.3333333333334,6,2,1,70,0,0
158965,-111.111111111111,6,2,1,70,0,0
161665,-83.3333333333334,6,2,1,70,0,0
162565,-111.111111111111,6,2,1,70,0,0
163465,-83.3333333333334,6,2,1,70,0,0
164365,-111.111111111111,6,2,1,70,0,0
166914,-111.111111111111,6,2,1,5,0,0
167064,-111.111111111111,6,2,1,70,0,0
167364,-111.111111111111,6,2,1,50,0,0
167514,-111.111111111111,6,2,1,30,0,0
167528,270.27027027027,6,2,1,60,1,0
167978,300,6,2,1,80,1,1
167978,-71.4285714285714,6,2,1,80,0,1
188228,-62.5,6,2,1,80,0,1
188978,-71.4285714285714,6,2,1,80,0,1
193178,-83.3333333333333,6,2,1,70,0,1
194078,-71.4285714285714,6,2,1,70,0,1
194978,-71.4285714285714,6,2,1,70,0,0
196777,-71.4285714285714,6,2,1,80,0,0
196778,-71.4285714285714,6,2,1,80,0,1
202177,-71.4285714285714,6,2,1,80,0,1
202628,-62.5,6,2,1,60,0,1
203977,-62.5,6,2,1,80,0,1
203978,-71.4285714285714,6,2,1,80,0,1
217028,-62.5,6,2,1,80,0,1
217778,-71.4285714285714,6,2,1,80,0,1
221378,-100,6,2,1,80,0,1
221678,-83.3333333333333,6,2,1,80,0,1
221978,-100,6,2,1,80,0,0
222128,-100,6,2,1,50,0,0
225127,-100,6,2,1,5,0,0

[Colours]
Combo1 : 255,170,255
Combo2 : 255,175,178
Combo3 : 128,0,0
Combo4 : 254,146,117

[HitObjects]
67,341,1840,6,0,L|33:348,2,23.9999990463257,8|8|8,0:0|0:0|0:0,0:0:0:0:
150,300,2065,2,0,L|202:308,3,35.9999974708558,8|8|8|8,0:0|0:0|0:0|0:0,0:0:0:0:
82,252,2365,6,0,L|233:278,1,131.999998783112,4|0,3:1|3:0,0:0:0:0:
293,319,2815,2,0,L|302:404,2,65.9999993915558,0|2|0,3:0|0:0|3:0,0:0:0:0:
356,235,3265,1,8,0:0:0:0:
379,40,3565,1,2,0:0:0:0:
356,235,3865,2,0,L|424:224,1,65.9999993915558,2|0,0:0|3:0,0:0:0:0:
474,133,4165,6,0,B|409:148|409:148|326:109,1,131.999998783112,4|0,3:1|3:0,0:0:0:0:
268,72,4615,2,0,L|257:-13,2,65.9999993915558,0|2|0,3:0|0:0|3:0,0:0:0:0:
221,150,5065,1,8,0:0:0:0:
18,81,5365,2,0,L|168:92,1,131.999998783112,2|2,0:0|3:2,0:0:0:0:
149,90,5815,1,0,0:0:0:0:
217,184,5965,6,0,P|192:226|182:322,1,131.999998783112,4|0,3:1|3:0,0:0:0:0:
90,333,6415,2,0,P|52:350|15:353,2,65.9999993915558,0|2|0,3:0|0:0|3:0,0:0:0:0:
104,245,6865,1,8,0:0:0:0:
261,353,7165,2,0,L|340:358,1,65.9999993915558,2|0,3:2|3:0,0:0:0:0:
407,315,7465,2,0,L|482:340,1,65.9999993915558,2|0,0:0|3:0,0:0:0:0:
338,226,7765,6,0,P|319:172|314:70,1,131.999998783112,4|0,3:1|3:0,0:0:0:0:
311,97,8215,1,0,3:0:0:0:
387,48,8365,2,0,P|427:35|468:12,1,65.9999993915558,0|0,3:0|3:0,0:0:0:0:
276,14,8665,2,0,P|208:13|137:46,1,131.999998783112,10|2,0:0|3:2,0:0:0:0:
81,102,9115,1,8,0:0:0:0:
126,185,9265,2,0,L|205:191,1,65.9999993915558,2|0,3:2|0:0,0:0:0:0:
68,117,9565,6,0,L|83:273,1,131.999998783112,4|0,3:1|3:0,0:0:0:0:
64,343,10015,2,0,L|-18:359,2,65.9999993915558,0|2|0,3:0|0:0|3:0,0:0:0:0:
149,312,10465,1,8,0:0:0:0:
346,356,10765,1,2,3:2:0:0:
149,312,11065,2,0,L|230:329,1,65.9999993915558,2|0,3:2|0:0,0:0:0:0:
308,277,11365,6,0,P|291:226|289:132,1,131.999998783112,4|0,3:1|3:0,0:0:0:0:
327,53,11815,1,0,3:0:0:0:
227,48,11965,2,0,P|187:35|146:34,1,65.9999993915558,2|0,0:0|3:0,0:0:0:0:
302,129,12265,2,0,L|457:114,2,131.999998783112,8|2|2,0:0|3:2|3:2,0:0:0:0:
199,197,13015,1,0,0:0:0:0:
199,197,13165,5,4,3:1:0:0:
49,113,13465,2,0,L|41:36,1,65.9999993915558,2|0,3:2|3:0,0:0:0:0:
3,192,13765,1,10,0:0:0:0:
107,366,14065,5,10,0:0:0:0:
107,366,14365,1,2,3:2:0:0:
271,316,14665,6,0,L|366:332,1,65.9999993915558,8|8,0:0|0:0,0:0:0:0:
410,280,14965,1,12,3:2:0:0:
410,280,15265,2,0,L|450:272,4,32.9999996957779,0|0|0|0|0,0:0|0:0|0:0|0:0|3:0,0:0:0:0:
429,114,15865,1,8,0:0:0:0:
282,178,16165,1,0,3:0:0:0:
282,178,16465,1,4,3:0:0:0:
318,77,16765,6,0,P|327:45|332:-7,1,71.9999920806888,2|2,3:2|0:0,0:0:0:0:
209,42,17215,2,0,P|211:85|221:123,1,71.9999920806888,2|10,3:2|0:0,0:0:0:0:
144,176,17665,2,0,P|78:152|-18:147,2,143.999984161378,8|10|10,0:0|0:0|0:0,0:0:0:0:
170,306,18415,2,0,L|178:267,1,35.9999960403444,8|8,0:0|0:0,0:0:0:0:
183,255,18565,2,0,P|141:266|96:269,1,71.9999920806888,6|2,3:2|0:0,0:0:0:0:
34,345,19015,2,0,P|68:354|110:371,1,71.9999920806888,2|2,3:2|0:0,0:0:0:0:
213,348,19464,2,0,B|243:328|301:306|358:336|330:351,2,143.999984161378,8|8|8,0:0|0:0|0:0,0:0:0:0:
193,233,20214,2,0,L|199:187,1,35.9999960403444,2|0,0:0|0:0,0:0:0:0:
182,245,20364,2,0,P|226:252|265:245,1,71.9999920806888,4|2,3:2|0:0,0:0:0:0:
345,203,20815,2,0,P|376:203|429:217,1,71.9999920806888,0|2,3:2|0:0,0:0:0:0:
484,285,21265,2,0,P|473:225|477:119,2,143.999984161378,8|8|8,0:0|0:0|0:0,0:0:0:0:
389,240,22015,2,0,L|382:292,1,35.9999960403444,8|8,0:0|0:0,0:0:0:0:
378,222,22165,2,0,P|382:174|418:66,1,143.999984161378,4|2,3:2|0:0,0:0:0:0:
409,82,23065,6,0,P|407:59|320:36,2,107.999988121033,10|8|10,0:0|0:0|0:0,0:0:0:0:
336,146,23815,1,8,0:0:0:0:
336,146,23890,1,8,0:0:0:0:
336,146,23965,2,0,P|287:168|166:174,1,143.999984161378,4|8,3:2|0:0,0:0:0:0:
98,104,24415,2,0,P|142:88|199:9,1,143.999984161378,10|2,0:0|0:0,0:0:0:0:
270,59,24864,2,0,P|300:67|351:69,2,71.9999920806888,8|10|8,0:0|0:0|0:0,0:0:0:0:
184,127,25615,2,0,L|237:121,1,35.9999960403444,8|8,0:0|0:0,0:0:0:0:
234,138,25765,2,0,P|222:188|215:296,1,143.999984161378,4|0,3:2|0:0,0:0:0:0:
152,358,26215,2,0,P|102:365|0:350,1,143.999984161378,10|0,0:0|0:0,0:0:0:0:
92,323,26665,2,0,P|139:328|177:344,1,71.9999920806888,10|8,0:0|0:0,0:0:0:0:
346,376,27265,6,0,P|340:332|338:301,1,53.9999940605166,10|8,0:0|0:0,0:0:0:0:
319,289,27490,1,8,0:0:0:0:
319,289,27565,2,0,P|344:240|359:120,1,143.999984161378,4|8,3:2|0:0,0:0:0:0:
316,68,28015,2,0,P|367:110|465:144,1,143.999984161378,10|8,0:0|0:0,0:0:0:0:
508,83,28465,2,0,P|515:48|510:0,2,71.9999920806888,8|10|10,3:2|0:0|0:0,0:0:0:0:
456,174,29215,2,0,L|449:132,1,35.9999960403444,8|8,0:0|0:0,0:0:0:0:
441,184,29365,2,0,P|385:176|330:185,1,107.999988121033,4|8,3:2|0:0,0:0:0:0:
255,123,29814,2,0,P|228:109|179:49,1,107.999988121033,10|0,0:0|0:0,0:0:0:0:
274,1,30265,2,0,L|269:156,1,143.999984161378,10|10,0:0|0:0,0:0:0:0:
160,101,31015,5,8,0:0:0:0:
160,101,31090,1,8,0:0:0:0:
160,101,31165,2,0,P|115:101|79:88,1,71.9999920806888,4|10,3:2|0:2,0:0:0:0:
0,146,31615,2,0,P|25:135|77:127,1,71.9999920806888,10|10,0:0|0:0,0:0:0:0:
144,205,32065,2,0,P|125:259|118:356,2,143.999984161378,2|10|10,3:2|0:0|0:0,0:0:0:0:
242,173,32815,2,0,L|205:149,1,35.9999960403444,8|8,0:0|0:0,0:0:0:0:
202,135,32965,2,0,P|239:126|281:103,1,71.9999920806888,4|2,3:2|0:0,0:0:0:0:
345,51,33414,2,0,P|374:45|429:51,1,71.9999920806888,10|10,0:0|0:0,0:0:0:0:
459,143,33864,2,0,B|424:201|441:293|466:278|475:250,2,143.999984161378,8|10|10,3:2|0:0|0:0,0:0:0:0:
354,184,34615,2,0,L|370:237,1,35.9999960403444,2|0,0:0|0:0,0:0:0:0:
339,173,34765,6,0,P|338:126|347:94,1,71.9999920806888,6|2,3:2|0:0,0:0:0:0:
231,148,35215,2,8,P|246:187|253:220,1,71.9999920806888,10|2,0:0|0:0,0:0:0:0:
312,304,35665,2,0,P|257:352|175:372,2,143.999984161378,8|8|2,0:0|0:0|0:0,0:0:0:0:
268,202,36415,2,0,L|259:249,1,35.9999960403444,8|8,0:0|0:0,0:0:0:0:
241,253,36565,2,0,P|254:187|255:102,1,143.999984161378,4|2,3:2|0:0,0:0:0:0:
255,110,37465,6,0,P|200:115|149:72,2,107.999988121033,8|8|8,0:0|0:0|0:0,0:0:0:0:
345,45,38215,1,8,0:0:0:0:
345,45,38290,1,8,0:0:0:0:
345,45,38365,2,0,P|408:56|491:103,1,143.999984161378,4|8,3:2|0:0,0:0:0:0:
431,178,38815,2,0,P|374:216|334:291,1,143.999984161378,10|2,0:0|0:0,0:0:0:0:
391,370,39265,2,0,P|387:325|378:293,2,71.9999920806888,2|10|8,3:2|0:0|0:0,0:0:0:0:
281,329,40015,2,0,P|278:305|283:267,1,35.9999960403444,8|8,0:0|0:0,0:0:0:0:
280,270,40165,2,0,P|227:296|143:323,1,143.999984161378,4|0,3:2|0:0,0:0:0:0:
54,347,40615,2,0,P|132:360|206:392,1,143.999984161378,10|0,0:0|0:0,0:0:0:0:
182,294,41065,2,0,P|184:256|179:219,1,71.9999920806888,10|8,0:0|0:0,0:0:0:0:
23,120,41665,6,0,P|18:156|22:181,1,53.9999940605166,2|8,0:0|0:0,0:0:0:0:
10,206,41890,1,8,0:0:0:0:
10,206,41965,2,0,P|59:182|115:97,1,143.999984161378,4|8,3:2|0:0,0:0:0:0:
204,145,42415,2,0,P|163:91|140:-3,1,143.999984161378,10|8,0:0|0:0,0:0:0:0:
233,43,42865,2,0,P|261:49|313:43,2,71.9999920806888,8|10|10,3:2|0:0|0:0,0:0:0:0:
159,118,43615,2,0,L|99:126,1,35.9999960403444,8|8,0:0|0:0,0:0:0:0:
176,129,43765,2,0,P|218:128|315:159,1,143.999984161378,6|0,3:2|0:0,0:0:0:0:
408,131,44215,2,0,P|447:105|507:19,1,143.999984161378,8|0,0:0|0:0,0:0:0:0:
388,0,44665,2,0,L|394:156,1,143.999984161378,10|10,0:0|0:0,0:0:0:0:
468,224,45415,5,2,0:0:0:0:
468,224,45490,1,2,0:0:0:0:
468,224,45565,2,0,P|416:239|360:276,1,107.999988121033,4|10,3:2|0:0,0:0:0:0:
44,224,46465,2,0,P|96:239|187:316,1,161.99998218155,4|0,3:2|0:0,0:0:0:0:
256,18,47365,2,0,L|256:244,2,215.999976242066,4|8|10,3:1|0:0|0:0,0:0:0:0:
178,38,48415,1,2,0:0:0:0:
123,22,48565,1,2,0:0:0:0:
62,83,48715,1,2,0:0:0:0:
58,103,49165,6,0,P|130:105|233:33,1,167.999981521607,4|0,3:1|3:0,0:0:0:0:
307,23,49615,2,0,P|354:17|357:117,1,167.999981521607,2|0,0:0|3:0,0:0:0:0:
299,190,50065,2,0,P|316:239|343:274,1,83.9999907608036,10|0,0:0|0:0,0:0:0:0:
441,285,50365,2,0,L|422:372,1,83.9999907608036,0|2,0:0|0:0,0:0:0:0:
458,274,50665,2,0,L|472:371,1,83.9999907608036,8|0,3:2|0:0,0:0:0:0:
470,187,50965,6,0,P|426:244|319:296,1,167.999981521607,4|0,3:1|3:0,0:0:0:0:
275,364,51415,2,0,P|296:313|206:269,1,167.999981521607,2|0,0:0|3:0,0:0:0:0:
103,258,51865,2,0,P|43:261|1:240,1,83.9999907608036,8|0,0:0|0:0,0:0:0:0:
141,166,52165,1,0,3:0:0:0:
141,166,52465,1,8,1:2:0:0:
58,62,52765,6,0,P|113:41|243:38,1,167.999981521607,4|0,3:1|3:0,0:0:0:0:
330,60,53215,2,0,P|286:46|226:139,1,167.999981521607,2|0,0:0|3:0,0:0:0:0:
265,234,53665,2,0,P|271:298|258:352,1,83.9999907608036,10|0,0:0|0:0,0:0:0:0:
179,367,53965,2,0,L|78:359,1,83.9999907608036,0|2,3:0|0:0,0:0:0:0:
184,341,54265,2,0,L|108:292,1,83.9999907608036,8|0,3:2|0:0,0:0:0:0:
277,323,54565,6,0,P|354:335|468:296,1,167.999981521607,4|0,3:1|3:0,0:0:0:0:
495,226,55015,2,0,P|447:216|418:92,1,167.999981521607,2|0,0:0|3:0,0:0:0:0:
473,5,55465,2,0,L|459:193,1,167.999981521607,10|0,0:0|3:0,0:0:0:0:
422,283,55915,1,8,0:0:0:0:
422,283,55990,1,8,0:0:0:0:
422,283,56065,2,0,L|437:341,3,41.9999953804018,8|8|8|8,0:0|0:0|0:0|0:0,0:0:0:0:
362,380,56365,6,0,P|373:314|352:187,1,167.999981521607,4|0,3:1|3:0,0:0:0:0:
283,154,56815,2,0,P|271:93|372:15,1,167.999981521607,2|0,0:0|3:0,0:0:0:0:
406,79,57265,2,0,P|336:72|240:29,1,167.999981521607,10|0,0:0|3:0,0:0:0:0:
165,91,57715,2,0,L|-21:135,1,167.999981521607,2|0,0:0|0:0,0:0:0:0:
97,28,58165,2,0,P|73:110|85:223,1,167.999981521607,4|0,3:1|3:0,0:0:0:0:
44,296,58615,2,0,P|51:245|158:236,1,167.999981521607,2|0,0:0|3:0,0:0:0:0:
217,299,59065,2,0,P|148:276|49:330,1,167.999981521607,10|0,0:0|0:0,0:0:0:0:
245,384,59665,5,4,3:1:0:0:
245,384,59965,2,0,P|245:319|266:212,1,167.999981521607,4|0,3:1|3:0,0:0:0:0:
313,140,60415,1,0,3:0:0:0:
289,47,60565,2,0,P|234:33|183:34,1,83.9999907608036,2|0,0:0|3:0,0:0:0:0:
332,144,60865,2,0,L|519:121,2,167.999981521607,8|0|4,0:0|3:0|3:1,0:0:0:0:
93,50,61765,6,0,P|168:57|251:97,1,167.999981521607,4|0,3:1|3:0,0:0:0:0:
333,152,62215,1,0,3:0:0:0:
273,223,62365,2,0,P|264:270|282:332,2,83.9999907608036,10|0|8,0:0|3:0|0:0,0:0:0:0:
453,292,62965,2,0,L|511:304,3,41.9999953804018,12|8|8|8,0:0|0:0|0:0|0:0,0:0:0:0:
386,361,63265,2,0,L|328:373,3,41.9999953804018,10|8|8|8,1:2|0:0|0:0|0:0,0:0:0:0:
456,316,63565,6,0,P|420:253|501:225,1,167.999981521607,4|0,3:1|3:0,0:0:0:0:
500,129,64015,2,0,P|430:165|304:166,1,167.999981521607,2|0,0:0|3:0,0:0:0:0:
268,224,64465,2,0,P|305:184|317:128,1,83.9999907608036,8|0,0:0|0:0,0:0:0:0:
203,152,64765,2,0,P|186:99|144:61,1,83.9999907608036,2|0,3:2|0:0,0:0:0:0:
115,207,65065,2,0,P|93:274|96:312,1,83.9999907608036,8|0,0:0|0:0,0:0:0:0:
20,157,65365,2,0,P|47:115|56:-12,1,167.999981521607,4|0,3:1|3:0,0:0:0:0:
0,76,65815,2,0,L|20:272,1,167.999981521607,2|0,0:0|3:0,0:0:0:0:
0,340,66265,1,8,0:0:0:0:
218,296,66565,5,2,3:2:0:0:
218,296,66865,1,8,0:0:0:0:
78,384,67165,2,0,P|81:332|181:371,1,167.999981521607,4|0,3:1|0:0,0:0:0:0:
265,384,67615,2,0,P|223:324|216:195,1,167.999981521607,2|0,0:0|3:0,0:0:0:0:
283,155,68065,2,0,P|288:103|263:50,1,83.9999907608036,10|0,0:0|0:0,0:0:0:0:
369,213,68365,2,0,P|426:194|467:149,1,83.9999907608036,2|0,3:2|0:0,0:0:0:0:
349,314,68665,2,0,P|393:350|450:360,1,83.9999907608036,10|0,0:0|0:0,0:0:0:0:
260,259,68965,2,0,P|192:252|108:279,1,125.999986141205,4|0,3:1|0:0,0:0:0:0:
125,284,69265,1,0,3:0:0:0:
63,384,69415,2,0,L|79:79,1,287.999977111817,2|8,3:2|0:0,0:0:0:0:
213,9,70165,5,8,3:2:0:0:
213,9,70315,1,8,0:0:0:0:
162,100,70465,2,8,L|168:155,3,41.9999953804018,10|8|8|8,3:2|0:0|0:0|0:0,0:0:0:0:
87,176,70765,2,0,P|134:178|143:301,1,167.999981521607,4|0,3:1|3:0,0:0:0:0:
119,361,71215,2,0,P|196:324|308:314,1,167.999981521607,2|0,0:0|3:0,0:0:0:0:
368,350,71665,2,0,P|409:344|462:318,1,83.9999907608036,10|0,0:0|0:0,0:0:0:0:
376,248,71965,2,0,P|328:234|285:196,1,83.9999907608036,2|0,3:2|0:0,0:0:0:0:
409,159,72265,2,0,P|423:116|420:53,1,83.9999907608036,8|0,0:0|0:0,0:0:0:0:
352,0,72565,2,0,P|354:49|403:176,1,167.999981521607,4|0,3:1|3:0,0:0:0:0:
488,197,73015,2,0,L|302:223,1,167.999981521607,2|0,3:2|2:0,0:0:0:0:
208,173,73465,1,8,0:0:0:0:
208,173,73765,6,0,L|93:157,1,89.9999928474428,4|0,3:1|0:0,0:0:0:0:
57,209,74065,2,0,L|3:217,4,35.9999960403444,8|8|8|8|4,3:2|0:0|0:0|0:0|3:1,0:0:0:0:
256,192,74515,12,0,77365,3:0:0:0:
256,192,77665,5,4,3:2:0:0:
256,192,77965,1,2,3:2:0:0:
448,355,92365,6,0,P|451:297|446:268,1,71.9999920806888,4|10,3:2|0:0,0:0:0:0:
379,223,92815,2,0,P|382:188|397:140,1,71.9999920806888,10|8,0:0|0:0,0:0:0:0:
476,89,93265,2,0,L|487:162,2,71.9999920806888,2|10|10,3:2|0:0|0:0,0:0:0:0:
373,7,94015,2,0,L|408:12,1,35.9999960403444,8|8,0:0|0:0,0:0:0:0:
358,19,94165,6,0,L|290:30,1,53.9999940605166,4|0,3:2|0:0,0:0:0:0:
210,16,94465,1,8,0:0:0:0:
210,16,94615,2,0,L|96:36,1,107.999988121033,10|10,0:0|0:0,0:0:0:0:
20,88,95065,1,10,0:0:0:0:
129,193,95365,1,10,0:0:0:0:
129,193,95665,1,10,0:0:0:0:
4,266,95965,6,0,P|-2:304|5:352,1,71.9999920806888,4|8,3:2|0:0,0:0:0:0:
87,379,96415,2,0,P|106:374|154:337,1,71.9999920806888,10|10,0:0|0:0,0:0:0:0:
235,315,96865,2,0,P|263:317|313:329,2,71.9999920806888,2|10|8,3:2|0:0|0:0,0:0:0:0:
192,237,97615,1,8,0:0:0:0:
192,237,97690,1,8,0:0:0:0:
192,237,97765,1,4,3:2:0:0:
332,204,98065,1,8,0:0:0:0:
489,31,98665,5,10,0:0:0:0:
489,31,98965,1,10,0:0:0:0:
489,31,99265,1,10,0:0:0:0:
491,127,99415,2,0,L|447:137,1,35.9999960403444,8|8,0:0|0:0,0:0:0:0:
443,121,99565,6,0,P|438:169|442:240,1,107.999988121033,4|8,3:2|0:0,0:0:0:0:
436,330,100015,2,0,P|436:275|412:216,1,107.999988121033,10|2,0:0|0:0,0:0:0:0:
317,275,100465,2,0,L|327:382,2,107.999988121033,2|10|8,3:2|0:0|0:0,0:0:0:0:
260,174,101215,5,8,0:0:0:0:
260,174,101290,1,8,0:0:0:0:
260,174,101365,2,0,P|296:139|316:46,1,143.999984161378,4|0,3:2|0:0,0:0:0:0:
206,10,101815,2,0,P|242:45|262:138,1,143.999984161378,10|0,0:0|0:0,0:0:0:0:
178,181,102265,2,0,L|91:173,1,71.9999920806888,10|8,0:0|0:0,0:0:0:0:
17,350,102865,6,0,L|80:338,1,53.9999940605166,2|8,0:0|0:0,0:0:0:0:
106,315,103090,1,8,0:0:0:0:
106,315,103165,2,0,P|140:330|220:338,1,107.999988121033,4|8,3:2|0:0,0:0:0:0:
291,292,103615,2,0,P|322:284|405:290,1,107.999988121033,10|8,0:0|0:0,0:0:0:0:
497,310,104065,2,0,L|505:256,1,53.9999940605166,8|0,3:2|0:0,0:0:0:0:
426,175,104365,2,0,L|414:110,1,53.9999940605166,8|0,0:0|0:0,0:0:0:0:
476,56,104665,2,0,L|484:-10,1,53.9999940605166,10|8,0:0|0:0,0:0:0:0:
441,19,104890,1,8,0:0:0:0:
441,19,104965,6,0,P|379:24|334:63,1,107.999988121033,6|0,3:2|0:0,0:0:0:0:
372,143,105415,2,0,P|400:177|467:144,1,107.999988121033,8|8,0:0|0:0,0:0:0:0:
506,244,105865,2,0,L|514:327,1,71.9999920806888,10|8,0:0|0:0,0:0:0:0:
331,378,106465,5,10,0:0:0:0:
308,285,106615,1,2,0:0:0:0:
308,285,106690,1,2,0:0:0:0:
308,285,106765,2,0,P|353:282|422:310,1,107.999988121033,4|10,3:2|0:0,0:0:0:0:
240,104,107665,2,0,P|282:99|381:5,1,161.99998218155,4|0,3:2|0:0,0:0:0:0:
1,211,108565,2,2,L|244:211,2,215.999976242066,4|4|10,3:1|3:1|0:0,0:0:0:0:
7,256,109615,1,0,0:0:0:0:
74,319,109765,1,2,0:0:0:0:
65,344,109915,1,10,0:0:0:0:
55,336,110365,6,0,P|112:305|226:303,1,167.999981521607,4|0,3:1|3:0,0:0:0:0:
300,339,110815,2,0,P|364:321|364:220,1,167.999981521607,2|0,0:0|3:0,0:0:0:0:
400,140,111265,2,0,P|398:92|428:36,1,83.9999907608036,10|0,0:0|0:0,0:0:0:0:
294,25,111565,2,0,L|310:124,1,83.9999907608036,0|2,3:0|0:0,0:0:0:0:
214,78,111865,2,0,L|292:132,1,83.9999907608036,8|0,3:2|0:0,0:0:0:0:
344,215,112165,6,0,P|408:182|530:172,1,167.999981521607,4|0,3:1|3:0,0:0:0:0:
512,264,112615,2,0,P|451:283|444:389,1,167.999981521607,2|0,0:0|3:0,0:0:0:0:
324,340,113065,2,0,P|270:347|223:329,1,83.9999907608036,8|0,0:0|0:0,0:0:0:0:
139,263,113365,1,0,3:0:0:0:
139,263,113665,1,8,1:2:0:0:
8,376,113965,6,0,P|59:343|112:237,1,167.999981521607,4|0,3:1|3:0,0:0:0:0:
72,161,114415,2,0,P|24:133|62:17,1,167.999981521607,2|0,0:0|3:0,0:0:0:0:
142,30,114865,2,0,P|186:40|247:23,1,83.9999907608036,10|0,2:0|0:0,0:0:0:0:
305,79,115165,2,0,L|398:55,1,83.9999907608036,0|2,3:0|0:0,0:0:0:0:
351,155,115465,2,0,L|395:77,1,83.9999907608036,8|0,3:2|0:0,0:0:0:0:
476,150,115765,6,0,P|426:218|415:326,1,167.999981521607,4|0,3:1|0:0,0:0:0:0:
331,374,116215,2,0,P|360:299|279:242,1,167.999981521607,2|0,0:0|3:0,0:0:0:0:
228,174,116665,2,0,P|232:116|301:5,1,167.999981521607,10|0,0:0|3:0,0:0:0:0:
376,73,117115,1,8,0:0:0:0:
376,73,117190,1,8,0:0:0:0:
376,73,117265,2,0,L|424:78,3,41.9999953804018,8|8|8|8,0:0|0:0|0:0|0:0,0:0:0:0:
497,108,117565,6,0,P|427:126|311:175,1,167.999981521607,4|0,3:1|3:0,0:0:0:0:
248,197,118015,2,0,P|299:200|354:313,1,167.999981521607,2|0,0:0|3:0,0:0:0:0:
363,384,118465,2,0,P|332:351|319:300,1,83.9999907608036,10|0,0:0|0:0,0:0:0:0:
217,336,118765,1,0,3:0:0:0:
217,336,118915,2,0,L|27:309,1,167.999981521607,2|0,0:0|0:0,0:0:0:0:
0,225,119365,2,0,P|41:260|101:167,1,167.999981521607,4|0,3:1|3:0,0:0:0:0:
106,102,119815,2,0,P|177:53|184:52,1,83.9999907608036,2|0,0:0|3:0,0:0:0:0:
261,104,120115,1,0,3:0:0:0:
261,104,120265,2,0,P|194:86|92:84,1,167.999981521607,10|0,0:0|3:0,0:0:0:0:
294,18,120865,5,4,3:1:0:0:
294,18,121165,2,0,P|295:95|276:204,1,167.999981521607,4|0,3:1|3:0,0:0:0:0:
337,262,121615,1,0,3:0:0:0:
418,217,121765,2,0,P|477:211|536:216,1,83.9999907608036,2|0,0:0|3:0,0:0:0:0:
324,274,122065,2,0,L|153:225,2,167.999981521607,8|0|4,0:0|3:0|3:1,0:0:0:0:
110,368,122965,6,0,P|132:296|137:166,1,167.999981521607,4|0,3:1|3:0,0:0:0:0:
175,112,123415,1,0,3:0:0:0:
98,48,123565,2,0,P|43:63|5:66,2,83.9999907608036,10|0|8,0:0|3:0|0:0,0:0:0:0:
337,61,124165,2,0,L|344:10,3,41.9999953804018,12|8|8|8,3:2|0:0|0:0|0:0,0:0:0:0:
425,0,124465,2,0,L|432:51,3,41.9999953804018,10|8|8|8,1:2|0:0|0:0|0:0,0:0:0:0:
347,101,124765,6,0,P|425:86|457:159,1,167.999981521607,4|0,3:1|3:0,0:0:0:0:
489,242,125215,2,0,P|437:260|334:324,1,167.999981521607,2|0,0:0|3:0,0:0:0:0:
262,384,125665,2,0,P|246:340|239:289,1,83.9999907608036,8|0,0:0|0:0,0:0:0:0:
146,270,125965,2,0,P|154:223|173:176,1,83.9999907608036,2|0,3:2|0:0,0:0:0:0:
53,304,126265,2,0,P|44:350|25:397,1,83.9999907608036,8|0,0:0|0:0,0:0:0:0:
26,213,126565,2,0,P|47:154|43:24,1,167.999981521607,4|0,3:1|3:0,0:0:0:0:
0,129,127015,2,0,L|203:105,1,167.999981521607,2|0,0:0|3:0,0:0:0:0:
265,43,127465,1,8,0:0:0:0:
460,150,127765,5,2,3:2:0:0:
460,150,128065,1,8,0:0:0:0:
325,101,128365,2,0,P|382:126|429:31,1,167.999981521607,4|0,3:1|0:0,0:0:0:0:
327,12,128815,2,0,P|262:19|150:72,1,167.999981521607,2|0,0:0|3:0,0:0:0:0:
71,42,129265,2,0,P|83:97|78:148,1,83.9999907608036,10|0,0:0|0:0,0:0:0:0:
146,206,129565,2,0,P|104:243|57:265,1,83.9999907608036,2|0,3:2|0:0,0:0:0:0:
210,280,129865,2,0,P|279:283|316:299,1,83.9999907608036,10|0,0:0|0:0,0:0:0:0:
338,365,130165,2,0,P|373:329|472:275,1,125.999986141205,4|0,3:1|0:0,0:0:0:0:
455,277,130465,1,0,3:0:0:0:
506,375,130615,2,0,L|491:63,1,287.999977111817,2|8,3:2|0:0,0:0:0:0:
304,15,131365,5,0,3:0:0:0:
304,15,131515,1,8,0:0:0:0:
391,85,131665,2,8,L|382:145,3,41.9999953804018,10|8|8|8,0:0|0:0|0:0|0:0,0:0:0:0:
311,171,131965,2,0,P|360:163|424:262,1,167.999981521607,4|0,3:1|3:0,0:0:0:0:
485,314,132415,2,0,P|411:308|300:344,1,167.999981521607,2|0,0:0|3:0,0:0:0:0:
221,364,132865,2,0,P|176:326|152:285,1,83.9999907608036,10|0,0:0|0:0,0:0:0:0:
84,246,133165,2,0,P|82:200|94:152,1,83.9999907608036,2|0,3:2|0:0,0:0:0:0:
140,88,133465,2,0,P|94:123|51:134,1,83.9999907608036,8|0,0:0|0:0,0:0:0:0:
28,31,133765,2,0,P|87:43|187:127,1,167.999981521607,4|0,3:1|3:0,0:0:0:0:
172,204,134215,2,0,L|349:176,1,167.999981521607,2|0,3:2|2:0,0:0:0:0:
422,133,134665,1,8,0:0:0:0:
422,133,134965,6,0,L|429:248,1,89.9999928474428,4|0,3:1|0:0,0:0:0:0:
460,296,135265,2,0,L|455:339,4,29.9999976158143,8|8|8|8|4,0:0|0:0|0:0|0:0|3:2,0:0:0:0:
256,192,135715,12,8,138565,0:0:0:0:
482,92,139165,6,0,P|480:130|475:168,1,53.9999940605166,4|0,3:2|0:0,0:0:0:0:
379,58,139465,1,0,3:0:0:0:
379,58,139615,2,0,P|371:11|370:-11,1,53.9999940605166,8|0,0:0|3:0,0:0:0:0:
317,139,139915,1,0,3:0:0:0:
317,139,140065,1,8,0:0:0:0:
159,173,140365,1,8,0:0:0:0:
211,18,140665,1,8,0:0:0:0:
73,95,140965,6,0,P|28:97|-1:103,1,53.9999940605166,12|0,0:0|3:0,0:0:0:0:
51,196,141265,1,0,3:0:0:0:
51,196,141415,2,0,P|30:220|16:248,1,53.9999940605166,8|0,0:0|3:0,0:0:0:0:
107,293,141715,1,0,3:0:0:0:
107,293,141865,1,8,0:0:0:0:
260,245,142165,1,8,0:0:0:0:
397,327,142465,1,8,0:0:0:0:
241,384,142765,6,0,P|233:351|229:319,1,53.9999940605166,4|0,3:2|0:0,0:0:0:0:
281,252,143065,1,0,3:0:0:0:
281,252,143215,2,0,P|296:215|313:186,1,53.9999940605166,8|0,0:0|3:0,0:0:0:0:
392,182,143515,1,0,3:0:0:0:
392,182,143665,1,8,0:0:0:0:
512,78,143965,1,8,0:0:0:0:
366,29,144265,1,8,0:0:0:0:
276,82,144565,6,0,P|231:62|218:49,1,53.9999940605166,12|0,0:0|3:0,0:0:0:0:
124,22,144865,1,0,3:0:0:0:
124,22,145015,2,0,P|111:56|108:89,1,53.9999940605166,8|0,0:0|3:0,0:0:0:0:
51,162,145315,1,0,3:0:0:0:
51,162,145465,1,8,0:0:0:0:
207,221,145765,1,8,0:0:0:0:
83,326,146065,1,8,0:0:0:0:
207,221,146365,6,0,L|281:210,1,53.9999940605166,4|0,3:2|0:0,0:0:0:0:
332,156,146665,1,0,3:0:0:0:
375,235,146815,2,0,L|449:246,1,53.9999940605166,8|0,0:0|3:0,0:0:0:0:
500,312,147115,1,0,3:0:0:0:
500,312,147265,1,8,0:0:0:0:
328,367,147565,1,8,0:0:0:0:
287,208,147865,1,8,0:0:0:0:
473,206,148165,6,0,P|492:161|505:146,2,53.9999940605166,12|0|0,0:0|3:0|3:0,0:0:0:0:
376,164,148615,2,0,P|367:134|364:104,2,53.9999940605166,8|0|0,0:0|3:0|3:0,0:0:0:0:
309,237,149065,1,8,0:0:0:0:
185,265,149365,1,8,0:0:0:0:
61,293,149665,1,8,0:0:0:0:
49,163,149965,6,0,P|37:140|30:89,2,53.9999940605166,12|0|0,0:0|3:0|3:0,2:2:0:0:
126,92,150415,2,0,P|129:58|134:38,2,53.9999940605166,8|0|0,0:0|3:0|3:0,0:0:0:0:
220,125,150865,2,0,P|264:113|349:103,2,107.999988121033,8|8|8,0:0|0:0|0:0,0:0:0:0:
383,36,151765,6,0,P|420:38|509:17,1,107.999988121033,12|0,0:0|3:0,0:0:0:0:
455,138,152215,2,0,P|402:126|348:127,1,107.999988121033,8|0,0:0|3:0,0:0:0:0:
298,204,152665,2,0,L|291:250,3,26.9999970302583,8|0|0|0,0:0|0:0|3:0|0:0,0:0:0:0:
285,254,152965,2,0,P|338:254|391:243,1,107.999988121033,8|8,0:0|0:0,0:0:0:0:
150,372,153565,6,0,P|161:322|166:290,1,71.9999920806888,14|2,0:2|3:2,0:0:0:0:
106,214,154015,2,0,P|95:164|92:133,1,71.9999920806888,10|0,0:0|3:0,0:0:0:0:
173,68,154465,2,0,P|164:132|137:220,2,143.999984161378,10|10|10,0:0|0:0|0:0,0:0:0:0:
173,68,155365,6,0,P|229:74|254:69,1,71.9999920806888,12|2,0:0|3:2,0:0:0:0:
344,31,155815,2,0,P|400:25|425:30,1,71.9999920806888,10|0,0:0|3:0,0:0:0:0:
494,103,156265,2,0,P|437:148|345:162,2,143.999984161378,10|10|10,0:0|0:0|0:0,0:0:0:0:
494,103,157165,6,0,P|478:164|478:187,1,71.9999920806888,12|2,0:0|3:2,0:0:0:0:
438,268,157615,2,0,P|454:329|454:352,1,71.9999920806888,10|2,0:0|3:2,0:0:0:0:
327,293,158065,2,0,P|273:286|173:303,2,143.999984161378,10|10|10,0:0|0:0|0:0,0:0:0:0:
373,175,158965,5,14,0:0:0:0:
102,117,159415,1,14,0:0:0:0:
314,4,159865,2,0,P|309:48|309:76,1,53.9999940605166,10|0,0:0|3:0,0:0:0:0:
271,139,160165,2,0,P|288:179|302:203,1,53.9999940605166,10|0,0:0|3:0,0:0:0:0:
309,281,160465,2,0,P|344:307|368:321,1,53.9999940605166,10|0,0:0|3:0,0:0:0:0:
453,314,160765,6,0,P|440:259|439:205,1,107.999988121033,12|2,0:0|3:2,0:0:0:0:
390,103,161215,2,0,P|431:64|477:36,1,107.999988121033,10|0,0:0|3:0,0:0:0:0:
364,0,161665,2,0,L|279:20,1,71.9999920806888,10|0,0:0|3:0,0:0:0:0:
201,94,161965,1,10,0:0:0:0:
201,94,162265,1,10,0:0:0:0:
44,33,162565,6,0,P|60:73|67:138,1,107.999988121033,12|2,0:0|3:2,0:0:0:0:
115,235,163015,2,0,P|88:268|35:307,1,107.999988121033,10|2,0:0|3:2,0:0:0:0:
133,367,163465,2,0,L|147:276,1,71.9999920806888,10|0,0:0|3:0,0:0:0:0:
242,215,163765,1,10,0:0:0:0:
242,215,164065,1,10,0:0:0:0:
209,66,164365,6,0,P|253:82|325:80,1,107.999988121033,12|2,0:0|3:2,0:0:0:0:
431,42,164815,2,0,P|361:80|337:113,1,107.999988121033,10|0,0:0|3:0,0:0:0:0:
392,199,165265,1,10,0:0:0:0:
290,260,165565,1,10,0:0:0:0:
181,306,165865,1,10,0:0:0:0:
181,306,166165,5,0,0:0:0:0:
483,26,167978,6,0,P|443:86|434:215,1,167.999981521607,4|0,3:1|3:0,0:0:0:0:
329,199,168428,2,0,P|266:195|270:91,1,167.999981521607,2|0,0:0|3:0,0:0:0:0:
180,23,168878,2,0,P|131:45|71:44,1,83.9999907608036,10|0,0:0|0:0,0:0:0:0:
23,133,169178,2,0,L|130:169,1,83.9999907608036,0|2,3:0|0:0,0:0:0:0:
0,228,169478,2,0,L|98:206,1,83.9999907608036,8|0,3:2|0:0,0:0:0:0:
191,247,169778,6,0,P|131:255|25:349,1,167.999981521607,4|0,3:1|3:0,0:0:0:0:
150,372,170228,2,0,P|156:325|259:319,1,167.999981521607,2|0,0:0|3:0,0:0:0:0:
360,357,170678,2,0,P|417:331|442:301,1,83.9999907608036,8|0,0:0|0:0,0:0:0:0:
396,182,170978,1,0,3:0:0:0:
396,182,171278,1,8,1:2:0:0:
512,322,171578,6,0,P|441:279|332:261,1,167.999981521607,4|0,3:1|3:0,0:0:0:0:
265,269,172028,2,0,P|247:240|340:176,1,167.999981521607,2|0,0:0|3:0,0:0:0:0:
425,163,172478,2,0,P|358:150|336:131,1,83.9999907608036,10|0,2:0|0:0,0:0:0:0:
285,38,172778,2,0,L|382:55,1,83.9999907608036,0|2,3:0|0:0,0:0:0:0:
198,99,173078,2,0,L|293:71,1,83.9999907608036,8|0,3:2|0:0,0:0:0:0:
152,178,173378,6,0,P|153:111|106:16,1,167.999981521607,4|0,3:1|0:0,0:0:0:0:
17,88,173828,2,0,P|31:129|138:107,1,167.999981521607,2|0,0:0|3:0,0:0:0:0:
186,221,174278,2,0,P|140:274|98:389,1,167.999981521607,10|0,0:0|3:0,0:0:0:0:
47,266,174728,1,8,0:0:0:0:
47,266,174803,1,8,0:0:0:0:
47,266,174878,2,0,L|-16:246,3,41.9999953804018,8|8|8|8,0:0|0:0|0:0|0:0,0:0:0:0:
128,351,175178,6,0,P|185:348|294:291,1,167.999981521607,4|0,3:1|3:0,0:0:0:0:
361,228,175628,2,0,P|337:279|417:363,1,167.999981521607,2|0,0:0|3:0,0:0:0:0:
485,305,176078,2,0,P|470:249|482:133,1,167.999981521607,10|0,0:0|3:0,0:0:0:0:
504,38,176528,1,2,0:0:0:0:
399,71,176678,2,0,L|289:94,1,83.9999907608036,8|0,0:0|0:0,0:0:0:0:
242,153,176978,2,0,P|270:92|179:30,1,167.999981521607,4|0,3:1|3:0,0:0:0:0:
111,21,177428,2,0,P|155:43|217:147,1,167.999981521607,2|0,0:0|3:0,0:0:0:0:
171,229,177878,2,0,P|110:213|-28:207,1,167.999981521607,10|0,0:0|3:0,0:0:0:0:
112,351,178478,5,4,3:1:0:0:
112,351,178778,2,0,P|93:298|98:165,1,167.999981521607,4|0,3:1|3:0,0:0:0:0:
198,153,179228,1,0,3:0:0:0:
287,207,179378,2,0,P|349:217|396:201,1,83.9999907608036,2|0,0:0|3:0,0:0:0:0:
188,167,179678,2,0,L|179:-18,2,167.999981521607,8|0|4,0:0|3:0|3:1,0:0:0:0:
0,59,180578,6,0,P|52:41|180:36,1,167.999981521607,4|0,3:1|3:0,0:0:0:0:
268,80,181028,1,0,3:0:0:0:
368,42,181178,2,0,P|433:40|476:19,2,83.9999907608036,10|0|8,0:0|3:0|0:0,0:0:0:0:
297,192,181778,2,0,L|302:245,3,41.9999953804018,12|8|8|8,0:0|0:0|0:0|0:0,0:0:0:0:
359,312,182078,2,0,L|354:365,3,41.9999953804018,10|8|8|8,1:2|0:0|0:0|0:0,0:0:0:0:
439,384,182378,6,0,P|421:330|511:275,1,167.999981521607,4|0,3:1|3:0,0:0:0:0:
512,169,182828,2,0,P|450:136|383:35,1,167.999981521607,2|0,0:0|3:0,0:0:0:0:
287,19,183278,2,0,P|277:81|259:114,1,83.9999907608036,8|0,0:0|0:0,0:0:0:0:
171,80,183578,2,0,P|161:18|143:-15,1,83.9999907608036,2|0,3:2|0:0,0:0:0:0:
97,154,183878,2,0,P|85:207|83:269,1,83.9999907608036,8|0,0:0|0:0,0:0:0:0:
2,124,184178,2,0,P|33:163|63:301,1,167.999981521607,4|0,3:1|3:0,0:0:0:0:
29,369,184628,2,0,L|226:346,1,167.999981521607,2|0,0:0|3:0,0:0:0:0:
289,384,185078,1,8,0:0:0:0:
476,306,185378,5,2,3:2:0:0:
476,306,185678,1,8,0:0:0:0:
356,384,185978,2,0,P|387:338|311:257,1,167.999981521607,4|0,3:1|0:0,0:0:0:0:
242,194,186428,2,0,P|231:151|240:0,1,167.999981521607,2|0,0:0|3:0,0:0:0:0:
329,60,186878,2,0,P|382:83|430:80,1,83.9999907608036,10|0,0:0|0:0,0:0:0:0:
421,191,187178,2,0,P|467:156|488:113,1,83.9999907608036,2|0,3:2|0:0,0:0:0:0:
385,275,187478,2,0,P|322:249|291:247,1,83.9999907608036,10|0,0:0|0:0,0:0:0:0:
218,274,187778,2,0,P|157:263|88:246,1,125.999986141205,4|0,3:1|0:0,0:0:0:0:
79,265,188078,1,0,3:0:0:0:
0,158,188228,2,0,L|300:129,1,287.999977111817,2|8,3:2|0:0,0:0:0:0:
503,26,188978,5,0,3:0:0:0:
503,26,189128,1,8,0:0:0:0:
471,123,189278,2,8,L|479:176,3,41.9999953804018,10|8|8|8,0:0|0:0|0:0|0:0,0:0:0:0:
395,219,189578,2,0,P|439:206|510:295,1,167.999981521607,4|0,3:1|3:0,0:0:0:0:
424,344,190028,2,0,P|361:339|240:377,1,167.999981521607,2|0,0:0|3:0,0:0:0:0:
165,329,190478,2,0,P|145:282|147:236,1,83.9999907608036,10|0,0:0|0:0,0:0:0:0:
194,165,190778,2,0,P|224:124|265:102,1,83.9999907608036,2|0,3:2|0:0,0:0:0:0:
104,116,191078,2,0,P|49:136|14:135,1,83.9999907608036,8|0,0:0|0:0,0:0:0:0:
126,21,191378,2,0,P|188:12|303:39,1,167.999981521607,4|0,3:1|3:0,0:0:0:0:
396,17,191828,2,0,L|383:192,1,167.999981521607,2|0,3:2|2:0,0:0:0:0:
422,283,192278,1,8,0:0:0:0:
60,339,192878,6,0,L|11:350,3,41.9999953804018,8|8|8|8,0:0|0:0|0:0|0:0,0:0:0:0:
146,376,193178,2,0,P|161:331|165:228,1,143.999984161378,4|0,3:2|3:2,0:0:0:0:
127,151,193628,2,0,P|127:222|147:291,1,143.999984161378,8|2,0:0|3:2,0:0:0:0:
246,336,194078,2,0,L|342:318,1,83.9999907608036,8|2,0:0|3:2,0:0:0:0:
398,257,194378,2,0,L|494:275,1,83.9999907608036,10|8,0:0|0:0,0:0:0:0:
350,175,194678,1,8,0:0:0:0:
350,175,194753,1,8,0:0:0:0:
350,175,194828,2,8,L|343:114,2,41.9999953804018
256,192,195128,12,0,196328,3:2:0:0:
67,34,196778,6,0,P|77:91|27:219,1,167.999981521607,4|0,3:1|3:0,0:0:0:0:
50,300,197228,2,0,P|58:242|166:230,1,167.999981521607,2|0,0:0|3:0,0:0:0:0:
215,295,197678,2,0,P|273:324|324:321,1,83.9999907608036,10|0,0:0|0:0,0:0:0:0:
386,302,197978,2,0,L|368:403,1,83.9999907608036,0|2,0:0|0:0,0:0:0:0:
403,288,198278,2,0,L|416:390,1,83.9999907608036,8|0,3:2|0:0,0:0:0:0:
493,259,198578,6,0,P|457:195|444:63,1,167.999981521607,4|0,3:1|3:0,0:0:0:0:
387,14,199028,2,0,P|398:65|307:86,1,167.999981521607,2|0,0:0|3:0,0:0:0:0:
205,84,199478,2,0,P|155:70|93:77,1,83.9999907608036,8|0,0:0|0:0,0:0:0:0:
235,183,199778,1,0,3:0:0:0:
235,183,200078,1,8,1:2:0:0:
40,232,200378,6,0,P|107:230|202:283,1,167.999981521607,4|0,3:1|3:0,0:0:0:0:
254,362,200828,2,0,P|224:312|315:228,1,167.999981521607,2|0,0:0|3:0,0:0:0:0:
359,283,201278,2,0,P|397:294|473:290,1,83.9999907608036,10|0,0:0|0:0,0:0:0:0:
500,220,201578,2,0,L|520:128,1,83.9999907608036,0|2,3:0|0:0,0:0:0:0:
474,205,201878,2,0,L|462:112,1,83.9999907608036,8|0,3:2|0:0,0:0:0:0:
398,43,202178,6,0,P|336:51|204:101,1,167.999981521607,4|0,3:1|3:0,0:0:0:0:
159,152,202628,2,0,P|100:137|65:18,1,191.999984741211,2|0,0:0|3:0,0:0:0:0:
159,0,203078,2,0,L|146:209,1,191.999984741211,10|0,0:0|3:0,0:0:0:0:
71,279,203528,1,8,0:0:0:0:
71,279,203603,1,8,0:0:0:0:
71,279,203678,2,0,L|85:359,3,47.9999961853028,8|8|8|8,0:0|0:0|0:0|0:0,0:0:0:0:
0,231,203978,6,0,P|45:196|175:170,1,167.999981521607,4|0,3:1|3:0,0:0:0:0:
235,216,204428,2,0,P|279:184|233:86,1,167.999981521607,2|0,0:0|3:0,0:0:0:0:
308,9,204878,2,0,P|375:46|416:38,1,83.9999907608036,10|0,0:0|0:0,0:0:0:0:
501,11,205178,1,0,3:0:0:0:
501,11,205328,2,0,L|481:209,1,167.999981521607,2|0,0:0|0:0,0:0:0:0:
470,275,205778,2,0,P|446:198|371:132,1,167.999981521607,4|0,3:1|3:0,0:0:0:0:
281,84,206228,2,0,P|267:135|274:187,1,83.9999907608036,2|0,0:0|0:0,0:0:0:0:
242,265,206528,1,0,3:0:0:0:
268,362,206678,2,0,P|179:339|96:332,1,167.999981521607,10|0,0:0|0:0,0:0:0:0:
13,154,207278,5,4,3:1:0:0:
13,154,207578,2,0,P|67:142|158:78,1,167.999981521607,4|0,3:1|3:0,0:0:0:0:
238,26,208028,1,0,3:0:0:0:
331,61,208178,2,0,P|390:60|444:82,1,83.9999907608036,2|0,0:0|3:0,0:0:0:0:
245,43,208478,2,0,L|230:228,2,167.999981521607,8|0|4,0:0|3:0|3:1,0:0:0:0:
455,12,209378,6,0,P|430:78|420:212,1,167.999981521607,4|0,3:1|3:0,0:0:0:0:
465,263,209828,1,0,3:0:0:0:
402,337,209978,2,0,P|349:355|316:392,2,83.9999907608036,10|0|8,0:0|3:0|0:0,0:0:0:0:
271,191,210578,2,0,L|279:139,3,41.9999953804018,12|8|8|8,0:0|0:0|0:0|0:0,0:0:0:0:
198,263,210878,2,0,L|206:315,3,41.9999953804018,10|8|8|8,1:2|0:0|0:0|0:0,0:0:0:0:
130,373,211178,6,0,P|166:323|85:263,1,167.999981521607,4|0,3:1|3:0,0:0:0:0:
27,195,211628,2,0,P|19:131|55:3,1,167.999981521607,2|0,0:0|3:0,0:0:0:0:
144,15,212078,2,0,P|167:61|225:92,1,83.9999907608036,8|0,0:0|0:0,0:0:0:0:
263,155,212378,2,0,P|322:140|344:120,1,83.9999907608036,2|0,3:2|0:0,0:0:0:0:
191,228,212678,2,0,P|135:219|88:225,1,83.9999907608036,8|0,0:0|0:0,0:0:0:0:
262,302,212978,2,0,P|325:288|440:303,1,167.999981521607,4|0,3:1|3:0,0:0:0:0:
484,375,213428,2,0,L|470:181,1,167.999981521607,2|0,0:0|3:0,0:0:0:0:
503,116,213878,1,8,0:0:0:0:
301,105,214178,5,2,3:2:0:0:
301,105,214478,1,8,0:0:0:0:
475,68,214778,2,0,P|423:87|441:184,1,167.999981521607,4|0,3:1|0:0,0:0:0:0:
501,256,215228,2,0,P|431:225|318:216,1,167.999981521607,2|0,0:0|3:0,0:0:0:0:
266,266,215678,2,0,P|253:319|212:362,1,83.9999907608036,10|0,0:0|0:0,0:0:0:0:
172,242,215978,2,0,P|119:257|61:243,1,83.9999907608036,2|0,3:2|0:0,0:0:0:0:
145,148,216278,2,0,P|105:110|88:53,1,83.9999907608036,10|0,0:0|0:0,0:0:0:0:
232,92,216578,2,0,P|272:86|380:103,1,125.999986141205,4|0,3:1|0:0,0:0:0:0:
373,107,216878,1,0,3:0:0:0:
444,27,217028,2,0,L|416:346,1,287.999977111817,2|8,3:2|0:0,0:0:0:0:
214,369,217778,5,8,3:2:0:0:
214,369,217928,1,8,0:0:0:0:
263,285,218078,2,8,L|254:214,3,41.9999953804018,10|8|8|8,3:2|0:0|0:0|0:0,0:0:0:0:
213,163,218378,2,0,P|260:203|327:131,1,167.999981521607,4|0,3:1|3:0,0:0:0:0:
411,96,218828,2,0,P|329:85|232:19,1,167.999981521607,2|0,0:0|3:0,0:0:0:0:
161,61,219278,2,0,P|104:79|74:113,1,83.9999907608036,10|0,0:0|0:0,0:0:0:0:
117,181,219578,2,0,P|157:195|195:244,1,83.9999907608036,2|0,3:2|0:0,0:0:0:0:
60,260,219878,2,0,P|33:323|39:367,1,83.9999907608036,8|0,0:0|0:0,0:0:0:0:
120,374,220178,2,0,P|168:350|304:356,1,167.999981521607,4|0,3:1|3:0,0:0:0:0:
372,384,220628,2,0,L|405:193,1,167.999981521607,2|0,3:2|2:0,0:0:0:0:
432,126,221078,1,8,0:0:0:0:
432,126,221378,6,0,L|318:141,1,89.9999928474428,4|0,3:1|0:0,0:0:0:0:
268,101,221678,2,0,L|216:94,4,35.9999960403444,4|8|8|8|12,3:1|0:0|0:0|0:0|0:0,0:0:0:0:
256,192,222128,12,0,225128,0:0:0:0:
