osu file format v14

[General]
AudioFilename: audio.mp3
AudioLeadIn: 0
PreviewTime: 47385
Countdown: 0
SampleSet: Soft
StackLeniency: 0.4
Mode: 0
LetterboxInBreaks: 0
WidescreenStoryboard: 1

[Editor]
Bookmarks: 1895,13124,16724,48261,49161,77949,110349,139149,153549,164349,167949,182349,202137,203937
DistanceSpacing: 1
BeatDivisor: 6
GridSize: 16
TimelineZoom: 2.4

[Metadata]
Title:-ERROR 2018ver.
TitleUnicode:-ERROR 2018ver.
Artist:cillia feat. Namine Ritsu
ArtistUnicode:シリア feat. 波音リツ
Creator:Bashe
Version:-Sylvari's Extra
Source:
Tags:utau kyaami vocaloid cover niki Aeril Nao_Tomori nao tomori naotoshi -Sylvari yukiya frogyfro japanese
BeatmapID:2201366
BeatmapSetID:986100

[Difficulty]
HPDrainRate:5
CircleSize:5
OverallDifficulty:8
ApproachRate:9
SliderMultiplier:1.69999990463257
SliderTickRate:1

[Events]
//Background and Video events
0,0,"bg.jpg",0,0
//Break Periods
//Storyboard Layer 0 (Background)
//Storyboard Layer 1 (Fail)
//Storyboard Layer 2 (Pass)
//Storyboard Layer 3 (Foreground)
//Storyboard Layer 4 (Overlay)
//Storyboard Sound Samples

[TimingPoints]
-4835,300,6,2,1,60,1,0
1840,-100,6,2,1,40,0,0
2140,-100,6,2,1,70,0,0
2365,-71.4285714285714,6,2,1,75,0,0
3265,-71.4285714285714,6,2,1,75,0,0
3490,-71.4285714285714,6,2,1,75,0,0
3565,-80,6,2,1,75,0,0
3790,-80,6,2,1,75,0,0
3865,-100,6,2,1,75,0,0
4090,-100,6,2,1,75,0,0
4165,-71.4285714285714,6,2,1,75,0,0
5290,-71.4285714285714,6,2,1,75,0,0
5365,-80,6,2,1,75,0,0
5590,-80,6,2,1,75,0,0
5665,-100,6,2,1,75,0,0
5890,-100,6,2,1,75,0,0
5965,-71.4285714285714,6,2,1,75,0,0
8290,-71.4285714285714,6,2,1,75,0,0
8365,-80,6,2,1,75,0,0
8590,-80,6,2,1,75,0,0
8665,-71.4285714285714,6,2,1,75,0,0
9265,-100,6,2,1,75,0,0
9565,-71.4285714285714,6,2,1,75,0,0
10690,-80,6,2,1,75,0,0
10765,-80,6,2,1,75,0,0
10990,-80,6,2,1,75,0,0
11065,-100,6,2,1,75,0,0
11290,-100,6,2,1,75,0,0
11365,-71.4285714285714,6,2,1,75,0,0
12490,-71.4285714285714,6,2,1,75,0,0
12565,-86.9565217391304,6,2,1,75,0,0
12790,-71.4285714285714,6,2,1,75,0,0
12865,-111.111111111111,6,2,1,75,0,0
13090,-71.4285714285714,6,2,1,75,0,0
13165,-100,6,2,1,75,0,0
16764,-125,6,2,1,55,0,0
18265,-125,6,2,1,55,0,0
18565,-125,6,2,1,55,0,0
19990,-125,6,2,1,55,0,0
20065,-200,6,2,1,55,0,0
20290,-125,6,2,1,55,0,0
20365,-125,6,2,1,55,0,0
21865,-125,6,2,1,55,0,0
22165,-125,6,2,1,55,0,0
27265,-125,6,2,1,55,0,0
27565,-125,6,2,1,55,0,0
30264,-133.333333333333,6,2,1,55,0,0
30865,-181.818181818181,6,2,1,55,0,0
31164,-125,6,2,1,55,0,0
34390,-125,6,2,1,55,0,0
34465,-200,6,2,1,55,0,0
34690,-200,6,2,1,55,0,0
34765,-125,6,2,1,55,0,0
38364,-133.333333333333,6,2,1,55,0,0
41065,-200,6,2,1,55,0,0
41665,-333.333333333333,6,2,1,55,0,0
41965,-125,6,2,1,55,0,0
43465,-125,6,2,1,55,0,0
43690,-125,6,2,1,55,0,0
44665,-166.666666666667,6,2,1,55,0,0
45264,-249.999999999999,6,2,1,65,0,0
45565,-166.666666666666,6,2,1,65,0,0
46015,-125,6,2,1,65,0,0
46465,-100,6,2,1,65,0,0
46915,-83.3333333333333,6,2,1,65,0,0
47364,-100,6,2,1,70,0,0
49165,-83.3333333333333,6,2,1,80,0,1
52465,-125,6,2,1,80,0,1
52765,-83.3333333333333,6,2,1,80,0,1
59665,-125,6,2,1,80,0,1
59965,-83.3333333333333,6,2,1,80,0,1
61465,-125,6,2,1,80,0,1
61765,-83.3333333333333,6,2,1,80,0,1
63564,-76.9230769230769,6,2,1,80,0,1
67164,-74.0740740740741,6,2,1,80,0,1
76464,-74.0740740740741,6,2,1,65,0,1
76765,-74.0740740740741,6,2,1,80,0,1
77965,-125,6,2,1,55,0,0
79465,-125,6,2,1,55,0,0
79765,-125,6,2,1,55,0,0
80965,-166.666666666667,6,2,1,55,0,0
81190,-166.666666666667,6,2,1,55,0,0
81265,-250.000000000001,6,2,1,55,0,0
81490,-166.666666666667,6,2,1,55,0,0
81565,-125,6,2,1,55,0,0
83064,-125,6,2,1,35,0,0
83364,-125,6,2,1,55,0,0
84864,-125,6,2,1,35,0,0
85164,-125,6,2,1,55,0,0
86665,-125,6,2,1,55,0,0
86965,-125,6,2,1,55,0,0
87865,-200,6,2,1,55,0,0
88465,-250,6,2,1,55,0,0
88765,-125,6,2,1,55,0,0
90265,-125,6,2,1,55,0,0
90565,-125,6,2,1,55,0,0
92065,-200,6,2,1,55,0,0
92365,-125,6,2,1,55,0,0
93865,-125,6,2,1,55,0,0
94165,-125,6,2,1,55,0,0
95365,-166.666666666667,6,2,1,55,0,0
95590,-166.666666666667,6,2,1,55,0,0
95665,-250,6,2,1,55,0,0
95890,-166.666666666667,6,2,1,55,0,0
95965,-125,6,2,1,55,0,0
97465,-125,6,2,1,55,0,0
97765,-125,6,2,1,55,0,0
99564,-133.333333333333,6,2,1,55,0,0
102865,-181.818181818181,6,2,1,55,0,0
103165,-133.333333333333,6,2,1,55,0,0
104665,-133.333333333333,6,2,1,55,0,0
104965,-133.333333333333,6,2,1,55,0,0
105865,-181.818181818181,6,2,1,55,0,0
106465,-285.714285714284,6,2,1,55,0,0
106764,-111.111111111111,6,2,1,65,0,0
107215,-105.263157894737,6,2,1,65,0,0
107665,-100,6,2,1,65,0,0
108115,-95.2380952380951,6,2,1,65,0,0
108564,-100,6,2,1,75,0,0
108565,-125,6,2,1,75,0,0
109914,-90.9090909090909,6,2,1,75,0,0
110365,-83.3333333333333,6,2,1,80,0,1
113664,-100,6,2,1,80,0,1
113964,-83.3333333333333,6,2,1,80,0,1
117564,-76.9230769230769,6,2,1,80,0,1
124764,-74.0740740740741,6,2,1,80,0,1
128364,-71.4285714285714,6,2,1,80,0,1
139165,-83.3333333333333,6,2,1,70,0,0
148165,-111.111111111111,6,2,1,70,0,0
149965,-166.666666666667,6,2,1,70,0,0
151765,-333.333333333333,6,2,1,70,0,0
153565,-222.222222222222,6,2,1,70,0,0
155365,-166.666666666667,6,2,1,70,0,0
157165,-133.333333333333,6,2,1,70,0,0
160765,-111.111111111111,6,2,1,70,0,0
162565,-95.2380952380952,6,2,1,70,0,0
164365,-83.3333333333333,6,2,1,70,0,0
166914,-83.3333333333333,6,2,1,5,0,0
167064,-83.3333333333333,6,2,1,70,0,0
167364,-83.3333333333333,6,2,1,50,0,0
167514,-83.3333333333333,6,2,1,35,0,0
167528,270.27027027027,6,2,1,60,1,0
167978,300,6,2,1,80,1,1
167978,-80,6,2,1,80,0,1
193178,-74.0740740740741,6,2,1,70,0,0
196778,-76.9230769230769,6,2,1,80,0,1
202177,-55.5555555555556,6,2,1,80,0,1
203977,-76.9230769230769,6,2,1,80,0,1
222128,-76.9230769230769,6,2,1,50,0,0
225127,-76.9230769230769,6,2,1,50,0,0
236378,-76.9230769230769,6,2,1,5,0,0

[Colours]
Combo1 : 255,170,255
Combo2 : 255,175,178
Combo3 : 128,0,0
Combo4 : 254,146,117

[HitObjects]
177,179,1915,5,8,0:0:0:0:
204,205,1990,1,8,0:0:0:0:
244,218,2065,2,0,P|263:201|277:173,1,42.4999976158143,8|8,0:0|0:0,0:0:0:0:
254,71,2215,2,0,P|235:88|221:116,1,42.4999976158143,8|8,0:0|0:0,0:0:0:0:
270,275,2365,6,0,P|315:236|337:181,1,118.999989692688,4|0,3:1|0:0,0:0:0:0:
358,321,2665,1,0,3:0:0:0:
400,190,2815,1,0,3:0:0:0:
423,371,2965,1,2,0:0:0:0:
465,240,3115,1,0,3:0:0:0:
297,379,3265,2,0,B|244:353|244:353|180:353|180:353|133:318,1,178.499984539033,8|0,0:0|0:0,0:0:0:0:
241,293,3565,2,0,B|200:293|200:293|106:221,1,159.374991059303,2|0,0:0|0:0,0:0:0:0:
219,231,3865,2,0,L|117:154,1,127.499992847443,2|0,0:0|0:0,0:0:0:0:
198,47,4165,6,0,P|255:34|313:47,1,118.999989692688,4|0,3:1|0:2,0:0:0:0:
316,210,4465,1,0,3:0:0:0:
288,119,4615,1,0,3:0:0:0:
379,91,4765,1,2,0:0:0:0:
407,182,4915,1,0,3:0:0:0:
232,180,5065,2,0,P|145:183|74:131,1,178.499984539033,8|0,0:0|0:0,0:0:0:0:
36,82,5365,2,0,P|80:147|79:225,1,159.374991059303,2|0,0:0|0:0,0:0:0:0:
62,274,5665,2,0,P|87:216|138:179,1,127.499992847443,2|0,3:2|0:0,0:0:0:0:
279,333,5965,6,0,P|222:350|167:332,1,118.999989692688,4|0,3:1|0:0,0:0:0:0:
238,125,6265,1,0,3:0:0:0:
223,270,6415,1,0,3:0:0:0:
291,176,6565,1,2,0:0:0:0:
245,53,6715,1,0,3:0:0:0:
288,242,6865,2,0,P|345:258|404:248,1,118.999989692688,8|0,0:0|0:0,0:0:0:0:
416,55,7165,1,2,3:2:0:0:
360,177,7315,1,0,3:0:0:0:
328,1,7465,1,2,0:0:0:0:
464,342,7765,6,0,B|478:333|481:315|481:315|447:299|423:339|392:335,1,118.999989692688,4|0,3:1|0:0,0:0:0:0:
194,323,8065,2,0,P|236:338|283:235,1,178.499984539033,0|0,3:0|0:0,0:0:0:0:
172,202,8365,2,0,P|189:245|292:235,1,159.374991059303,0|0,3:0|3:0,0:0:0:0:
265,120,8665,2,0,P|219:81|162:69,1,118.999989692688,10|0,0:0|0:0,0:0:0:0:
94,254,8965,1,2,3:2:0:0:
83,107,9115,1,8,0:0:0:0:
25,307,9265,1,2,3:2:0:0:
43,46,9565,6,0,P|89:19|168:16,1,118.999989692688,4|0,3:1|0:0,0:0:0:0:
177,211,9865,2,0,P|156:159|171:89,1,118.999989692688,0|0,3:0|3:0,0:0:0:0:
281,0,10165,2,0,P|324:44|333:107,1,118.999989692688,2|0,0:0|3:0,0:0:0:0:
305,248,10465,2,0,P|391:226|480:249,1,178.499984539033,8|0,0:0|0:0,0:0:0:0:
448,301,10765,2,0,P|375:288|301:330,1,159.374991059303,2|0,3:2|0:0,0:0:0:0:
338,384,11065,2,0,P|383:348|449:389,1,127.499992847443,2|0,3:2|0:0,0:0:0:0:
214,384,11365,6,0,P|150:393|96:375,1,118.999989692688,4|0,3:1|0:0,0:0:0:0:
170,213,11665,1,0,3:0:0:0:
216,313,11815,1,0,3:0:0:0:
109,306,11965,1,2,0:0:0:0:
268,191,12115,1,0,3:0:0:0:
73,180,12265,2,0,P|42:127|124:73,1,178.499984539033,8|0,0:0|0:0,0:0:0:0:
215,142,12565,2,0,P|134:126|122:71,1,146.624994571209,2|0,3:2|0:0,0:0:0:0:
30,12,12865,2,0,P|67:54|121:72,1,114.749990060807,2|0,3:2|0:0,0:0:0:0:
224,0,13165,5,4,3:1:0:0:
352,128,13465,1,2,3:2:0:0:
288,64,13615,1,0,3:0:0:0:
224,0,13765,1,10,0:0:0:0:
352,128,14065,1,10,0:0:0:0:
480,256,14365,1,2,3:2:0:0:
352,128,14665,1,8,0:0:0:0:
288,64,14815,1,8,0:0:0:0:
224,0,14965,5,12,3:2:0:0:
352,128,15265,1,0,0:0:0:0:
368,144,15340,1,0,0:0:0:0:
384,160,15415,1,0,0:0:0:0:
400,176,15490,1,0,0:0:0:0:
416,192,15565,1,0,3:0:0:0:
288,64,15865,1,8,0:0:0:0:
416,192,16165,1,0,3:0:0:0:
288,320,16465,2,0,L|224:256,1,84.9999952316285,4|0,3:0|0:0,0:0:0:0:
160,192,16765,6,0,P|136:223|130:256,1,67.9999961853028,2|0,3:2|0:0,0:0:0:0:
243,172,17065,1,2,0:0:0:0:
182,109,17215,2,0,P|147:96|112:99,1,67.9999961853028,2|0,3:2|0:0,0:0:0:0:
273,86,17515,1,10,0:0:0:0:
273,86,17665,2,0,P|266:49|246:20,1,67.9999961853028,8|0,0:0|0:0,0:0:0:0:
380,103,17965,2,0,P|364:133|338:154,1,67.9999961853028,10|0,0:0|0:0,0:0:0:0:
376,255,18265,1,10,0:0:0:0:
376,255,18340,1,0,0:0:0:0:
376,255,18415,1,8,0:0:0:0:
376,255,18490,1,8,0:0:0:0:
376,255,18565,6,0,P|342:256|311:244,1,67.9999961853028,6|0,3:2|0:0,0:0:0:0:
252,139,18865,2,0,P|245:154|242:171,1,33.9999980926514,2|0,0:0|0:0,0:0:0:0:
213,265,19015,2,0,P|200:225|162:197,1,67.9999961853028,2|0,3:2|0:0,0:0:0:0:
117,312,19315,2,0,L|125:279,1,33.9999980926514,2|0,0:0|0:0,0:0:0:0:
52,233,19465,2,0,P|33:193|30:148,1,67.9999961853028,8|0,0:0|0:0,0:0:0:0:
29,70,19765,2,0,L|123:112,1,101.999994277954,8|0,0:0|0:0,0:0:0:0:
79,62,20065,2,0,L|137:88,1,63.7499964237214,8|0,0:0|0:0,0:0:0:0:
255,31,20365,6,0,P|232:55|217:85,1,67.9999961853028,4|0,3:2|0:0,0:0:0:0:
335,166,20665,1,2,0:0:0:0:
335,166,20815,2,0,P|326:133|306:105,1,67.9999961853028,0|0,3:2|0:0,0:0:0:0:
177,162,21115,1,2,0:0:0:0:
177,162,21265,2,0,P|209:170|243:167,1,67.9999961853028,8|0,0:0|0:0,0:0:0:0:
247,297,21565,2,0,P|270:272|285:242,1,67.9999961853028,8|0,0:0|0:0,0:0:0:0:
410,304,21865,1,8,0:0:0:0:
410,304,21940,1,0,0:0:0:0:
410,304,22015,1,8,0:0:0:0:
410,304,22090,1,8,0:0:0:0:
410,304,22165,6,4,P|401:271|381:243,1,67.9999961853028,4|0,3:2|0:0,0:0:0:0:
489,166,22465,2,0,P|427:193|382:243,1,135.999992370606,2|0,0:0|0:0,0:0:0:0:
256,0,23065,2,0,P|289:12|316:37,1,67.9999961853028,10|0,0:0|0:0,0:0:0:0:
240,148,23365,2,0,P|233:113|242:77,1,67.9999961853028,8|0,0:0|0:0,0:0:0:0:
382,87,23665,2,0,P|355:109|319:120,1,67.9999961853028,10|8,0:0|0:0,0:0:0:0:
178,30,23965,6,0,P|111:35|49:62,1,135.999992370606,4|8,3:2|0:0,0:0:0:0:
29,212,24415,2,0,P|53:150|106:109,1,135.999992370606,10|2,0:0|0:0,0:0:0:0:
150,290,24865,2,0,P|152:256|144:223,1,67.9999961853028,8|0,0:0|0:0,0:0:0:0:
244,131,25165,2,0,P|241:164|249:197,1,67.9999961853028,10|0,0:0|0:0,0:0:0:0:
341,291,25465,2,0,P|349:258|346:224,1,67.9999961853028,8|8,0:0|0:0,0:0:0:0:
358,86,25765,6,0,P|412:125|481:140,1,135.999992370606,4|0,3:2|0:0,0:0:0:0:
512,0,26215,2,0,P|449:29|379:22,1,135.999992370606,10|0,0:0|0:0,0:0:0:0:
277,86,26665,2,0,P|295:40|185:31,1,203.999988555908,10|8,0:0|0:0,0:0:0:0:
236,166,27265,1,10,0:0:0:0:
236,166,27340,1,0,0:0:0:0:
236,166,27415,1,8,0:0:0:0:
236,166,27490,1,8,0:0:0:0:
236,166,27565,6,0,P|185:160|119:210,1,135.999992370606,4|8,3:2|0:0,0:0:0:0:
105,34,28015,2,0,P|104:99|156:140,1,135.999992370606,10|8,0:0|0:0,0:0:0:0:
25,224,28465,2,0,P|38:192|61:168,1,67.9999961853028,8|0,3:2|0:0,0:0:0:0:
226,317,28765,2,0,P|213:285|190:261,1,67.9999961853028,10|0,0:0|0:0,0:0:0:0:
51,324,29065,2,0,P|79:342|112:349,1,67.9999961853028,10|8,0:0|0:0,0:0:0:0:
226,317,29365,6,0,P|299:302|365:331,1,135.999992370606,4|8,3:2|0:0,0:0:0:0:
395,202,29815,2,0,P|330:219|291:273,1,135.999992370606,10|0,0:0|0:0,0:0:0:0:
422,270,30265,2,0,L|429:78,1,191.249996566773,10|0,0:0|3:0,0:0:0:0:
289,121,30865,2,0,P|310:130|333:134,1,46.7499988040924,10|8,0:0|0:0,0:0:0:0:
234,19,31165,6,0,P|197:12|156:22,1,67.9999961853028,4|0,3:2|0:0,0:0:0:0:
113,182,31465,1,10,0:2:0:0:
184,152,31615,2,0,P|198:121|194:76,1,67.9999961853028,10|0,0:0|0:0,0:0:0:0:
46,113,31915,1,10,0:0:0:0:
0,175,32065,2,0,P|3:208|30:245,1,67.9999961853028,2|0,3:2|0:0,0:0:0:0:
234,259,32365,2,0,P|207:237|162:230,1,67.9999961853028,10|0,0:0|0:0,0:0:0:0:
41,335,32665,2,0,P|73:342|107:339,1,67.9999961853028,10|8,0:0|0:0,0:0:0:0:
234,259,32965,6,0,P|266:248|300:247,1,67.9999961853028,4|0,3:2|0:0,0:0:0:0:
430,327,33265,2,0,L|466:325,1,33.9999980926514,2|0,0:0|0:0,0:0:0:0:
373,363,33415,2,0,P|324:356|302:334,1,67.9999961853028,10|0,0:0|0:0,0:0:0:0:
397,241,33715,2,0,P|387:219|388:203,1,33.9999980926514,10|0,0:0|0:0,0:0:0:0:
464,208,33865,2,0,P|472:174|467:141,1,67.9999961853028,8|0,3:2|0:0,0:0:0:0:
351,30,34165,2,0,L|362:138,1,101.999994277954,10|0,0:0|0:0,0:0:0:0:
327,67,34465,2,0,L|333:130,1,63.7499964237214,10|0,0:0|0:0,0:0:0:0:
243,0,34765,6,0,P|209:-4|176:2,1,67.9999961853028,6|0,3:2|0:0,0:0:0:0:
148,177,35065,1,2,0:0:0:0:
124,88,35215,1,10,0:0:0:0:
124,88,35365,2,0,P|91:106|67:135,1,67.9999961853028,0|2,0:0|0:0,0:0:0:0:
144,243,35665,2,0,P|151:210|147:176,1,67.9999961853028,8|0,0:0|0:0,0:0:0:0:
64,284,35965,2,0,P|85:310|114:329,1,67.9999961853028,8|0,0:0|0:0,0:0:0:0:
278,285,36265,2,0,P|244:280|211:288,1,67.9999961853028,2|8,0:0|0:0,0:0:0:0:
391,335,36565,6,0,L|379:252,1,67.9999961853028,4|0,3:2|0:0,0:0:0:0:
503,186,36865,2,0,L|483:320,1,135.999992370606,2|0,0:0|0:0,0:0:0:0:
384,31,37465,2,0,P|415:19|449:17,1,67.9999961853028,8|0,0:0|0:0,0:0:0:0:
492,141,37765,2,0,P|505:103|502:75,1,67.9999961853028,8|0,0:0|0:0,0:0:0:0:
372,184,38065,2,0,P|382:145|402:122,1,67.9999961853028,8|8,0:0|0:0,0:0:0:0:
313,55,38365,6,0,P|244:32|186:36,1,127.499997711182,4|8,3:2|0:0,0:0:0:0:
117,191,38815,2,0,P|188:178|237:148,1,127.499997711182,10|2,0:0|0:0,0:0:0:0:
97,45,39265,2,0,P|122:63|142:88,1,63.7499988555908,2|0,3:2|0:0,0:0:0:0:
4,171,39565,2,0,P|23:145|49:127,1,63.7499988555908,10|0,0:0|0:0,0:0:0:0:
77,300,39865,2,0,P|71:268|57:240,1,63.7499988555908,8|8,0:0|0:0,0:0:0:0:
179,249,40165,6,0,P|196:300|274:326,1,127.499997711182,4|0,3:2|0:0,0:0:0:0:
352,201,40615,2,0,P|290:203|251:252,1,127.499997711182,10|0,0:0|0:0,0:0:0:0:
320,384,41065,2,0,P|344:346|324:268,1,127.499997711182,10|8,0:0|0:0,0:0:0:0:
215,156,41665,2,0,P|210:171|212:187,1,25.4999977912904,2|8,0:0|0:0,0:0:0:0:
304,77,41965,6,0,L|162:70,1,135.999992370606,4|8,3:2|0:0,0:0:0:0:
1,149,42415,2,0,P|61:176|125:158,1,135.999992370606,10|8,0:0|0:0,0:0:0:0:
74,30,42865,2,0,P|64:62|67:95,1,67.9999961853028,8|0,3:2|0:0,0:0:0:0:
215,156,43165,2,0,P|224:188|221:221,1,67.9999961853028,10|0,0:0|0:0,0:0:0:0:
157,310,43465,1,10,0:0:0:0:
157,310,43540,1,0,0:0:0:0:
157,310,43615,1,8,0:0:0:0:
157,310,43690,1,8,0:0:0:0:
157,310,43765,6,0,P|189:331|287:308,1,135.999992370606,6|0,3:2|0:0,0:0:0:0:
325,204,44215,2,0,P|327:270|374:317,1,135.999992370606,8|0,0:0|0:0,0:0:0:0:
438,217,44665,2,0,L|470:53,1,152.999986747742,10|0,0:0|0:0,0:0:0:0:
383,88,45265,2,0,L|390:52,1,33.9999980926514,10|0,0:0|0:0,0:0:0:0:
234,134,45565,6,0,P|240:185|264:229,1,101.999991165162,4|0,3:2|0:0,0:0:0:0:
140,189,46015,6,0,P|133:239|82:310,1,135.999992370606,10|0,0:0|0:0,0:0:0:0:
263,228,46465,6,0,P|300:262|436:273,1,169.999990463257,4|8,3:2|0:0,0:0:0:0:
140,189,46915,6,0,P|81:100|-9:69,1,203.999982330323,0|8,0:0|0:0,0:0:0:0:
208,0,47365,6,0,L|208:174,1,169.999990463257,4|0,3:1|0:0,0:0:0:0:
448,96,47815,2,0,L|274:96,1,169.999990463257,8|8,0:0|0:0,0:0:0:0:
368,263,48265,2,0,L|368:176,1,84.9999952316285,10|2,0:0|0:0,0:0:0:0:
448,343,48565,2,0,L|448:256,1,84.9999952316285,2|2,0:0|0:0,0:0:0:0:
348,330,48865,2,0,L|341:354,1,21.2499988079071,2|0,0:0|0:0,0:0:0:0:
309,337,48940,1,0,0:0:0:0:
240,336,49015,2,0,L|233:360,1,21.2499988079071,0|0,3:2|0:0,0:0:0:0:
187,319,49090,2,0,L|180:343,1,21.2499988079071,0|0,3:2|0:0,0:0:0:0:
151,288,49165,6,0,P|130:254|129:186,1,101.999991165162,4|0,3:1|0:0,0:0:0:0:
332,145,49465,2,0,P|313:180|254:215,1,101.999991165162,0|2,3:0|0:0,0:0:0:0:
114,52,49765,2,0,P|153:50|213:83,1,101.999991165162,0|0,0:0|3:0,0:0:0:0:
295,275,50065,1,10,0:0:0:0:
230,120,50215,1,0,0:0:0:0:
401,140,50365,1,0,0:0:0:0:
324,0,50515,2,0,L|512:77,1,203.999982330323,2|0,0:0|0:0,0:0:0:0:
230,120,50965,6,0,P|277:95|340:106,1,101.999991165162,4|0,3:1|0:0,0:0:0:0:
218,241,51265,1,0,3:0:0:0:
167,67,51415,1,2,0:0:0:0:
125,282,51565,1,0,0:0:0:0:
157,147,51715,1,0,3:0:0:0:
206,344,51865,2,0,P|271:363|312:349,1,101.999991165162,8|0,0:0|0:0,0:0:0:0:
481,195,52165,2,0,P|416:176|375:190,1,101.999991165162,0|0,3:0|0:0,0:0:0:0:
423,353,52465,6,0,P|454:369|500:367,1,67.9999961853028,8|0,1:2|0:0,0:0:0:0:
313,206,52765,6,0,L|211:242,1,101.999991165162,4|0,3:1|0:0,0:0:0:0:
203,137,53065,1,0,3:0:0:0:
102,336,53215,1,2,0:0:0:0:
68,143,53365,2,0,P|99:104|148:94,1,101.999991165162,0|0,0:0|3:0,0:0:0:0:
102,336,53665,2,0,P|63:304|53:255,1,101.999991165162,10|0,0:0|0:0,0:0:0:0:
295,302,53965,2,0,P|263:340|214:350,1,101.999991165162,0|2,3:0|0:0,0:0:0:0:
261,109,54265,2,0,P|299:140|309:189,1,101.999991165162,8|0,3:2|0:0,0:0:0:0:
413,322,54565,6,0,P|437:366|510:379,1,101.999991165162,4|0,3:1|0:0,0:0:0:0:
454,222,54865,1,0,3:0:0:0:
343,384,55015,1,2,0:0:0:0:
360,198,55165,2,0,P|383:154|426:127,1,101.999991165162,0|0,0:0|3:0,0:0:0:0:
319,15,55465,2,0,B|272:-9|272:-9|234:28|234:28|189:6|189:6|153:43,1,203.999982330323,10|0,0:0|3:0,0:0:0:0:
183,153,55915,1,8,0:0:0:0:
176,177,55990,1,8,0:0:0:0:
177,202,56065,1,8,0:0:0:0:
217,170,56140,1,8,0:0:0:0:
214,119,56215,1,8,0:0:0:0:
177,83,56290,1,8,0:0:0:0:
126,75,56365,6,0,P|74:87|30:134,1,101.999991165162,4|0,3:1|0:0,0:0:0:0:
271,308,56665,2,0,P|259:256|212:211,1,101.999991165162,0|2,3:0|0:0,0:0:0:0:
0,292,56965,2,0,P|57:304|113:283,1,101.999991165162,0|0,0:0|3:0,0:0:0:0:
263,142,57265,6,0,P|313:129|363:135,1,101.999991165162,10|0,0:0|0:0,0:0:0:0:
440,197,57565,1,0,3:0:0:0:
397,19,57715,2,0,P|432:55|452:101,1,101.999991165162,2|8,0:0|0:0,0:0:0:0:
360,225,58015,1,0,0:0:0:0:
195,158,58165,6,0,P|234:189|253:236,1,101.999991165162,4|0,3:1|0:0,0:0:0:0:
85,357,58465,2,0,P|92:307|123:267,1,101.999991165162,0|2,3:0|0:0,0:0:0:0:
313,351,58765,2,0,P|266:370|216:363,1,101.999991165162,0|0,0:0|3:0,0:0:0:0:
312,167,59065,6,0,B|340:124|340:124|304:89|304:89|338:48|338:48|299:12,1,203.999982330323,10|0,0:0|0:0,0:0:0:0:
32,205,59665,2,0,P|87:218|126:211,1,67.9999961853028,4|0,3:1|0:0,0:0:0:0:
92,23,59965,6,0,P|43:35|8:72,1,101.999991165162,4|0,3:1|0:0,0:0:0:0:
198,146,60265,1,0,3:0:0:0:
215,29,60415,1,0,3:0:0:0:
314,163,60565,1,2,0:0:0:0:
332,47,60715,1,0,3:0:0:0:
244,225,60865,5,8,0:0:0:0:
147,77,61015,1,0,0:0:0:0:
244,225,61165,1,0,3:0:0:0:
383,109,61315,1,0,0:0:0:0:
243,225,61465,2,0,P|235:257|236:291,1,67.9999961853028,4|0,3:1|0:0,0:0:0:0:
471,367,61765,5,4,3:1:0:0:
341,348,61915,1,0,0:0:0:0:
490,238,62065,1,0,3:0:0:0:
361,218,62215,1,0,3:0:0:0:
480,380,62365,5,10,0:0:0:0:
501,226,62515,1,0,3:0:0:0:
349,203,62665,1,8,0:0:0:0:
325,357,62815,1,0,0:0:0:0:
438,159,62965,1,12,3:2:0:0:
398,126,63040,1,8,0:0:0:0:
347,117,63115,1,8,0:0:0:0:
297,131,63190,1,8,0:0:0:0:
260,167,63265,1,10,1:2:0:0:
224,186,63340,1,8,0:0:0:0:
194,193,63415,1,8,0:0:0:0:
173,191,63490,1,8,0:0:0:0:
130,173,63565,6,0,P|28:194|5:296,1,220.999977485658,4|0,3:1|3:0,0:0:0:0:
259,278,64015,2,0,B|259:167|259:167|202:65,1,220.999977485658,2|0,0:0|3:0,0:0:0:0:
339,223,64465,2,0,P|400:233|452:218,1,110.499988742829,8|0,0:0|0:0,0:0:0:0:
364,11,64765,1,2,3:2:0:0:
407,155,64915,1,0,0:0:0:0:
484,12,65065,2,0,P|505:67|496:119,1,110.499988742829,8|0,0:0|0:0,0:0:0:0:
316,143,65365,6,0,P|237:125|197:139,1,110.499988742829,4|0,3:1|0:0,0:0:0:0:
193,279,65665,1,0,3:0:0:0:
316,143,65815,1,2,0:0:0:0:
298,290,65965,1,0,0:0:0:0:
210,132,66115,1,0,3:0:0:0:
241,338,66265,2,0,P|187:356|137:328,1,110.499988742829,8|0,0:0|0:0,0:0:0:0:
162,134,66565,2,0,P|204:169|208:223,1,110.499988742829,2|0,3:2|0:0,0:0:0:0:
26,309,66865,2,0,P|35:255|79:225,1,110.499988742829,8|0,0:0|0:0,0:0:0:0:
91,65,67165,6,0,P|142:40|197:49,1,114.749994000435,4|0,3:1|0:0,0:0:0:0:
388,157,67465,2,0,P|365:209|305:231,1,114.749994000435,0|2,0:0|0:0,0:0:0:0:
329,44,67765,2,0,P|392:29|448:54,1,114.749994000435,0|0,0:0|3:0,0:0:0:0:
466,252,68065,1,10,0:0:0:0:
475,102,68215,1,0,0:0:0:0:
466,252,68365,1,2,3:2:0:0:
326,159,68515,1,0,0:0:0:0:
466,252,68665,1,10,0:0:0:0:
324,332,68815,1,0,0:0:0:0:
417,174,68965,6,0,P|404:119|362:81,1,114.749994000435,4|0,3:1|0:0,0:0:0:0:
258,243,69265,1,0,3:0:0:0:
240,34,69415,1,2,3:2:0:0:
219,146,69565,2,0,L|240:34,1,114.749994000435,0|0,0:0|3:0,0:0:0:0:
131,309,69865,2,0,L|110:196,1,114.749994000435,8|0,0:0|0:0,0:0:0:0:
26,20,70165,2,0,L|5:132,1,114.749994000435,8|8,3:2|0:0,0:0:0:0:
21,302,70465,1,10,3:2:0:0:
21,302,70540,1,0,0:0:0:0:
21,302,70615,1,0,0:0:0:0:
21,302,70690,1,0,0:0:0:0:
21,302,70765,6,0,P|130:309|194:220,1,229.49998800087,4|0,3:1|3:0,0:0:0:0:
279,85,71215,2,0,P|255:191|339:262,1,229.49998800087,2|0,0:0|3:0,0:0:0:0:
465,121,71665,2,0,P|409:119|360:148,1,114.749994000435,10|0,0:0|0:0,0:0:0:0:
418,335,71965,2,0,P|446:287|446:230,1,114.749994000435,2|0,3:2|0:0,0:0:0:0:
253,183,72265,2,0,P|280:232|329:260,1,114.749994000435,8|0,0:0|0:0,0:0:0:0:
349,64,72565,6,0,L|114:55,1,229.49998800087,4|0,3:1|3:0,0:0:0:0:
86,333,73015,2,0,P|154:281|168:145,1,229.49998800087,2|0,3:2|2:0,0:0:0:0:
192,269,73465,2,0,P|218:326|270:350,1,114.749994000435,8|0,0:0|0:0,0:0:0:0:
404,231,73765,2,0,P|347:226|293:245,1,114.749994000435,4|0,3:1|0:0,0:0:0:0:
465,319,74065,1,8,3:2:0:0:
491,297,74140,1,8,0:0:0:0:
508,267,74215,1,8,0:0:0:0:
512,234,74290,1,8,0:0:0:0:
504,189,74365,6,0,P|462:140|395:117,1,114.749994000435,4|0,3:1|0:0,0:0:0:0:
256,192,74665,1,0,3:0:0:0:
207,88,74815,1,8,0:0:0:0:
311,39,74965,1,8,0:0:0:0:
360,143,75115,1,0,3:0:0:0:
188,164,75265,6,0,P|140:131|132:59,1,114.749994000435,4|0,3:2|0:0,0:0:0:0:
381,71,75565,1,8,0:0:0:0:
188,164,75715,1,8,0:0:0:0:
332,216,75865,1,0,3:0:0:0:
240,22,76015,1,0,0:0:0:0:
233,265,76165,6,0,P|273:307|336:314,1,114.749994000435,4|0,3:2|0:0,0:0:0:0:
430,229,76465,1,8,0:0:0:0:
402,265,76540,1,8,0:0:0:0:
392,309,76615,1,8,0:0:0:0:
408,352,76690,1,8,0:0:0:0:
449,372,76765,6,0,P|498:335|502:278,1,114.749994000435,8|0,0:0|3:0,0:0:0:0:
465,128,77065,1,8,0:0:0:0:
256,192,77365,1,0,3:0:0:0:
47,256,77665,1,4,3:2:0:0:
256,192,77965,6,0,P|289:185|324:194,1,67.9999961853028,2|0,3:2|0:0,0:0:0:0:
182,216,78265,1,2,0:0:0:0:
206,290,78415,2,0,P|213:323|204:358,1,67.9999961853028,2|0,3:2|0:0,0:0:0:0:
108,240,78715,1,10,0:0:0:0:
108,240,78865,2,0,P|75:247|40:238,1,67.9999961853028,8|0,0:0|0:0,0:0:0:0:
158,142,79165,2,0,P|151:109|160:74,1,67.9999961853028,10|0,0:0|0:0,0:0:0:0:
256,192,79465,1,10,0:0:0:0:
256,192,79540,1,0,0:0:0:0:
256,192,79615,1,8,0:0:0:0:
256,192,79690,1,8,0:0:0:0:
256,192,79765,6,0,P|289:185|324:194,1,67.9999961853028,6|0,3:2|0:0,0:0:0:0:
401,291,80065,2,0,L|410:257,1,33.9999980926514,2|0,0:0|0:0,0:0:0:0:
489,211,80215,2,0,P|456:194|433:166,1,67.9999961853028,8|0,0:0|0:0,0:0:0:0:
461,48,80515,2,0,L|472:87,1,33.9999980926514,2|0,0:0|0:0,0:0:0:0:
382,16,80665,2,0,L|304:0,1,67.9999961853028,8|0,0:0|0:0,0:0:0:0:
245,111,80965,2,0,L|269:183,1,76.4999933738711,8|0,0:0|0:0,0:0:0:0:
229,147,81265,2,0,L|244:195,1,50.9999971389771,8|0,0:0|0:0,0:0:0:0:
84,142,81565,6,0,P|133:126|169:135,1,67.9999961853028,4|0,3:2|0:0,0:0:0:0:
142,279,81865,1,10,0:2:0:0:
142,279,82015,2,0,P|152:228|178:201,1,67.9999961853028,10|0,0:0|0:0,0:0:0:0:
276,328,82315,1,10,0:0:0:0:
276,328,82465,2,0,P|237:293|227:257,1,67.9999961853028,2|0,3:2|0:0,0:0:0:0:
393,231,82765,2,0,P|344:247|307:237,1,67.9999961853028,10|0,0:0|0:0,0:0:0:0:
374,81,83065,1,8,0:0:0:0:
374,81,83140,1,8,0:0:0:0:
374,81,83215,1,8,0:0:0:0:
374,81,83290,1,8,0:0:0:0:
374,81,83365,6,4,P|363:131|337:158,1,67.9999961853028,4|0,3:2|0:0,0:0:0:0:
247,64,83665,2,0,P|198:22|121:18,1,135.999992370606,8|0,0:0|0:0,0:0:0:0:
134,282,84265,2,0,P|101:270|74:245,1,67.9999961853028,10|0,0:0|0:0,0:0:0:0:
150,134,84565,2,0,P|157:169|148:205,1,67.9999961853028,8|0,0:0|0:0,0:0:0:0:
8,195,84865,2,0,P|35:173|71:162,1,67.9999961853028,10|8,0:0|0:0,0:0:0:0:
212,250,85165,6,0,P|284:250|352:212,1,135.999992370606,4|8,3:2|0:0,0:0:0:0:
253,69,85615,2,0,P|211:111|262:142,1,135.999992370606,10|2,0:0|0:0,0:0:0:0:
365,110,86065,2,0,P|398:105|433:111,1,67.9999961853028,8|0,0:0|0:0,0:0:0:0:
467,250,86365,2,0,P|456:218|435:192,1,67.9999961853028,10|0,0:0|0:0,0:0:0:0:
360,350,86665,1,8,0:0:0:0:
360,350,86740,1,0,0:0:0:0:
360,350,86815,1,8,0:0:0:0:
360,350,86890,1,8,0:0:0:0:
360,350,86965,6,0,P|294:327|225:336,1,135.999992370606,4|0,3:2|0:0,0:0:0:0:
150,234,87415,2,0,P|109:287|112:353,1,135.999992370606,10|0,0:0|0:0,0:0:0:0:
265,227,87865,2,0,L|255:99,1,127.499992847443,10|8,0:0|0:0,0:0:0:0:
113,138,88465,2,0,P|134:150|154:151,1,33.9999980926514,10|8,0:0|0:0,0:0:0:0:
65,24,88765,6,0,L|36:159,1,135.999992370606,4|8,3:2|0:0,0:0:0:0:
209,269,89215,2,0,P|143:261|77:308,1,135.999992370606,10|8,0:0|0:0,0:0:0:0:
206,371,89665,2,0,P|246:369|277:348,1,67.9999961853028,10|8,0:0|0:0,0:0:0:0:
235,166,89965,2,0,P|268:179|289:204,1,67.9999961853028,8|0,0:0|0:0,0:0:0:0:
422,291,90265,1,10,0:0:0:0:
422,291,90340,1,0,0:0:0:0:
422,291,90415,1,8,0:0:0:0:
422,291,90490,1,8,0:0:0:0:
422,291,90565,6,0,L|278:278,1,135.999992370606,6|10,3:2|0:0,0:0:0:0:
416,116,91015,2,0,L|473:239,1,135.999992370606,8|0,0:0|0:0,0:0:0:0:
282,150,91465,2,0,B|226:140|207:91|207:91|186:30|131:29,1,203.999988555908,10|0,0:0|0:0,0:0:0:0:
107,198,92065,2,0,P|130:194|156:178,1,42.4999976158143,10|8,0:0|0:0,0:0:0:0:
300,42,92365,6,0,P|337:37|378:47,1,67.9999961853028,4|0,3:2|0:0,0:0:0:0:
350,189,92665,1,10,0:0:0:0:
282,150,92815,2,0,P|306:121|342:111,1,67.9999961853028,10|0,0:0|0:0,0:0:0:0:
484,173,93115,1,8,0:0:0:0:
489,246,93265,2,0,P|480:283|460:308,1,67.9999961853028,2|0,3:2|0:0,0:0:0:0:
309,274,93565,2,0,P|345:263|377:268,1,67.9999961853028,10|0,0:0|0:0,0:0:0:0:
231,351,93865,1,10,0:0:0:0:
231,351,93940,1,0,0:0:0:0:
231,351,94015,1,8,0:0:0:0:
231,351,94090,1,8,0:0:0:0:
231,351,94165,6,0,P|211:326|198:290,1,67.9999961853028,4|0,3:2|0:0,0:0:0:0:
167,163,94465,2,0,L|134:147,1,33.9999980926514,8|0,0:0|0:0,0:0:0:0:
256,160,94615,2,0,P|273:194|271:237,1,67.9999961853028,10|0,0:0|0:0,0:0:0:0:
121,284,94915,2,0,L|87:303,1,33.9999980926514,10|0,0:0|0:0,0:0:0:0:
64,215,95065,2,0,P|44:173|46:141,1,67.9999961853028,10|0,0:0|0:0,0:0:0:0:
74,16,95365,2,0,L|104:87,1,76.4999933738711,10|0,0:0|0:0,0:0:0:0:
109,29,95665,2,0,L|128:76,1,50.9999971389771,10|8,0:0|0:0,0:0:0:0:
236,102,95965,6,0,P|279:115|322:107,1,67.9999961853028,4|0,3:2|0:0,0:0:0:0:
334,40,96265,1,8,0:0:0:0:
368,164,96415,1,10,0:0:0:0:
368,164,96565,2,0,P|380:127|408:103,1,67.9999961853028,0|10,0:0|0:0,0:0:0:0:
493,232,96865,2,0,P|481:195|453:171,1,67.9999961853028,2|0,3:2|0:0,0:0:0:0:
312,291,97165,2,0,P|341:265|377:259,1,67.9999961853028,10|8,0:0|0:0,0:0:0:0:
489,359,97465,1,8,0:0:0:0:
489,359,97540,1,8,0:0:0:0:
489,359,97615,1,8,0:0:0:0:
489,359,97690,1,8,0:0:0:0:
489,359,97765,6,0,P|450:352|416:365,1,67.9999961853028,4|0,3:2|0:0,0:0:0:0:
305,358,98065,2,0,P|312:291|284:229,1,135.999992370606,8|8,0:0|0:0,0:0:0:0:
23,358,98665,2,0,P|57:364|93:355,1,67.9999961853028,10|0,0:0|0:0,0:0:0:0:
82,221,98965,2,0,P|58:247|48:283,1,67.9999961853028,10|0,0:0|0:0,0:0:0:0:
175,345,99265,2,0,P|162:312|136:284,1,67.9999961853028,10|8,0:0|0:0,0:0:0:0:
9,187,99565,6,0,P|0:131|32:65,1,127.499997711182,4|8,3:2|0:0,0:0:0:0:
226,113,100015,2,0,P|172:146|109:143,1,127.499997711182,10|2,0:0|0:0,0:0:0:0:
134,7,100465,2,0,P|149:46|149:76,1,63.7499988555908,2|0,3:2|0:0,0:0:0:0:
258,59,100765,2,0,P|241:97|219:118,1,63.7499988555908,10|0,0:0|0:0,0:0:0:0:
307,181,101065,2,0,P|268:196|237:196,1,63.7499988555908,8|8,0:0|0:0,0:0:0:0:
370,83,101365,6,0,P|419:120|435:194,1,127.499997711182,4|0,3:2|0:0,0:0:0:0:
308,290,101815,2,0,P|368:274|427:296,1,127.499997711182,10|0,0:0|0:0,0:0:0:0:
245,371,102265,2,0,L|53:376,1,191.249996566773,10|8,0:0|0:0,0:0:0:0:
194,238,102865,2,0,P|197:261|196:284,1,46.7499988040924,2|8,0:0|0:0,0:0:0:0:
72,266,103165,6,0,P|72:202|103:147,1,127.499997711182,4|8,3:2|0:0,0:0:0:0:
238,62,103615,2,0,P|177:42|115:52,1,127.499997711182,10|8,0:0|0:0,0:0:0:0:
209,202,104065,2,0,P|219:171|213:130,1,63.7499988555908,8|0,3:2|0:0,0:0:0:0:
315,26,104365,2,0,P|307:70|314:99,1,63.7499988555908,8|0,0:0|0:0,0:0:0:0:
430,152,104665,1,10,0:0:0:0:
430,152,104740,1,0,0:0:0:0:
430,152,104815,1,8,0:0:0:0:
430,152,104890,1,8,0:0:0:0:
430,152,104965,6,0,P|440:121|379:62,1,127.499997711182,6|0,3:2|0:0,0:0:0:0:
342,203,105415,2,0,P|396:245|472:244,1,127.499997711182,8|8,0:0|0:0,0:0:0:0:
236,197,105865,2,0,P|220:146|251:66,1,140.249996412277,10|0,0:0|0:0,0:0:0:0:
143,161,106465,2,0,P|119:171|103:171,1,29.7499974231721,10|0,0:0|0:0,0:0:0:0:
5,1,106765,6,0,P|69:32|113:110,1,152.999986747742,4|0,3:2|0:0,0:0:0:0:
31,259,107215,2,0,P|49:212|154:161,1,161.499986627579,10|0,0:0|0:0,0:0:0:0:
297,248,107665,2,0,P|239:286|136:259,1,169.999990463257,4|8,3:2|0:0,0:0:0:0:
337,167,108115,2,0,P|373:233|329:324,1,178.499984539033,0|8,0:0|0:0,0:0:0:0:
219,94,108565,2,0,L|72:62,1,135.999992370606,4|0,3:1|0:0,0:0:0:0:
293,94,109015,2,0,L|440:62,1,135.999992370606,4|0,3:1|0:0,0:0:0:0:
256,192,109465,12,8,110290,0:0:0:0:
253,44,110365,6,0,P|304:50|348:74,1,101.999991165162,4|0,3:1|0:0,0:0:0:0:
171,250,110665,1,0,3:0:0:0:
265,122,110815,1,2,0:0:0:0:
265,282,110965,1,0,0:0:0:0:
174,152,111115,1,0,3:0:0:0:
321,201,111265,2,0,P|355:240|366:299,1,101.999991165162,10|0,0:0|0:0,0:0:0:0:
112,197,111565,2,0,P|97:147|121:98,1,101.999991165162,0|2,3:0|0:0,0:0:0:0:
198,323,111865,2,0,P|162:361|107:371,1,101.999991165162,8|0,3:2|0:0,0:0:0:0:
321,201,112165,6,0,P|368:182|437:191,1,101.999991165162,4|0,3:1|0:0,0:0:0:0:
396,331,112465,1,0,3:0:0:0:
288,141,112615,1,2,0:0:0:0:
396,331,112765,1,0,0:0:0:0:
430,117,112915,1,0,3:0:0:0:
396,331,113065,2,0,P|344:349|294:334,1,101.999991165162,8|0,0:0|0:0,0:0:0:0:
418,184,113365,2,0,P|469:194|521:181,1,101.999991165162,0|0,3:0|0:0,0:0:0:0:
314,0,113665,6,0,L|321:95,1,84.9999952316285,8|0,1:2|0:0,0:0:0:0:
273,247,113965,6,0,P|283:158|190:124,1,203.999982330323,4|0,3:1|3:0,0:0:0:0:
82,278,114415,1,2,0:0:0:0:
189,123,114565,2,0,P|138:127|96:100,1,101.999991165162,0|0,0:0|3:0,0:0:0:0:
272,246,114865,2,0,P|185:264|144:174,1,203.999982330323,10|0,2:0|3:0,0:0:0:0:
305,42,115315,2,0,P|402:22|487:74,1,203.999982330323,2|0,0:0|0:0,0:0:0:0:
354,226,115765,6,0,P|317:188|401:100,1,203.999982330323,4|0,3:1|0:0,0:0:0:0:
512,318,116215,2,0,P|443:356|325:295,1,203.999982330323,2|0,0:0|3:0,0:0:0:0:
182,199,116665,2,0,B|154:243|154:243|182:284|182:284|155:328|155:328|184:372,1,203.999982330323,10|0,0:0|3:0,0:0:0:0:
240,162,117115,1,8,0:0:0:0:
206,172,117190,1,8,0:0:0:0:
182,199,117265,1,8,0:0:0:0:
224,216,117340,1,8,0:0:0:0:
268,205,117415,1,8,0:0:0:0:
294,167,117490,1,8,0:0:0:0:
301,118,117565,6,0,P|280:67|235:34,1,110.499988742829,4|0,3:1|0:0,0:0:0:0:
188,300,117865,1,0,3:0:0:0:
195,114,118015,1,2,0:0:0:0:
279,283,118165,1,0,3:0:0:0:
122,201,118315,1,0,3:0:0:0:
294,167,118465,2,0,P|356:193|409:265,1,110.499988742829,10|0,0:0|0:0,0:0:0:0:
251,365,118765,1,0,3:0:0:0:
122,201,118915,2,0,P|85:248|77:304,1,110.499988742829,2|8,0:0|0:0,0:0:0:0:
195,114,119215,1,0,0:0:0:0:
370,292,119365,6,0,P|379:237|365:180,1,110.499988742829,4|0,3:1|0:0,0:0:0:0:
150,197,119665,2,0,P|191:235|249:251,1,110.499988742829,0|2,3:0|0:0,0:0:0:0:
349,48,119965,2,0,P|296:68|251:110,1,110.499988742829,0|0,3:0|3:0,0:0:0:0:
462,272,120265,2,0,B|492:225|492:225|459:181|459:181|485:131|485:131|452:88,1,220.999977485658,10|0,0:0|3:0,0:0:0:0:
284,346,120865,2,0,P|336:334|369:291,1,110.499988742829,4|0,3:1|0:0,0:0:0:0:
88,150,121165,6,0,L|101:277,1,110.499988742829,4|0,3:1|0:0,0:0:0:0:
282,272,121465,1,0,3:0:0:0:
282,87,121615,1,0,3:0:0:0:
172,235,121765,1,2,0:0:0:0:
346,180,121915,1,0,3:0:0:0:
172,123,122065,5,8,0:0:0:0:
282,272,122215,1,0,0:0:0:0:
142,192,122365,1,0,3:0:0:0:
362,132,122515,1,0,0:0:0:0:
222,52,122665,2,0,P|174:20|112:20,1,110.499988742829,4|0,3:1|0:0,0:0:0:0:
53,253,122965,6,0,P|70:313|116:368,1,110.499988742829,4|0,3:1|0:0,0:0:0:0:
162,105,123265,1,0,3:0:0:0:
53,253,123415,1,0,3:0:0:0:
230,198,123565,1,10,0:0:0:0:
54,141,123715,1,0,3:0:0:0:
162,289,123865,1,8,0:0:0:0:
162,105,124015,1,0,0:0:0:0:
162,289,124165,2,0,L|171:350,1,55.2499943714145,12|8,3:2|0:0,0:0:0:0:
230,198,124315,2,0,L|239:137,1,55.2499943714145,8|8,0:0|0:0,0:0:0:0:
298,296,124465,2,0,L|307:357,1,55.2499943714145,10|8,1:2|0:0,0:0:0:0:
382,209,124615,2,0,L|390:154,1,55.2499943714145,8|8,0:0|0:0,0:0:0:0:
472,262,124765,6,0,P|437:320|294:290,1,229.49998800087,4|0,3:1|3:0,0:0:0:0:
301,136,125215,2,0,P|400:94|481:173,1,229.49998800087,2|0,0:0|3:0,0:0:0:0:
303,211,125665,2,0,P|251:192|228:141,1,114.749994000435,8|0,0:0|0:0,0:0:0:0:
254,33,125965,1,2,3:2:0:0:
233,210,126115,1,0,0:0:0:0:
226,17,126265,2,0,P|168:15|119:55,1,114.749994000435,8|0,0:0|0:0,0:0:0:0:
158,238,126565,6,0,P|167:173|24:124,1,229.49998800087,4|0,3:1|3:0,0:0:0:0:
20,301,127015,2,0,B|81:317|131:283|131:283|185:243|248:272,1,229.49998800087,2|0,0:0|3:0,0:0:0:0:
337,381,127465,2,0,P|277:389|228:361,1,114.749994000435,8|0,0:0|0:0,0:0:0:0:
397,205,127765,2,0,P|420:260|405:315,1,114.749994000435,2|0,3:2|0:0,0:0:0:0:
188,160,128065,2,0,L|270:242,1,114.749994000435,8|0,0:0|0:0,0:0:0:0:
319,26,128365,6,0,P|298:82|311:152,1,118.999989692688,4|0,3:1|0:0,0:0:0:0:
500,162,128665,2,0,P|462:115|394:92,1,118.999989692688,0|2,0:0|0:0,0:0:0:0:
291,250,128965,2,0,P|349:240|405:196,1,118.999989692688,0|0,3:0|3:0,0:0:0:0:
239,74,129265,1,10,0:0:0:0:
186,250,129415,1,0,0:0:0:0:
340,133,129565,1,2,3:2:0:0:
141,135,129715,1,0,0:0:0:0:
291,250,129865,2,0,P|301:313|285:370,1,118.999989692688,10|0,0:0|0:0,0:0:0:0:
121,246,130165,6,0,P|116:187|141:134,1,118.999989692688,4|0,3:1|0:0,0:0:0:0:
312,66,130465,1,0,3:0:0:0:
397,209,130615,1,2,3:2:0:0:
434,95,130765,2,0,L|395:214,1,118.999989692688,0|0,0:0|3:0,0:0:0:0:
512,320,131065,2,0,L|487:201,1,118.999989692688,8|0,0:0|0:0,0:0:0:0:
330,342,131365,2,0,L|305:223,1,118.999989692688,0|8,3:0|0:0,0:0:0:0:
134,161,131665,1,10,0:0:0:0:
134,161,131740,1,0,0:0:0:0:
134,161,131815,1,0,0:0:0:0:
134,161,131890,1,0,0:0:0:0:
134,161,131965,6,0,P|212:147|216:4,1,237.999979385377,4|0,3:1|3:0,0:0:0:0:
121,243,132415,2,0,P|240:227|320:124,1,237.999979385377,2|0,0:0|3:0,0:0:0:0:
162,78,132865,2,0,P|101:67|32:92,1,118.999989692688,10|0,0:0|0:0,0:0:0:0:
62,288,133165,2,0,P|77:231|116:187,1,118.999989692688,2|0,3:2|0:0,0:0:0:0:
248,384,133465,2,0,P|206:342|187:287,1,118.999989692688,8|0,0:0|0:0,0:0:0:0:
314,94,133765,6,0,P|255:194|269:311,1,237.999979385377,4|0,3:1|3:0,0:0:0:0:
451,136,134215,2,0,P|381:147|384:313,1,237.999979385377,2|0,3:2|2:0,0:0:0:0:
397,62,134665,2,0,P|354:22|297:9,1,118.999989692688,8|0,0:0|0:0,0:0:0:0:
224,191,134965,2,0,P|238:133|220:77,1,118.999989692688,4|0,3:1|0:0,0:0:0:0:
107,12,135265,1,8,0:0:0:0:
79,42,135340,1,8,0:0:0:0:
66,88,135415,1,8,0:0:0:0:
79,139,135490,1,8,0:0:0:0:
111,189,135565,6,0,P|94:249|109:307,1,118.999989692688,4|0,3:2|0:0,0:0:0:0:
265,384,135865,1,2,3:2:0:0:
283,277,136015,1,8,0:0:0:0:
174,259,136165,1,2,3:2:0:0:
158,367,136315,1,0,0:0:0:0:
336,333,136465,6,0,P|363:279|340:229,1,118.999989692688,4|0,3:2|3:0,0:0:0:0:
243,171,136765,1,8,0:0:0:0:
222,324,136915,1,8,0:0:0:0:
321,155,137065,2,0,P|378:177|416:226,1,118.999989692688,0|0,3:2|0:0,0:0:0:0:
168,188,137365,6,0,P|111:166|78:112,1,118.999989692688,4|0,3:2|0:0,0:0:0:0:
168,7,137665,1,8,0:0:0:0:
218,23,137740,1,8,0:0:0:0:
218,77,137815,1,8,0:0:0:0:
168,93,137890,1,8,0:0:0:0:
136,50,137965,2,0,P|81:30|23:49,1,118.999989692688,0|0,3:0|3:0,0:0:0:0:
0,250,138265,2,0,P|11:177|104:165,1,178.499984539033,0|0,3:0|0:0,0:0:0:0:
132,180,138565,5,8,0:0:0:0:
160,188,138640,1,8,0:0:0:0:
190,189,138715,1,8,0:0:0:0:
218,182,138790,1,8,0:0:0:0:
244,166,138865,1,4,3:3:0:0:
269,152,138940,1,0,3:3:0:0:
299,149,139015,1,0,3:3:0:0:
328,155,139090,1,0,3:3:0:0:
349,166,139165,6,0,P|386:202|400:250,1,101.999991165162,4|0,3:2|0:0,0:0:0:0:
430,91,139465,1,0,3:0:0:0:
461,250,139615,2,0,P|475:202|512:167,1,101.999991165162,8|0,0:0|3:0,0:0:0:0:
430,349,139915,1,0,3:0:0:0:
309,242,140065,2,0,P|311:292|345:330,1,101.999991165162,8|0,0:0|3:0,0:0:0:0:
277,157,140365,2,0,P|234:183|219:231,1,101.999991165162,8|0,0:0|0:3,0:0:0:0:
335,68,140665,2,0,P|290:44|241:55,1,101.999991165162,8|0,0:0|0:0,0:0:0:0:
96,188,140965,6,0,P|178:139|157:46,1,203.999982330323,12|0,0:0|3:0,0:0:0:0:
4,159,141415,2,0,P|-6:209|0:259,1,101.999991165162,8|0,0:0|3:0,0:0:0:0:
98,107,141715,1,0,3:0:0:0:
81,283,141865,2,0,P|141:274|192:292,1,101.999991165162,8|0,0:0|3:0,0:0:0:0:
256,349,142165,1,8,0:0:0:0:
256,193,142315,1,0,3:0:0:0:
282,361,142465,1,8,0:0:0:0:
231,181,142615,1,0,0:0:0:0:
351,384,142765,6,0,P|407:387|451:361,1,101.999991165162,4|0,3:2|0:0,0:0:0:0:
256,272,143065,1,0,3:0:0:0:
402,199,143215,2,0,P|457:242|431:379,1,203.999982330323,8|0,0:0|3:0,0:0:0:0:
473,165,143665,1,8,0:0:0:0:
374,296,143815,1,0,3:0:0:0:
410,129,143965,1,8,0:0:0:0:
374,296,144115,1,0,0:3:0:0:
336,130,144265,1,8,0:0:0:0:
374,296,144415,1,0,0:0:0:0:
268,176,144565,6,0,P|169:175|99:244,1,203.999982330323,12|0,0:0|3:0,0:0:0:0:
250,381,145015,2,0,P|289:328|204:234,1,203.999982330323,8|0,0:0|3:0,0:0:0:0:
108,334,145465,1,8,0:0:0:0:
26,193,145615,1,0,3:0:0:0:
38,344,145765,1,8,0:0:0:0:
94,170,145915,1,0,3:0:0:0:
175,320,146065,2,0,P|210:281|212:225,1,101.999991165162,8|0,0:0|0:0,0:0:0:0:
120,95,146365,6,0,P|171:123|303:68,1,203.999982330323,4|0,3:2|3:0,0:0:0:0:
202,19,146815,1,8,0:0:0:0:
219,153,146965,2,0,P|286:184|335:171,1,101.999991165162,0|0,3:0|3:0,0:0:0:0:
378,99,147265,2,0,L|401:0,1,101.999991165162,8|0,0:0|3:0,0:0:0:0:
497,201,147565,1,8,0:0:0:0:
484,90,147715,1,0,0:3:0:0:
386,214,147865,2,0,L|363:313,1,101.999991165162,8|0,0:0|0:0,0:0:0:0:
283,107,148165,6,0,L|265:185,1,76.4999933738711,12|0,0:0|3:0,0:0:0:0:
204,243,148465,1,0,3:0:0:0:
118,114,148615,2,0,L|138:198,1,76.4999933738711,8|0,0:0|3:0,0:0:0:0:
204,60,148915,1,0,3:0:0:0:
115,14,149065,2,0,P|66:24|39:47,1,76.4999933738711,8|0,0:0|3:0,0:0:0:0:
118,114,149365,2,0,P|102:161|108:196,1,76.4999933738711,8|0,0:0|3:0,0:0:0:0:
206,161,149665,2,0,P|239:198|272:210,1,76.4999933738711,8|0,0:0|0:0,0:0:0:0:
303,100,149965,6,0,L|362:88,1,50.9999955825808,12|0,0:0|3:0,0:0:0:0:
438,128,150265,1,0,3:0:0:0:
468,31,150415,2,0,L|432:148,1,101.999991165162,8|0,0:0|3:0,0:0:0:0:
468,200,150865,2,0,L|488:268,1,50.9999955825808,8|0,0:0|3:0,0:0:0:0:
391,221,151165,2,0,L|328:239,1,50.9999955825808,8|0,0:0|3:0,0:0:0:0:
414,294,151465,2,0,L|351:312,1,50.9999955825808,8|0,0:0|0:0,0:0:0:0:
270,341,151765,6,0,L|295:286,1,50.9999955825808,12|0,0:0|3:0,0:0:0:0:
210,265,152215,2,0,L|185:210,1,50.9999955825808,8|0,0:0|3:0,0:0:0:0:
124,311,152665,2,0,L|108:320,4,12.7499988956452,8|0|0|0|8,0:0|0:0|3:0|0:0|0:0,0:0:0:0:
72,244,153265,2,0,L|54:239,2,12.7499988956452,8|0|0,0:0|0:0|0:0,0:0:0:0:
60,168,153565,6,0,L|35:129,2,38.2499966869356,14|0|2,0:2|3:0|3:2,0:0:0:0:
149,152,154015,2,0,L|157:114,2,38.2499966869356,10|0|0,0:0|0:0|3:0,0:0:0:0:
221,212,154465,2,0,L|275:147,2,76.4999933738711,10|10|10,0:0|0:0|0:0,0:0:0:0:
146,311,155365,6,0,P|182:355|230:360,1,101.999991165162,12|2,0:0|3:2,0:0:0:0:
298,276,155815,2,0,P|347:271|406:298,1,101.999991165162,10|0,0:0|3:0,0:0:0:0:
470,358,156265,2,0,P|486:338|495:314,1,50.9999955825808,10|0,0:0|3:0,0:0:0:0:
464,223,156565,2,0,P|456:187|482:121,1,101.999991165162,10|10,0:0|0:0,0:0:0:0:
437,38,157165,6,0,P|409:53|378:59,1,63.7499988555908,12|0,0:0|3:0,0:0:0:0:
272,28,157465,1,2,3:2:0:0:
275,156,157615,2,0,L|272:16,1,127.499997711182,10|2,0:0|3:2,0:0:0:0:
125,63,158065,2,0,P|164:83|196:84,1,63.7499988555908,10|0,0:0|3:0,0:0:0:0:
112,202,158365,2,0,P|153:188|177:166,1,63.7499988555908,10|0,0:0|3:0,0:0:0:0:
215,302,158665,2,0,P|235:263|236:231,1,63.7499988555908,10|0,0:0|3:0,0:0:0:0:
332,197,158965,6,0,P|349:230|435:236,1,127.499997711182,14|0,0:0|3:0,0:0:0:0:
507,155,159415,2,0,P|474:145|394:185,1,127.499997711182,14|0,0:0|3:0,0:0:0:0:
439,49,159865,2,0,P|423:18|395:0,1,63.7499988555908,10|0,0:0|3:0,0:0:0:0:
337,131,160165,2,0,P|355:101|357:68,1,63.7499988555908,10|0,0:0|3:0,0:0:0:0:
213,84,160465,2,0,P|247:85|277:70,1,63.7499988555908,10|0,0:0|3:0,0:0:0:0:
124,16,160765,6,0,P|134:71|119:124,1,76.4999933738711,12|0,0:0|3:0,0:0:0:0:
37,138,161065,1,2,3:2:0:0:
100,243,161215,2,0,P|125:204|125:158,2,76.4999933738711,10|0|0,0:0|0:0|3:0,0:0:0:0:
23,337,161665,2,0,P|75:320|120:331,1,76.4999933738711,10|0,0:0|3:0,0:0:0:0:
167,366,161965,1,10,0:0:0:0:
192,238,162115,1,0,3:0:0:0:
249,374,162265,2,0,P|291:383|341:371,1,76.4999933738711,10|0,0:0|3:0,0:0:0:0:
307,210,162565,6,0,P|290:250|291:294,1,89.2499922695163,12|0,0:0|3:0,0:0:0:0:
415,368,162865,1,2,3:2:0:0:
465,303,163015,2,0,P|477:250|461:209,1,89.2499922695163,10|0,0:0|3:0,0:0:0:0:
392,148,163315,1,2,3:2:0:0:
484,49,163465,1,10,0:0:0:0:
512,176,163615,1,0,3:0:0:0:
440,27,163765,1,10,0:0:0:0:
512,176,163915,1,0,3:0:0:0:
395,33,164065,2,0,P|353:50|323:88,1,89.2499922695163,10|0,0:0|3:0,0:0:0:0:
275,221,164365,6,0,P|286:178|268:123,1,101.999991165162,12|0,0:0|0:0,0:0:0:0:
205,292,164665,1,2,3:2:0:0:
141,125,164815,2,0,P|124:172|135:222,1,101.999991165162,10|2,0:0|3:2,0:0:0:0:
205,78,165115,1,0,3:0:0:0:
58,184,165265,1,10,0:0:0:0:
39,19,165415,1,0,3:0:0:0:
37,192,165565,1,10,0:0:0:0:
58,12,165715,1,0,3:0:0:0:
16,201,165865,1,10,0:0:0:0:
79,5,166015,1,0,3:0:0:0:
156,213,166165,5,0,0:0:0:0:
256,192,166240,12,2,167365,0:0:0:0:
465,307,167528,6,0,L|484:283,1,28.3333317438762,0|0,3:0|0:0,0:0:0:0:
429,286,167618,2,0,L|442:259,1,28.3333317438762,0|0,3:0|0:0,0:0:0:0:
391,278,167708,2,0,L|391:246,1,28.3333317438762,0|0,3:0|0:0,0:0:0:0:
355,284,167798,2,0,L|350:253,1,28.3333317438762,0|0,3:0|0:0,0:0:0:0:
318,298,167888,2,0,L|301:266,1,28.3333317438762,0|0,3:0|0:0,0:0:0:0:
284,324,167978,6,0,P|253:347|172:344,1,106.249994039536,4|0,3:1|0:0,0:0:0:0:
386,358,168278,1,0,3:0:0:0:
207,225,168428,2,0,P|140:223|48:329,1,212.499988079071,2|0,0:0|3:0,0:0:0:0:
57,159,168878,1,10,0:0:0:0:
185,300,169028,1,0,0:0:0:0:
134,125,169178,1,0,3:0:0:0:
121,339,169328,2,0,P|213:371|255:277,1,212.499988079071,2|0,0:0|0:0,0:0:0:0:
387,165,169778,6,0,P|322:203|220:118,1,212.499988079071,4|0,3:1|3:0,0:0:0:0:
394,56,170228,2,0,L|438:263,1,212.499988079071,2|0,0:0|3:0,0:0:0:0:
272,317,170678,2,0,P|322:278|370:283,1,106.249994039536,8|0,0:0|0:0,0:0:0:0:
455,350,170978,1,0,3:0:0:0:
498,214,171128,1,0,0:0:0:0:
455,350,171278,1,8,1:2:0:0:
358,208,171428,1,0,0:0:0:0:
319,374,171578,6,0,P|270:389|221:370,1,106.249994039536,4|0,3:1|0:0,0:0:0:0:
208,233,171878,1,0,3:0:0:0:
149,378,172028,1,2,0:0:0:0:
137,183,172178,2,0,P|180:152|233:152,1,106.249994039536,0|0,0:0|3:0,0:0:0:0:
67,279,172478,2,0,P|55:207|143:98,1,212.499988079071,10|0,2:0|3:0,0:0:0:0:
290,42,172928,2,0,P|199:16|81:58,1,212.499988079071,2|0,0:0|0:0,0:0:0:0:
333,186,173378,6,0,P|392:192|444:175,1,106.249994039536,4|0,3:1|0:0,0:0:0:0:
441,81,173678,1,0,0:0:0:0:
512,237,173828,2,0,P|489:338|398:384,1,212.499988079071,2|0,0:0|3:0,0:0:0:0:
216,212,174278,2,0,P|320:210|405:271,1,212.499988079071,10|0,0:0|3:0,0:0:0:0:
257,372,174728,1,8,0:0:0:0:
230,376,174803,1,8,0:0:0:0:
198,372,174878,1,8,0:0:0:0:
166,351,174953,1,8,0:0:0:0:
137,319,175028,1,8,0:0:0:0:
124,272,175103,1,8,0:0:0:0:
120,219,175178,6,0,P|132:165|278:139,1,212.499988079071,4|0,3:1|3:0,0:0:0:0:
229,230,175628,1,2,0:0:0:0:
95,111,175778,2,0,P|39:107|-5:132,1,106.249994039536,0|0,3:0|3:0,0:0:0:0:
208,53,176078,2,0,P|268:62|373:172,1,212.499988079071,10|0,0:0|3:0,0:0:0:0:
334,276,176528,1,2,0:0:0:0:
418,110,176678,2,0,P|388:64|341:28,1,106.249994039536,8|0,0:0|0:0,0:0:0:0:
490,200,176978,6,0,P|512:317|462:392,1,212.499988079071,4|0,3:1|3:0,0:0:0:0:
334,276,177428,2,0,P|337:173|418:110,1,212.499988079071,2|0,0:0|3:0,0:0:0:0:
375,364,177878,2,0,P|205:393|62:360,1,318.749982118607,10|0,0:0|0:0,0:0:0:0:
0,182,178478,2,0,P|57:168|120:174,1,106.249994039536,4|0,3:1|0:0,0:0:0:0:
217,204,178778,5,4,3:1:0:0:
77,106,178928,1,0,0:0:0:0:
247,120,179078,1,0,3:0:0:0:
150,261,179228,1,0,3:0:0:0:
163,89,179378,1,2,0:0:0:0:
233,291,179528,1,0,3:0:0:0:
231,32,179678,2,0,P|284:27|343:60,1,106.249994039536,8|0,0:0|0:0,0:0:0:0:
156,175,179978,2,0,P|93:196|41:188,1,106.249994039536,0|0,3:0|0:0,0:0:0:0:
315,195,180278,2,0,P|367:225|397:271,1,106.249994039536,4|0,3:1|0:0,0:0:0:0:
247,120,180578,5,4,3:1:0:0:
150,261,180728,1,0,0:0:0:0:
163,89,180878,1,0,3:0:0:0:
233,291,181028,1,0,3:0:0:0:
77,106,181178,1,10,0:0:0:0:
247,120,181328,1,0,3:0:0:0:
150,261,181478,1,8,0:0:0:0:
163,89,181628,1,0,0:0:0:0:
233,291,181778,6,0,L|241:345,1,53.1249970197678,12|8,3:2|0:0,0:0:0:0:
323,203,181928,2,0,L|331:149,1,53.1249970197678,8|8,0:0|0:0,0:0:0:0:
368,325,182078,2,0,P|424:353|482:342,1,106.249994039536,10|8,1:2|0:0,0:0:0:0:
422,186,182378,6,0,P|379:237|481:299,1,212.499988079071,4|0,3:1|3:0,0:0:0:0:
501,131,182828,2,0,P|442:44|344:9,1,212.499988079071,2|0,0:0|3:0,0:0:0:0:
323,203,183278,1,8,0:0:0:0:
262,42,183428,1,0,0:0:0:0:
228,205,183578,1,2,3:2:0:0:
262,42,183728,1,0,0:0:0:0:
152,147,183878,2,0,P|122:101|132:48,1,106.249994039536,8|0,0:0|0:0,0:0:0:0:
25,163,184178,6,0,P|25:265|107:327,1,212.499988079071,4|0,3:1|3:0,0:0:0:0:
339,220,184628,2,0,P|267:204|161:288,1,212.499988079071,2|0,0:0|3:0,0:0:0:0:
407,281,185078,2,0,P|425:230|414:179,1,106.249994039536,8|0,0:0|0:0,0:0:0:0:
326,310,185378,1,2,3:2:0:0:
351,132,185528,1,0,0:0:0:0:
245,310,185678,1,8,0:0:0:0:
270,132,185828,1,0,0:0:0:0:
162,282,185978,6,0,P|95:204|128:108,1,212.499988079071,4|0,3:1|0:0,0:0:0:0:
267,66,186428,1,2,0:0:0:0:
216,206,186578,1,0,3:0:0:0:
179,23,186728,1,0,3:0:0:0:
294,212,186878,2,0,P|345:199|376:151,1,106.249994039536,10|0,0:0|0:0,0:0:0:0:
155,162,187178,2,0,P|140:212|166:263,1,106.249994039536,2|0,3:2|0:0,0:0:0:0:
267,66,187478,2,0,P|230:28|173:25,1,106.249994039536,10|0,0:0|0:0,0:0:0:0:
20,181,187778,6,0,P|60:214|113:217,1,106.249994039536,4|0,3:1|0:0,0:0:0:0:
20,98,188078,1,0,3:0:0:0:
30,300,188228,1,2,3:2:0:0:
119,93,188378,2,0,P|188:93|227:129,1,106.249994039536,0|0,0:0|3:0,0:0:0:0:
355,259,188678,2,0,P|309:285|257:279,1,106.249994039536,8|0,0:0|0:0,0:0:0:0:
323,72,188978,2,0,L|342:189,1,106.249994039536,0|8,3:0|0:0,0:0:0:0:
418,324,189278,1,10,0:0:0:0:
418,324,189353,1,0,0:0:0:0:
418,324,189428,1,0,0:0:0:0:
418,324,189503,1,0,0:0:0:0:
418,324,189578,6,0,P|439:267|325:180,1,212.499988079071,4|0,3:1|3:0,0:0:0:0:
275,361,190028,2,0,P|209:386|94:304,1,212.499988079071,2|0,0:0|3:0,0:0:0:0:
273,168,190478,2,0,P|293:223|287:281,1,106.249994039536,10|0,0:0|0:0,0:0:0:0:
154,96,190778,2,0,P|191:50|245:26,1,106.249994039536,2|0,3:2|0:0,0:0:0:0:
151,233,191078,2,0,P|92:223|45:189,1,106.249994039536,8|0,0:0|0:0,0:0:0:0:
284,71,191378,6,0,P|343:81|422:222,1,212.499988079071,4|0,3:1|3:0,0:0:0:0:
176,64,191828,2,0,P|221:25|390:34,1,212.499988079071,2|0,3:2|2:0,0:0:0:0:
297,277,192278,2,0,L|267:155,1,106.249994039536,8|0,0:0|0:0,0:0:0:0:
103,59,192578,2,0,L|83:175,1,106.249994039536,4|0,3:1|0:0,0:0:0:0:
201,242,192878,1,8,0:0:0:0:
201,242,192953,1,8,0:0:0:0:
201,242,193028,1,8,0:0:0:0:
201,242,193103,1,8,0:0:0:0:
201,242,193178,5,4,3:2:0:0:
257,81,193328,1,0,0:0:0:0:
145,176,193478,1,0,3:2:0:0:
311,145,193628,1,8,0:0:0:0:
173,97,193778,1,2,3:2:0:0:
283,225,193928,1,2,3:2:0:0:
339,66,194078,1,8,0:0:0:0:
201,242,194228,1,2,3:2:0:0:
339,66,194378,1,10,0:0:0:0:
253,304,194528,1,8,0:0:0:0:
339,66,194678,2,0,P|396:71|437:109,1,114.749994000435,8|0,0:0|0:0,0:0:0:0:
201,242,194978,5,8,0:0:0:0:
173,97,195128,1,0,0:0:0:0:
283,225,195278,1,8,0:0:0:0:
257,81,195428,1,8,0:0:0:0:
145,176,195578,1,0,3:0:0:0:
363,209,195728,1,0,3:0:0:0:
201,242,195878,1,0,3:0:0:0:
257,81,196028,1,2,0:0:0:0:
253,304,196178,5,0,0:0:0:0:
257,81,196328,1,0,3:2:0:0:
289,64,196403,1,0,3:2:0:0:
321,55,196478,1,12,3:2:0:0:
354,53,196553,1,8,3:2:0:0:
388,57,196628,1,8,3:2:0:0:
420,70,196703,1,8,3:2:0:0:
447,96,196778,6,0,P|450:153|416:201,1,110.499988742829,4|0,3:1|0:0,0:0:0:0:
210,132,197078,2,0,P|257:101|316:107,1,110.499988742829,0|2,3:0|0:0,0:0:0:0:
363,320,197378,2,0,P|312:295|287:241,1,110.499988742829,0|0,0:0|3:0,0:0:0:0:
449,93,197678,1,10,0:0:0:0:
337,183,197828,1,0,0:0:0:0:
512,175,197978,1,0,0:0:0:0:
404,272,198128,1,2,0:0:0:0:
372,108,198278,2,0,P|315:102|267:135,1,110.499988742829,8|0,3:2|0:0,0:0:0:0:
141,224,198578,6,0,P|201:207|273:332,1,220.999977485658,4|0,3:1|3:0,0:0:0:0:
151,131,199028,1,2,0:0:0:0:
193,303,199178,1,0,0:0:0:0:
220,74,199328,1,0,3:0:0:0:
80,200,199478,2,0,P|85:260|133:290,1,110.499988742829,8|0,0:0|0:0,0:0:0:0:
220,74,199778,2,0,P|165:48|101:58,1,110.499988742829,0|0,3:0|0:0,0:0:0:0:
259,258,200078,2,0,P|308:223|338:179,1,110.499988742829,8|0,1:2|0:0,0:0:0:0:
296,1,200378,6,0,P|314:101|417:104,1,220.999977485658,4|0,3:1|3:0,0:0:0:0:
505,3,200828,1,2,0:0:0:0:
368,40,200978,2,0,P|346:90|353:145,1,110.499988742829,0|0,0:0|3:0,0:0:0:0:
512,250,201278,2,0,P|479:205|429:185,1,110.499988742829,10|0,0:0|0:0,0:0:0:0:
258,270,201578,1,0,3:0:0:0:
374,379,201728,1,2,0:0:0:0:
355,230,201878,2,0,P|310:185|251:169,1,110.499988742829,8|0,3:2|0:0,0:0:0:0:
163,379,202178,6,0,B|238:393|238:393|285:338|285:338|291:335|291:335|285:333|285:333|259:270|259:270|183:256|183:256,1,305.999973495485,4|0,3:1|3:0,0:0:0:0:
56,383,202628,2,0,B|24:319|24:319|19:315|19:315|24:311|24:311|52:250|52:250|58:244|58:244|51:240|51:240|32:175|32:175|25:172|25:172|30:168|30:168|57:99,1,305.999973495485,2|0,0:0|3:0,0:0:0:0:
246,77,203078,2,0,B|278:142|278:142|281:147|281:147|275:148|275:148|253:185|210:179|210:179|206:182|206:182|206:177|206:177|138:46,1,305.999973495485,10|0,0:0|3:0,0:0:0:0:
338,5,203528,1,8,0:0:0:0:
376,0,203603,1,8,0:0:0:0:
414,1,203678,1,8,0:0:0:0:
449,15,203753,1,8,0:0:0:0:
478,38,203828,1,8,0:0:0:0:
499,69,203903,1,8,0:0:0:0:
512,105,203978,6,0,P|512:168|468:215,1,110.499988742829,4|0,3:1|0:0,0:0:0:0:
254,134,204278,2,0,P|308:102|371:117,1,110.499988742829,0|2,3:0|0:0,0:0:0:0:
409,343,204578,2,0,P|354:311|335:249,1,110.499988742829,0|0,0:0|3:0,0:0:0:0:
393,48,204878,2,0,P|423:93|412:146,1,110.499988742829,10|0,0:0|0:0,0:0:0:0:
317,37,205178,1,0,3:0:0:0:
295,209,205328,1,2,0:0:0:0:
249,28,205478,1,8,0:0:0:0:
295,209,205628,1,0,0:0:0:0:
188,66,205778,6,0,P|118:90|6:9,1,220.999977485658,4|0,3:1|3:0,0:0:0:0:
78,112,206228,2,0,P|112:208|88:322,1,220.999977485658,2|0,0:0|3:0,0:0:0:0:
261,170,206678,2,0,P|184:170|54:361,1,331.499966228487,10|0,0:0|0:0,0:0:0:0:
202,348,207278,2,0,L|215:236,1,110.499988742829,4|0,3:1|0:0,0:0:0:0:
381,127,207578,5,4,3:1:0:0:
441,264,207728,1,0,0:0:0:0:
292,247,207878,1,0,3:0:0:0:
451,185,208028,1,0,3:0:0:0:
362,305,208178,1,2,0:0:0:0:
302,167,208328,1,0,3:0:0:0:
438,353,208478,5,8,0:0:0:0:
302,167,208628,1,0,0:0:0:0:
276,336,208778,1,0,3:0:0:0:
451,185,208928,1,0,0:0:0:0:
292,246,209078,2,0,P|237:248|186:226,1,110.499988742829,4|0,3:1|0:0,0:0:0:0:
381,127,209378,6,0,P|450:109|514:130,1,110.499988742829,4|0,3:1|0:0,0:0:0:0:
371,230,209678,1,0,3:0:0:0:
311,80,209828,1,0,3:0:0:0:
451,185,209978,1,10,0:0:0:0:
232,116,210128,1,0,3:0:0:0:
362,305,210278,1,8,0:0:0:0:
381,127,210428,1,0,0:0:0:0:
276,336,210578,6,0,L|263:389,1,55.2499943714145,12|8,3:2|0:0,0:0:0:0:
194,259,210728,2,0,L|181:205,1,55.2499943714145,8|8,0:0|0:0,0:0:0:0:
147,373,210878,2,0,P|85:382|36:366,1,110.499988742829,10|8,1:2|0:0,0:0:0:0:
101,225,211178,6,0,P|164:296|78:337,1,220.999977485658,4|0,3:1|3:0,0:0:0:0:
0,220,211628,2,0,L|0:0,1,220.999977485658,2|0,0:0|3:0,0:0:0:0:
102,174,212078,1,8,0:0:0:0:
137,30,212228,1,0,0:0:0:0:
178,205,212378,1,2,3:2:0:0:
174,56,212528,1,0,0:0:0:0:
257,208,212678,2,0,P|312:193|352:154,1,110.499988742829,8|0,0:0|0:0,0:0:0:0:
478,258,212978,6,0,P|380:218|363:113,1,220.999977485658,4|0,3:1|3:0,0:0:0:0:
474,146,213428,1,2,0:0:0:0:
414,275,213578,2,0,P|368:306|313:313,1,110.499988742829,0|0,0:0|3:0,0:0:0:0:
223,107,213878,2,0,P|252:153|256:207,1,110.499988742829,8|0,0:0|0:0,0:0:0:0:
183,339,214178,1,2,3:2:0:0:
174,189,214328,1,0,0:0:0:0:
146,360,214478,1,8,0:0:0:0:
130,179,214628,1,0,0:0:0:0:
13,353,214778,6,0,P|65:330|27:192,1,220.999977485658,4|0,3:1|0:0,0:0:0:0:
49,72,215228,2,0,P|151:42|241:101,1,220.999977485658,2|0,0:0|3:0,0:0:0:0:
387,234,215678,2,0,P|336:202|269:201,1,110.499988742829,10|0,0:0|0:0,0:0:0:0:
222,384,215978,2,0,P|275:355|309:298,1,110.499988742829,2|0,3:2|0:0,0:0:0:0:
157,157,216278,2,0,P|154:217|187:275,1,110.499988742829,10|0,0:0|0:0,0:0:0:0:
341,135,216578,6,0,P|371:180|386:233,1,110.499988742829,4|0,3:1|0:0,0:0:0:0:
429,65,216878,1,0,3:0:0:0:
481,280,217028,2,0,L|422:34,1,220.999977485658,2|0,3:2|3:0,0:0:0:0:
192,223,217478,2,0,P|249:233|305:201,1,110.499988742829,8|0,0:0|0:0,0:0:0:0:
198,87,217778,2,0,P|141:71|80:101,1,110.499988742829,8|8,3:2|0:0,0:0:0:0:
75,330,218078,1,10,3:2:0:0:
75,330,218153,1,0,0:0:0:0:
75,330,218228,1,0,0:0:0:0:
75,330,218303,1,0,0:0:0:0:
75,330,218378,6,0,P|132:298|143:146,1,220.999977485658,4|0,3:1|3:0,0:0:0:0:
185,265,218828,2,0,P|217:321|373:359,1,220.999977485658,2|0,0:0|3:0,0:0:0:0:
336,154,219278,1,10,0:0:0:0:
316,303,219428,1,0,0:0:0:0:
403,161,219578,1,2,3:2:0:0:
425,324,219728,1,0,0:0:0:0:
463,129,219878,2,0,P|484:79|483:14,1,110.499988742829,8|0,0:0|0:0,0:0:0:0:
336,154,220178,6,0,P|324:71|201:9,1,220.999977485658,4|0,3:1|3:0,0:0:0:0:
202,189,220628,2,0,P|261:102|172:91,1,220.999977485658,2|0,3:2|2:0,0:0:0:0:
146,269,221078,2,0,L|118:378,1,110.499988742829,8|0,0:0|0:0,0:0:0:0:
50,181,221378,2,0,L|22:72,1,110.499988742829,4|0,3:1|0:0,0:0:0:0:
227,269,221678,1,4,3:1:0:0:
280,281,221753,1,8,0:0:0:0:
334,271,221828,1,8,0:0:0:0:
380,241,221903,1,8,0:0:0:0:
411,196,221978,5,12,0:0:0:0:
256,192,222053,12,0,225128,0:0:0:0:
