osu file format v14

[General]
AudioFilename: audio.mp3
AudioLeadIn: 0
PreviewTime: 55953
Countdown: 0
SampleSet: Soft
StackLeniency: 0.4
Mode: 0
LetterboxInBreaks: 0
WidescreenStoryboard: 0

[Editor]
Bookmarks: 13287,27509,41731,55953,98620,112844,121733,127064,169731,183953,191066,194622,198175,201731,215953,218842,222398,229731,233064,236620
DistanceSpacing: 1.5
BeatDivisor: 4
GridSize: 16
TimelineZoom: 1.8

[Metadata]
Title:KOISURU*BEAM
TitleUnicode:恋する☆ビーム
Artist:cillia feat. Kagamine Rin
ArtistUnicode:cillia feat. 鏡音リン
Creator:Noffy
Version:Yuumeikyou's Journey to the Stars!
Source:
Tags:シリア kyaami harumia Vocaloid pop j-pop jpop riguruma japanese yukiya mustacho bashe aunn Yuumeikyou clapclap koisuru beam biimu
BeatmapID:2767913
BeatmapSetID:1336079

[Difficulty]
HPDrainRate:5
CircleSize:4
OverallDifficulty:8
ApproachRate:9
SliderMultiplier:1.65
SliderTickRate:2

[Events]
//Background and Video events
0,0,"bg.jpg",0,0
Video,957,"30.mp4"
//Break Periods
//Storyboard Layer 0 (Background)
//Storyboard Layer 1 (Fail)
//Storyboard Layer 2 (Pass)
//Storyboard Layer 3 (Foreground)
//Storyboard Layer 4 (Overlay)
//Storyboard Sound Samples

[TimingPoints]
1705,444.444444444444,4,2,1,40,1,0
3925,-666.666666666667,4,2,1,15,0,0
4370,-500,4,2,1,20,0,0
4814,-250,4,2,1,22,0,0
5259,-200,4,2,1,25,0,0
5703,-166.666666666667,4,2,1,30,0,0
6148,-200,4,2,1,40,0,0
6592,-333.333333333333,4,2,1,40,0,0
7481,-333.333333333333,4,2,1,50,0,0
8592,-166.666666666667,4,2,1,50,0,0
10149,-333.333333333334,4,2,1,60,0,0
10815,-166.666666666667,4,2,1,60,0,0
13704,-200,4,2,1,40,0,0
14148,-100,4,2,1,60,0,0
18148,-66.6666666666667,4,2,1,60,0,0
19037,-100,4,2,1,60,0,0
21704,-125,4,2,1,60,0,0
22926,-125,4,2,3,40,0,0
23148,-125,4,2,1,60,0,0
25037,-200,4,2,1,60,0,0
25481,-125,4,2,1,60,0,0
26148,-100,4,2,1,60,0,0
28370,-133.333333333333,4,2,2,60,0,0
31926,-100,4,2,2,60,0,0
36815,-200,4,2,2,60,0,0
37037,-50,4,2,2,60,0,0
37371,-100,4,2,2,60,0,0
39704,-83.3333333333333,4,2,2,60,0,0
40593,-100,4,2,2,60,0,0
41926,-100,4,2,2,80,0,1
42037,-100,4,2,2,60,0,0
42148,-100,4,2,2,80,0,1
42259,-100,4,2,2,60,0,0
42592,-83.3333333333333,4,2,2,60,0,0
45593,-83.3333333333333,4,2,3,60,0,0
45815,-83.3333333333333,4,2,2,60,0,0
54482,-83.3333333333333,4,2,4,60,0,0
54704,-83.3333333333333,4,2,2,60,0,0
55037,-83.3333333333333,4,2,1,60,0,0
56815,-50,4,2,2,80,0,1
56889,-50,4,2,1,80,0,1
59482,-100,4,2,1,80,0,1
59592,-50,4,2,1,80,0,0
59703,-50,4,2,1,100,0,1
59815,-50,4,2,1,80,0,0
59926,-50,4,2,1,100,0,1
60037,-50,4,2,1,80,0,0
60148,-50,4,2,1,80,0,1
63037,-100,4,2,1,80,0,1
63148,-50,4,2,1,80,0,0
63259,-50,4,2,1,100,0,1
63370,-50,4,2,1,80,0,0
63481,-50,4,2,1,100,0,1
63592,-50,4,2,1,80,0,0
63703,-50,4,2,1,80,0,1
63920,-66.6666666666667,4,2,1,80,0,1
64704,-66.6666666666667,4,2,3,60,0,1
64926,-66.6666666666667,4,2,1,80,0,1
65260,-50,4,2,1,80,0,1
65593,-66.6666666666667,4,2,3,60,0,1
65815,-50,4,2,1,80,0,1
67482,-66.6666666666667,4,2,1,80,0,1
68148,-50,4,2,1,80,0,1
70481,-50,4,2,1,80,0,0
70592,-50,4,2,1,100,0,1
70703,-50,4,2,1,80,0,0
70815,-50,4,2,1,100,0,1
70926,-50,4,2,1,80,0,0
71037,-50,4,2,1,80,0,1
72593,-66.6666666666667,4,2,1,80,0,1
72704,-66.6666666666667,4,2,3,60,0,1
72926,-50,4,2,1,80,0,1
73704,-100,4,2,1,80,0,1
73815,-50,4,2,1,80,0,0
73926,-50,4,2,1,100,0,1
74037,-50,4,2,1,80,0,0
74148,-50,4,2,1,100,0,1
74259,-50,4,2,1,80,0,0
74370,-50,4,2,1,80,0,1
77260,-100,4,2,1,80,0,1
77370,-50,4,2,1,80,0,0
77481,-50,4,2,1,100,0,1
77592,-50,4,2,1,80,0,0
77703,-50,4,2,1,100,0,1
77815,-50,4,2,1,80,0,0
77926,-50,4,2,1,80,0,1
84815,-50,4,2,4,80,0,1
85259,-100,4,2,1,60,0,0
89260,-66.6666666666667,4,2,1,60,0,0
90148,-100,4,2,1,60,0,0
92815,-125,4,2,1,60,0,0
94037,-125,4,2,3,60,0,0
94260,-125,4,2,1,60,0,0
96148,-100,4,2,1,60,0,0
96592,-166.666666666667,4,2,1,60,0,0
97704,-100,4,2,1,60,0,0
99482,-133.333333333333,4,2,1,60,0,0
103926,-66.6666666666667,4,2,1,60,0,0
106815,-100,4,2,1,60,0,0
114370,-125,4,2,1,60,0,0
115037,-100,4,2,1,60,0,0
119481,-66.6666666666667,4,2,1,60,0,0
120148,-100,4,2,1,60,0,0
122593,-100,4,2,3,40,0,0
124371,-100,4,2,3,60,0,0
126148,-100,4,2,1,60,0,0
127038,-83.3333333333333,4,2,1,60,0,0
127926,-50,4,2,2,80,0,1
128037,-50,4,2,1,80,0,1
130593,-100,4,2,1,80,0,1
130703,-50,4,2,1,80,0,0
130815,-50,4,2,1,100,0,1
130926,-50,4,2,1,80,0,0
131037,-50,4,2,1,100,0,1
131148,-50,4,2,1,80,0,1
134148,-100,4,2,1,80,0,1
134259,-50,4,2,1,80,0,0
134370,-50,4,2,1,100,0,1
134481,-50,4,2,1,80,0,0
134592,-50,4,2,1,100,0,1
134704,-50,4,2,1,80,0,1
141592,-50,4,2,1,80,0,0
141703,-50,4,2,1,100,0,1
141815,-50,4,2,1,80,0,0
141926,-50,4,2,1,100,0,1
142037,-50,4,2,1,80,0,1
143704,-66.6666666666667,4,2,1,80,0,1
143815,-66.6666666666667,4,2,3,80,0,1
144037,-66.6666666666667,4,2,1,80,0,1
144815,-100,4,2,1,80,0,1
144926,-50,4,2,1,80,0,0
145037,-50,4,2,1,100,0,1
145148,-50,4,2,1,80,0,0
145259,-50,4,2,1,100,0,1
145371,-50,4,2,1,80,0,1
148371,-100,4,2,1,80,0,1
148481,-50,4,2,1,80,0,0
148592,-50,4,2,1,100,0,1
148703,-50,4,2,1,80,0,0
148815,-50,4,2,1,100,0,1
148926,-50,4,2,1,80,0,1
153481,-66.6666666666667,4,2,1,80,0,1
156370,-142.857142857143,4,2,1,60,0,0
170592,-111.111111111111,4,2,1,60,0,0
173147,-111.111111111111,4,2,5,40,0,0
173370,-111.111111111111,4,2,1,60,0,0
174925,-111.111111111111,4,2,5,40,0,0
175147,-111.111111111111,4,2,1,60,0,0
176259,-111.111111111111,4,2,3,40,0,0
176481,-111.111111111111,4,2,1,60,0,0
177259,-90.9090909090908,4,2,1,60,0,0
177703,-111.111111111111,4,2,1,60,0,0
178592,-90.9090909090908,4,2,1,60,0,0
179481,-111.111111111111,4,2,1,60,0,0
184814,-100,4,2,1,60,0,0
187370,-100,4,2,3,40,0,0
187592,-100,4,2,1,60,0,0
189147,-100,4,2,3,40,0,0
189370,-100,4,2,1,60,0,0
190481,-100,4,2,5,40,0,0
190703,-100,4,2,1,60,0,0
190925,-100,4,2,3,40,0,0
191147,-100,4,2,1,60,0,0
191925,-100,4,2,3,60,0,0
197259,-100,4,2,1,20,0,0
198147,-100,4,2,1,30,0,0
199036,-200,4,2,6,40,0,0
201259,-200,4,2,1,40,0,0
202592,-200,4,2,1,70,0,0
209037,-200,4,2,1,100,0,1
209148,-200,4,2,1,70,0,0
209259,-200,4,2,1,100,0,1
209370,-200,4,2,1,70,0,0
213259,-200,4,2,3,70,0,0
216815,-45.4545454545455,4,2,2,80,0,1
216925,-45.4545454545455,4,2,1,80,0,1
219481,-83.3333333333333,4,2,1,80,0,1
219592,-50,4,2,1,80,0,0
219703,-50,4,2,1,100,0,1
219815,-50,4,2,1,80,0,0
219926,-50,4,2,1,100,0,1
220036,-50,4,2,1,80,0,1
223036,-66.6666666666667,4,2,1,80,0,1
223148,-50,4,2,1,80,0,0
223259,-50,4,2,1,100,0,1
223370,-50,4,2,1,80,0,0
223481,-50,4,2,1,100,0,1
223592,-50,4,2,1,80,0,1
224703,-50,4,2,3,80,0,1
224925,-50,4,2,1,80,0,1
225592,-50,4,2,3,80,0,1
225814,-50,4,2,1,80,0,1
230481,-50,4,2,1,80,0,0
230592,-50,4,2,1,100,0,1
230703,-50,4,2,1,80,0,0
230815,-50,4,2,1,100,0,1
230925,-50,4,2,1,80,0,1
231036,-45.4545454545455,4,2,1,80,0,1
232703,-45.4545454545455,4,2,3,80,0,1
232925,-45.4545454545455,4,2,1,80,0,1
233703,-66.6666666666667,4,2,1,80,0,1
233815,-45.4545454545455,4,2,1,80,0,0
233926,-45.4545454545455,4,2,1,100,0,1
234037,-45.4545454545455,4,2,1,80,0,0
234148,-45.4545454545455,4,2,1,100,0,1
234259,-45.4545454545455,4,2,1,80,0,1
237259,-66.6666666666667,4,2,1,80,0,1
237370,-45.4545454545455,4,2,1,80,0,0
237481,-45.4545454545455,4,2,1,100,0,1
237592,-45.4545454545455,4,2,1,80,0,0
237703,-45.4545454545455,4,2,1,100,0,1
237814,-45.4545454545455,4,2,1,80,0,1
238925,-45.4545454545455,4,2,3,80,0,1
239147,-45.4545454545455,4,2,1,80,0,1
245259,-50,4,2,1,80,0,1
248370,-100,4,2,4,80,0,1
248815,-100,4,2,1,60,0,0
252814,-66.6666666666667,4,2,1,60,0,0
253703,-100,4,2,1,60,0,0
257481,-125,4,2,2,60,0,0
259481,-166.666666666667,4,2,2,50,0,0
262370,-100,4,2,1,80,0,1
262481,-100,4,2,1,60,0,0
262592,-111.111111111111,4,2,1,80,0,1
262703,-100,4,2,1,60,0,0
263482,-100,4,2,1,5,0,0

[Colours]
Combo1 : 255,0,128
Combo2 : 255,202,176
Combo3 : 255,237,164
Combo4 : 251,174,186
Combo5 : 193,224,255

[HitObjects]
146,367,3927,6,0,L|136:367,2,6.18749981117249
203,323,4371,2,0,L|214:325,2,8.25
145,274,4816,2,0,L|115:279,2,16.5
198,218,5260,2,0,L|219:219,2,20.625
134,153,5704,2,0,L|81:173,1,49.4999984893799
9,189,6149,2,0,L|61:174,1,41.25
134,153,6593,6,0,L|166:141,1,24.74999924469
227,101,7038,2,0,L|228:129,1,24.74999924469
287,182,7482,2,0,L|287:213,1,24.74999924469
283,282,7927,1,0,0:0:0:0:
307,286,8149,5,0,0:0:0:0:
345,279,8371,1,0,0:0:0:0:
385,240,8593,2,0,L|412:251,2,24.74999924469
411,166,9038,1,0,0:0:0:0:
473,227,9260,2,0,L|471:281,2,49.4999984893799
497,151,9927,5,0,0:0:0:0:
497,151,10149,2,0,L|466:146,1,24.74999924469
388,142,10593,1,0,0:0:0:0:
318,212,10816,2,0,L|285:148,1,49.4999984893799
249,95,11260,1,0,0:0:0:0:
161,26,11482,2,0,L|152:55,1,24.74999924469
134,119,11704,21,0,0:0:0:0:
54,78,11927,1,0,0:0:0:0:
54,78,12038,1,0,0:0:0:0:
54,78,12149,2,0,B|56:110|25:137|45:187,1,98.9999969787599
131,229,12816,1,0,0:0:0:0:
180,212,13038,1,0,0:0:0:0:
263,224,13260,1,0,0:0:0:0:
293,311,13482,1,0,0:0:0:0:
227,364,13704,2,0,P|211:336|209:300,1,61.875
163,211,14149,6,0,P|158:256|116:300,1,82.5,4|0,3:2|0:0,0:0:0:0:
26,369,14593,1,10,0:0:0:0:
84,233,14816,1,2,0:0:0:0:
84,233,14927,1,2,0:0:0:0:
84,233,15038,2,0,L|151:248,1,41.25,2|0,3:2|0:0,0:0:0:0:
139,164,15260,2,0,L|206:149,1,41.25,2|0,0:0|0:0,0:0:0:0:
246,64,15482,2,0,B|206:56|206:56|142:79,1,82.5,10|0,0:0|0:0,0:0:0:0:
268,174,15927,6,0,B|308:182|308:182|372:159,1,82.5,2|0,3:2|0:0,0:0:0:0:
436,89,16371,1,10,0:0:0:0:
465,188,16593,1,2,0:0:0:0:
499,66,16816,2,0,B|446:59|426:96|352:63,1,123.75,2|0,3:2|0:0,0:0:0:0:
317,0,17260,1,10,0:0:0:0:
290,41,17371,1,2,0:0:0:0:
304,88,17482,1,2,0:0:0:0:
375,193,17704,38,0,P|388:227|362:292,1,82.5,2|2,3:2|0:0,0:0:0:0:
274,339,18149,2,0,P|303:363|357:366,1,61.875002360344,10|0,0:0|0:0,0:0:0:0:
440,350,18371,1,2,0:0:0:0:
283,351,18593,2,0,L|215:382,2,61.875002360344,2|0|2,3:2|0:0|0:0,0:0:0:0:
331,242,19038,2,0,L|338:196,1,41.25,10|0,0:0|0:0,0:0:0:0:
255,128,19260,2,0,L|243:179,1,41.25,2|0,0:0|0:0,0:0:0:0:
148,239,19482,6,0,B|126:203|126:203|137:135,1,82.5,2|2,3:2|0:0,0:0:0:0:
198,46,19927,1,10,0:0:0:0:
234,125,20149,1,2,0:0:0:0:
92,44,20371,1,2,3:2:0:0:
162,14,20593,1,0,0:0:0:0:
18,16,20816,2,0,B|7:67|41:94|7:166,1,123.75,10|0,0:0|0:0,0:0:0:0:
7,239,21260,6,0,B|77:273,1,41.25,2|0,3:2|0:0,0:0:0:0:
117,326,21482,2,0,B|187:292,1,41.25,2|0,0:0|0:0,0:0:0:0:
232,224,21704,2,0,B|245:259|245:259|240:304,1,66,10|2,0:0|0:0,0:0:0:0:
146,366,22149,1,2,3:2:0:0:
146,366,22260,1,2,0:0:0:0:
146,366,22371,1,2,0:0:0:0:
15,356,22593,1,10,0:0:0:0:
184,361,22816,6,0,B|229:331|271:387|333:336,1,132,2|0,0:0|0:0,0:0:0:0:
398,263,23482,1,10,0:0:0:0:
488,359,23704,2,0,L|493:305,1,33,2|0,0:0|0:0,0:0:0:0:
420,211,23927,2,0,L|405:302,1,66,2|2,3:2|0:0,0:0:0:0:
286,353,24371,2,0,B|297:315|297:315|290:279|290:279|301:237,1,99,10|0,0:0|0:0,0:0:0:0:
329,150,24816,21,2,3:2:0:0:
216,64,25038,2,0,L|250:59,1,20.625,2|0,0:0|0:0,0:0:0:0:
351,44,25260,1,8,0:0:0:0:
198,99,25482,2,0,L|249:90,1,33,2|0,0:0|0:0,0:0:0:0:
336,77,25704,1,2,3:2:0:0:
210,2,25927,1,0,0:0:0:0:
113,129,26149,1,10,0:0:0:0:
162,137,26260,1,2,0:0:0:0:
210,144,26371,1,2,0:0:0:0:
338,232,26593,6,0,L|252:278,1,82.5,4|0,3:2|0:0,0:0:0:0:
149,333,27038,1,10,0:0:0:0:
284,380,27260,2,0,L|299:334,1,41.25,2|0,0:0|0:0,0:0:0:0:
245,246,27482,2,0,L|224:195,1,41.25,2|0,3:2|0:0,0:0:0:0:
185,112,27704,1,2,0:0:0:0:
335,50,27927,2,0,P|276:45|282:102,1,123.75,10|0,0:0|0:0,0:0:0:0:
344,145,28371,6,0,P|354:184|336:247,1,92.812503540516,2|0,3:2|0:0,0:0:0:0:
289,293,28816,1,8,0:0:0:0:
385,327,29038,2,0,L|460:325,2,61.875002360344,2|2|0,3:2|0:0|0:0,0:0:0:0:
284,326,29704,1,8,0:0:0:0:
197,256,29927,2,0,L|196:307,1,30.937501180172,2|0,3:2|0:0,0:0:0:0:
70,149,30371,6,0,L|55:96,1,30.937501180172,2|0,0:0|0:0,0:0:0:0:
77,8,30593,2,0,L|157:2,1,61.875002360344,2|0,3:2|0:0,0:0:0:0:
218,70,31038,1,2,3:2:0:0:
218,70,31260,1,0,0:0:0:0:
125,149,31482,2,0,L|205:166,1,61.875002360344,10|0,0:0|0:0,0:0:0:0:
311,183,31927,21,2,3:2:0:0:
359,84,32149,2,0,L|361:179,1,82.5,2|8,0:0|0:0,0:0:0:0:
460,264,32593,2,0,B|456:250|456:250|469:219|469:219|466:184,2,82.5,2|2|0,3:2|0:0|0:0,0:0:0:0:
468,98,33260,1,8,0:0:0:0:
325,20,33482,6,0,B|371:-5|428:42|494:8,1,165,2|0,3:2|0:0,0:0:0:0:
304,12,34149,1,10,0:0:0:0:
303,47,34371,1,2,0:0:0:0:
206,122,34593,1,2,3:2:0:0:
172,68,34816,1,2,0:0:0:0:
292,188,35038,2,0,P|276:216|168:214,1,123.75,10|0,0:0|0:0,0:0:0:0:
132,184,35482,5,0,3:2:0:0:
46,247,35704,2,0,L|35:299,2,41.25,2|2|10,0:0|0:0|0:0,0:0:0:0:
102,377,36149,1,2,3:2:0:0:
19,270,36371,2,0,L|71:259,2,41.25,2|2|2,0:0|0:0|0:0,0:0:0:0:
156,209,36816,2,0,L|190:222,1,20.625,10|0,0:0|0:0,0:0:0:0:
300,248,37038,6,0,B|344:260|344:260|407:231,1,82.5,2|0,3:2|0:0,0:0:0:0:
480,151,37371,2,0,L|504:208,2,41.25,2|2|2,0:0|0:0|0:0,0:0:0:0:
442,118,37704,2,0,L|421:62,1,41.25,10|0,3:2|0:0,0:0:0:0:
329,22,37927,1,2,0:0:0:0:
329,22,38038,1,2,0:0:0:0:
329,22,38149,1,2,3:2:0:0:
333,97,38371,1,2,0:0:0:0:
159,69,38593,1,10,3:2:0:0:
213,35,38816,1,2,0:0:0:0:
48,30,39038,21,2,3:2:0:0:
16,159,39260,2,0,P|68:172|116:142,1,82.5,2|8,0:0|0:0,0:0:0:0:
186,97,39704,2,0,P|197:129|186:225,2,98.9999969787599,2|2|2,3:2|0:0|0:0,0:0:0:0:
185,244,40371,1,8,0:0:0:0:
306,277,40593,6,0,P|367:287|433:249,1,123.75,2|0,3:2|0:0,0:0:0:0:
473,213,41038,1,2,0:0:0:0:
354,96,41260,2,0,L|359:185,1,82.5,10|2,0:0|0:0,0:0:0:0:
366,288,41704,1,2,3:2:0:0:
256,192,41927,5,8,0:1:0:0:
256,192,42149,5,8,0:1:0:0:
431,14,42593,22,0,L|445:152,1,98.9999969787599,4|2,3:2|0:0,0:0:0:0:
394,219,43038,1,10,3:2:0:0:
319,118,43260,1,2,0:0:0:0:
348,121,43371,1,2,0:0:0:0:
377,123,43482,2,0,L|493:134,2,98.9999969787599,2|2|8,3:2|0:0|3:1,0:0:0:0:
239,103,44149,1,2,0:0:0:0:
230,131,44260,1,2,0:0:0:0:
222,159,44371,5,2,3:2:0:0:
134,123,44593,1,2,0:0:0:0:
256,242,44816,1,10,3:2:0:0:
328,213,45038,2,0,L|384:185,2,49.4999984893799,2|2|2,0:0|0:0|3:2,0:0:0:0:
186,258,45482,2,0,P|143:291|243:358,1,197.99999395752,2|0,0:0|0:0,0:0:0:0:
309,266,46149,6,0,L|339:367,1,98.9999969787599,2|2,3:2|0:0,0:0:0:0:
234,224,46593,1,10,3:2:0:0:
226,323,46816,1,0,0:0:0:0:
255,327,46927,1,0,0:0:0:0:
284,330,47038,2,0,L|421:340,2,98.9999969787599,2|2|8,3:2|0:0|3:1,0:0:0:0:
156,290,47704,1,2,0:0:0:0:
151,320,47816,1,2,0:0:0:0:
143,349,47927,5,2,3:2:0:0:
137,238,48149,1,2,0:0:0:0:
257,367,48371,2,0,B|278:353|289:315|256:280|256:280|306:242|291:190|237:178,1,197.99999395752,10|0,3:2|3:2,0:0:0:0:
146,144,49038,2,0,L|205:134,1,49.4999984893799,2|0,0:0|0:0,0:0:0:0:
293,92,49260,2,0,L|362:111,1,49.4999984893799,10|0,3:2|0:0,0:0:0:0:
464,141,49482,1,2,0:0:0:0:
473,169,49593,1,2,0:0:0:0:
478,198,49704,22,0,B|431:227|431:227|368:212,1,98.9999969787599,2|2,3:2|0:0,0:0:0:0:
279,163,50149,1,10,3:2:0:0:
393,164,50371,1,2,0:0:0:0:
387,193,50482,1,2,0:0:0:0:
378,221,50593,2,0,L|346:334,2,98.9999969787599,2|2|8,3:2|0:0|3:1,0:0:0:0:
297,133,51260,1,2,0:0:0:0:
289,161,51371,1,2,0:0:0:0:
279,189,51482,6,0,P|235:242|186:170,1,148.49999546814,2|0,3:2|0:0,0:0:0:0:
166,94,51927,2,0,P|123:57|72:152,1,197.99999395752,10|2,3:2|3:2,0:0:0:0:
96,262,52593,2,0,P|104:293|93:331,1,49.4999984893799,2|0,0:0|0:0,0:0:0:0:
29,378,52816,1,8,3:2:0:0:
190,315,53038,1,2,0:0:0:0:
162,304,53149,1,2,0:0:0:0:
134,292,53260,5,2,3:2:0:0:
110,226,53482,1,2,0:0:0:0:
231,160,53704,1,10,3:2:0:0:
207,227,53927,1,2,0:0:0:0:
334,127,54149,1,2,3:2:0:0:
276,56,54371,2,0,P|306:14|408:90,1,197.99999395752,2|2,0:0|0:0,0:0:0:0:
413,209,55038,5,8,3:2:0:0:
493,227,55260,1,0,3:0:0:0:
492,260,55371,1,8,0:0:0:0:
390,363,55593,1,0,3:2:0:0:
411,348,55704,1,8,0:0:0:0:
278,310,55927,1,0,3:2:0:0:
251,332,56038,1,0,3:2:0:0:
202,320,56149,1,8,3:0:0:0:
185,267,56260,1,8,3:0:0:0:
216,216,56371,1,8,0:0:0:0:
216,151,56482,1,8,0:0:0:0:
172,96,56593,1,8,0:0:0:0:
356,185,56816,22,0,P|444:122|357:95,1,247.5,6|0,3:2|0:0,0:0:0:0:
223,119,57260,2,0,P|185:99|222:2,1,165,10|0,0:0|0:0,0:0:0:0:
307,8,57593,1,0,0:0:0:0:
363,0,57704,1,2,3:2:0:0:
292,18,57927,1,2,0:0:0:0:
317,198,58149,1,10,0:0:0:0:
382,163,58371,1,2,0:0:0:0:
330,304,58593,5,0,3:2:0:0:
255,300,58816,1,0,0:0:0:0:
397,384,59038,2,0,B|366:335|366:335|506:313,1,165,10|2,0:2|0:0,0:0:0:0:
494,187,59482,2,0,L|427:189,1,41.25,2|0,3:2|0:0,0:0:0:0:
256,192,59704,5,8,0:1:0:0:
256,192,59927,5,8,0:1:0:0:
342,51,60149,1,2,0:0:0:0:
286,69,60260,1,2,0:0:0:0:
229,79,60371,22,0,B|154:39|154:39|249:-13,1,165,2|0,3:2|0:0,0:0:0:0:
385,61,60816,2,0,P|400:97|299:89,1,165,10|2,0:0|0:0,0:0:0:0:
195,204,61149,1,2,0:0:0:0:
157,239,61260,6,0,B|185:152|185:152|134:87,1,165,2|2,3:2|0:0,0:0:0:0:
47,0,61704,1,10,0:0:0:0:
4,169,61927,1,2,0:0:0:0:
59,150,62038,1,2,0:0:0:0:
113,128,62149,1,2,3:2:0:0:
87,224,62371,1,2,0:0:0:0:
160,13,62593,1,10,0:0:0:0:
197,106,62816,1,2,0:0:0:0:
60,54,63038,2,0,L|115:99,1,41.25,2|0,3:2|0:0,0:0:0:0:
256,192,63260,5,8,0:1:0:0:
256,192,63482,5,8,0:1:0:0:
446,137,63704,1,2,0:0:0:0:
424,190,63816,1,2,0:0:0:0:
397,245,63927,22,0,L|467:274,1,61.875002360344,2|0,3:2|0:0,0:0:0:0:
395,384,64149,2,0,L|348:340,1,61.875002360344,2|0,0:0|0:0,0:0:0:0:
266,265,64371,1,10,0:0:0:0:
202,376,64593,2,0,B|130:272|271:214|158:107,1,247.500009441376,2|0,0:0|0:0,0:0:0:0:
70,56,65260,2,0,L|58:153,1,82.5,10|0,0:0|0:0,0:0:0:0:
57,292,65482,6,0,P|140:347|90:223,1,330,4|2,0:0|0:0,0:0:0:0:
219,317,66149,2,0,L|325:339,1,82.5,10|0,0:0|0:0,0:0:0:0:
368,218,66371,2,0,L|255:189,1,82.5,2|0,0:0|0:0,0:0:0:0:
154,152,66593,2,0,L|155:70,1,82.5,2|0,3:2|0:0,0:0:0:0:
281,11,66816,2,0,L|281:129,1,82.5,2|0,0:0|0:0,0:0:0:0:
275,257,67038,1,10,3:2:0:0:
190,122,67260,1,2,0:0:0:0:
239,122,67371,1,2,0:0:0:0:
288,119,67482,6,0,B|322:107|382:137|430:108,1,123.750004720688,4|0,3:2|0:0,0:0:0:0:
483,17,67927,1,10,0:0:0:0:
346,64,68149,2,0,P|387:68|430:111,1,82.5,2|0,0:0|0:0,0:0:0:0:
323,180,68371,2,0,P|286:169|238:114,1,82.5,2|0,3:2|0:0,0:0:0:0:
206,25,68593,1,2,0:0:0:0:
206,25,68704,1,2,0:0:0:0:
206,25,68816,1,10,0:2:0:0:
191,205,69038,1,10,0:0:0:0:
68,101,69260,5,2,3:2:0:0:
49,174,69482,1,2,0:0:0:0:
182,53,69704,2,0,B|130:67|59:21|11:39,1,165,10|2,0:0|0:0,0:0:0:0:
212,131,70149,1,0,3:0:0:0:
261,86,70260,1,0,3:0:0:0:
261,20,70371,1,8,0:0:0:0:
256,192,70593,21,8,0:1:0:0:
256,192,70816,5,8,0:1:0:0:
106,271,71038,54,0,B|155:276|155:276|117:154,1,165,2|0,3:2|0:0,0:0:0:0:
14,357,71482,2,0,B|56:376|56:376|112:348|112:348|197:368,1,165,10|0,0:0|0:0,0:0:0:0:
259,369,71816,1,2,0:0:0:0:
316,380,71927,1,2,3:2:0:0:
257,308,72149,1,2,0:0:0:0:
419,366,72371,1,10,0:0:0:0:
500,290,72593,2,0,B|391:213|334:357|224:236,1,247.500009441376,2|0,0:0|0:0,0:0:0:0:
173,157,73260,1,10,0:0:0:0:
132,222,73482,1,2,0:0:0:0:
106,48,73704,2,0,L|146:86,1,41.25,2|0,3:2|0:0,0:0:0:0:
256,192,73927,5,8,0:1:0:0:
256,192,74149,5,8,0:1:0:0:
340,59,74371,1,2,0:0:0:0:
381,60,74482,1,2,0:0:0:0:
423,61,74593,6,0,B|458:28|458:28|454:178,1,165,2|0,3:2|0:0,0:0:0:0:
379,298,75038,2,0,P|384:230|295:191,1,165,10|2,0:0|0:0,0:0:0:0:
231,237,75371,1,0,0:0:0:0:
239,294,75482,1,2,3:2:0:0:
348,266,75704,1,2,0:0:0:0:
151,214,75927,1,10,0:0:0:0:
129,284,76149,1,2,0:0:0:0:
18,371,76371,22,0,B|71:336|71:336|32:217,1,165,2|2,3:2|0:0,0:0:0:0:
31,41,76816,1,10,0:0:0:0:
0,113,77038,1,2,0:0:0:0:
155,5,77260,2,0,L|176:55,1,41.25,2|0,3:2|0:0,0:0:0:0:
256,192,77482,5,8,0:1:0:0:
256,192,77704,5,8,0:1:0:0:
174,335,77927,1,2,0:0:0:0:
161,270,78038,1,2,0:0:0:0:
158,204,78149,6,0,B|210:90|210:90|245:170,1,165,2|2,3:2|0:0,0:0:0:0:
294,268,78593,1,10,0:0:0:0:
441,191,78816,1,2,0:0:0:0:
396,154,78927,1,2,0:0:0:0:
396,96,79038,1,2,3:2:0:0:
471,126,79260,1,2,0:0:0:0:
240,106,79482,1,10,0:0:0:0:
357,5,79704,2,0,L|364:102,1,82.5,2|0,0:0|0:0,0:0:0:0:
364,218,79927,22,0,B|357:266|357:266|325:300,1,82.5,2|0,3:2|0:0,0:0:0:0:
177,350,80149,2,0,B|281:362,1,82.5,2|0,0:0|0:0,0:0:0:0:
405,367,80371,1,10,0:0:0:0:
344,317,80593,1,2,0:0:0:0:
460,211,80816,2,0,P|383:240|290:215,1,165,2|2,3:2|0:0,0:0:0:0:
230,194,81149,1,2,0:0:0:0:
230,194,81260,1,10,0:0:0:0:
321,77,81482,1,2,0:0:0:0:
275,95,81593,1,2,0:0:0:0:
229,113,81704,6,0,B|159:144|159:144|48:126,1,165,4|2,3:2|0:0,0:0:0:0:
8,12,82149,1,10,0:0:0:0:
65,164,82371,2,0,B|135:219|230:124|312:202,1,247.5,2|0,3:2|0:0,0:0:0:0:
326,278,82816,1,8,0:0:0:0:
304,103,83038,1,0,3:2:0:0:
468,193,83260,2,0,L|355:202,1,82.5,2|0,3:2|0:0,0:0:0:0:
264,207,83482,5,8,0:0:0:0:
341,384,83704,1,2,0:0:0:0:
345,335,83816,1,2,0:0:0:0:
348,285,83927,1,8,0:0:0:0:
199,376,84149,1,8,0:0:0:0:
106,226,84371,2,0,L|220:222,1,82.5,2|0,3:2|0:0,0:0:0:0:
352,218,84593,1,8,0:0:0:0:
272,80,84816,2,0,B|256:32|256:32|240:80,1,82.5,12|0,0:0|0:0,0:0:0:0:
417,179,85260,6,0,P|443:147|451:107,1,82.5,4|0,3:2|0:0,0:0:0:0:
414,0,85704,1,10,0:0:0:0:
436,121,85927,1,2,0:0:0:0:
436,121,86038,1,2,0:0:0:0:
436,121,86149,2,0,L|503:136,1,41.25,2|0,3:2|0:0,0:0:0:0:
359,169,86371,2,0,L|366:229,1,41.25,2|0,0:0|0:0,0:0:0:0:
437,323,86593,2,0,B|429:283|429:283|452:219,1,82.5,10|0,0:0|0:0,0:0:0:0:
290,305,87038,22,0,B|298:345|298:345|275:409,1,82.5,2|0,3:2|0:0,0:0:0:0:
228,231,87482,1,10,0:0:0:0:
201,304,87704,1,2,0:0:0:0:
89,220,87927,2,0,B|138:243|158:206|211:213,1,123.75,2|0,3:2|0:0,0:0:0:0:
255,279,88371,1,10,0:0:0:0:
213,306,88482,1,2,0:0:0:0:
163,308,88593,1,2,0:0:0:0:
32,211,88816,6,0,P|19:177|45:112,1,82.5,2|2,3:2|0:0,0:0:0:0:
205,61,89260,2,0,L|136:43,1,61.875002360344,10|0,0:0|0:0,0:0:0:0:
21,16,89482,1,2,0:0:0:0:
22,129,89704,2,0,L|46:230,2,61.875002360344,2|0|2,3:2|0:0|0:0,0:0:0:0:
123,214,90149,2,0,L|129:254,1,41.25,10|0,0:0|0:0,0:0:0:0:
252,251,90371,2,0,L|242:210,1,41.25,2|0,0:0|0:0,0:0:0:0:
239,86,90593,6,0,B|247:59|247:59|289:128,1,82.5,2|2,3:2|0:0,0:0:0:0:
346,204,91038,1,10,0:0:0:0:
329,278,91260,1,2,0:0:0:0:
511,196,91482,1,2,3:2:0:0:
441,226,91704,1,0,0:0:0:0:
489,49,91927,2,0,B|478:100|512:127|478:199,1,123.75,10|0,0:0|0:0,0:0:0:0:
374,213,92371,6,0,B|312:200,1,41.25,2|0,3:2|0:0,0:0:0:0:
261,109,92593,2,0,B|187:117,1,41.25,2|0,0:0|0:0,0:0:0:0:
89,184,92816,2,0,B|82:151|82:151|100:98,1,66,10|2,0:0|0:0,0:0:0:0:
152,28,93260,1,2,3:2:0:0:
152,28,93371,1,2,0:0:0:0:
152,28,93482,1,2,0:0:0:0:
12,69,93704,1,10,0:0:0:0:
111,159,93927,22,0,B|156:189|198:133|260:184,1,132,2|0,0:0|0:0,0:0:0:0:
336,235,94593,1,10,0:0:0:0:
283,140,94816,2,0,L|288:86,1,33,2|0,0:0|0:0,0:0:0:0:
228,4,95038,2,0,P|233:38|219:94,1,66,2|2,3:2|0:0,0:0:0:0:
157,160,95482,2,0,B|107:174|107:174|44:153,1,99,10|0,0:0|0:0,0:0:0:0:
6,90,95927,5,2,3:2:0:0:
94,192,96149,2,0,L|82:243,1,41.25,2|0,0:0|0:0,0:0:0:0:
61,333,96371,1,8,0:0:0:0:
45,215,96593,2,0,L|79:215,1,24.74999924469,2|0,0:0|0:0,0:0:0:0:
204,212,96816,1,2,3:2:0:0:
112,121,97038,1,0,0:0:0:0:
210,281,97260,1,10,0:0:0:0:
238,240,97371,1,2,0:0:0:0:
267,201,97482,1,2,0:0:0:0:
423,168,97704,6,0,L|370:261,1,82.5,4|0,3:2|0:0,0:0:0:0:
365,354,98149,1,10,0:0:0:0:
490,227,98371,2,0,L|434:252,1,41.25,2|0,0:0|0:0,0:0:0:0:
341,214,98593,2,0,L|306:174,1,41.25,2|0,3:2|0:0,0:0:0:0:
237,107,98816,1,2,0:0:0:0:
206,225,99038,2,0,B|199:251|199:251|215:296|215:296|205:356,1,123.75,10|0,0:0|0:0,0:0:0:0:
127,374,99482,6,0,L|141:292,1,61.875002360344,2|0,3:2|0:0,0:0:0:0:
158,192,99927,1,10,0:0:0:0:
247,242,100149,1,0,0:0:0:0:
127,143,100371,2,0,P|131:174|121:221,1,61.875002360344,2|0,3:2|0:0,0:0:0:0:
61,286,100816,1,8,0:0:0:0:
164,174,101038,2,0,L|157:121,1,30.937501180172,2|0,3:2|0:0,0:0:0:0:
192,40,101260,22,0,L|206:120,1,61.875002360344,2|0,3:2|0:0,0:0:0:0:
316,172,101704,2,0,L|336:94,1,61.875002360344,10|0,0:0|0:0,0:0:0:0:
416,23,102149,1,2,3:2:0:0:
417,95,102371,1,0,0:0:0:0:
183,173,102593,1,8,0:0:0:0:
211,184,102704,1,8,0:0:0:0:
241,188,102816,1,8,0:0:0:0:
271,183,102927,1,8,0:0:0:0:
299,171,103038,6,0,L|379:170,1,61.875002360344,2|2,3:2|0:0,0:0:0:0:
493,223,103482,1,10,0:0:0:0:
419,115,103704,1,0,0:0:0:0:
387,270,103927,2,0,B|356:180|356:180|286:261,1,185.625007081032,2|0,3:2|0:0,0:0:0:0:
224,315,104371,1,10,0:0:0:0:
189,182,104593,1,2,3:2:0:0:
124,346,104816,6,0,P|73:290|116:228,1,123.750004720688,10|0,3:2|0:0,0:0:0:0:
167,152,105260,1,2,3:2:0:0:
285,279,105482,1,8,0:0:0:0:
198,118,105704,2,0,L|191:251,1,123.750004720688,10|2,0:0|0:0,0:0:0:0:
266,121,106149,1,8,0:0:0:0:
250,73,106260,1,8,0:0:0:0:
205,51,106371,1,8,0:0:0:0:
157,63,106482,1,8,0:0:0:0:
131,106,106593,5,0,3:2:0:0:
256,37,106816,2,0,L|332:47,2,41.25,2|2|10,0:0|0:0|0:0,0:0:0:0:
376,125,107260,2,0,L|452:115,2,41.25,2|2|2,0:0|0:0|3:2,0:0:0:0:
280,183,107704,1,0,0:0:0:0:
280,183,107816,1,0,0:0:0:0:
280,183,107927,2,0,L|237:237,1,41.25,10|0,0:0|0:0,0:0:0:0:
307,311,108149,22,0,B|374:303,1,41.25,2|0,3:2|0:0,0:0:0:0:
477,227,108371,1,2,3:2:0:0:
477,227,108482,1,2,0:0:0:0:
477,227,108593,1,2,0:0:0:0:
477,227,108704,1,2,0:0:0:0:
477,227,108816,2,0,L|417:237,1,41.25,10|0,0:0|0:0,0:0:0:0:
314,238,109038,2,0,L|242:226,1,41.25,2|0,0:0|0:0,0:0:0:0:
150,181,109260,2,0,L|162:236,1,41.25,2|0,3:2|0:0,0:0:0:0:
176,340,109482,1,2,0:0:0:0:
60,218,109704,1,10,3:2:0:0:
35,291,109927,1,2,0:0:0:0:
199,217,110149,5,2,3:2:0:0:
283,127,110371,2,0,L|307:228,1,82.5,2|8,0:0|0:0,0:0:0:0:
402,296,110816,2,0,B|395:270|395:270|437:203,2,82.5,2|2|2,3:2|0:0|0:0,0:0:0:0:
482,373,111482,1,8,0:0:0:0:
369,297,111704,6,0,L|281:315,1,82.5,2|0,3:2|0:0,0:0:0:0:
196,267,112149,1,2,0:0:0:0:
266,126,112371,2,0,P|282:167|270:227,1,82.5,10|2,0:0|0:0,0:0:0:0:
171,270,112816,1,2,3:2:0:0:
135,198,113038,1,2,0:0:0:0:
21,323,113260,2,0,L|123:301,1,82.5,10|0,0:0|0:0,0:0:0:0:
220,235,113704,5,8,3:2:0:0:
230,157,113927,1,2,0:0:0:0:
230,157,114038,1,2,0:0:0:0:
106,41,114371,2,0,L|58:58,2,33,2|2|2,0:0|0:0|0:0,0:0:0:0:
208,24,114816,2,0,L|253:38,1,33,2|0,0:0|0:0,0:0:0:0:
356,98,115038,2,0,B|330:93|330:93|287:123|287:123|225:105,1,123.75,2|0,3:2|0:0,0:0:0:0:
145,80,115482,21,10,0:0:0:0:
356,98,115704,1,10,0:0:0:0:
402,163,115927,1,2,0:0:0:0:
174,237,116149,2,0,L|89:200,1,82.5,12|0,0:0|0:0,0:0:0:0:
323,338,116593,2,0,L|421:301,2,82.5,12|0|0,0:0|0:0|0:0,0:0:0:0:
193,372,117260,6,0,P|172:324|204:240,1,123.75,2|2,3:2|0:0,0:0:0:0:
261,187,117704,1,10,3:2:0:0:
168,307,117927,1,2,0:0:0:0:
166,308,118038,1,2,0:0:0:0:
166,308,118149,2,0,L|83:326,1,82.5,2|2,3:2|0:0,0:0:0:0:
126,156,118593,2,0,L|227:158,1,82.5,10|2,3:2|0:0,0:0:0:0:
349,125,119038,5,2,3:2:0:0:
418,243,119260,1,2,0:0:0:0:
393,54,119482,2,0,B|399:97|399:97|368:151|368:151|372:218,2,123.750004720688,10|2|0,0:0|0:0|3:2,0:0:0:0:
496,165,120149,2,0,L|426:168,1,41.25,2|0,0:0|0:0,0:0:0:0:
299,172,120371,1,8,0:0:0:0:
348,236,120593,1,2,0:0:0:0:
186,146,120816,5,0,3:2:0:0:
232,86,121038,1,0,0:0:0:0:
64,17,121260,1,10,0:0:0:0:
55,95,121482,1,2,0:0:0:0:
55,95,121593,1,2,0:0:0:0:
55,95,121704,2,0,P|115:118|190:93,1,123.75,2|0,3:2|0:0,0:0:0:0:
244,24,122149,1,10,0:0:0:0:
247,150,122371,1,2,0:0:0:0:
248,169,122482,1,2,0:0:0:0:
248,190,122593,21,8,0:0:0:0:
319,228,122816,1,8,0:0:0:0:
393,106,123038,1,8,0:0:0:0:
322,144,123260,1,8,0:0:0:0:
224,15,123482,1,8,0:0:0:0:
295,53,123704,1,8,0:0:0:0:
55,84,123927,1,8,0:0:0:0:
93,13,124149,1,8,0:0:0:0:
34,214,124371,5,8,3:2:0:0:
151,180,124593,1,8,0:0:0:0:
231,339,124816,1,8,3:2:0:0:
124,280,125038,1,8,0:0:0:0:
284,243,125260,1,8,3:2:0:0:
317,360,125482,1,8,0:0:0:0:
344,180,125704,1,8,3:2:0:0:
205,231,125927,1,8,0:0:0:0:
314,132,126149,5,0,3:0:0:0:
341,114,126260,1,0,3:0:0:0:
373,109,126371,1,0,3:0:0:0:
400,128,126482,1,0,3:0:0:0:
414,167,126593,6,0,L|416:238,1,41.25,2|0,3:2|0:0,0:0:0:0:
301,292,126816,2,0,L|298:224,1,41.25,2|0,3:2|0:0,0:0:0:0:
292,151,127038,1,8,3:0:0:0:
259,137,127149,1,8,3:0:0:0:
211,150,127260,1,8,3:0:0:0:
166,181,127371,1,8,3:0:0:0:
107,170,127482,1,8,0:0:0:0:
89,107,127593,1,8,0:0:0:0:
136,56,127704,1,8,0:0:0:0:
202,90,127816,1,8,0:0:0:0:
267,124,127927,22,0,P|314:106|210:53,1,247.5,4|0,3:2|0:0,0:0:0:0:
126,153,128371,2,0,B|83:189|48:160|48:160|27:115|89:73,1,165,10|2,0:0|0:0,0:0:0:0:
144,42,128704,1,2,0:0:0:0:
184,0,128816,1,2,3:2:0:0:
171,76,129038,1,2,0:0:0:0:
337,192,129260,1,10,0:0:0:0:
350,114,129482,1,2,0:0:0:0:
280,288,129704,5,2,3:2:0:0:
349,322,129927,1,2,0:0:0:0:
169,294,130149,2,0,B|118:306|111:350|111:350|139:389|207:377,1,165,10|2,0:0|0:0,0:0:0:0:
336,377,130593,2,0,L|309:319,1,41.25,2|0,3:2|0:0,0:0:0:0:
256,192,130816,5,8,0:1:0:0:
256,192,131038,5,8,0:1:0:0:
107,119,131260,1,2,0:0:0:0:
76,168,131371,1,2,0:0:0:0:
61,223,131482,22,0,B|122:273|178:189|254:258,1,165,2|0,3:2|0:0,0:0:0:0:
337,377,131927,2,0,P|307:330|366:234,1,165,10|0,0:0|0:0,0:0:0:0:
465,194,132260,1,2,0:0:0:0:
497,156,132371,6,0,B|467:73|467:73|384:48,1,165,2|2,3:2|0:0,0:0:0:0:
242,84,132816,1,10,0:0:0:0:
372,224,133038,1,2,0:0:0:0:
319,198,133149,1,2,0:0:0:0:
265,175,133260,1,2,3:2:0:0:
285,252,133482,1,2,0:0:0:0:
472,146,133704,1,10,0:0:0:0:
509,239,133927,1,2,0:0:0:0:
487,97,134149,2,0,L|421:130,1,41.25,2|0,3:2|0:0,0:0:0:0:
256,192,134371,5,8,0:1:0:0:
256,192,134593,5,8,0:1:0:0:
235,25,134816,1,2,0:0:0:0:
181,46,134927,1,2,0:0:0:0:
128,69,135038,22,0,L|48:104,1,82.5,2|0,3:2|0:0,0:0:0:0:
24,238,135260,2,0,L|107:205,1,82.5,2|0,0:0|0:0,0:0:0:0:
230,161,135482,1,10,0:0:0:0:
333,13,135704,2,0,P|387:46|263:55,1,330,2|0,0:0|0:0,0:0:0:0:
474,25,136371,2,0,P|488:73|474:122,1,82.5,10|0,0:0|0:0,0:0:0:0:
432,272,136593,6,0,B|417:321|368:336|368:336|319:276|240:256|240:256|206:261|160:306,1,330,4|2,0:0|0:0,0:0:0:0:
31,358,137260,2,0,P|22:319|41:269,1,82.5,10|0,0:0|0:0,0:0:0:0:
154,212,137482,2,0,P|204:223|252:209,1,82.5,2|0,0:0|0:0,0:0:0:0:
360,85,137704,2,0,P|320:77|264:85,1,82.5,2|0,3:2|0:0,0:0:0:0:
276,216,137927,2,0,P|317:224|358:214,1,82.5,2|0,0:0|0:0,0:0:0:0:
470,151,138149,1,10,3:2:0:0:
417,303,138371,1,2,0:0:0:0:
362,323,138482,1,2,0:0:0:0:
307,303,138593,6,0,P|274:254|310:143,1,165,4|0,3:2|0:0,0:0:0:0:
411,39,139038,1,10,0:0:0:0:
264,81,139260,2,0,P|266:131|312:178,1,82.5,2|0,0:0|0:0,0:0:0:0:
383,293,139482,2,0,P|345:327|280:328,1,82.5,2|0,3:2|0:0,0:0:0:0:
124,295,139704,2,0,P|172:278|232:303,1,82.5,2|0,3:2|0:0,0:0:0:0:
316,350,139927,1,8,3:2:0:0:
327,168,140149,1,10,0:0:0:0:
491,281,140371,5,2,3:2:0:0:
430,330,140593,1,2,0:0:0:0:
397,169,140816,2,0,B|367:129|367:129|359:259,1,165,10|2,0:0|0:0,0:0:0:0:
244,365,141260,21,0,3:0:0:0:
186,359,141371,1,0,3:0:0:0:
128,355,141482,1,8,0:0:0:0:
256,192,141704,5,8,0:1:0:0:
256,192,141927,5,8,0:1:0:0:
127,56,142149,6,0,P|156:105|144:216,1,165,2|0,3:2|0:0,0:0:0:0:
308,330,142593,2,0,B|270:270|270:270|329:193,1,165,10|0,0:0|0:0,0:0:0:0:
469,182,143038,1,2,3:2:0:0:
418,254,143260,1,2,0:0:0:0:
338,56,143482,1,10,0:0:0:0:
320,155,143704,2,0,P|298:200|210:102,1,247.500009441376,2|0,0:0|0:0,0:0:0:0:
289,288,144371,1,10,0:0:0:0:
248,353,144593,1,2,0:0:0:0:
417,338,144816,2,0,L|387:309,1,41.25,2|0,3:2|0:0,0:0:0:0:
256,192,145038,21,8,0:1:0:0:
256,192,145260,5,8,0:1:0:0:
120,99,145482,2,0,L|138:196,1,82.5,2|0,0:0|0:0,0:0:0:0:
123,337,145704,6,0,P|41:353|90:249,1,247.5,2|0,3:2|0:0,0:0:0:0:
190,273,146149,2,0,P|216:228|209:183,1,82.5,10|0,3:2|0:0,0:0:0:0:
152,85,146371,1,2,0:0:0:0:
152,85,146482,1,2,0:0:0:0:
152,85,146593,1,2,3:2:0:0:
109,170,146816,1,2,0:0:0:0:
279,313,147038,1,10,0:0:0:0:
260,240,147260,1,2,0:0:0:0:
476,374,147482,6,0,P|385:366|382:288,1,165,2|2,3:2|0:0,0:0:0:0:
512,162,147927,1,10,0:0:0:0:
481,234,148149,1,2,0:0:0:0:
454,88,148371,2,0,L|387:125,1,41.25,2|0,3:2|0:0,0:0:0:0:
256,192,148593,21,8,0:1:0:0:
256,192,148816,5,8,0:1:0:0:
96,83,149038,1,2,0:0:0:0:
130,139,149149,1,2,0:0:0:0:
159,198,149260,6,0,B|162:247|162:247|101:246|58:155,1,165,2|2,3:2|0:0,0:0:0:0:
22,42,149704,1,10,0:0:0:0:
135,134,149927,1,2,0:0:0:0:
86,164,150038,1,2,0:0:0:0:
38,196,150149,1,2,3:2:0:0:
107,237,150371,1,2,0:0:0:0:
290,345,150593,1,10,0:0:0:0:
197,363,150816,2,0,P|152:369|96:348,1,82.5,2|0,0:0|0:0,0:0:0:0:
18,248,151038,6,0,P|55:232|102:242,1,82.5,2|0,3:2|0:0,0:0:0:0:
233,338,151260,2,0,P|246:305|245:257,1,82.5,2|0,0:0|0:0,0:0:0:0:
200,125,151482,1,10,0:0:0:0:
164,238,151704,1,2,0:0:0:0:
249,86,151927,2,0,B|220:29|220:29|189:128,1,165,2|2,3:2|0:0,0:0:0:0:
174,204,152260,1,2,0:0:0:0:
174,204,152371,1,10,0:0:0:0:
384,90,152593,1,2,0:0:0:0:
338,108,152704,1,2,0:0:0:0:
292,126,152816,22,0,P|252:120|310:49,1,165,4|2,3:2|0:0,0:0:0:0:
478,94,153260,1,10,0:0:0:0:
352,274,153482,2,0,B|352:210|352:210|384:176|384:176|384:80,1,185.625007081032,2|0,3:2|0:0,0:0:0:0:
368,10,153927,1,8,0:0:0:0:
428,167,154149,1,0,3:2:0:0:
274,91,154371,1,2,3:2:0:0:
269,140,154482,1,2,0:0:0:0:
266,189,154593,5,8,0:0:0:0:
128,296,154816,1,2,0:0:0:0:
132,247,154927,1,2,0:0:0:0:
135,197,155038,1,8,0:0:0:0:
229,348,155260,1,8,0:0:0:0:
106,203,155482,2,0,L|198:202,1,61.875002360344,2|0,3:2|0:0,0:0:0:0:
316,200,155704,1,8,0:0:0:0:
255,51,155927,1,2,3:2:0:0:
234,105,156149,1,2,0:0:0:0:
258,131,156371,6,0,P|311:144|385:125,3,115.49999647522,0|0|0|0,3:2|3:0|3:0|3:0,0:0:0:0:
148,10,158149,5,0,3:0:0:0:
159,51,158593,1,0,3:0:0:0:
172,92,159038,1,0,3:0:0:0:
188,132,159482,1,0,3:0:0:0:
61,104,159704,1,0,3:0:0:0:
69,228,159927,22,0,B|118:254|118:254|193:213,3,115.49999647522,0|0|0|0,3:2|3:0|3:0|3:0,0:0:0:0:
493,269,161704,5,0,3:0:0:0:
452,280,162149,1,0,3:0:0:0:
411,293,162593,1,0,3:0:0:0:
371,309,163038,1,0,3:0:0:0:
332,202,163260,1,0,3:0:0:0:
309,321,163482,6,0,L|192:367,3,115.49999647522,0|0|0|0,3:2|3:0|3:0|3:0,0:0:0:0:
259,187,165260,5,0,3:0:0:0:
300,176,165704,1,0,3:0:0:0:
341,163,166149,1,0,3:0:0:0:
381,147,166593,1,0,3:0:0:0:
392,36,166816,1,0,3:0:0:0:
458,165,167038,22,0,L|405:198,2,57.7499982376099,2|2|2,3:2|0:0|0:0,0:0:0:0:
403,290,167704,2,0,B|345:284|345:284|323:222,1,115.49999647522,2|0,3:2|0:0,0:0:0:0:
127,275,168593,6,0,L|131:203,2,57.7499982376099,2|2|2,3:2|0:0|0:0,0:0:0:0:
41,361,169260,2,0,P|9:317|16:236,1,115.49999647522,2|2,3:2|0:0,0:0:0:0:
70,141,169927,1,0,3:2:0:0:
186,205,170149,1,8,0:0:0:0:
208,73,170371,1,2,0:0:0:0:
208,73,170482,1,2,0:0:0:0:
208,73,170593,5,2,0:0:0:0:
82,104,170816,2,0,B|75:70|75:70|94:23,2,74.2499977340699,0|0|2,0:0|3:2|0:0,0:0:0:0:
119,236,171482,1,10,0:0:0:0:
23,273,171704,1,2,3:2:0:0:
23,273,171927,1,2,3:2:0:0:
119,236,172149,6,0,B|197:149|197:149|178:98,1,148.49999546814,2|2,0:0|0:0,0:0:0:0:
113,35,172816,1,2,0:0:0:0:
113,35,173038,2,0,B|175:75|175:75|266:44,1,148.49999546814,2|0,0:0|3:2,0:0:0:0:
343,0,173704,2,0,P|357:42|344:97,1,74.2499977340699,2|0,3:2|0:0,0:0:0:0:
447,318,174371,22,0,L|460:227,1,74.2499977340699,0|2,0:0|3:2,0:0:0:0:
352,318,174816,2,0,B|310:343|242:285|183:323,1,148.49999546814,2|2,0:0|3:2,0:0:0:0:
111,370,175482,1,2,3:2:0:0:
73,278,175704,1,2,0:0:0:0:
293,235,176149,6,0,P|308:191|235:218,1,148.49999546814,2|2,0:0|0:0,0:0:0:0:
196,315,176816,1,10,0:0:0:0:
290,291,177038,1,2,3:2:0:0:
182,207,177260,2,0,L|67:174,1,90.7500027694703,2|0,3:2|0:0,0:0:0:0:
56,62,177704,5,2,0:0:0:0:
106,9,177927,1,2,0:0:0:0:
144,108,178149,2,0,B|122:142|122:142|132:197,1,74.2499977340699,2|2,3:2|0:0,0:0:0:0:
165,273,178593,1,10,0:0:0:0:
97,333,178816,1,0,3:2:0:0:
213,356,179038,2,0,P|236:341|254:265,1,90.7500027694703,2|2,3:2|0:0,0:0:0:0:
229,171,179482,5,2,0:0:0:0:
298,207,179704,1,2,0:0:0:0:
363,117,179927,2,0,L|381:205,1,74.2499977340699,2|0,3:2|0:0,0:0:0:0:
409,318,180371,1,10,0:0:0:0:
463,243,180593,1,2,3:2:0:0:
320,262,180816,2,0,P|301:310|314:357,1,74.2499977340699,2|2,3:2|0:0,0:0:0:0:
23,78,181482,22,0,L|-19:-23,2,74.2499977340699,2|2|2,0:0|3:2|0:0,0:0:0:0:
31,198,182149,1,8,0:0:0:0:
164,124,182371,2,0,L|88:129,1,74.2499977340699,2|0,3:2|3:2,0:0:0:0:
210,216,182816,6,0,B|259:230|259:230|307:135,1,148.49999546814,2|2,0:0|0:0,0:0:0:0:
359,33,183482,1,8,0:0:0:0:
403,98,183704,1,2,0:0:0:0:
240,232,183927,1,8,0:0:0:0:
284,167,184149,1,2,0:0:0:0:
167,346,184371,1,8,3:2:0:0:
305,326,184593,1,2,3:2:0:0:
101,270,184816,5,0,3:2:0:0:
189,340,185038,2,0,P|214:300|199:240,1,82.5,2|10,0:0|0:0,0:0:0:0:
146,173,185482,2,0,L|91:185,2,41.25,2|2|0,0:0|0:0|3:2,0:0:0:0:
241,180,185927,1,0,0:0:0:0:
277,315,186149,1,8,0:0:0:0:
368,229,186371,1,2,0:0:0:0:
368,229,186482,1,2,0:0:0:0:
368,229,186593,6,0,P|374:286|353:339,1,82.5,2|2,3:2|0:0,0:0:0:0:
243,380,187038,1,8,0:0:0:0:
276,256,187260,2,0,B|344:219|399:287|456:238,1,165,2|0,0:0|3:2,0:0:0:0:
509,129,187927,1,8,3:2:0:0:
502,302,188149,1,8,3:2:0:0:
330,235,188371,22,0,B|371:246|371:246|420:223,1,82.5,2|2,3:2|0:0,0:0:0:0:
478,105,188816,1,10,0:0:0:0:
338,16,189038,2,0,B|283:50|283:50|325:98|325:98|310:144,1,165,2|2,0:0|0:0,0:0:0:0:
217,222,189704,2,0,B|186:189|186:189|185:131,1,82.5,10|2,0:0|0:0,0:0:0:0:
204,43,190149,5,2,3:2:0:0:
193,143,190371,2,0,P|149:178|103:137,1,123.75,2|2,0:0|0:0,0:0:0:0:
69,58,190816,2,0,B|11:117|99:146|32:241,1,165,2|8,0:0|0:0,0:0:0:0:
3,335,191371,1,8,0:0:0:0:
3,335,191482,1,8,0:0:0:0:
178,370,191704,1,8,0:0:0:0:
98,210,191927,5,8,0:0:0:0:
120,279,192149,1,8,0:0:0:0:
263,362,192371,2,0,B|234:330|234:330|232:287,1,82.5,10|10,0:0|0:0,0:0:0:0:
253,174,192816,1,8,0:0:0:0:
404,237,193038,2,0,P|364:234|318:252,2,82.5,10|10|10,0:0|0:0|0:0,0:0:0:0:
512,296,193704,5,8,3:2:0:0:
477,179,193927,1,8,0:0:0:0:
236,132,194149,1,8,3:2:0:0:
353,98,194371,1,8,0:0:0:0:
202,195,194593,1,8,3:2:0:0:
95,135,194816,1,8,0:0:0:0:
278,34,195038,1,8,3:2:0:0:
227,173,195260,1,8,0:0:0:0:
59,77,195482,21,0,3:0:0:0:
92,46,195593,1,0,3:0:0:0:
136,35,195704,1,0,3:0:0:0:
180,45,195816,1,0,3:0:0:0:
218,69,195927,6,0,L|276:65,1,41.25,10|0,3:2|0:0,0:0:0:0:
360,169,196149,2,0,L|296:173,1,41.25,10|0,3:2|0:0,0:0:0:0:
163,185,196371,1,8,0:0:0:0:
135,219,196482,1,8,0:0:0:0:
138,264,196593,2,0,L|141:332,1,41.25,10|0,0:0|0:0,0:0:0:0:
273,361,196816,2,0,L|272:295,1,41.25,10|0,0:0|0:0,0:0:0:0:
268,200,197038,1,8,0:0:0:0:
283,161,197149,1,8,0:0:0:0:
297,127,197260,6,8,L|292:99,5,27.5
345,195,197704,6,8,L|349:221,5,27.5
257,207,198149,22,8,L|216:213,5,27.5
160,133,198593,6,8,L|196:123,5,27.5
155,49,199038,6,0,P|110:138|268:80,1,391.875,4|0,0:0|0:0,0:0:0:0:
275,96,201260,2,0,L|301:54,2,41.25,2|0|0,0:0|0:0|0:0,0:0:0:0:
343,167,201927,2,0,L|372:129,2,41.25,2|0|0,0:0|0:0|0:0,0:0:0:0:
236,298,202593,5,8,0:0:0:0:
100,64,203260,2,0,L|79:115,1,41.25,2|0,0:0|0:0,0:0:0:0:
263,361,203927,2,0,B|174:392|163:305|175:270|250:299|261:207,1,247.5,2|0,0:0|0:0,0:0:0:0:
286,118,205482,1,2,3:2:0:0:
411,182,205704,1,10,0:0:0:0:
409,54,205927,1,2,3:2:0:0:
322,236,206149,21,10,0:0:0:0:
483,57,206816,2,0,L|500:104,1,41.25,2|0,0:0|0:0,0:0:0:0:
125,69,207482,2,0,B|142:49|146:16|146:16|188:57|259:50,1,165,2|0,0:0|0:0,0:0:0:0:
363,0,208593,1,0,3:0:0:0:
306,117,208816,1,8,0:0:0:0:
280,154,208927,1,8,0:0:0:0:
256,192,209038,5,8,0:1:0:0:
256,192,209260,5,8,0:1:0:0:
118,102,209482,1,0,3:0:0:0:
178,91,209593,1,8,0:0:0:0:
239,82,209704,5,8,0:0:0:0:
264,118,210149,1,8,0:0:0:0:
274,154,210593,1,8,0:0:0:0:
285,189,211038,1,8,0:0:0:0:
88,349,211482,21,8,0:0:0:0:
125,350,211927,1,8,0:0:0:0:
162,352,212371,1,8,0:0:0:0:
199,351,212816,1,8,0:0:0:0:
308,232,213038,1,0,3:0:0:0:
316,293,213149,1,8,0:0:0:0:
323,354,213260,5,8,3:2:0:0:
415,373,213482,1,8,0:0:0:0:
290,239,213704,1,8,3:2:0:0:
240,325,213927,1,8,0:0:0:0:
290,113,214149,1,8,3:2:0:0:
340,199,214371,1,8,0:0:0:0:
253,11,214593,1,8,0:0:0:0:
203,97,214816,1,8,3:2:0:0:
10,2,215038,5,8,0:0:0:0:
76,108,215260,1,8,0:0:0:0:
294,180,215482,1,8,0:0:0:0:
171,209,215704,1,8,0:0:0:0:
60,363,215927,1,8,0:0:0:0:
182,335,216149,1,8,0:0:0:0:
75,189,216371,1,8,0:0:0:0:
67,119,216482,1,8,0:0:0:0:
131,91,216593,1,8,0:0:0:0:
186,134,216704,1,8,0:0:0:0:
151,199,216816,38,0,P|95:196|179:126,1,272.250008308411,4|0,3:2|0:0,0:0:0:0:
248,221,217260,2,0,B|287:260|384:191|428:259,1,181.500005538941,10|2,0:0|0:0,0:0:0:0:
488,325,217593,1,2,0:0:0:0:
512,384,217704,1,2,3:2:0:0:
420,384,217927,1,2,0:0:0:0:
414,182,218149,1,10,0:0:0:0:
478,227,218371,1,2,0:0:0:0:
303,185,218593,5,2,3:2:0:0:
327,112,218816,1,2,0:0:0:0:
487,27,219038,2,0,B|491:69|491:69|424:35|324:38,1,181.500005538941,10|2,0:0|0:0,0:0:0:0:
192,14,219482,2,0,L|212:79,1,49.4999984893799,2|0,3:2|0:0,0:0:0:0:
256,192,219704,5,8,0:1:0:0:
256,192,219927,5,8,0:1:0:0:
143,91,220149,2,0,P|179:69|233:82,1,82.5,2|2,0:0|0:0,0:0:0:0:
350,163,220371,22,0,B|388:202|427:200|427:200|462:177|465:115,1,165,6|0,3:2|0:0,0:0:0:0:
310,11,220816,2,0,P|274:20|268:135,1,165,10|0,0:0|0:0,0:0:0:0:
351,236,221149,1,2,0:0:0:0:
323,287,221260,6,0,P|249:254|294:187,1,165,2|0,3:2|0:0,0:0:0:0:
445,197,221704,1,10,0:0:0:0:
329,334,221927,2,0,P|338:286|327:247,1,82.5,2|2,0:0|0:0,0:0:0:0:
238,173,222149,1,2,3:2:0:0:
193,239,222371,1,2,0:0:0:0:
80,66,222593,1,10,0:0:0:0:
177,81,222816,1,2,0:0:0:0:
0,174,223038,2,0,P|29:194|67:198,1,61.875002360344,2|0,3:2|0:0,0:0:0:0:
256,192,223260,5,8,0:1:0:0:
256,192,223482,5,8,0:1:0:0:
291,317,223704,1,2,0:0:0:0:
339,285,223816,1,2,0:0:0:0:
358,232,223927,21,2,3:2:0:0:
411,321,224149,1,2,0:0:0:0:
225,253,224371,1,10,0:0:0:0:
356,158,224593,2,0,B|264:78|144:307|0:108,1,330,2|2,0:0|0:0,0:0:0:0:
0,4,225260,1,10,0:0:0:0:
29,194,225482,6,0,B|54:276|147:273|147:273|107:177|121:126|204:95,1,330,2|2,0:0|0:0,0:0:0:0:
341,27,226149,2,0,P|379:36|416:75,1,82.5,10|0,0:0|0:0,0:0:0:0:
441,159,226371,2,0,P|444:200|430:238,1,82.5,2|0,0:0|0:0,0:0:0:0:
317,322,226593,2,0,P|328:282|319:243,1,82.5,2|0,3:2|0:0,0:0:0:0:
271,145,226816,2,0,P|237:122|197:114,1,82.5,2|2,0:0|0:0,0:0:0:0:
31,117,227038,1,10,3:2:0:0:
103,228,227260,1,2,0:0:0:0:
125,183,227371,1,2,0:0:0:0:
142,136,227482,6,0,P|191:103|196:193,1,165,4|0,3:2|0:0,0:0:0:0:
132,299,227927,1,10,0:0:0:0:
12,217,228149,2,0,P|44:189|105:189,1,82.5,2|0,0:0|0:0,0:0:0:0:
224,260,228371,2,0,P|260:279|325:130,1,247.5,2|0,3:2|0:0,0:0:0:0:
256,86,228816,1,8,3:2:0:0:
459,131,229038,1,10,0:0:0:0:
302,0,229260,5,2,3:2:0:0:
357,64,229482,1,2,0:0:0:0:
164,7,229704,2,0,B|124:37|124:37|194:63|173:148,1,165,10|2,0:0|0:0,0:0:0:0:
109,235,230149,1,0,3:2:0:0:
55,255,230260,1,0,3:0:0:0:
0,235,230371,1,8,0:0:0:0:
256,192,230593,21,8,0:1:0:0:
256,192,230816,5,8,0:1:0:0:
388,109,231038,6,0,B|480:123|480:123|438:221,1,181.500005538941,2|0,3:2|0:0,0:0:0:0:
269,136,231482,2,0,B|268:108|225:75|225:75|248:23|321:5,1,181.500005538941,10|0,0:0|0:0,0:0:0:0:
405,47,231816,1,2,0:0:0:0:
413,92,231927,1,2,3:2:0:0:
476,16,232149,1,2,0:0:0:0:
289,175,232371,1,10,0:0:0:0:
283,88,232593,2,0,B|217:80|119:168|300:264|155:371|104:338,1,363.000011077881,2|2,0:0|0:0,0:0:0:0:
0,251,233260,1,10,0:0:0:0:
24,319,233482,1,2,0:0:0:0:
130,367,233704,2,0,P|170:362|198:329,1,61.875002360344,2|0,3:2|0:0,0:0:0:0:
256,192,233927,5,8,0:1:0:0:
256,192,234149,21,8,0:1:0:0:
190,24,234371,1,8,0:0:0:0:
190,24,234482,1,8,0:0:0:0:
190,24,234593,6,0,P|256:82|193:153,1,181.500005538941,4|0,3:2|0:0,0:0:0:0:
98,182,234927,1,2,0:0:0:0:
71,196,235038,2,0,P|51:233|80:286,1,90.7500027694703,10|0,0:2|0:0,0:0:0:0:
195,360,235260,1,2,0:0:0:0:
195,360,235371,1,2,0:0:0:0:
195,360,235482,1,2,3:2:0:0:
116,375,235704,1,2,0:0:0:0:
299,281,235927,1,10,0:0:0:0:
373,306,236149,1,2,0:0:0:0:
268,192,236371,6,0,B|232:192|205:227|205:227|141:202|140:126,1,181.500005538941,2|2,3:2|0:0,0:0:0:0:
128,4,236816,1,10,0:0:0:0:
50,44,237038,1,2,0:0:0:0:
222,0,237260,2,0,P|251:22|257:59,1,61.875002360344,2|0,3:2|0:0,0:0:0:0:
256,192,237482,5,8,0:1:0:0:
256,192,237704,21,8,0:1:0:0:
435,223,237927,1,2,0:0:0:0:
463,166,238038,1,2,0:0:0:0:
479,104,238149,6,0,B|484:66|468:40|468:40|387:57|409:157,1,181.500005538941,2|2,3:2|0:0,0:0:0:0:
419,286,238593,1,10,0:0:0:0:
285,351,238816,2,0,B|182:308|202:209|276:223|322:212|350:87|234:59,1,363.000011077881,2|0,0:0|0:0,0:0:0:0:
75,29,239482,1,10,0:0:0:0:
163,99,239704,2,0,P|172:141|148:199,1,90.7500027694703,2|0,0:0|0:0,0:0:0:0:
0,257,239927,6,0,P|46:245|107:268,1,90.7500027694703,2|0,3:2|0:0,0:0:0:0:
202,346,240149,2,0,P|248:332|271:289,1,90.7500027694703,2|2,0:0|0:0,0:0:0:0:
275,152,240371,1,10,0:0:0:0:
337,205,240593,1,2,0:0:0:0:
175,90,240816,2,0,B|225:41|314:118|369:55,1,181.500005538941,2|2,3:2|0:0,0:0:0:0:
405,12,241149,1,2,0:0:0:0:
405,12,241260,1,10,0:0:0:0:
471,154,241482,1,2,0:0:0:0:
451,199,241593,1,2,0:0:0:0:
431,244,241704,6,0,B|396:285|396:285|345:161,1,181.500005538941,4|2,3:2|0:0,0:0:0:0:
284,17,242149,1,10,0:0:0:0:
155,84,242371,2,0,B|145:140|145:140|237:93|288:102,1,181.500005538941,2|0,3:2|3:2,0:0:0:0:
419,109,242816,2,0,P|440:154|433:205,1,90.7500027694703,2|2,0:0|0:0,0:0:0:0:
381,308,243038,1,8,0:0:0:0:
284,150,243260,1,2,3:2:0:0:
283,204,243371,1,2,0:0:0:0:
279,258,243482,22,0,P|240:322|185:262,1,181.500005538941,2|2,3:2|0:0,0:0:0:0:
226,103,243927,1,8,0:0:0:0:
71,191,244149,1,2,0:0:0:0:
125,192,244260,1,2,0:0:0:0:
179,190,244371,1,2,3:2:0:0:
141,271,244593,1,2,0:0:0:0:
31,68,244816,1,10,0:0:0:0:
69,149,245038,1,2,0:0:0:0:
176,40,245260,6,0,P|205:22|228:110,1,165,2|2,3:2|0:0,0:0:0:0:
114,219,245704,1,8,0:0:0:0:
315,122,245927,2,0,B|204:57|130:179|-15:79,1,330,4|2,3:2|3:2,0:0:0:0:
181,13,246593,1,10,0:0:0:0:
235,151,246816,1,2,3:2:0:0:
26,252,247038,2,0,B|68:217|68:217|163:299|275:248,1,247.5,10|0,0:0|0:0,0:0:0:0:
352,186,247482,1,2,3:2:0:0:
444,355,247704,1,8,0:0:0:0:
496,268,247927,1,2,3:2:0:0:
240,289,248149,1,8,0:0:0:0:
405,205,248371,2,0,B|454:192|454:192|414:162,1,82.5,12|0,0:0|0:0,0:0:0:0:
178,147,248816,6,0,P|222:153|276:124,1,82.5,4|0,3:2|0:0,0:0:0:0:
295,5,249260,1,10,0:0:0:0:
368,87,249482,1,2,0:0:0:0:
368,87,249593,1,2,0:0:0:0:
368,87,249704,2,0,L|301:102,1,41.25,2|0,3:2|0:0,0:0:0:0:
297,197,249927,2,0,L|364:182,1,41.25,2|0,0:0|0:0,0:0:0:0:
450,155,250149,2,0,B|427:265,1,82.5,10|0,0:0|0:0,0:0:0:0:
320,320,250593,6,0,B|328:280|328:280|305:216,1,82.5,2|0,3:2|0:0,0:0:0:0:
230,149,251038,1,10,0:0:0:0:
202,223,251260,1,2,0:0:0:0:
92,138,251482,2,0,B|145:145|165:108|239:141,1,123.75,2|0,3:2|0:0,0:0:0:0:
294,198,251927,1,10,0:0:0:0:
285,246,252038,1,2,0:0:0:0:
249,280,252149,1,2,0:0:0:0:
122,308,252371,22,0,P|109:274|135:209,1,82.5,2|2,3:2|0:0,0:0:0:0:
214,133,252816,2,0,P|185:109|136:110,1,61.875002360344,10|0,0:0|0:0,0:0:0:0:
51,127,253038,1,2,0:0:0:0:
19,20,253260,2,0,L|92:29,2,61.875002360344,2|0|2,3:2|0:0|0:0,0:0:0:0:
34,120,253704,2,0,L|34:175,1,41.25,10|0,0:0|0:0,0:0:0:0:
129,172,253927,2,0,L|141:130,1,41.25,2|0,0:0|0:0,0:0:0:0:
216,39,254149,6,0,B|225:80|225:80|281:120,1,82.5,2|2,3:2|0:0,0:0:0:0:
383,143,254593,1,10,0:0:0:0:
428,79,254816,1,2,0:0:0:0:
311,228,255038,1,2,3:2:0:0:
381,258,255260,1,0,0:0:0:0:
261,342,255482,2,0,B|272:291|238:264|272:192,1,123.75,10|0,0:0|0:0,0:0:0:0:
330,166,255927,6,0,B|400:200,1,41.25,2|0,3:2|0:0,0:0:0:0:
487,135,256149,2,0,B|434:110,1,41.25,2|0,0:0|0:0,0:0:0:0:
322,60,256371,2,0,B|291:82|291:82|316:156,1,82.5,10|2,0:0|0:0,0:0:0:0:
376,209,256816,1,2,3:2:0:0:
376,209,256927,1,2,0:0:0:0:
376,209,257038,1,2,0:0:0:0:
412,99,257260,1,10,0:0:0:0:
323,171,257482,6,0,B|278:201|236:145|174:196,1,132,2|0,0:0|0:0,0:0:0:0:
122,266,258149,1,10,0:0:0:0:
230,325,258371,2,0,P|222:358|199:391,2,66,2|2|0,0:0|3:2|0:0,0:0:0:0:
310,240,259038,2,0,P|300:283|333:331,1,99,10|0,0:0|0:0,0:0:0:0:
432,352,259482,21,2,3:2:0:0:
463,267,259704,2,0,L|394:245,1,49.4999984893799,2|8,0:0|0:0,0:0:0:0:
331,233,260149,1,2,0:0:0:0:
281,143,260371,2,0,L|295:116,1,24.74999924469,2|2,0:0|0:0,0:0:0:0:
329,39,260593,1,2,0:0:0:0:
384,125,260816,2,0,L|426:121,2,24.74999924469,8|2|2,0:0|0:0|0:0,0:0:0:0:
278,124,261260,5,2,0:0:0:0:
232,123,261482,1,2,0:0:0:0:
177,124,261704,1,10,0:0:0:0:
119,193,261927,6,0,L|115:235,1,24.74999924469,2|0,0:0|0:0,0:0:0:0:
186,195,262149,2,0,L|183:232,1,24.74999924469,2|0,3:2|0:0,0:0:0:0:
256,192,262371,5,8,0:1:0:0:
256,192,262593,6,0,B|300:160|331:222|242:272|242:272|154:220|200:142|256:211,1,296.99999093628,8|0,0:1|0:0,0:0:0:0:
