osu file format v14

[General]
AudioFilename: audio.mp3
AudioLeadIn: 0
PreviewTime: 55953
Countdown: 0
SampleSet: Soft
StackLeniency: 0.7
Mode: 0
LetterboxInBreaks: 0
WidescreenStoryboard: 1

[Editor]
Bookmarks: 13287,27509,41731,55953,84400,98620,112844,127064,155511,169731,183953,201731,215953,247955
DistanceSpacing: 1
BeatDivisor: 4
GridSize: 32
TimelineZoom: 0.7999996

[Metadata]
Title:KOISURU*BEAM
TitleUnicode:恋する☆ビーム
Artist:cillia feat. Kagamine Rin
ArtistUnicode:cillia feat. 鏡音リン
Creator:Noffy
Version:Normal
Source:
Tags:シリア kyaami harumia Vocaloid pop j-pop jpop riguruma japanese yukiya mustacho bashe aunn Yuumeikyou clapclap koisuru beam biimu
BeatmapID:2786135
BeatmapSetID:1336079

[Difficulty]
HPDrainRate:3
CircleSize:3
OverallDifficulty:4
ApproachRate:5
SliderMultiplier:1.3
SliderTickRate:2

[Events]
//Background and Video events
0,0,"bg.jpg",0,0
Video,957,"30.mp4"
//Break Periods
2,85260,98282
2,156571,169393
2,199238,201393
//Storyboard Layer 0 (Background)
//Storyboard Layer 1 (Fail)
//Storyboard Layer 2 (Pass)
//Storyboard Layer 3 (Foreground)
//Storyboard Layer 4 (Overlay)
//Storyboard Sound Samples

[TimingPoints]
1705,444.444444444444,4,2,1,40,1,0
3927,-100,4,2,1,15,0,0
4372,-100,4,2,1,20,0,0
4816,-100,4,2,1,22,0,0
5261,-100,4,2,1,25,0,0
5705,-100,4,2,1,30,0,0
6150,-100,4,2,1,40,0,0
7483,-100,4,2,1,50,0,0
10150,-100,4,2,1,60,0,0
13705,-100,4,2,1,40,0,0
14150,-100,4,2,1,60,0,0
22927,-100,4,2,3,40,0,0
23149,-100,4,2,1,60,0,0
28371,-100,4,2,2,60,0,0
41927,-100,4,2,2,80,0,0
42038,-100,4,2,2,60,0,0
42149,-100,4,2,2,80,0,0
42260,-100,4,2,2,60,0,0
42593,-100,4,2,2,60,0,0
45594,-100,4,2,3,60,0,0
45816,-100,4,2,2,60,0,0
54483,-100,4,2,4,60,0,0
54705,-100,4,2,2,60,0,0
55038,-100,4,2,1,60,0,0
56816,-100,4,2,2,80,0,1
56890,-100,4,2,1,80,0,1
56927,-100,4,2,1,80,0,1
59593,-100,4,2,1,80,0,0
59704,-100,4,2,1,100,0,1
59816,-100,4,2,1,80,0,0
59927,-100,4,2,1,100,0,1
60038,-100,4,2,1,80,0,0
60149,-100,4,2,1,80,0,1
63149,-100,4,2,1,80,0,0
63260,-100,4,2,1,100,0,1
63371,-100,4,2,1,80,0,0
63482,-100,4,2,1,100,0,1
63593,-100,4,2,1,80,0,0
63704,-100,4,2,1,80,0,1
64705,-100,4,2,3,60,0,1
64927,-100,4,2,1,80,0,1
65594,-100,4,2,3,60,0,1
65816,-100,4,2,1,80,0,1
70482,-100,4,2,1,80,0,0
70593,-100,4,2,1,100,0,1
70704,-100,4,2,1,80,0,0
70816,-100,4,2,1,100,0,1
70927,-100,4,2,1,80,0,0
71038,-100,4,2,1,80,0,1
72705,-100,4,2,3,60,0,1
72927,-100,4,2,1,80,0,1
73816,-100,4,2,1,80,0,0
73927,-100,4,2,1,100,0,1
74038,-100,4,2,1,80,0,0
74149,-100,4,2,1,100,0,1
74260,-100,4,2,1,80,0,0
74371,-100,4,2,1,80,0,1
77371,-100,4,2,1,80,0,0
77482,-100,4,2,1,100,0,1
77593,-100,4,2,1,80,0,0
77704,-100,4,2,1,100,0,1
77816,-100,4,2,1,80,0,0
77927,-100,4,2,1,80,0,1
84816,-100,4,2,4,80,0,1
84927,-100,4,2,4,80,0,1
85260,-100,4,2,1,60,0,0
94038,-100,4,2,3,60,0,0
94261,-100,4,2,1,60,0,0
122593,-100,4,2,3,40,0,0
124371,-100,4,2,3,60,0,0
125260,-100,4,2,3,60,0,0
126149,-100,4,2,1,60,0,0
127927,-100,4,2,2,80,0,1
128038,-100,4,2,1,80,0,1
130704,-100,4,2,1,80,0,0
130816,-100,4,2,1,100,0,1
130927,-100,4,2,1,80,0,0
131038,-100,4,2,1,100,0,1
131149,-100,4,2,1,80,0,0
131260,-100,4,2,1,80,0,1
134260,-100,4,2,1,80,0,0
134371,-100,4,2,1,100,0,1
134482,-100,4,2,1,80,0,0
134593,-100,4,2,1,100,0,1
134704,-100,4,2,1,80,0,0
134816,-100,4,2,1,80,0,1
141593,-100,4,2,1,80,0,0
141704,-100,4,2,1,100,0,1
141816,-100,4,2,1,80,0,0
141927,-100,4,2,1,100,0,1
142038,-100,4,2,1,80,0,0
142149,-100,4,2,1,80,0,1
143816,-100,4,2,3,80,0,1
144038,-100,4,2,1,80,0,1
144927,-100,4,2,1,80,0,0
145038,-100,4,2,1,100,0,1
145149,-100,4,2,1,80,0,0
145260,-100,4,2,1,100,0,1
145371,-100,4,2,1,80,0,0
145482,-100,4,2,1,80,0,1
148482,-100,4,2,1,80,0,0
148593,-100,4,2,1,100,0,1
148704,-100,4,2,1,80,0,0
148816,-100,4,2,1,100,0,1
148927,-100,4,2,1,80,0,0
149038,-100,4,2,1,80,0,1
156371,-100,4,2,1,60,0,0
170593,-133.333333333333,4,2,1,60,0,0
173148,-133.333333333333,4,2,5,40,0,0
173371,-133.333333333333,4,2,1,60,0,0
174926,-133.333333333333,4,2,5,40,0,0
175148,-133.333333333333,4,2,1,60,0,0
176260,-133.333333333333,4,2,3,40,0,0
176482,-133.333333333333,4,2,1,60,0,0
184816,-100,4,2,1,60,0,0
187371,-100,4,2,3,40,0,0
187593,-100,4,2,1,60,0,0
189148,-100,4,2,3,40,0,0
189371,-100,4,2,1,60,0,0
190482,-100,4,2,5,40,0,0
190704,-100,4,2,1,60,0,0
190926,-100,4,2,3,40,0,0
191148,-100,4,2,1,60,0,0
191927,-100,4,2,3,60,0,0
197260,-100,4,2,1,20,0,0
198148,-100,4,2,1,30,0,0
199037,-100,4,2,6,40,0,0
201260,-100,4,2,1,40,0,0
202593,-133.333333333333,4,2,1,70,0,0
208927,-133.333333333333,4,2,1,70,0,0
209038,-133.333333333333,4,2,1,100,0,1
209149,-133.333333333333,4,2,1,70,0,0
209260,-133.333333333333,4,2,1,100,0,1
209371,-133.333333333333,4,2,1,70,0,0
209704,-113.636363636364,4,2,1,70,0,0
213260,-113.636363636364,4,2,3,70,0,0
216816,-100,4,2,2,80,0,1
216927,-100,4,2,1,80,0,1
219593,-100,4,2,1,80,0,0
219704,-100,4,2,1,100,0,1
219816,-100,4,2,1,80,0,0
219927,-100,4,2,1,100,0,1
220038,-100,4,2,1,80,0,0
220149,-100,4,2,1,80,0,1
223149,-100,4,2,1,80,0,0
223260,-100,4,2,1,100,0,1
223371,-100,4,2,1,80,0,0
223482,-100,4,2,1,100,0,1
223593,-100,4,2,1,80,0,0
223927,-100,4,2,1,80,0,1
224704,-100,4,2,3,80,0,1
224926,-100,4,2,1,80,0,1
225593,-100,4,2,3,80,0,1
225815,-100,4,2,1,80,0,1
230482,-100,4,2,1,80,0,0
230593,-100,4,2,1,100,0,1
230704,-100,4,2,1,80,0,0
230816,-100,4,2,1,100,0,1
230927,-100,4,2,1,80,0,0
231038,-100,4,2,1,80,0,1
232704,-100,4,2,3,80,0,1
232926,-100,4,2,1,80,0,1
233816,-100,4,2,1,80,0,0
233927,-100,4,2,1,100,0,1
234038,-100,4,2,1,80,0,0
234149,-100,4,2,1,100,0,1
234260,-100,4,2,1,80,0,0
234371,-100,4,2,1,80,0,1
237371,-100,4,2,1,80,0,0
237482,-100,4,2,1,100,0,1
237593,-100,4,2,1,80,0,0
237704,-100,4,2,1,100,0,1
237816,-100,4,2,1,80,0,0
238149,-100,4,2,1,80,0,1
238926,-100,4,2,3,80,0,1
239148,-100,4,2,1,80,0,1
248371,-100,4,2,4,80,0,1
248483,-100,4,2,4,80,0,1
248594,-100,4,2,4,80,0,1
248705,-100,4,2,4,80,0,1
248816,-100,4,2,1,60,0,0
255927,-133.333333333333,4,2,1,60,0,0
257482,-133.333333333333,4,2,2,60,0,0
259482,-133.333333333333,4,2,2,50,0,0
262260,-133.333333333333,4,2,2,50,0,0
262371,-133.333333333333,4,2,1,80,0,1
262482,-133.333333333333,4,2,1,60,0,0
262593,-133.333333333333,4,2,1,80,0,1
262704,-133.333333333333,4,2,1,60,0,0
263483,-133.333333333333,4,2,1,5,0,0

[Colours]
Combo1 : 193,224,255
Combo2 : 255,202,176
Combo3 : 255,237,164
Combo4 : 251,174,186

[HitObjects]
265,315,14149,5,4,3:2:0:0:
394,316,14593,2,0,P|374:283|362:211,1,97.5,10|2,0:0|0:0,0:0:0:0:
369,184,15038,2,0,B|387:118|338:111|386:29,1,130,2|10,3:2|0:0,0:0:0:0:
499,29,15927,2,0,P|501:77|487:108,1,65,2|0,3:2|0:0,0:0:0:0:
470,173,16371,2,0,P|462:204|466:236,1,65,10|2,0:0|0:0,0:0:0:0:
424,310,16816,2,0,P|413:240|350:197,1,130,2|10,3:2|0:0,0:0:0:0:
256,265,17704,5,2,3:2:0:0:
141,203,18149,2,0,P|95:246|87:276,1,65,10|2,0:0|0:0,0:0:0:0:
95,331,18593,2,0,P|114:357|141:374,1,65,2|2,3:2|0:0,0:0:0:0:
226,374,19038,2,0,P|253:356|272:330,1,65,10|2,0:0|0:0,0:0:0:0:
272,245,19482,2,0,B|341:266|340:218|420:233,2,130,2|10|2,3:2|0:0|3:2,0:0:0:0:
293,116,20816,1,10,0:0:0:0:
396,37,21260,5,2,3:2:0:0:
441,107,21482,1,2,0:0:0:0:
453,190,21704,1,10,0:0:0:0:
443,274,21927,2,0,P|410:329|351:356,1,130,2|2,0:0|0:0,0:0:0:0:
221,356,22816,2,0,P|248:297|302:264,1,130,2|0,0:0|0:0,0:0:0:0:
225,228,23482,2,0,P|170:195|143:136,1,130,10|2,0:0|3:2,0:0:0:0:
175,15,24371,1,10,0:0:0:0:
306,47,24816,5,2,3:2:0:0:
306,47,25038,2,0,L|372:58,1,65,2|8,0:0|0:0,0:0:0:0:
417,133,25482,1,2,0:0:0:0:
417,133,25704,2,0,L|483:144,2,65,2|0|10,3:2|0:0|0:0,0:0:0:0:
351,187,26371,1,2,0:0:0:0:
227,219,26816,1,0,0:0:0:0:
227,219,27038,2,0,L|86:253,2,130,10|2|10,0:0|3:2|0:0,0:0:0:0:
340,150,28371,6,0,P|350:207|336:281,1,130,2|8,3:2|0:0,0:0:0:0:
208,260,29260,1,2,0:0:0:0:
122,362,29704,1,8,0:0:0:0:
122,362,29927,2,0,P|179:372|253:358,1,130,2|2,3:2|0:0,0:0:0:0:
317,309,30593,2,0,P|374:299|448:313,1,130,2|2,3:2|3:2,0:0:0:0:
389,193,31482,1,10,0:0:0:0:
261,221,31927,6,0,P|251:164|265:90,1,130,2|8,3:2|0:0,0:0:0:0:
393,111,32816,1,2,0:0:0:0:
479,9,33260,1,8,0:0:0:0:
479,9,33483,2,0,P|422:-1|348:13,1,130,2|0,3:2|0:0,0:0:0:0:
284,62,34149,2,0,P|227:72|153:58,1,130,10|2,0:0|3:2,0:0:0:0:
212,178,35038,1,10,0:0:0:0:
123,273,35482,5,0,3:2:0:0:
123,273,35704,2,0,P|131:314|149:346,1,65,2|10,0:0|0:0,0:0:0:0:
218,368,36149,1,2,3:2:0:0:
288,320,36371,2,0,B|318:307|318:307|348:316|348:316|379:308|379:308|423:325,1,130,2|10,0:0|0:0,0:0:0:0:
486,359,37038,1,2,3:2:0:0:
485,261,37371,6,0,B|484:228|484:228|462:212|462:212|459:171,1,97.5,2|10,0:0|3:2,0:0:0:0:
455,90,37927,1,2,0:0:0:0:
370,96,38149,2,0,B|373:163|373:163|370:218|314:212,1,130,2|10,3:2|3:2,0:0:0:0:
260,182,38816,1,2,0:0:0:0:
228,55,39260,6,0,P|156:35|93:69,1,130,2|2,0:0|3:2,0:0:0:0:
64,128,39927,1,2,0:0:0:0:
60,257,40371,1,8,0:0:0:0:
132,301,40593,1,2,3:2:0:0:
244,365,41038,2,0,P|264:293|230:230,1,130,2|2,0:0|0:0,0:0:0:0:
194,175,41704,1,2,3:2:0:0:
332,203,42149,1,8,0:1:0:0:
458,247,42593,6,0,P|450:302|480:357,2,97.5,4|2|2,3:2|0:0|0:0,0:0:0:0:
388,198,43482,2,0,P|396:143|366:88,2,97.5,2|2|2,3:2|0:0|0:0,0:0:0:0:
312,159,44371,6,0,L|177:153,1,130,2|10,3:2|3:2,0:0:0:0:
97,144,45038,1,2,0:0:0:0:
24,251,45482,2,0,L|153:256,1,130,2|0,0:0|0:0,0:0:0:0:
238,263,46149,5,2,3:2:0:0:
344,336,46593,1,10,3:2:0:0:
419,231,47038,1,2,3:2:0:0:
313,156,47482,1,8,3:1:0:0:
200,93,47927,2,0,P|182:155|199:218,1,130,2|10,3:2|3:2,0:0:0:0:
118,242,48593,2,0,P|135:303|119:366,1,130,0|2,0:0|0:0,0:0:0:0:
16,199,49704,5,2,3:2:0:0:
122,126,50148,1,10,3:2:0:0:
195,231,50593,1,2,3:2:0:0:
91,306,51037,1,8,3:1:0:0:
16,199,51482,2,0,P|33:137|17:74,1,130,2|10,3:2|3:2,0:0:0:0:
73,11,52148,2,0,P|134:28|197:12,1,130,0|2,0:0|0:0,0:0:0:0:
327,31,53038,2,0,P|454:78|380:210,1,325,2|2,0:0|3:2,0:0:0:0:
297,216,54371,5,2,0:0:0:0:
183,279,54816,1,2,0:0:0:0:
109,239,55038,2,0,P|64:106|171:99,1,260,8|0,3:2|3:2,0:0:0:0:
270,117,56371,1,8,0:0:0:0:
386,61,56816,6,0,P|386:108|370:140,1,65,6|0,3:2|0:0,0:0:0:0:
425,194,57260,2,0,P|386:219|315:222,1,97.5,10|0,0:0|0:0,0:0:0:0:
325,266,57704,2,0,P|256:244|204:192,1,130,2|10,3:2|0:0,0:0:0:0:
84,193,58593,2,0,P|99:164|104:133,1,65,0|0,3:2|0:0,0:0:0:0:
180,94,59038,2,0,P|164:65|159:33,1,65,10|2,0:2|0:0,0:0:0:0:
243,35,59482,2,0,P|295:69|348:25,1,130,2|8,3:2|0:1,0:0:0:0:
332,164,60371,6,0,P|296:170|252:160,1,65,2|0,3:2|0:0,0:0:0:0:
190,132,60815,2,0,P|144:124|77:149,1,97.5,10|2,0:0|0:0,0:0:0:0:
72,101,61259,2,0,P|20:151|-3:221,1,130,2|10,3:2|0:0,0:0:0:0:
73,311,62149,2,0,P|103:318|147:306,1,65,2|2,3:2|0:0,0:0:0:0:
218,293,62593,2,0,P|249:286|281:293,1,65,10|2,0:0|0:0,0:0:0:0:
341,234,63038,2,0,P|359:172|351:108,1,130,2|8,3:2|0:1,0:0:0:0:
480,70,63927,6,0,P|478:142|508:219,1,130,2|10,3:2|0:0,0:0:0:0:
484,288,64593,2,0,P|451:342|387:344,1,130,2|0,0:0|0:0,0:0:0:0:
400,254,65260,1,10,0:0:0:0:
400,254,65482,2,0,P|432:199|496:197,1,130,4|2,0:0|0:0,0:0:0:0:
484,288,66149,1,10,0:0:0:0:
371,352,66593,2,0,B|320:356|320:356|262:335,1,97.5,2|0,3:2|0:0,0:0:0:0:
187,299,67260,5,2,0:0:0:0:
103,309,67482,1,4,3:2:0:0:
19,321,67704,1,0,0:0:0:0:
81,207,68149,1,2,0:0:0:0:
164,192,68371,2,0,B|231:199|231:199|266:225,2,97.5,2|2|10,3:2|0:0|0:0,0:0:0:0:
92,76,69482,2,0,L|222:86,1,130,2|2,0:0|0:0,0:0:0:0:
306,93,70149,1,0,3:0:0:0:
435,102,70593,1,8,0:1:0:0:
435,102,70816,1,8,0:1:0:0:
496,159,71038,6,0,L|490:238,1,65,2|0,3:2|0:0,0:0:0:0:
441,292,71482,2,0,P|408:337|342:349,1,97.5,10|2,0:0|0:0,0:0:0:0:
330,337,71926,2,0,B|272:321|256:361|200:344,1,130,2|10,3:2|0:0,0:0:0:0:
80,302,72815,2,0,P|41:305|12:292,1,65
38,213,73260,2,0,P|15:180|12:149,1,65,10|2,0:0|0:0,0:0:0:0:
91,125,73704,2,0,P|107:89|206:61,1,130,2|8,3:2|0:1,0:0:0:0:
318,54,74593,6,0,P|310:96|290:131,1,65,2|0,3:2|0:0,0:0:0:0:
363,171,75037,2,0,P|375:230|402:277,1,97.5,10|0,0:0|0:0,0:0:0:0:
414,298,75481,2,0,B|344:290|347:331|285:309,1,130,2|10,3:2|0:0,0:0:0:0:
256,183,76371,2,0,P|213:137|183:129,1,65,2|2,3:2|0:0,0:0:0:0:
128,137,76815,2,0,P|102:156|85:183,1,65,10|2,0:0|0:0,0:0:0:0:
61,264,77260,2,0,P|10:229|0:162,1,130,2|8,3:2|0:1,0:0:0:0:
16,36,78149,6,0,L|165:50,1,130,2|10,3:2|0:0,0:0:0:0:
171,128,78816,2,0,L|320:114,1,130,2|2,0:0|0:0,0:0:0:0:
341,195,79482,1,10,0:0:0:0:
341,195,79704,2,0,L|470:207,1,130,2|2,0:0|0:0,0:0:0:0:
499,286,80371,1,10,0:0:0:0:
400,370,80816,2,0,L|287:359,1,97.5,2|2,3:2|0:0,0:0:0:0:
205,351,81482,5,2,0:0:0:0:
205,351,81704,2,0,P|231:273|224:204,1,130,4|10,3:2|0:0,0:0:0:0:
168,166,82371,2,0,P|245:214|313:155,1,195,2|0,3:2|3:2,0:0:0:0:
239,112,83260,2,0,P|307:52|384:100,1,195,2|8,3:2|0:0,0:0:0:0:
256,320,84815,5,12,0:0:0:0:
477,335,99482,6,0,P|413:347|349:337,1,130,2|10,3:2|0:0,0:0:0:0:
271,304,100149,1,0,0:0:0:0:
196,342,100371,1,2,3:2:0:0:
199,211,100816,2,0,P|262:198|326:208,1,130,8|2,0:0|3:2,0:0:0:0:
405,242,101483,1,0,0:0:0:0:
480,204,101705,1,10,0:0:0:0:
420,88,102149,1,2,3:2:0:0:
290,86,102593,2,0,P|255:41|220:86,1,130,8|2,0:0|3:2,0:0:0:0:
234,170,103260,6,0,P|240:234|225:297,1,130,2|0,0:0|0:0,0:0:0:0:
185,373,103927,1,2,3:2:0:0:
112,264,104372,1,10,0:0:0:0:
112,264,104594,1,2,3:2:0:0:
39,162,105038,1,0,0:0:0:0:
39,162,105260,1,2,3:2:0:0:
126,66,105705,1,10,0:0:0:0:
220,154,106149,2,0,P|255:199|290:155,1,130,8|0,0:0|3:2,0:0:0:0:
346,91,106816,6,0,P|394:89|425:103,1,65,2|10,0:0|0:0,0:0:0:0:
428,176,107260,2,0,P|453:216|457:250,1,65,2|2,0:0|3:2,0:0:0:0:
389,283,107705,2,0,P|362:331|305:357,2,97.5,0|0|2,0:0|0:0|3:2,0:0:0:0:
304,271,108594,6,0,L|169:277,1,130,2|2,0:0|0:0,0:0:0:0:
90,286,109261,1,2,3:2:0:0:
89,156,109704,1,10,3:2:0:0:
89,156,109927,1,2,0:0:0:0:
193,73,110371,2,0,P|218:113|222:147,1,65,2|8,0:0|0:0,0:0:0:0:
230,214,110816,1,2,3:2:0:0:
212,296,111038,6,0,P|284:316|347:282,1,130,2|8,0:0|0:0,0:0:0:0:
393,236,111704,1,2,3:2:0:0:
441,115,112149,2,0,P|369:95|306:129,1,130,2|2,0:0|0:0,0:0:0:0:
256,170,112816,1,2,3:2:0:0:
256,312,113260,1,10,0:0:0:0:
254,285,115482,5,10,0:0:0:0:
201,219,115704,1,10,0:0:0:0:
129,327,116149,1,12,0:0:0:0:
254,285,116593,1,12,0:0:0:0:
436,215,117260,6,0,L|430:344,1,130,2|10,3:2|3:2,0:0:0:0:
346,356,117927,1,2,0:0:0:0:
340,271,118149,2,0,L|334:141,1,130,2|10,3:2|3:2,0:0:0:0:
285,71,118816,1,2,0:0:0:0:
212,114,119038,2,0,P|150:132|87:115,1,130,2|10,3:2|0:0,0:0:0:0:
24,60,119704,1,2,0:0:0:0:
0,190,120149,1,2,0:0:0:0:
80,367,120816,5,0,3:2:0:0:
188,295,121260,1,10,0:0:0:0:
230,171,121705,1,2,3:2:0:0:
195,45,122149,1,10,0:0:0:0:
256,192,122593,12,8,127038,3:0:0:0:
441,254,127927,6,0,P|409:262|377:260,1,65,4|0,3:2|0:0,0:0:0:0:
320,197,128371,2,0,P|274:189|207:214,1,97.5,10|2,0:0|0:0,0:0:0:0:
202,166,128815,2,0,P|150:216|127:286,1,130,2|10,3:2|0:0,0:0:0:0:
4,232,129704,2,0,P|12:200|10:168,1,65,2|2,3:2|0:0,0:0:0:0:
83,125,130149,2,0,P|74:93|76:61,1,65,10|2,0:0|0:0,0:0:0:0:
158,83,130593,2,0,P|210:117|263:73,1,130,2|8,3:2|0:1,0:0:0:0:
264,212,131482,6,0,P|271:243|290:269,1,65,2|0,3:2|0:0,0:0:0:0:
375,268,131927,2,0,P|394:225|387:154,1,97.5,10|2,0:0|0:0,0:0:0:0:
365,144,132371,2,0,P|305:107|298:36,1,130,2|10,3:2|0:0,0:0:0:0:
175,109,133260,2,0,P|154:134|126:150,1,65,2|2,3:2|0:0,0:0:0:0:
126,234,133704,2,0,P|153:250|174:275,1,65,10|2,0:0|0:0,0:0:0:0:
253,244,134149,2,0,B|248:213|221:192|221:192|248:171|256:137,1,130,2|8,3:2|0:1,0:0:0:0:
378,92,135038,6,0,B|386:125|413:146|413:146|385:168|380:199,1,130,2|10,3:2|0:0,0:0:0:0:
371,291,135704,2,0,P|338:345|274:347,1,130,2|0,0:0|0:0,0:0:0:0:
287,257,136371,1,10,0:0:0:0:
287,257,136593,2,0,P|319:202|383:200,1,130,4|2,0:0|0:0,0:0:0:0:
371,291,137260,1,10,0:0:0:0:
496,257,137704,2,0,B|511:213|511:213|507:162,1,97.5,2|0,3:2|0:0,0:0:0:0:
472,71,138371,5,2,0:0:0:0:
388,81,138593,1,4,3:2:0:0:
309,49,138815,1,0,0:0:0:0:
186,92,139260,1,2,0:0:0:0:
177,176,139482,2,0,B|170:243|170:243|144:278,2,97.5,2|0|10,3:2|0:0|0:0,0:0:0:0:
303,145,140593,2,0,L|314:294,1,130,2|2,0:0|0:0,0:0:0:0:
321,358,141260,1,0,3:0:0:0:
449,323,141704,1,8,0:1:0:0:
449,323,141927,1,8,0:1:0:0:
439,239,142149,6,0,L|434:174,1,65,2|0,3:2|0:0,0:0:0:0:
412,92,142593,2,0,P|379:47|313:35,1,97.5,10|0,0:0|0:0,0:0:0:0:
301,47,143037,2,0,B|243:63|227:23|171:40,1,130,2|10,3:2|0:0,0:0:0:0:
164,169,143927,2,0,P|160:208|173:237,1,65,2|0,3:2|0:0,0:0:0:0:
253,211,144372,2,0,P|286:234|316:236,1,65,10|2,0:0|0:0,0:0:0:0:
342,158,144816,2,0,P|378:142|406:43,1,130,2|8,3:2|0:1,0:0:0:0:
281,52,145704,6,0,P|249:60|202:49,1,65,2|0,3:2|0:0,0:0:0:0:
137,29,146149,2,0,P|134:90|179:134,1,97.5,10|2,3:2|0:0,0:0:0:0:
183,148,146593,2,0,B|191:218|150:215|172:277,1,130,2|10,3:2|0:0,0:0:0:0:
301,276,147482,2,0,P|301:244|285:212,1,65,2|2,3:2|0:0,0:0:0:0:
359,171,147927,2,0,P|359:138|372:109,1,65,10|2,0:0|0:0,0:0:0:0:
454,90,148371,2,0,P|417:38|355:28,1,130,2|8,3:2|0:1,0:0:0:0:
259,112,149260,6,0,L|246:241,1,130,2|10,3:2|0:0,0:0:0:0:
163,258,149927,2,0,L|150:128,1,130,2|2,0:0|0:0,0:0:0:0:
72,152,150593,1,10,0:0:0:0:
72,152,150816,2,0,L|59:281,1,130,2|2,0:0|0:0,0:0:0:0:
53,365,151482,1,10,0:0:0:0:
182,355,151927,2,0,L|172:257,1,97.5,2|2,3:2|0:0,0:0:0:0:
168,166,152593,5,2,0:0:0:0:
168,166,152815,2,0,P|246:192|315:185,1,130,4|10,3:2|0:0,0:0:0:0:
343,258,153482,2,0,P|391:181|332:113,1,195,2|0,3:2|3:2,0:0:0:0:
280,44,154371,2,0,P|232:121|291:189,2,195,2|8|8,3:2|0:0|0:0,0:0:0:0:
330,112,155927,1,2,3:2:0:0:
457,89,156371,5,0,3:2:0:0:
456,119,170593,5,2,0:0:0:0:
474,164,170816,2,0,P|483:211|477:264,1,97.50000371933,0|2,0:0|0:0,0:0:0:0:
381,252,171704,2,0,P|390:299|385:348,1,97.50000371933,2|2,3:2|0:0,0:0:0:0:
289,330,172593,1,2,0:0:0:0:
193,348,173038,2,0,P|181:276|198:205,1,146.250005578995,2|2,0:0|3:2,0:0:0:0:
354,179,174371,6,0,B|398:194|396:164|448:170,2,97.50000371933,0|2|2,0:0|0:0|3:2,0:0:0:0:
280,115,175704,1,2,0:0:0:0:
372,83,176149,1,2,0:0:0:0:
354,179,176593,1,2,0:0:0:0:
260,208,177038,1,2,3:2:0:0:
260,208,177260,1,2,3:2:0:0:
205,288,177704,6,0,B|138:265|122:316|63:302,1,146.250005578995,2|2,0:0|0:0,0:0:0:0:
12,291,178593,1,10,0:0:0:0:
41,197,179038,1,2,3:2:0:0:
104,123,179482,2,0,B|171:146|187:95|246:109,1,146.250005578995,2|0,0:0|0:0,0:0:0:0:
289,132,180371,1,10,0:0:0:0:
379,96,180816,1,2,3:2:0:0:
483,198,181482,6,0,P|423:220|341:199,1,146.250005578995,2|8,0:0|0:0,0:0:0:0:
305,172,182371,1,2,3:2:0:0:
259,258,182816,2,0,P|220:283|149:286,1,97.5,2|2,0:0|0:0,0:0:0:0:
174,338,183482,2,0,P|126:331|85:306,1,97.50000371933,8|8,0:0|0:0,0:0:0:0:
16,236,184371,1,8,3:2:0:0:
154,118,185038,6,0,P|162:149|158:181,2,65,2|10|2,0:0|0:0|0:0,0:0:0:0:
243,212,185927,2,0,P|235:243|239:275,2,65,0|8|2,0:0|0:0|0:0,0:0:0:0:
335,304,186816,2,0,P|358:282|372:252,1,65,2|8,0:0|0:0,0:0:0:0:
382,169,187260,2,0,P|371:99|308:56,1,130,2|0,0:0|3:2,0:0:0:0:
249,31,187927,1,8,3:2:0:0:
190,214,188593,6,0,L|55:208,2,130,2|2|2,0:0|0:0|0:0,0:0:0:0:
281,218,189704,1,10,0:0:0:0:
355,165,189927,1,2,0:0:0:0:
246,94,190371,1,2,0:0:0:0:
190,214,190816,2,0,P|201:284|264:327,1,130,2|8,0:0|0:0,0:0:0:0:
327,326,191482,1,8,0:0:0:0:
407,222,191927,5,8,0:0:0:0:
390,94,192371,1,10,0:0:0:0:
286,14,192816,1,8,0:0:0:0:
158,31,193260,1,10,0:0:0:0:
78,135,193705,1,8,3:2:0:0:
95,263,194149,1,8,3:2:0:0:
199,343,194593,1,8,3:2:0:0:
327,326,195038,1,8,3:2:0:0:
256,192,195482,12,4,199038,0:0:0:0:
257,251,202593,5,10,0:0:0:0:
216,153,203260,1,2,0:0:0:0:
176,54,203927,1,2,0:0:0:0:
110,125,204371,2,0,P|110:175|129:221,1,97.50000371933
212,266,205260,2,0,P|298:247|339:184,1,146.250005578995,2|2,0:0|3:2,0:0:0:0:
378,160,206149,5,10,0:0:0:0:
419,258,206816,1,2,0:0:0:0:
459,357,207483,1,2,0:0:0:0:
362,343,207927,2,0,P|335:302|296:274,1,97.50000371933
198,278,208816,2,0,P|157:307|131:349,1,97.50000371933,10|8,0:0|0:1,0:0:0:0:
53,263,209704,6,0,B|71:206|71:206|67:151,1,114.400003491211,8|8,0:0|0:0,0:0:0:0:
126,53,210593,1,8,0:0:0:0:
199,140,211038,1,8,0:0:0:0:
304,96,211482,6,0,B|299:150|299:150|318:207,1,114.400003491211,8|8,0:0|0:0,0:0:0:0:
416,148,212371,1,8,0:0:0:0:
509,214,212816,1,8,0:0:0:0:
455,314,213260,5,8,3:2:0:0:
363,384,213705,1,8,3:2:0:0:
247,368,214149,1,8,3:2:0:0:
177,278,214593,1,8,0:0:0:0:
193,162,215038,1,8,0:0:0:0:
285,98,215482,1,8,0:0:0:0:
400,107,215927,1,8,0:0:0:0:
469,198,216371,1,8,0:0:0:0:
398,307,216816,6,0,P|373:328|345:341,1,65,4|0,3:2|0:0,0:0:0:0:
273,297,217260,2,0,P|227:308|159:287,1,97.5,10|2,0:0|0:0,0:0:0:0:
157,337,217704,2,0,P|101:290|73:222,1,130,2|10,3:2|0:0,0:0:0:0:
77,109,218593,2,0,P|96:83|122:65,1,65,2|2,3:2|0:0,0:0:0:0:
209,61,219038,2,0,P|234:80|252:106,1,65,10|2,0:0|0:0,0:0:0:0:
301,176,219482,2,0,P|353:210|406:166,1,130,2|8,3:2|0:1,0:0:0:0:
446,53,220371,6,0,P|414:61|367:50,1,65,6|0,3:2|0:0,0:0:0:0:
297,53,220816,2,0,P|250:40|202:48,1,97.5,10|2,0:0|0:0,0:0:0:0:
164,65,221260,2,0,P|107:49|23:84,1,130,2|10,3:2|0:0,0:0:0:0:
48,197,222149,2,0,P|45:236|58:265,1,65,2|2,3:2|0:0,0:0:0:0:
133,239,222594,2,0,P|166:262|197:265,1,65,10|2,0:0|0:0,0:0:0:0:
221,186,223038,2,0,P|257:170|285:71,1,130,2|8,3:2|0:1,0:0:0:0:
419,85,223927,6,0,L|437:213,1,130,2|10,3:2|0:0,0:0:0:0:
408,301,224593,2,0,P|354:268|352:204,1,130,2|2,0:0|0:0,0:0:0:0:
442,217,225260,1,10,0:0:0:0:
442,217,225482,2,0,P|497:249|499:313,1,130,2|2,0:0|0:0,0:0:0:0:
446,375,226149,1,10,0:0:0:0:
324,313,226593,2,0,B|280:298|280:298|229:302,1,97.5,2|2,3:2|0:0,0:0:0:0:
127,303,227260,5,2,0:0:0:0:
142,220,227482,1,4,3:2:0:0:
158,137,227704,1,0,0:0:0:0:
272,74,228149,1,2,0:0:0:0:
280,157,228371,2,0,B|287:224|287:224|266:270,2,97.5,2|0|10,3:2|0:0|0:0,0:0:0:0:
395,97,229482,2,0,L|414:230,1,130,2|2,0:0|0:0,0:0:0:0:
382,304,230149,1,0,3:2:0:0:
264,366,230593,1,8,0:1:0:0:
264,366,230816,1,8,0:1:0:0:
181,351,231038,6,0,L|193:287,1,65,2|0,3:2|0:0,0:0:0:0:
211,204,231482,2,0,P|244:249|310:261,1,97.5,10|2,0:0|0:0,0:0:0:0:
322,249,231926,2,0,B|380:233|396:273|452:256,1,130,2|10,3:2|0:0,0:0:0:0:
422,128,232816,2,0,P|385:111|354:113,1,65,0|2,0:0|0:0,0:0:0:0:
322,36,233260,2,0,P|289:59|275:87,1,65,10|2,0:0|0:0,0:0:0:0:
193,71,233704,2,0,P|196:111|213:137,1,65,2|8,3:2|0:1,0:0:0:0:
281,176,234149,1,8,0:1:0:0:
220,290,234593,6,0,L|156:302,1,65,4|0,3:2|0:0,0:0:0:0:
105,236,235037,2,0,P|60:203|48:137,1,97.5,10|2,0:2|0:0,0:0:0:0:
86,152,235481,2,0,B|70:94|110:78|93:24,1,130,2|10,3:2|0:0,0:0:0:0:
222,47,236371,2,0,P|215:78|222:109,1,65,2|2,3:2|0:0,0:0:0:0:
260,185,236816,2,0,P|266:216|259:247,1,65,10|2,0:0|0:0,0:0:0:0:
194,301,237260,2,0,P|187:332|194:363,1,65,2|8,3:2|0:1,0:0:0:0:
272,330,237704,1,8,0:1:0:0:
400,351,238149,6,0,L|387:221,1,130,2|10,3:2|0:0,0:0:0:0:
310,187,238816,2,0,L|322:57,1,130,2|0,0:0|0:0,0:0:0:0:
246,20,239482,1,10,0:0:0:0:
202,92,239704,2,0,L|214:221,1,130,2|2,0:0|0:0,0:0:0:0:
223,305,240371,1,10,0:0:0:0:
95,330,240816,2,0,L|105:232,1,97.5,2|2,3:2|0:0,0:0:0:0:
115,139,241482,5,2,0:0:0:0:
115,139,241704,2,0,P|193:165|262:158,1,130,4|10,3:2|0:0,0:0:0:0:
307,111,242371,2,0,P|384:63|452:122,1,195,2|8,3:2|0:0,0:0:0:0:
499,200,243260,1,2,3:2:0:0:
499,200,243482,2,0,P|421:174|352:181,1,130,2|8,3:2|0:0,0:0:0:0:
307,228,244149,2,0,P|230:276|162:217,1,195,2|10,0:0|0:0,0:0:0:0:
69,98,245260,6,0,P|146:50|214:110,1,195,2|4,3:2|3:2,0:0:0:0:
132,300,246593,1,10,0:0:0:0:
172,225,246816,2,0,P|176:159|219:108,1,130,2|0,3:2|0:0,0:0:0:0:
299,111,247482,2,0,P|338:162|341:226,1,130,2|2,3:2|3:2,0:0:0:0:
247,315,248371,1,12,0:0:0:0:
247,315,248816,5,4,3:2:0:0:
118,306,249260,2,0,P|138:273|150:201,1,97.5,10|2,0:0|0:0,0:0:0:0:
143,184,249705,2,0,B|125:118|174:111|126:29,1,130,2|10,3:2|0:0,0:0:0:0:
13,29,250594,2,0,P|11:77|25:108,1,65,2|0,3:2|0:0,0:0:0:0:
42,173,251038,2,0,P|50:204|46:236,1,65,10|2,0:0|0:0,0:0:0:0:
88,310,251483,2,0,P|99:240|162:197,1,130,2|10,3:2|0:0,0:0:0:0:
256,265,252371,5,2,3:2:0:0:
371,203,252816,2,0,P|417:246|425:276,1,65,10|2,0:0|0:0,0:0:0:0:
417,331,253260,2,0,P|398:357|371:374,1,65,2|2,3:2|0:0,0:0:0:0:
286,374,253705,2,0,P|259:356|240:330,1,65,10|2,0:0|0:0,0:0:0:0:
240,245,254149,2,0,B|171:266|172:218|92:233,2,130,2|10|2,3:2|0:0|3:2,0:0:0:0:
219,116,255483,1,10,0:0:0:0:
106,85,255927,6,0,P|61:105|37:146,1,97.50000371933,2|10,3:2|0:0,0:0:0:0:
38,195,256593,2,0,P|62:236|118:257,1,97.50000371933,2|2,0:0|0:0,0:0:0:0:
204,255,257483,2,0,P|224:210|264:186,1,97.50000371933,2|0,0:0|0:0,0:0:0:0:
310,166,258149,2,0,P|269:140|250:97,1,97.50000371933,10|2,0:0|3:2,0:0:0:0:
344,74,259038,1,10,0:0:0:0:
402,152,259482,6,0,B|411:200|383:200|386:258,1,97.50000371933,2|8,3:2|0:0,0:0:0:0:
468,298,260371,2,0,P|477:269|475:249,2,48.750001859665,2|2|8,0:0|0:0|0:0,0:0:0:0:
427,325,261038,1,2,0:0:0:0:
335,311,261483,1,2,0:0:0:0:
335,311,261704,2,0,B|287:308|287:336|239:326,2,97.50000371933,10|2|8,0:0|3:2|0:1,0:0:0:0:
