osu file format v14

[General]
AudioFilename: audio.mp3
AudioLeadIn: 0
PreviewTime: 55953
Countdown: 0
SampleSet: Soft
StackLeniency: 0.7
Mode: 0
LetterboxInBreaks: 0
WidescreenStoryboard: 1

[Editor]
Bookmarks: 13287,27509,41731,55953,84400,98620,112844,127064,155511,169731,183953,201731,215953,247955
DistanceSpacing: 1
BeatDivisor: 4
GridSize: 32
TimelineZoom: 1.1

[Metadata]
Title:KOISURU*BEAM
TitleUnicode:恋する☆ビーム
Artist:cillia feat. Kagamine Rin
ArtistUnicode:cillia feat. 鏡音リン
Creator:Noffy
Version:Hard
Source:
Tags:シリア kyaami harumia Vocaloid pop j-pop jpop riguruma japanese yukiya mustacho bashe aunn Yuumeikyou clapclap koisuru beam biimu
BeatmapID:2767914
BeatmapSetID:1336079

[Difficulty]
HPDrainRate:4
CircleSize:4
OverallDifficulty:5
ApproachRate:7
SliderMultiplier:1.5
SliderTickRate:2

[Events]
//Background and Video events
0,0,"bg.jpg",0,0
Video,957,"30.mp4"
//Break Periods
2,85260,98582
2,199238,201693
//Storyboard Layer 0 (Background)
//Storyboard Layer 1 (Fail)
//Storyboard Layer 2 (Pass)
//Storyboard Layer 3 (Foreground)
//Storyboard Layer 4 (Overlay)
//Storyboard Sound Samples

[TimingPoints]
1705,444.444444444444,4,2,1,40,1,0
3927,-100,4,2,1,15,0,0
4372,-100,4,2,1,20,0,0
4816,-100,4,2,1,22,0,0
5261,-100,4,2,1,25,0,0
5705,-100,4,2,1,30,0,0
6150,-100,4,2,1,40,0,0
7483,-100,4,2,1,50,0,0
10150,-100,4,2,1,60,0,0
13705,-100,4,2,1,40,0,0
14150,-100,4,2,1,60,0,0
22927,-100,4,2,3,40,0,0
23149,-100,4,2,1,60,0,0
28371,-100,4,2,2,60,0,0
41927,-100,4,2,2,80,0,0
42038,-100,4,2,2,60,0,0
42149,-100,4,2,2,80,0,0
42260,-100,4,2,2,60,0,0
42593,-100,4,2,2,60,0,0
45594,-100,4,2,3,60,0,0
45816,-100,4,2,2,60,0,0
54483,-100,4,2,4,60,0,0
54705,-100,4,2,2,60,0,0
55038,-100,4,2,1,60,0,0
56816,-100,4,2,2,80,0,1
56927,-100,4,2,1,80,0,1
59593,-100,4,2,1,80,0,0
59704,-100,4,1,1,100,0,1
59816,-100,4,2,1,80,0,0
59927,-100,4,2,1,100,0,1
60038,-100,4,2,1,80,0,0
60149,-100,4,2,1,80,0,1
63149,-100,4,2,1,80,0,0
63260,-100,4,1,1,100,0,1
63371,-100,4,2,1,80,0,0
63482,-100,4,2,1,100,0,1
63593,-100,4,2,1,80,0,0
63704,-100,4,2,1,80,0,1
64705,-100,4,2,3,60,0,1
64927,-100,4,2,1,80,0,1
65594,-100,4,2,3,60,0,1
65816,-100,4,2,1,80,0,1
70482,-100,4,2,1,80,0,0
70593,-100,4,2,1,100,0,1
70704,-100,4,2,1,80,0,0
70816,-100,4,2,1,100,0,1
70927,-100,4,2,1,80,0,0
71038,-100,4,2,1,80,0,1
73816,-100,4,2,1,80,0,0
73927,-100,4,1,1,100,0,1
74038,-100,4,2,1,80,0,0
74149,-100,4,2,1,100,0,1
74260,-100,4,2,1,80,0,0
74371,-100,4,2,1,80,0,1
77371,-100,4,2,1,80,0,0
77482,-100,4,1,1,100,0,1
77593,-100,4,2,1,80,0,0
77704,-100,4,2,1,100,0,1
77816,-100,4,2,1,80,0,0
77927,-100,4,2,1,80,0,1
84816,-100,4,2,4,80,0,1
84927,-100,4,2,4,80,0,1
85260,-100,4,2,1,60,0,0
94038,-100,4,2,3,60,0,0
94261,-100,4,2,1,60,0,0
122593,-100,4,2,3,40,0,0
124371,-100,4,2,3,40,0,0
125260,-100,4,2,3,60,0,0
126149,-100,4,2,1,60,0,0
127927,-100,4,2,2,80,0,1
128038,-100,4,2,1,80,0,1
130704,-100,4,2,1,80,0,0
130816,-100,4,1,1,100,0,1
130927,-100,4,2,1,80,0,0
131038,-100,4,2,1,100,0,1
131149,-100,4,2,1,80,0,0
131260,-100,4,2,1,80,0,1
134260,-100,4,2,1,80,0,0
134371,-100,4,1,1,100,0,1
134482,-100,4,2,1,80,0,0
134593,-100,4,2,1,100,0,1
134704,-100,4,2,1,80,0,0
134816,-100,4,2,1,80,0,1
141593,-100,4,2,1,80,0,0
141704,-100,4,2,1,100,0,1
141816,-100,4,2,1,80,0,0
141927,-100,4,2,1,100,0,1
142038,-100,4,2,1,80,0,0
142149,-100,4,2,1,80,0,1
144927,-100,4,2,1,80,0,0
145038,-100,4,1,1,100,0,1
145149,-100,4,2,1,80,0,0
145260,-100,4,2,1,100,0,1
145371,-100,4,2,1,80,0,0
145482,-100,4,2,1,80,0,1
148482,-100,4,2,1,80,0,0
148593,-100,4,1,1,100,0,1
148704,-100,4,2,1,80,0,0
148816,-100,4,2,1,100,0,1
148927,-100,4,2,1,80,0,0
149038,-100,4,2,1,80,0,1
156371,-100,4,2,1,60,0,0
173148,-100,4,2,5,40,0,0
173371,-100,4,2,1,60,0,0
174926,-100,4,2,5,40,0,0
175148,-100,4,2,1,60,0,0
187371,-100,4,2,3,40,0,0
187593,-100,4,2,1,60,0,0
189148,-100,4,2,3,40,0,0
189371,-100,4,2,1,60,0,0
190926,-100,4,2,3,40,0,0
191148,-100,4,2,1,60,0,0
191927,-100,4,2,3,60,0,0
197260,-100,4,2,1,20,0,0
198148,-100,4,2,1,30,0,0
199037,-100,4,2,6,40,0,0
201260,-100,4,2,1,40,0,0
202593,-133.333333333333,4,2,1,70,0,0
208927,-133.333333333333,4,2,1,70,0,0
209038,-133.333333333333,4,1,1,100,0,1
209149,-133.333333333333,4,2,1,70,0,0
209260,-133.333333333333,4,2,1,100,0,1
209371,-133.333333333333,4,2,1,70,0,0
209704,-113.636363636364,4,2,1,70,0,0
213260,-113.636363636364,4,2,3,70,0,0
216816,-100,4,2,2,80,0,1
216927,-100,4,2,1,80,0,1
219593,-100,4,2,1,80,0,0
219704,-100,4,1,1,100,0,1
219816,-100,4,2,1,80,0,0
219927,-100,4,2,1,100,0,1
220038,-100,4,2,1,80,0,0
220149,-100,4,2,1,80,0,1
223149,-100,4,2,1,80,0,0
223260,-100,4,1,1,100,0,1
223371,-100,4,2,1,80,0,0
223482,-100,4,2,1,100,0,1
223593,-100,4,2,1,80,0,0
223927,-100,4,2,1,80,0,1
224704,-100,4,2,3,80,0,1
224926,-100,4,2,1,80,0,1
225593,-100,4,2,3,80,0,1
225815,-100,4,2,1,80,0,1
230482,-100,4,2,1,80,0,0
230593,-100,4,2,1,100,0,1
230704,-100,4,2,1,80,0,0
230816,-100,4,2,1,100,0,1
230927,-100,4,2,1,80,0,0
231038,-100,4,2,1,80,0,1
233816,-100,4,2,1,80,0,0
233927,-100,4,1,1,100,0,1
234038,-100,4,2,1,80,0,0
234149,-100,4,2,1,100,0,1
234260,-100,4,2,1,80,0,0
234371,-100,4,2,1,80,0,1
237371,-100,4,2,1,80,0,0
237482,-100,4,1,1,100,0,1
237593,-100,4,2,1,80,0,0
237704,-100,4,2,1,100,0,1
237816,-100,4,2,1,80,0,0
238149,-100,4,2,1,80,0,1
238926,-100,4,2,3,80,0,1
239148,-100,4,2,1,80,0,1
248371,-100,4,2,4,80,0,1
248483,-100,4,2,4,5,0,1
248594,-100,4,2,4,80,0,1
248705,-100,4,2,4,5,0,1
248816,-100,4,2,1,60,0,0
257482,-100,4,2,2,60,0,0
259482,-100,4,2,2,50,0,0
262260,-100,4,2,2,50,0,0
262371,-100,4,2,1,80,0,1
262482,-100,4,2,1,60,0,0
262593,-100,4,2,1,80,0,1
262704,-100,4,2,1,60,0,0
263483,-100,4,2,1,5,0,0

[Colours]
Combo1 : 255,0,128
Combo2 : 255,202,176
Combo3 : 255,237,164
Combo4 : 251,174,186
Combo5 : 193,224,255

[HitObjects]
90,19,14149,5,4,3:2:0:0:
78,108,14371,1,0,0:0:0:0:
144,168,14593,2,0,P|139:232|105:302,1,112.5,10|2,0:0|0:0,0:0:0:0:
90,308,15038,1,2,3:2:0:0:
169,351,15260,2,0,B|216:346|216:346|259:361,2,75,2|10|0,0:0|0:0|0:0,0:0:0:0:
198,266,15927,6,0,P|244:263|273:254,1,75,2|0,3:2|0:0,0:0:0:0:
356,285,16371,2,0,P|392:294|429:296,1,75,10|2,0:0|0:0,0:0:0:0:
469,216,16816,2,0,B|447:182|499:139|453:66,1,150,2|10,3:2|0:0,0:0:0:0:
372,105,17482,1,2,0:0:0:0:
312,37,17705,5,2,3:2:0:0:
254,106,17927,1,2,0:0:0:0:
166,83,18149,5,10,0:0:0:0:
194,168,18371,1,2,0:0:0:0:
281,190,18593,21,2,3:2:0:0:
220,256,18816,1,2,0:0:0:0:
132,237,19038,5,10,0:0:0:0:
163,321,19260,1,2,0:0:0:0:
251,320,19482,6,0,P|239:276|210:250,1,75,2|2,3:2|0:0,0:0:0:0:
163,321,19927,2,0,P|170:357|195:385,1,75,10|2,0:0|0:0,0:0:0:0:
137,239,20371,2,0,B|101:294|37:293|1:236,1,150,2|10,3:2|0:0,0:0:0:0:
31,71,21260,6,0,P|53:107|89:124,1,75,2|2,3:2|0:0,0:0:0:0:
170,118,21705,1,10,0:0:0:0:
242,64,21927,2,0,B|305:46|346:89|406:68,1,150,2|2,0:0|0:0,0:0:0:0:
468,118,22593,1,10,0:0:0:0:
478,207,22816,2,0,B|415:225|374:182|329:198,1,150,2|0,0:0|0:0,0:0:0:0:
274,267,23482,1,10,0:0:0:0:
323,343,23705,1,2,0:0:0:0:
409,320,23927,1,2,3:2:0:0:
414,229,24149,1,2,0:0:0:0:
330,197,24371,1,10,0:0:0:0:
426,46,24816,21,2,3:2:0:0:
486,112,25038,2,0,P|483:149|454:198,1,75,2|8,0:0|0:0,0:0:0:0:
394,236,25482,1,2,0:0:0:0:
326,176,25705,1,2,3:2:0:0:
236,170,25927,1,0,0:0:0:0:
154,207,26149,1,10,0:0:0:0:
116,289,26371,1,2,0:0:0:0:
116,289,26816,5,0,0:0:0:0:
154,207,27038,1,10,0:0:0:0:
236,170,27260,1,2,0:0:0:0:
326,176,27482,1,2,3:2:0:0:
394,236,27705,1,2,0:0:0:0:
420,150,27927,1,10,0:0:0:0:
333,38,28371,6,0,P|340:75|333:139,1,75,2|0,3:2|0:0,0:0:0:0:
286,166,28816,2,0,P|284:203|291:240,1,75,8|2,0:0|3:2,0:0:0:0:
351,286,29260,2,0,P|284:270|192:298,1,150,2|8,0:0|0:0,0:0:0:0:
129,358,29927,2,0,P|201:373|273:354,1,150,2|2,3:2|0:0,0:0:0:0:
346,336,30593,2,0,B|380:334|380:334|443:362,2,75,2|0|2,3:2|0:0|3:2,0:0:0:0:
273,354,31260,1,0,0:0:0:0:
200,336,31482,1,10,0:0:0:0:
133,121,32149,5,2,0:0:0:0:
184,176,32371,2,0,P|186:213|179:250,1,75,8|2,0:0|3:2,0:0:0:0:
119,296,32816,2,0,P|186:280|278:308,1,150,2|8,0:0|0:0,0:0:0:0:
341,368,33482,2,0,P|269:383|197:364,1,150,2|0,3:2|0:0,0:0:0:0:
143,310,34149,2,0,B|104:314|104:314|70:301,2,75,10|2|2,0:0|0:0|3:2,0:0:0:0:
216,292,34816,1,2,0:0:0:0:
273,244,35038,1,10,0:0:0:0:
146,57,35704,22,0,P|130:64|112:91,2,37.5,2|2|10,0:0|0:0|0:0,0:0:0:0:
187,136,36149,1,2,3:2:0:0:
261,86,36371,1,2,0:0:0:0:
289,95,36482,1,2,0:0:0:0:
319,96,36593,1,2,0:0:0:0:
347,91,36705,1,0,0:0:0:0:
375,80,36816,2,0,P|405:75|448:84,1,75,10|2,0:0|3:2,0:0:0:0:
410,182,37371,5,2,0:0:0:0:
380,183,37482,1,2,0:0:0:0:
352,195,37593,1,2,0:0:0:0:
333,219,37704,1,10,3:2:0:0:
407,269,37927,2,0,P|431:285|439:300,2,37.5,2|2|2,0:0|0:0|3:2,0:0:0:0:
361,345,38371,1,2,0:0:0:0:
285,295,38593,1,10,3:2:0:0:
218,355,38816,1,2,0:0:0:0:
85,302,39260,6,0,P|28:291|-3:276,2,75,2|8|2,0:0|0:0|3:2,0:0:0:0:
86,227,39927,2,0,P|78:170|83:135,2,75,2|2|8,0:0|0:0|0:0,0:0:0:0:
159,211,40593,2,0,P|210:186|245:180,1,75,2|0,3:2|0:0,0:0:0:0:
299,204,41038,2,0,P|355:193|387:178,2,75,2|10|2,0:0|0:0|0:0,0:0:0:0:
298,129,41705,2,0,P|305:72|300:37,2,75,2|8|8,3:2|0:1|0:1,0:0:0:0:
253,272,42593,6,0,B|313:277|313:277|352:262,1,75,4|2,3:2|0:0,0:0:0:0:
361,248,42927,1,0,0:0:0:0:
421,131,43260,1,2,0:0:0:0:
421,131,43371,1,2,0:0:0:0:
421,131,43482,2,0,P|372:120|325:129,1,75,2|2,3:2|0:0,0:0:0:0:
309,145,43816,2,0,B|318:106|318:106|312:29,1,112.5,0|2,0:0|0:0,0:0:0:0:
234,78,44371,1,2,3:2:0:0:
156,32,44593,1,2,0:0:0:0:
118,113,44816,1,10,3:2:0:0:
195,158,45038,2,0,P|207:229|185:315,1,150,2|2,0:0|0:0,0:0:0:0:
38,158,46149,22,0,B|45:101|45:101|40:83,1,75,2|2,3:2|0:0,0:0:0:0:
127,56,46593,2,0,B|122:73|122:73|129:130,1,75,10|0,3:2|0:0,0:0:0:0:
160,162,46927,2,0,L|150:251,1,75
147,281,47260,2,0,P|164:312|214:303,1,75,2|8,0:0|3:1,0:0:0:0:
278,269,47705,1,2,0:0:0:0:
367,268,47927,1,2,3:2:0:0:
430,332,48149,1,2,0:0:0:0:
494,268,48371,1,10,3:2:0:0:
435,198,48593,2,0,P|418:125|430:51,1,150,0|2,0:0|0:0,0:0:0:0:
461,320,49705,6,0,B|444:315|444:315|387:322,1,75,2|2,3:2|0:0,0:0:0:0:
302,353,50149,1,10,3:2:0:0:
216,322,50371,1,2,0:0:0:0:
255,241,50593,2,0,B|238:236|238:236|181:243,1,75,2|2,3:2|0:0,0:0:0:0:
96,274,51038,1,8,3:1:0:0:
11,243,51260,1,2,0:0:0:0:
81,187,51482,6,0,P|102:123|90:37,1,150,2|10,3:2|3:2,0:0:0:0:
182,38,52149,2,0,P|187:85|207:126,1,75,0|2,0:0|3:2,0:0:0:0:
262,173,52593,2,0,P|274:137|277:100,1,75,2|8,0:0|3:2,0:0:0:0:
291,15,53038,2,0,P|443:72|355:230,1,375,2|2,0:0|3:2,0:0:0:0:
295,278,54371,2,0,P|294:236|279:204,1,75,2|0,0:0|0:0,0:0:0:0:
256,192,54816,12,8,56593,0:0:0:0:
206,222,56816,5,6,3:2:0:0:
286,263,57038,1,0,0:0:0:0:
364,218,57260,2,0,P|383:165|386:109,1,112.5,10|0,0:0|0:0,0:0:0:0:
379,65,57705,1,2,3:2:0:0:
292,89,57927,2,0,P|282:55|278:15,2,75,2|10|2,0:0|0:0|0:0,0:0:0:0:
228,152,58593,22,0,P|225:189|214:225,1,75,0|0,3:2|0:0,0:0:0:0:
133,193,59038,2,0,P|98:206|61:214,1,75,10|2,0:2|0:0,0:0:0:0:
20,294,59482,2,0,P|94:301|162:332,1,150,2|8,3:2|0:1,0:0:0:0:
240,376,60149,1,2,0:0:0:0:
318,331,60371,5,2,3:2:0:0:
251,268,60593,1,0,0:0:0:0:
175,218,60816,2,0,P|124:197|60:190,1,112.5,10|2,0:0|0:0,0:0:0:0:
23,196,61260,1,2,3:2:0:0:
47,108,61482,2,0,B|50:72|50:72|33:34,2,75,2|10|2,0:0|0:0|0:0,0:0:0:0:
138,126,62149,6,0,L|148:46,1,75,2|2,3:2|0:0,0:0:0:0:
220,104,62593,2,0,L|230:199,1,75,10|2,0:0|0:0,0:0:0:0:
254,264,63038,2,0,P|313:247|332:154,1,150,2|8,3:2|0:1,0:0:0:0:
178,84,63927,6,0,P|232:97|271:86,1,75,2|2,3:2|0:0,0:0:0:0:
332,57,64371,1,10,0:0:0:0:
404,111,64593,2,0,P|465:148|468:220,1,150,2|0,0:0|0:0,0:0:0:0:
445,309,65260,1,10,0:0:0:0:
445,309,65482,2,0,P|383:271|380:199,1,150,4|2,0:0|0:0,0:0:0:0:
404,111,66149,1,10,0:0:0:0:
323,71,66371,1,2,0:0:0:0:
233,74,66593,1,2,3:2:0:0:
156,121,66816,1,2,0:0:0:0:
161,165,66927,2,0,P|159:191|139:219,1,37.5,0|10,0:0|3:2,0:0:0:0:
70,167,67260,21,2,0:0:0:0:
41,251,67482,1,4,3:2:0:0:
82,331,67705,1,0,0:0:0:0:
164,171,68149,1,2,0:0:0:0:
202,252,68371,1,2,3:2:0:0:
131,367,68705,1,2,0:0:0:0:
44,269,69038,1,10,0:0:0:0:
73,91,69482,5,2,0:0:0:0:
130,160,69705,1,10,0:0:0:0:
216,185,69927,1,2,0:0:0:0:
303,165,70149,1,0,3:0:0:0:
372,107,70371,1,8,0:0:0:0:
405,23,70593,2,0,P|441:46|464:91,1,75,8|8,0:1|0:1,0:0:0:0:
479,160,71038,5,2,3:2:0:0:
396,195,71260,1,0,0:0:0:0:
306,190,71482,2,0,P|251:174|195:173,1,112.5,10|0,0:0|0:0,0:0:0:0:
152,185,71927,1,2,3:2:0:0:
65,209,72149,2,0,P|68:168|51:135,2,75,2|10|2,0:0|0:0|0:0,0:0:0:0:
12,282,72816,6,0,P|12:327|33:360,1,75,2|0,3:2|0:0,0:0:0:0:
115,367,73260,2,0,P|117:329|100:296,1,75,10|2,0:0|0:0,0:0:0:0:
67,213,73705,2,0,P|108:146|104:70,1,150,2|8,3:2|0:1,0:0:0:0:
53,3,74371,1,2,0:0:0:0:
143,0,74593,21,2,3:2:0:0:
196,71,74816,1,0,0:0:0:0:
106,76,75038,2,0,P|99:152|112:208,1,112.5,10|0,0:0|0:0,0:0:0:0:
115,230,75482,1,2,3:2:0:0:
143,315,75705,2,0,B|105:314|105:314|53:338,2,75,2|10|2,0:0|0:0|0:0,0:0:0:0:
231,301,76371,6,0,P|215:258|178:228,1,75,2|2,3:2|0:0,0:0:0:0:
103,229,76816,2,0,P|115:193|140:166,1,75,10|2,0:0|0:0,0:0:0:0:
224,134,77260,2,0,B|294:168|295:103|387:133,1,150,2|8,3:2|0:1,0:0:0:0:
383,291,78149,6,0,P|431:298|480:284,1,75,2|2,3:2|0:0,0:0:0:0:
510,221,78593,1,10,0:0:0:0:
423,197,78816,2,0,P|396:140|396:51,1,150,2|2,0:0|0:0,0:0:0:0:
315,12,79482,1,10,0:0:0:0:
261,84,79705,5,2,0:0:0:0:
285,121,79816,2,0,L|285:180,1,37.5,0|2,0:0|3:2,0:0:0:0:
226,226,80149,1,2,0:0:0:0:
202,263,80260,2,0,L|202:322,1,37.5,0|10,0:0|0:0,0:0:0:0:
125,347,80593,1,2,0:0:0:0:
58,286,80816,1,2,3:2:0:0:
78,198,81038,1,2,0:0:0:0:
54,161,81149,2,0,L|54:102,1,37.5,2|10,0:0|0:0,0:0:0:0:
86,39,81482,22,0,P|132:42|161:51,1,75,2|4,0:0|3:2,0:0:0:0:
244,19,81927,2,0,P|280:10|317:8,1,75,2|10,0:0|0:0,0:0:0:0:
357,89,82371,2,0,B|326:161|377:168|343:214|311:232,1,150,2|8,3:2|0:0,0:0:0:0:
257,289,83038,1,0,3:2:0:0:
194,226,83260,2,0,B|171:214|137:168|188:161|157:89,1,150,2|2,3:2|0:0,0:0:0:0:
69,109,83927,2,0,P|57:150|76:270,1,150,8|2,0:0|3:2,0:0:0:0:
115,331,84593,1,8,0:0:0:0:
191,283,84816,6,0,L|193:228,1,37.5,12|0,0:0|0:0,0:0:0:0:
102,140,99482,6,0,P|107:105|97:65,2,75,2|0|10,3:2|0:0|0:0,0:0:0:0:
62,212,100149,1,0,0:0:0:0:
6,273,100371,2,0,P|77:253|150:269,1,150,2|8,3:2|0:0,0:0:0:0:
221,310,101038,1,2,3:2:0:0:
290,355,101260,2,0,P|325:362|377:346,2,75,2|0|10,3:2|0:0|0:0,0:0:0:0:
221,310,101927,1,0,0:0:0:0:
253,234,102149,2,0,L|248:159,1,75,2|0,3:2|0:0,0:0:0:0:
178,115,102593,2,0,L|175:172,4,37.5,8|8|8|8|2,0:0|0:0|0:0|0:0|3:2,0:0:0:0:
187,33,103260,5,2,0:0:0:0:
262,65,103482,2,0,L|357:58,1,75,10|0,0:0|0:0,0:0:0:0:
419,50,103927,1,2,3:2:0:0:
419,50,104371,1,10,0:0:0:0:
461,120,104593,1,2,3:2:0:0:
461,120,105038,1,0,0:0:0:0:
378,127,105260,2,0,L|303:132,1,75,2|8,3:2|0:0,0:0:0:0:
222,146,105705,1,10,0:0:0:0:
183,219,105927,1,2,0:0:0:0:
187,301,106149,2,0,L|191:355,4,37.5,8|8|8|8|0,0:0|0:0|0:0|0:0|3:2,0:0:0:0:
276,298,106816,21,2,0:0:0:0:
276,298,106927,1,2,0:0:0:0:
276,298,107038,1,10,0:0:0:0:
346,344,107260,1,2,0:0:0:0:
346,344,107371,1,2,0:0:0:0:
346,344,107482,1,2,3:2:0:0:
409,289,107704,2,0,L|442:326,1,37.5,2|0,0:0|0:0,0:0:0:0:
475,240,108038,2,0,L|499:212,1,37.5,2|0,0:0|0:2,0:0:0:0:
434,109,108482,5,2,0:0:0:0:
406,127,108593,1,2,0:0:0:0:
372,128,108705,1,2,0:0:0:0:
341,117,108816,1,10,0:0:0:0:
274,57,109038,2,0,L|261:20,2,37.5,2|0|2,0:0|0:0|3:2,0:0:0:0:
262,138,109482,1,2,0:0:0:0:
228,213,109705,1,10,3:2:0:0:
166,267,109927,1,2,0:0:0:0:
25,132,110371,6,0,P|60:119|199:131,1,150,2|2,0:0|3:2,0:0:0:0:
248,151,111038,2,0,P|240:208|245:242,2,75,2|2|8,0:0|0:0|0:0,0:0:0:0:
294,82,111705,1,2,3:2:0:0:
294,82,112149,1,2,0:0:0:0:
368,46,112371,1,10,0:0:0:0:
446,71,112593,1,2,0:0:0:0:
482,145,112816,2,0,P|471:202|456:233,2,75,2|2|10,3:2|0:0|0:0,0:0:0:0:
396,68,113705,6,0,B|375:85|344:80|311:69,1,75,8|2,3:2|0:0,0:0:0:0:
285,54,114038,1,2,0:0:0:0:
161,65,114371,1,2,0:0:0:0:
161,65,114482,1,2,0:0:0:0:
161,65,114593,2,0,B|172:98|176:112|165:141,1,75,2|2,0:0|0:0,0:0:0:0:
141,171,114927,2,0,B|94:191|87:153|24:165,1,112.5
52,251,115482,1,10,0:0:0:0:
23,336,115705,1,10,0:0:0:0:
100,380,115927,1,2,0:0:0:0:
167,320,116149,2,0,P|242:297|323:333,1,150,12|12,0:0|0:0,0:0:0:0:
472,133,117260,22,0,B|465:76|465:76|470:58,1,75,2|0,3:2|0:0,0:0:0:0:
380,46,117705,2,0,B|387:103|387:103|382:120,1,75,10|2,3:2|0:0,0:0:0:0:
341,139,118038,2,0,L|354:220,1,75,2|0,0:0|0:0,0:0:0:0:
365,256,118371,2,0,P|329:257|311:289,1,75,2|10,0:0|3:2,0:0:0:0:
381,345,118816,1,2,0:0:0:0:
468,323,119038,1,2,3:2:0:0:
509,243,119260,1,2,0:0:0:0:
495,151,119482,1,10,0:0:0:0:
436,81,119705,2,0,P|362:69|289:86,2,150,2|2|2,0:0|0:0|0:0,0:0:0:0:
425,170,120816,6,0,B|408:165|408:165|351:172,1,75,0|0,3:2|0:0,0:0:0:0:
266,203,121260,1,10,0:0:0:0:
176,189,121482,1,2,0:0:0:0:
155,276,121705,2,0,B|172:271|172:271|229:278,1,75,2|0,3:2|0:0,0:0:0:0:
314,309,122149,1,10,0:0:0:0:
401,286,122371,1,2,0:0:0:0:
447,209,122593,6,0,P|426:145|438:59,1,150,8|8,0:0|0:0,0:0:0:0:
348,83,123260,2,0,P|312:95|275:98,1,75,8|8,0:0|0:0,0:0:0:0:
250,185,123705,2,0,P|212:181|177:169,1,75,8|8,0:0|0:0,0:0:0:0:
165,80,124149,2,0,P|13:137|101:295,1,375,8|8,0:0|3:2,0:0:0:0:
176,301,125482,2,0,P|177:259|192:227,1,75,8|8,0:0|3:2,0:0:0:0:
256,192,125927,12,8,127705,0:0:0:0:
294,154,127927,5,4,3:2:0:0:
225,97,128149,1,0,0:0:0:0:
171,169,128371,2,0,P|117:180|37:169,1,112.5,10|0,0:0|0:0,0:0:0:0:
18,157,128816,1,2,3:2:0:0:
37,245,129038,2,0,B|45:285|45:285|25:335,2,75,2|10|2,0:0|0:0|0:0,0:0:0:0:
18,157,129705,22,0,L|2:79,1,75,2|2,3:2|0:0,0:0:0:0:
88,17,130149,2,0,L|89:100,1,75,10|2,0:0|0:0,0:0:0:0:
131,171,130593,2,0,P|202:155|272:223,1,150,2|8,3:2|0:1,0:0:0:0:
187,248,131260,1,2,0:0:0:0:
123,312,131482,5,2,3:2:0:0:
204,350,131705,1,0,0:0:0:0:
267,286,131927,2,0,P|321:297|401:286,1,112.5,10|2,0:0|0:0,0:0:0:0:
422,286,132371,1,2,3:2:0:0:
379,204,132593,2,0,B|371:164|371:164|391:114,2,75,2|10|2,0:0|0:0|0:0,0:0:0:0:
473,148,133260,6,0,P|473:103|452:70,1,75,2|2,3:2|0:0,0:0:0:0:
370,63,133705,2,0,P|368:101|385:134,1,75,10|2,0:0|0:0,0:0:0:0:
401,221,134149,2,0,B|325:190|313:254|222:212,1,150,2|8,3:2|0:1,0:0:0:0:
96,135,135038,6,0,P|117:170|150:193,1,75,2|2,3:2|0:0,0:0:0:0:
220,142,135482,1,10,0:0:0:0:
261,222,135705,2,0,P|266:293|210:337,1,150,2|0,0:0|0:0,0:0:0:0:
124,371,136371,1,10,0:0:0:0:
124,371,136593,2,0,P|118:298|174:253,1,150,4|2,0:0|0:0,0:0:0:0:
261,222,137260,1,10,0:0:0:0:
195,160,137482,1,2,0:0:0:0:
194,70,137705,1,2,3:2:0:0:
252,1,137927,1,2,0:0:0:0:
293,18,138038,2,0,L|296:70,1,37.5,0|10,0:0|3:2,0:0:0:0:
304,145,138371,21,2,0:0:0:0:
389,116,138593,1,4,3:2:0:0:
465,162,138816,1,0,0:0:0:0:
301,238,139260,1,2,0:0:0:0:
374,289,139482,1,2,3:2:0:0:
456,254,139705,1,2,3:2:0:0:
465,162,139927,1,8,3:2:0:0:
389,116,140149,1,10,0:0:0:0:
374,289,140593,5,2,0:0:0:0:
317,220,140816,1,10,0:0:0:0:
231,195,141038,1,2,0:0:0:0:
144,215,141260,1,0,3:0:0:0:
75,273,141482,1,8,0:0:0:0:
56,361,141705,2,0,P|19:340|-7:298,1,75,8|8,0:1|0:1,0:0:0:0:
4,225,142149,5,2,3:2:0:0:
18,136,142371,1,0,0:0:0:0:
34,47,142593,2,0,P|95:63|164:65,1,112.5,10|0,0:0|0:0,0:0:0:0:
186,50,143038,1,2,3:2:0:0:
264,95,143260,2,0,P|231:125|188:142,2,75,2|10|2,0:0|0:0|0:0,0:0:0:0:
351,71,143927,2,0,P|369:111|372:157,1,75,2|0,3:2|0:0,0:0:0:0:
323,217,144371,2,0,P|328:253|345:287,1,75,10|2,0:0|0:0,0:0:0:0:
217,315,144816,2,0,P|240:247|224:146,1,150,2|8,3:2|0:1,0:0:0:0:
192,89,145482,1,2,0:0:0:0:
106,62,145705,5,2,3:2:0:0:
39,122,145927,1,0,0:0:0:0:
121,157,146149,2,0,P|122:221|90:294,1,112.5,10|2,3:2|0:0,0:0:0:0:
91,309,146593,1,2,3:2:0:0:
180,313,146816,2,0,P|184:355|208:394,2,75,2|10|2,0:0|0:0|0:0,0:0:0:0:
259,269,147482,22,0,P|302:281|339:270,1,75,2|2,3:2|0:0,0:0:0:0:
370,194,147927,2,0,P|334:181|297:188,1,75,10|2,0:0|0:0,0:0:0:0:
208,192,148371,2,0,B|239:116|176:139|217:13,1,150,2|8,3:2|0:1,0:0:0:0:
367,80,149260,6,0,P|320:77|275:90,1,75,2|2,3:2|0:0,0:0:0:0:
210,121,149705,1,10,0:0:0:0:
241,205,149927,2,0,B|283:218|283:218|338:187|403:208,1,150,2|2,0:0|0:0,0:0:0:0:
470,234,150593,1,10,0:0:0:0:
399,289,150816,5,2,0:0:0:0:
369,322,150927,2,0,L|326:318,1,37.5,0|2,0:0|3:2,0:0:0:0:
241,310,151260,1,2,0:0:0:0:
211,277,151371,2,0,L|168:281,1,37.5,0|10,0:0|0:0,0:0:0:0:
84,287,151705,1,2,0:0:0:0:
77,197,151927,1,2,3:2:0:0:
109,113,152149,1,2,0:0:0:0:
139,80,152260,2,0,L|182:84,1,37.5,2|10,0:0|0:0,0:0:0:0:
263,106,152593,6,0,P|256:139|230:182,1,75,2|4,0:0|3:2,0:0:0:0:
325,175,153038,2,0,P|332:208|358:251,1,75,2|10,0:0|0:0,0:0:0:0:
262,258,153482,2,0,P|245:303|168:380,1,150,2|8,3:2|0:0,0:0:0:0:
117,307,154149,1,0,3:2:0:0:
122,216,154371,2,0,P|139:171|216:94,1,150,2|2,3:2|0:0,0:0:0:0:
298,98,155038,2,0,P|353:148|384:215,1,150,8|2,0:0|3:2,0:0:0:0:
302,250,155705,1,8,0:0:0:0:
212,250,155927,1,2,3:2:0:0:
35,177,156371,22,0,B|63:215|63:215|34:276|49:340,2,150,0|0|0,3:2|3:0|3:0,0:0:0:0:
60,81,157482,1,2,0:0:0:0:
89,71,157593,1,2,0:0:0:0:
117,60,157705,2,0,L|92:130,1,75,0|0,3:0|0:0,0:0:0:0:
63,216,158149,2,0,B|144:191|149:245|218:206,2,150,0|0|0,3:0|3:0|3:0,0:0:0:0:
192,343,159482,1,0,3:0:0:0:
267,293,159705,1,0,3:0:0:0:
340,344,159927,6,0,B|396:364|401:330|464:352,1,112.5,0|0,3:2|0:0,0:0:0:0:
496,350,160371,2,0,B|441:288|457:199,1,150,0|0,3:0|3:0,0:0:0:0:
385,153,161038,1,2,0:0:0:0:
402,128,161149,1,2,0:0:0:0:
420,104,161260,1,2,3:2:0:0:
383,23,161482,1,0,0:0:0:0:
316,83,161705,6,0,B|259:50|192:88|192:88|160:73,2,150,0|0|0,3:0|3:0|3:0,0:0:0:0:
315,263,163038,1,0,3:0:0:0:
262,189,163260,1,0,3:0:0:0:
183,233,163482,6,0,B|74:246|74:246|27:223,2,150,0|0|0,3:2|3:0|3:0,0:0:0:0:
258,69,164816,1,0,3:0:0:0:
343,227,165260,2,0,L|290:236,2,37.5,2|2|2,3:2|0:0|0:0,0:0:0:0:
431,209,165705,1,0,3:0:0:0:
406,268,166149,1,0,3:0:0:0:
386,320,166593,1,0,3:0:0:0:
358,364,167038,22,0,B|361:323|361:323|344:271,1,75,2|2,3:2|0:0,0:0:0:0:
325,112,167705,2,0,B|322:153|322:153|339:205,1,75,2|0,3:2|0:0,0:0:0:0:
156,364,168593,2,0,B|153:323|153:323|170:271,1,75,2|2,3:2|0:0,0:0:0:0:
181,185,169038,1,2,0:0:0:0:
181,185,169260,2,0,B|192:153|192:153|189:112,1,75,2|0,3:2|0:0,0:0:0:0:
257,53,169705,5,2,0:0:0:0:
325,112,169927,1,0,3:2:0:0:
397,58,170149,1,8,0:0:0:0:
397,58,170593,5,2,0:0:0:0:
419,144,170816,2,0,P|457:141|502:154,2,75,0|0|2,0:0|3:2|0:0,0:0:0:0:
376,240,171705,2,0,P|390:275|392:322,2,75,2|2|2,3:2|3:2|0:0,0:0:0:0:
272,219,172593,1,2,0:0:0:0:
272,219,172816,1,2,0:0:0:0:
272,219,173038,2,0,P|243:243|123:247,1,150,2|0,0:0|3:2,0:0:0:0:
56,208,173705,2,0,P|84:183|205:180,1,150,2|0,3:2|0:0,0:0:0:0:
272,219,174371,6,0,P|282:261|314:295,1,75,0|2,0:0|3:2,0:0:0:0:
375,335,174816,2,0,P|432:296|454:210,1,150,2|2,0:0|3:2,0:0:0:0:
447,131,175482,1,2,3:2:0:0:
381,69,175705,1,2,0:0:0:0:
381,69,176149,1,2,0:0:0:0:
381,69,176593,1,2,0:0:0:0:
381,69,177038,1,2,3:2:0:0:
296,126,177260,1,2,3:2:0:0:
207,69,177705,22,0,L|202:158,1,75,2|2,0:0|0:0,0:0:0:0:
114,125,178149,1,2,3:2:0:0:
27,99,178371,1,2,0:0:0:0:
36,188,178593,2,0,L|43:346,1,150,10|2,0:0|3:2,0:0:0:0:
130,318,179260,1,2,0:0:0:0:
130,318,179482,6,0,L|135:229,1,75,2|2,0:0|0:0,0:0:0:0:
223,262,179927,1,2,3:2:0:0:
310,288,180149,1,0,0:0:0:0:
301,199,180371,2,0,L|294:41,1,150,10|2,0:0|3:2,0:0:0:0:
376,86,181038,1,2,0:0:0:0:
376,86,181482,6,0,P|417:81|460:46,1,75,2|2,0:0|3:2,0:0:0:0:
485,0,181927,1,2,0:0:0:0:
505,118,182371,1,2,3:2:0:0:
440,218,182816,1,2,0:0:0:0:
474,333,183260,1,2,0:0:0:0:
404,362,183482,1,8,0:0:0:0:
332,340,183705,1,2,0:0:0:0:
332,340,184149,1,2,0:0:0:0:
261,365,184371,2,0,P|223:361|191:342,1,75,8|2,3:2|3:2,0:0:0:0:
106,372,184816,5,0,3:2:0:0:
39,316,185038,21,2,0:0:0:0:
74,232,185260,1,10,0:0:0:0:
107,148,185482,2,0,P|60:148|28:129,1,75,2|0,0:0|3:2,0:0:0:0:
87,62,185927,5,0,0:0:0:0:
177,69,186149,1,8,0:0:0:0:
267,75,186371,2,0,P|252:30|260:-6,1,75,2|2,0:0|3:2,0:0:0:0:
340,35,186816,5,2,0:0:0:0:
364,122,187038,1,8,0:0:0:0:
305,189,187260,2,0,P|380:211|442:166,1,150,2|0,0:0|3:2,0:0:0:0:
364,122,187927,2,0,B|396:211|346:192|384:283,1,150,8|2,3:2|3:2,0:0:0:0:
405,354,188593,5,2,0:0:0:0:
494,343,188816,1,8,0:0:0:0:
485,253,189038,2,0,P|491:173|469:98,1,150,2|2,0:0|0:0,0:0:0:0:
421,32,189705,1,10,0:0:0:0:
371,107,189927,1,2,0:0:0:0:
304,224,190371,1,2,0:0:0:0:
216,326,190816,2,0,P|197:253|203:179,1,150,2|8,0:0|0:0,0:0:0:0:
211,142,191371,2,0,P|213:110|203:89,1,37.5,8|8,0:0|0:0,0:0:0:0:
124,115,191705,1,8,0:0:0:0:
71,41,191927,22,0,P|120:48|158:39,1,75,8|8,0:0|0:0,0:0:0:0:
227,7,192371,1,10,0:0:0:0:
227,7,192593,2,0,P|276:0|314:9,1,75,10|8,0:0|0:0,0:0:0:0:
386,33,193038,1,10,0:0:0:0:
386,33,193260,2,0,P|432:39|477:24,1,75,10|10,0:0|0:0,0:0:0:0:
485,118,193705,6,0,L|404:133,1,75,8|8,3:2|0:0,0:0:0:0:
358,204,194149,1,8,3:2:0:0:
294,140,194371,2,0,L|204:128,1,75,8|8,0:0|3:2,0:0:0:0:
161,199,194816,1,8,0:0:0:0:
96,137,195038,2,0,L|21:146,1,75,8|8,3:2|0:0,0:0:0:0:
15,236,195482,5,0,3:0:0:0:
66,309,195705,1,0,3:0:0:0:
147,347,195927,1,10,3:2:0:0:
236,347,196149,1,10,3:2:0:0:
321,319,196371,1,8,0:0:0:0:
384,256,196593,1,10,0:0:0:0:
407,170,196816,1,10,0:0:0:0:
256,192,197038,12,4,199038,0:0:0:0:
233,59,202593,6,0,L|241:131,1,56.2500021457673,8|0,0:0|0:0,0:0:0:0:
218,185,203038,2,0,P|233:219|229:285,1,84.3750032186509,2|2,0:0|0:0,0:0:0:0:
227,301,203482,1,2,0:0:0:0:
279,352,203705,2,0,B|306:358|306:358|397:346,1,112.500004291535,2|0,0:0|0:0,0:0:0:0:
389,274,204371,1,2,0:0:0:0:
384,161,204816,1,2,0:0:0:0:
290,223,205260,2,0,P|225:221|187:180,1,112.500004291535,2|10,0:0|0:0,0:0:0:0:
92,83,206149,22,0,L|84:154,1,56.2500021457673,8|0,0:0|0:0,0:0:0:0:
108,208,206593,2,0,P|92:242|96:308,1,84.3750032186509,2|0,0:0|0:0,0:0:0:0:
103,322,207038,1,2,0:0:0:0:
168,355,207260,2,0,P|193:324|206:250,1,112.500004291535,2|2,0:0|0:0,0:0:0:0:
192,182,207927,1,2,0:0:0:0:
257,90,208371,1,2,0:0:0:0:
322,182,208816,2,0,B|376:165|379:206|439:179,1,112.500004291535,8|8,0:0|0:1,0:0:0:0:
406,39,209705,6,0,P|402:79|416:121,1,66.0000020141602,8|0,0:0|0:0,0:0:0:0:
431,182,210149,1,8,0:0:0:0:
457,256,210371,2,0,P|394:259|325:293,1,132.00000402832
269,335,211038,1,8,0:0:0:0:
190,344,211260,2,0,P|124:340|65:312,1,132.00000402832
23,245,211927,1,8,0:0:0:0:
29,166,212149,2,0,P|71:168|98:177,1,66.0000020141602,0|8,0:0|0:0,0:0:0:0:
169,151,212593,2,0,P|202:142|236:140,2,66.0000020141602,0|8|0,0:0|0:0|3:0,0:0:0:0:
157,229,213260,5,8,3:2:0:0:
217,295,213482,1,8,0:0:0:0:
305,312,213705,1,8,3:2:0:0:
390,284,213927,1,8,0:0:0:0:
452,219,214149,1,8,3:2:0:0:
476,132,214371,1,8,0:0:0:0:
469,42,214593,1,8,0:0:0:0:
256,192,214816,12,8,216593,0:0:0:0:
424,19,216816,5,4,3:2:0:0:
436,108,217038,1,0,0:0:0:0:
370,168,217260,2,0,P|375:232|409:302,1,112.5,10|0,0:0|0:0,0:0:0:0:
424,308,217705,1,2,3:2:0:0:
347,355,217927,2,0,B|300:350|300:350|257:365,2,75,2|10|2,0:0|0:0|0:0,0:0:0:0:
309,273,218593,22,0,P|296:246|287:202,1,75,2|2,3:2|0:0,0:0:0:0:
213,149,219038,2,0,P|206:185|191:219,1,75,10|2,0:0|0:0,0:0:0:0:
145,297,219482,2,0,B|76:254|64:317|0:284,1,150,2|8,3:2|0:1,0:0:0:0:
32,200,220149,1,2,0:0:0:0:
5,113,220371,5,6,3:2:0:0:
52,36,220593,1,0,0:0:0:0:
130,79,220816,2,0,P|192:95|252:91,1,112.5,10|2,0:0|0:0,0:0:0:0:
284,82,221260,1,2,3:2:0:0:
373,85,221482,2,0,B|415:83|415:83|467:54,2,75,0|10|2,0:0|0:0|0:0,0:0:0:0:
283,95,222149,6,0,P|299:138|336:168,1,75,2|2,3:2|0:0,0:0:0:0:
411,167,222593,2,0,P|399:203|374:230,1,75,10|2,0:0|0:0,0:0:0:0:
290,262,223038,2,0,B|220:228|219:293|127:263,1,150,2|8,3:2|0:1,0:0:0:0:
37,123,223927,6,0,P|34:173|53:218,1,75,2|2,3:2|0:0,0:0:0:0:
121,156,224371,1,10,0:0:0:0:
145,243,224593,2,0,P|206:206|209:134,1,150,2|2,0:0|0:0,0:0:0:0:
186,46,225260,1,10,0:0:0:0:
186,46,225482,2,0,P|124:84|121:156,1,150,2|2,0:0|0:0,0:0:0:0:
172,229,226149,1,10,0:0:0:0:
253,269,226371,1,2,0:0:0:0:
343,266,226593,1,2,3:2:0:0:
420,219,226816,1,2,0:0:0:0:
415,175,226927,2,0,P|417:149|437:121,1,37.5,2|10,0:0|3:2,0:0:0:0:
457,55,227260,21,2,0:0:0:0:
369,74,227482,1,4,3:2:0:0:
282,48,227705,1,0,0:0:0:0:
128,141,228149,1,2,0:0:0:0:
175,64,228371,1,2,3:2:0:0:
306,94,228705,1,0,0:0:0:0:
435,56,229038,1,10,0:0:0:0:
413,234,229482,5,2,0:0:0:0:
366,157,229705,1,10,0:0:0:0:
289,109,229927,1,2,0:0:0:0:
200,94,230149,1,0,3:2:0:0:
113,119,230371,1,8,0:0:0:0:
51,184,230593,2,0,P|27:148|23:99,1,75,8|8,0:1|0:1,0:0:0:0:
31,28,231038,5,2,3:2:0:0:
110,70,231260,1,0,0:0:0:0:
196,46,231482,2,0,P|194:120|165:183,1,112.5,10|0,0:0|0:0,0:0:0:0:
148,186,231927,1,2,3:2:0:0:
60,208,232149,1,2,0:0:0:0:
54,297,232371,1,10,0:0:0:0:
134,336,232593,1,2,0:0:0:0:
199,273,232816,6,0,P|217:315|219:370,1,75,0|2,0:0|0:0,0:0:0:0:
309,362,233260,2,0,P|328:330|338:293,1,75,10|2,0:0|0:0,0:0:0:0:
354,205,233705,2,0,P|433:231|497:188,1,150,2|8,3:2|0:1,0:0:0:0:
505,112,234371,1,8,0:0:0:0:
418,138,234593,21,4,3:2:0:0:
332,111,234816,1,0,0:0:0:0:
257,60,235038,2,0,P|198:52|124:67,1,112.5,10|2,0:2|0:0,0:0:0:0:
103,76,235482,1,2,3:2:0:0:
20,112,235705,1,2,0:0:0:0:
88,171,235927,1,10,0:0:0:0:
7,211,236149,1,2,0:0:0:0:
78,265,236371,6,0,L|68:344,1,75,2|2,3:2|0:0,0:0:0:0:
162,371,236816,2,0,L|155:288,1,75,10|2,0:0|0:0,0:0:0:0:
170,207,237260,2,0,P|237:235|317:179,1,150,2|8,3:2|0:1,0:0:0:0:
422,104,238149,6,0,P|378:112|350:133,1,75,2|2,3:2|0:0,0:0:0:0:
302,203,238593,1,10,0:0:0:0:
391,210,238816,2,0,B|422:286|359:263|400:389,1,150,2|0,0:0|0:0,0:0:0:0:
478,336,239482,1,10,0:0:0:0:
485,246,239705,5,2,0:0:0:0:
483,201,239816,2,0,L|476:164,1,37.5,0|2,0:0|3:2,0:0:0:0:
406,107,240149,1,2,0:0:0:0:
388,148,240260,2,0,L|398:206,1,37.5,2|10,0:0|0:0,0:0:0:0:
337,254,240593,1,2,0:0:0:0:
257,212,240816,1,2,3:2:0:0:
177,254,241038,1,2,0:0:0:0:
171,298,241149,2,0,L|164:334,1,37.5,2|10,0:0|0:0,0:0:0:0:
77,361,241482,22,0,L|69:286,1,75,2|4,0:0|3:2,0:0:0:0:
10,218,241927,1,2,0:0:0:0:
27,129,242149,1,10,0:0:0:0:
97,73,242371,2,0,P|204:101|218:222,1,225,2|8,3:2|0:0,0:0:0:0:
210,291,243260,2,0,P|283:279|357:291,1,150,2|2,3:2|0:0,0:0:0:0:
424,231,243927,1,8,0:0:0:0:
496,177,244149,2,0,P|422:188|348:176,1,150,2|2,0:0|0:0,0:0:0:0:
387,0,245038,5,2,0:0:0:0:
340,77,245260,1,2,3:2:0:0:
257,112,245482,1,2,0:0:0:0:
174,77,245705,1,8,0:0:0:0:
127,0,245927,2,0,P|99:110|42:144,1,150,4|2,3:2|3:2,0:0:0:0:
160,175,246593,1,10,0:0:0:0:
160,175,246816,2,0,P|164:248|212:305,1,150,2|0,3:2|0:0,0:0:0:0:
302,305,247482,2,0,P|349:248|354:174,1,150,2|2,3:2|3:2,0:0:0:0:
440,129,248149,1,8,0:0:0:0:
365,78,248371,6,0,L|319:73,1,37.5,12|0,0:0|0:0,0:0:0:0:
284,86,248593,2,0,L|246:81,1,37.5
201,79,248816,5,4,3:2:0:0:
121,37,249038,1,0,0:0:0:0:
136,126,249260,2,0,P|140:181|125:235,1,112.5,10|2,0:0|0:0,0:0:0:0:
105,276,249705,1,2,3:2:0:0:
178,328,249927,1,2,0:0:0:0:
246,270,250149,1,10,0:0:0:0:
212,186,250371,1,0,0:0:0:0:
301,182,250593,22,0,P|347:179|376:170,1,75,2|0,3:2|0:0,0:0:0:0:
408,86,251038,2,0,P|370:87|334:96,1,75,10|2,0:0|0:0,0:0:0:0:
301,182,251482,2,0,B|328:256|276:261|309:337,1,150,2|10,3:2|0:0,0:0:0:0:
383,373,252149,1,2,0:0:0:0:
470,350,252371,5,2,3:2:0:0:
412,281,252593,1,2,0:0:0:0:
324,304,252816,5,10,0:0:0:0:
352,219,253038,1,2,0:0:0:0:
439,197,253260,5,2,3:2:0:0:
378,131,253482,1,2,0:0:0:0:
290,150,253705,21,10,0:0:0:0:
321,66,253927,1,2,0:0:0:0:
234,64,254149,6,0,P|246:20|275:-6,1,75,2|2,3:2|0:0,0:0:0:0:
321,66,254593,2,0,P|314:102|289:130,1,75,10|2,0:0|0:0,0:0:0:0:
201,151,255038,2,0,B|131:175|128:124|50:157,1,150,2|10,3:2|0:0,0:0:0:0:
149,271,255927,6,0,B|113:274|113:274|62:294,2,75,2|2|10,3:2|0:0|0:0,0:0:0:0:
207,318,256593,2,0,P|270:337|359:338,1,150,2|2,0:0|0:0,0:0:0:0:
405,284,257260,1,10,0:0:0:0:
442,218,257482,2,0,P|379:199|290:198,1,150,2|0,0:0|0:0,0:0:0:0:
251,257,258149,5,10,0:0:0:0:
180,234,258371,1,2,0:0:0:0:
180,159,258593,1,2,3:2:0:0:
251,136,258816,1,0,0:0:0:0:
295,197,259038,1,10,0:0:0:0:
180,234,259482,21,2,3:2:0:0:
180,234,259705,1,2,0:0:0:0:
67,133,260149,5,2,0:0:0:0:
113,74,260371,1,2,0:0:0:0:
184,51,260593,1,2,0:0:0:0:
259,56,260816,1,8,0:0:0:0:
327,100,261038,1,2,0:0:0:0:
327,100,261482,5,2,0:0:0:0:
259,56,261705,1,10,0:0:0:0:
184,51,261927,1,2,0:0:0:0:
113,74,262149,1,2,3:2:0:0:
67,133,262371,1,8,0:1:0:0:
192,176,262593,22,0,B|148:144|117:206|206:256|206:256|294:204|248:126|192:195,1,300,8|0,0:1|0:0,0:0:0:0:
