osu file format v14

[General]
AudioFilename: audio.mp3
AudioLeadIn: 0
PreviewTime: 1109
Countdown: 0
SampleSet: Soft
StackLeniency: 0.7
Mode: 0
LetterboxInBreaks: 0
WidescreenStoryboard: 1

[Editor]
Bookmarks: 49859,61859,106859,109859,133859,157109,157859,181859,193859,205859,208859,210359,211859,235109,235484,235859,253109,253484,253859,259109
DistanceSpacing: 1
BeatDivisor: 4
GridSize: 4
TimelineZoom: 1.8

[Metadata]
Title:Voice
TitleUnicode:Voice
Artist:cillia
ArtistUnicode:cillia
Creator:Jager-kun
Version:Voices of reason
Source:
Tags:vocaloid Megpoid cillia cover HarryP kyaami
BeatmapID:1297196
BeatmapSetID:614961

[Difficulty]
HPDrainRate:6
CircleSize:4
OverallDifficulty:7
ApproachRate:8.5
SliderMultiplier:1.8
SliderTickRate:1

[Events]
//Background and Video events
0,0,"47455741_p0.jpg",0,0
//Break Periods
2,158059,181184
//Storyboard Layer 0 (Background)
//Storyboard Layer 1 (Fail)
//Storyboard Layer 2 (Pass)
//Storyboard Layer 3 (Foreground)
//Storyboard Sound Samples

[TimingPoints]
1859,750,4,2,1,30,1,0
49859,750,4,2,1,30,1,0
49859,-100,4,2,1,30,0,0
50234,-66.6666666666667,4,2,1,30,0,0
50609,-100,4,2,1,30,0,0
52859,-66.6666666666667,4,2,1,30,0,0
53609,-100,4,2,1,30,0,0
55859,-66.6666666666667,4,2,1,30,0,0
56609,-100,4,2,1,30,0,0
58859,-66.6666666666667,4,2,1,30,0,0
59609,-100,4,2,1,30,0,0
61859,-80,4,2,1,30,0,0
106859,-133.333333333333,4,2,1,30,0,0
109859,-74.0740740740741,4,2,1,30,0,0
133859,-66.6666666666667,4,2,0,60,0,1
157109,-133.333333333333,4,2,1,60,0,1
157859,-133.333333333333,4,2,1,40,0,0
181859,-74.0740740740741,4,2,1,40,0,0
193859,-68.9655172413793,4,2,1,40,0,0
205859,-133.333333333333,4,2,1,5,0,0
208859,-200,4,2,1,5,0,0
210359,-66.6666666666667,4,2,1,40,0,0
211859,-57.1428571428571,4,2,0,75,0,1
235109,-100,4,2,0,75,0,0
235484,-100,4,2,0,75,0,0
235859,-66.6666666666667,4,2,0,75,0,1
253109,-100,4,2,0,75,0,0
253484,-100,4,2,0,75,0,0
253859,-66.6666666666667,4,2,1,75,0,1
259109,-100,4,2,0,75,0,0

[Colours]
Combo1 : 255,166,166
Combo2 : 24,101,177
Combo3 : 218,218,218
Combo4 : 255,255,128

[HitObjects]
32,92,49859,6,0,L|92:84,1,45
196,52,50234,1,0,0:0:0:0:
216,80,50327,1,0,0:0:0:0:
224,112,50421,1,0,0:0:0:0:
220,144,50515,1,0,0:0:0:0:
208,180,50609,6,0,L|68:164,1,135.000005149842
44,300,51359,6,0,L|148:292,1,90
264,360,52109,2,0,L|160:352,1,90
264,360,52859,6,0,L|344:360,1,67.5000025749208
396,304,53234,1,0,0:0:0:0:
416,276,53327,1,0,0:0:0:0:
428,244,53421,1,0,0:0:0:0:
432,212,53515,1,0,0:0:0:0:
428,188,53609,6,0,L|328:184,1,90
168,256,54359,2,0,L|268:252,1,90
236,140,55109,2,0,L|136:136,1,90
8,264,55859,6,0,L|100:276,1,67.5000025749208
148,348,56234,1,0,0:0:0:0:
180,348,56327,1,0,0:0:0:0:
212,348,56421,1,0,0:0:0:0:
244,348,56515,1,0,0:0:0:0:
268,348,56609,6,0,L|412:344,1,135
472,172,57359,2,0,L|382:168,1,90
284,248,58109,2,0,L|373:244,1,90
208,152,58859,6,0,L|140:148,1,67.5000025749208
56,188,59234,1,0,0:0:0:0:
44,220,59327,1,0,0:0:0:0:
48,252,59421,1,0,0:0:0:0:
56,284,59515,1,0,0:0:0:0:
68,304,59609,2,0,L|176:300,1,90
216,232,60359,5,0,0:0:0:0:
256,192,60452,12,0,61484,0:0:0:0:
440,124,61859,6,0,P|456:168|444:240,1,112.5
368,264,62421,2,0,P|364:232|372:196,1,56.25
432,328,62984,1,0,0:0:0:0:
352,360,63171,1,0,0:0:0:0:
272,348,63359,6,0,L|156:344,1,112.5
0,192,64109,2,0,L|116:188,1,112.5
24,272,64671,1,0,0:0:0:0:
215,204,64859,6,0,B|207:188|207:188|111:188,1,112.5
144,348,65421,2,0,L|264:364,1,112.5
360,320,65984,1,0,0:0:0:0:
316,256,66171,1,0,0:0:0:0:
364,324,66359,6,0,P|396:288|396:260,1,56.25
288,184,66734,2,0,L|424:172,2,112.5
176,272,67859,6,0,L|56:264,1,112.5
24,336,68421,1,0,0:0:0:0:
64,172,68609,2,0,B|84:192|84:192|172:196,1,112.5
240,136,69171,1,0,0:0:0:0:
200,64,69359,6,0,L|80:68,1,112.5
320,160,69921,1,0,0:0:0:0:
296,80,70109,2,0,L|416:84,1,112.5
332,244,70671,1,0,0:0:0:0:
392,191,70859,6,0,B|408:167|408:167|408:71,1,112.5
332,244,71609,2,0,B|316:268|316:268|316:364,1,112.5
404,268,72171,1,0,0:0:0:0:
264,216,72359,2,0,L|144:216,1,112.5
40,280,73109,1,0,0:0:0:0:
80,352,73296,1,0,0:0:0:0:
134,115,73859,6,0,P|163:166|134:235,1,112.5
88,176,74421,1,0,0:0:0:0:
56,104,74609,2,0,P|76:64|140:40,1,112.5
220,92,75171,1,0,0:0:0:0:
200,168,75359,2,0,L|76:176,1,112.5
40,280,76109,2,0,L|164:288,1,112.5
432,344,76859,6,0,L|308:352,1,112.5
288,255,77421,1,0,0:0:0:0:
288,255,77609,2,0,B|316:271|316:271|320:371,1,112.5
200,248,78171,1,0,0:0:0:0:
220,176,78359,2,0,L|332:176,1,112.5
160,320,79109,6,0,L|92:316,1,56.25
32,192,79484,2,0,L|100:188,1,56.25
196,192,79859,6,0,B|156:176|156:176|64:192,1,112.5
152,256,80421,2,0,P|192:268|264:224,1,112.5
272,144,80984,1,0,0:0:0:0:
253,239,81171,1,0,0:0:0:0:
300,328,81359,6,0,P|344:336|416:336,1,112.5
456,264,81921,1,0,0:0:0:0:
456,264,82109,1,0,0:0:0:0:
272,144,82484,6,0,P|316:136|344:140,1,56.25
496,184,82859,2,0,L|376:188,1,112.5
240,56,83609,2,0,L|360:60,1,112.5
232,140,84171,1,0,0:0:0:0:
180,200,84359,2,0,L|64:196,1,112.5
228,268,85109,2,0,L|344:264,1,112.5
440,124,85859,6,0,P|456:168|444:240,1,112.5
368,264,86421,1,0,0:0:0:0:
368,264,86609,2,0,P|364:232|372:196,1,56.25
352,352,86984,2,0,L|416:344,1,56.25
272,348,87359,2,0,L|156:344,1,112.5
0,192,88109,2,0,L|116:188,1,112.5
132,268,88671,1,0,0:0:0:0:
112,188,88859,6,0,L|100:76,1,112.5
228,84,89421,1,0,0:0:0:0:
228,84,89609,2,0,L|216:196,1,112.5
216,195,90171,1,0,0:0:0:0:
232,304,90359,2,0,B|216:268|216:268|216:184,1,112.5
277,113,91109,6,0,P|323:102|399:111,1,112.5
469,255,91859,2,0,P|423:266|347:257,1,112.5
305,188,92421,2,0,P|343:180|372:189,1,56.25
286,308,92984,2,0,P|248:300|219:309,1,56.25
255,375,93359,6,0,P|286:382|354:337,1,112.5
305,188,94109,5,0,0:0:0:0:
305,188,94484,1,0,0:0:0:0:
212,210,94671,1,0,0:0:0:0:
119,244,94859,6,0,L|126:359,1,112.5
212,210,95609,2,0,P|240:162|200:78,1,112.5
164,148,96359,2,0,L|416:148,1,225
389,148,97296,1,0,0:0:0:0:
488,276,97859,6,0,B|444:288|444:288|376:280,1,112.5
304,240,98421,1,0,0:0:0:0:
316,352,98609,2,0,L|400:360,1,56.25
244,300,98984,2,0,L|160:308,1,56.25
116,264,99359,2,0,P|92:212|104:148,1,112.5
168,92,100109,2,0,P|192:144|180:208,1,112.5
88,76,100859,6,0,L|-32:64,1,112.5
42,161,101421,2,0,L|122:157,1,56.25
185,197,101796,1,0,0:0:0:0:
185,197,101984,2,0,L|304:196,1,112.5
376,144,102734,1,0,0:0:0:0:
452,216,103109,6,0,P|464:264|440:340,1,112.5
348,356,103859,2,0,L|256:348,1,56.25
172,248,104421,2,0,L|292:232,1,112.5
376,268,104984,1,0,0:0:0:0:
291,351,105171,1,0,0:0:0:0:
283,233,105359,6,0,L|271:109,1,112.5
348,76,105921,1,0,0:0:0:0:
460,68,106109,2,0,L|340:76,1,112.5
272,36,106671,1,0,0:0:0:0:
188,96,106859,6,0,L|88:96,1,67.5000025749208
56,196,107609,2,0,L|156:196,1,67.5000025749208
256,192,108359,12,0,109484,0:0:0:0:
212,300,109859,6,0,L|360:288,1,121.500000463486
432,124,110609,2,0,L|284:112,1,121.500000463486
248,160,111359,1,0,0:0:0:0:
333,290,111734,1,0,0:0:0:0:
252,344,112109,2,0,L|104:332,1,121.500000463486,0|0,0:2|0:2,0:2:0:0:
333,290,112859,6,0,L|481:278,1,121.500000463486
248,160,113609,2,0,L|126:150,1,121.500000463486,0|0,0:2|0:2,0:2:0:0:
48,192,114359,1,0,0:0:0:0:
112,300,114734,1,0,0:0:0:0:
172,356,115109,2,0,P|192:292|120:224,1,121.500000463486
84,184,115859,6,0,L|-44:168,1,121.500000463486
164,112,116609,2,0,L|292:96,1,121.500000463486
372,144,117359,1,0,0:0:0:0:
364,228,117734,1,0,0:0:0:0:
320,292,118109,2,0,P|288:240|300:180,1,121.500000463486
342,119,118859,2,0,P|374:171|362:231,1,121.500000463486
248,328,119609,2,0,L|120:312,1,121.500000463486
44,208,120359,2,0,L|172:192,1,121.500000463486
368,343,121109,2,0,L|240:327,1,121.500000463486
168,196,121859,6,0,P|148:132|200:60,1,121.500000463486
232,32,122609,2,0,P|252:96|200:168,1,121.500000463486
104,248,123171,1,0,0:0:0:0:
104,248,123359,2,0,L|-52:240,2,121.500000463486
168,308,124484,1,0,0:0:0:0:
252,280,124859,6,0,L|324:268,1,60.7500002317429
388,184,125234,2,0,L|316:172,1,60.7500002317429
280,264,125609,6,0,L|352:252,1,60.7500002317429
416,168,125984,2,0,L|344:156,1,60.7500002317429
184,72,126359,6,0,L|324:60,1,121.500000463486
144,152,127109,2,0,P|104:112|124:8,1,121.500000463486
184,72,127859,6,0,P|224:112|204:216,1,121.500000463486
160,228,128609,2,0,L|-4:220,1,121.500000463486
184,336,129359,2,0,L|348:328,1,121.500000463486
396,272,130109,2,0,L|328:260,1,60.7500002317429
240,172,130484,2,0,L|308:160,1,60.7500002317429
368,88,130859,6,0,P|400:152|384:212,1,121.500000463486
323,272,131609,2,0,P|291:208|307:148,1,121.500000463486
468,168,132359,1,0,0:0:0:0:
392,320,132734,1,0,0:0:0:0:
328,280,132921,1,0,0:0:0:0:
328,280,133014,1,0,0:0:0:0:
328,280,133108,5,0,0:0:0:0:
192,152,133296,1,0,0:0:0:0:
207,252,133484,1,0,0:0:0:0:
72,252,133859,6,0,L|216:252,1,135.000005149842
280,200,134609,2,0,B|256:176|256:176|152:176,1,135.000005149842
136,336,135359,2,0,L|240:336,1,67.5000025749208
352,280,135734,2,0,L|248:280,1,67.5000025749208
384,364,136109,2,0,P|428:332|428:224,1,135.000005149842
340,213,136859,6,0,L|356:305,1,67.5000025749208
208,336,137234,2,0,L|219:269,1,67.5000025749208
201,135,137609,2,0,L|221:283,1,135.000005149842
132,304,138359,2,0,B|144:276|144:276|124:136,1,135.000005149842
44,136,139109,2,0,L|64:288,1,135.000005149842
108,80,139671,1,0,0:0:0:0:
168,24,139859,6,0,L|316:24,1,135.000005149842
427,52,140609,2,0,B|395:24|395:24|287:24,1,135.000005149842
408,176,141171,1,0,0:0:0:0:
352,104,141359,2,0,L|208:104,1,135.000005149842
408,176,142109,2,0,P|440:120|416:35,1,135.000005149842
196,16,142859,5,0,0:0:0:0:
348,112,143234,1,0,0:0:0:0:
324,200,143609,2,0,L|176:188,1,135.000005149842
76,304,144359,2,0,L|224:292,1,135.000005149842
210,293,144921,1,0,0:0:0:0:
210,293,145015,1,0,0:0:0:0:
210,293,145109,5,0,0:0:0:0:
140,124,145296,1,0,0:0:0:0:
72,160,145484,2,0,L|76:236,1,67.5000025749208
309,334,145859,6,0,L|325:186,1,135.000005149842
174,54,146609,2,0,L|188:188,1,135.000005149842
174,322,147171,1,0,0:0:0:0:
174,322,147359,6,0,L|188:187,1,135.000005149842
104,120,148109,2,0,B|112:192|112:192|100:296,1,135.000005149842
248,364,148859,6,0,L|262:229,1,135.000005149842
173,53,149609,2,0,L|187:187,1,135.000005149842
336,64,150359,1,0,0:0:0:0:
248,36,150734,1,0,0:0:0:0:
384,140,151109,2,0,P|424:72|392:-12,1,135.000005149842
336,64,151859,6,0,P|296:132|328:216,1,135.000005149842
360,260,152609,2,0,L|512:244,1,135.000005149842
512,152,153171,1,0,0:0:0:0:
512,152,153359,2,0,L|360:136,1,135.000005149842
170,198,154109,2,0,L|322:182,1,135.000005149842
144,124,154859,6,0,P|100:168|108:248,1,135.000005149842
256,288,155609,2,0,P|224:224|160:200,1,135.000005149842
152,304,156359,1,0,0:0:0:0:
208,356,156734,1,0,0:0:0:0:
284,364,157109,6,0,L|428:356,1,135.000005149842
268,284,181859,6,0,P|212:340|160:348,1,121.500000463486
184,256,182421,2,0,P|240:200|292:192,1,121.500000463486
336,264,182984,1,0,0:0:0:0:
262,79,183171,1,0,0:0:0:0:
374,127,183359,2,0,P|318:183|266:191,1,121.500000463486
204,148,183921,1,0,0:0:0:0:
262,79,184109,2,0,P|290:144|265:210,1,121.500000463486
269,278,184671,1,0,0:0:0:0:
89,226,184859,6,0,L|220:219,1,121.500000463486
432,350,185421,2,0,L|301:343,1,121.500000463486
268,278,185984,1,0,0:0:0:0:
89,226,186359,6,0,L|220:219,1,121.500000463486
432,350,186921,2,0,L|301:343,1,121.500000463486
268,278,187484,1,0,0:0:0:0:
332,235,187859,6,0,P|344:287|290:353,1,121.500000463486
210,219,188421,2,0,P|198:167|252:101,1,121.500000463486
399,160,188984,2,0,L|279:174,1,121.500000463486
108,46,189734,2,0,L|202:55,1,60.7500002317429
210,219,190109,2,0,L|90:233,1,121.500000463486
10,123,190671,1,0,0:0:0:0:
10,123,190859,6,0,L|130:137,1,121.500000463486
276,294,191609,2,0,L|156:308,1,121.500000463486
256,192,192359,12,0,193484,0:0:0:0:
416,288,193859,6,0,L|428:144,1,130.500003982544
316,28,194421,2,0,L|328:172,1,130.500003982544
316,288,194984,2,0,L|328:144,1,130.500003982544
340,364,195546,1,0,0:0:0:0:
236,312,195734,6,0,P|276:360|368:348,1,130.500003982544
395,304,196296,1,0,0:0:0:0:
312,288,196484,2,0,L|392:284,1,65.250001991272
512,328,196859,6,0,B|504:308|504:308|392:304,1,130.500003982544
326,157,197421,2,0,B|340:176|340:176|456:176,1,130.500003982544
468,100,197984,2,0,L|396:100,1,65.250001991272
205,176,198359,6,0,B|219:157|219:157|335:157,1,130.500003982544
256,236,198921,2,0,P|216:256|136:212,1,130.500003982544
131,146,199484,1,0,0:0:0:0:
201,47,199859,6,0,B|213:123|213:123|201:195,1,130.500003982544
207,304,200421,2,0,B|195:228|195:228|207:156,1,130.500003982544
276,192,200984,2,0,B|268:228|268:228|276:280,1,65.250001991272
398,272,201359,6,0,B|370:256|370:256|246:256,1,130.500003982544
256,192,201921,12,0,205109,0:0:0:0:
256,192,205859,12,0,208109,0:0:0:0:
256,192,208859,12,0,209984,0:0:0:0:
104,240,210359,5,0,0:0:0:0:
176,96,210546,1,0,0:0:0:0:
256,268,210734,1,0,0:0:0:0:
329,183,210921,1,0,0:0:0:0:
170,324,211109,5,0,0:0:0:0:
242,180,211296,1,0,0:0:0:0:
322,352,211484,1,0,0:0:0:0:
395,267,211671,1,0,0:0:0:0:
243,255,211859,6,0,B|279:275|279:275|407:267,1,157.500001502037
408,180,212421,2,0,L|312:184,1,78.7500007510185
232,108,212796,2,0,L|404:104,1,157.500001502037
472,120,213359,5,0,0:0:0:0:
503,209,213546,1,0,0:0:0:0:
472,295,213734,1,0,0:0:0:0:
329,224,213921,1,0,0:0:0:0:
415,192,214109,1,0,0:0:0:0:
395,267,214296,2,0,L|223:263,1,157.500001502037
172,184,214859,6,0,L|296:188,1,78.7500007510185
160,268,215234,2,0,L|0:264,1,157.500001502037
2,264,215796,1,0,0:0:0:0:
116,52,216171,1,0,0:0:0:0:
188,96,216359,6,0,L|352:88,1,157.500001502037
345,88,216921,1,0,0:0:0:0:
487,140,217109,1,0,0:0:0:0:
488,224,217296,2,0,L|488:388,1,157.500001502037
412,344,217859,6,0,L|412:252,1,78.7500007510185
384,162,218234,2,0,B|412:142|412:142|412:270,1,157.500001502037
336,376,218796,2,0,L|336:204,1,157.500001502037
260,160,219359,6,0,L|260:264,1,78.7500007510185
336,218,219734,2,0,L|336:54,1,157.500001502037
336,60,220296,1,0,0:0:0:0:
160,32,220671,5,0,0:0:0:0:
84,68,220858,1,0,0:0:0:0:
32,200,221046,1,0,0:0:0:0:
108,164,221233,1,0,0:0:0:0:
24,124,221421,1,0,0:0:0:0:
100,248,221609,6,0,L|280:240,1,157.500001502037
288,320,222171,2,0,L|176:324,1,78.7500007510185
66,350,222546,2,0,B|78:326|78:326|218:322,1,157.500001502037
364,360,223109,5,0,0:0:0:0:
436,316,223296,2,0,L|444:148,1,157.500001502037
352,104,223859,6,0,L|360:224,1,78.7500007510185
257,241,224234,2,0,L|265:121,1,78.7500007510185
250,5,224609,2,0,L|262:169,1,157.500001502037
176,236,225171,1,0,0:0:0:0:
262,319,225359,6,0,L|254:199,1,78.7500007510185
356,292,225734,2,0,L|350:370,1,78.7500007510185
436,316,226109,1,0,0:0:0:0:
436,316,226296,2,0,L|444:148,1,157.500001502037
368,108,226859,6,0,L|364:200,1,78.7500007510185
256,240,227234,2,0,L|252:148,1,78.7500007510185
304,48,227609,1,0,0:0:0:0:
368,108,227796,1,0,0:0:0:0:
252,161,227984,6,0,L|88:148,1,157.500001502037
23,206,228546,2,0,B|94:150|94:150|208:156,1,157.500001502037
216,236,229109,2,0,L|112:226,1,78.7500007510185
54,285,229484,5,0,0:0:0:0:
108,79,229671,1,0,0:0:0:0:
108,79,229765,1,0,0:0:0:0:
108,79,229859,6,0,L|188:87,1,78.7500007510185
345,22,230234,2,0,L|265:30,1,78.7500007510185
252,161,230609,2,0,L|446:185,1,157.500001502037
424,49,231171,5,0,0:0:0:0:
361,102,231359,1,0,0:0:0:0:
330,174,231546,1,0,0:0:0:0:
361,248,231734,1,0,0:0:0:0:
443,255,231921,1,0,0:0:0:0:
408,180,232109,1,0,0:0:0:0:
277,235,232296,2,0,L|291:402,1,157.500001502037
80,317,232859,6,0,L|164:326,1,78.7500007510185
277,235,233234,2,0,L|193:244,1,78.7500007510185
42,222,233609,2,0,L|205:244,1,157.500001502037
273,119,234171,1,0,0:0:0:0:
273,119,234359,2,0,L|189:128,1,78.7500007510185
130,78,234734,1,0,0:0:0:0:
50,300,234921,2,0,L|148:312,1,78.7500007510185
200,352,235296,5,0,0:0:0:0:
229,349,235390,1,0,0:0:0:0:
258,346,235484,1,0,0:0:0:0:
286,343,235577,1,0,0:0:0:0:
315,339,235671,1,0,0:0:0:0:
344,335,235765,1,0,0:0:0:0:
372,328,235859,6,0,L|516:328,1,135.000005149842
280,200,236609,2,0,B|256:176|256:176|152:176,1,135.000005149842
136,336,237359,2,0,L|240:336,1,67.5000025749208
352,280,237734,2,0,L|248:280,1,67.5000025749208
384,364,238109,2,0,P|428:332|428:224,1,135.000005149842
340,213,238859,6,0,L|356:305,1,67.5000025749208
208,336,239234,2,0,L|219:269,1,67.5000025749208
201,135,239609,2,0,L|221:283,1,135.000005149842
132,304,240359,2,0,B|144:276|144:276|124:136,1,135.000005149842
44,136,241109,2,0,L|64:288,1,135.000005149842
168,24,241859,6,0,L|316:24,1,135.000005149842
427,52,242609,2,0,B|395:24|395:24|287:24,1,135.000005149842
352,104,243359,2,0,L|208:104,1,135.000005149842
408,176,244109,2,0,P|440:120|416:35,1,135.000005149842
196,16,244859,5,0,0:0:0:0:
348,112,245234,1,0,0:0:0:0:
324,200,245609,2,0,L|176:188,1,135.000005149842
76,304,246359,2,0,L|224:292,1,135.000005149842
174,54,247109,5,0,0:0:0:0:
72,160,247484,2,0,L|76:236,1,67.5000025749208
309,334,247859,6,0,L|325:186,1,135.000005149842
174,54,248609,2,0,L|188:188,1,135.000005149842
174,322,249359,2,0,L|188:187,1,135.000005149842
104,120,250109,2,0,B|112:192|112:192|100:296,1,135.000005149842
248,364,250859,6,0,L|262:229,1,135.000005149842
173,53,251609,2,0,L|187:187,1,135.000005149842
336,64,252359,1,0,0:0:0:0:
248,36,252734,1,0,0:0:0:0:
384,140,253109,2,0,P|424:72|392:-12,1,135.000005149842
336,64,253859,6,0,P|296:132|328:216,1,135.000005149842
360,260,254609,2,0,L|512:244,1,135.000005149842
512,152,255359,2,0,L|360:136,1,135.000005149842
170,198,256109,2,0,L|322:182,1,135.000005149842
144,124,256859,6,0,P|100:168|108:248,1,135.000005149842
256,288,257609,2,0,P|224:224|160:200,1,135.000005149842
152,304,258359,1,0,0:0:0:0:
208,356,258734,1,0,0:0:0:0:
284,364,258921,1,0,0:0:0:0:
284,364,259109,6,0,L|428:356,1,135.000005149842
472,296,259859,5,0,0:0:0:0:
