osu file format v14

[General]
AudioFilename: audio.mp3
AudioLeadIn: 0
PreviewTime: 1109
Countdown: 0
SampleSet: Soft
StackLeniency: 0.7
Mode: 0
LetterboxInBreaks: 0
WidescreenStoryboard: 0

[Editor]
Bookmarks: 49859,61859,106859,109859,133859,157859,181859,193859,205859,208859,210359,211859,235109,235484,235859,253109,253484,253859,259109,259484,259859
DistanceSpacing: 1
BeatDivisor: 4
GridSize: 4
TimelineZoom: 1.8

[Metadata]
Title:Voice
TitleUnicode:Voice
Artist:cillia
ArtistUnicode:cillia
Creator:Jager-kun
Version:Hard
Source:
Tags:vocaloid Megpoid cillia cover HarryP kyaami
BeatmapID:1297195
BeatmapSetID:614961

[Difficulty]
HPDrainRate:4.5
CircleSize:3
OverallDifficulty:5
ApproachRate:6.5
SliderMultiplier:1.4
SliderTickRate:1

[Events]
//Background and Video events
0,0,"47455741_p0.jpg",0,0
//Break Periods
2,158059,180884
//Storyboard Layer 0 (Background)
//Storyboard Layer 1 (Fail)
//Storyboard Layer 2 (Pass)
//Storyboard Layer 3 (Foreground)
//Storyboard Sound Samples

[TimingPoints]
1859,750,4,2,1,30,1,0
49859,750,4,2,1,30,1,0
49859,-133.333333333333,4,2,1,30,0,0
61859,-80,4,2,1,30,0,0
106859,-133.333333333333,4,2,1,30,0,0
109859,-74.0740740740741,4,2,1,30,0,0
133859,-66.6666666666667,4,2,0,60,0,1
157859,-133.333333333333,4,2,1,50,0,0
181859,-74.0740740740741,4,2,1,50,0,0
193859,-68.9655172413793,4,2,1,50,0,0
205859,-133.333333333333,4,2,1,5,0,0
208859,-200,4,2,1,5,0,0
210359,-66.6666666666667,4,2,1,50,0,0
211859,-57.1428571428571,4,2,0,75,0,1
235109,-100,4,2,1,75,0,0
235484,-100,4,2,1,75,0,0
235859,-66.6666666666667,4,2,0,75,0,1
253109,-100,4,2,0,76,0,0
253484,-100,4,2,0,75,0,0
253859,-66.6666666666667,4,2,0,75,0,1
259109,-100,4,2,0,75,0,0
259484,-100,4,2,0,75,0,0
259859,-200,4,2,0,60,0,0

[Colours]
Combo1 : 255,166,166
Combo2 : 24,101,177
Combo3 : 218,218,218
Combo4 : 255,255,128

[HitObjects]
64,256,49859,6,0,L|176:252,1,105.000004005432
248,320,51359,2,0,P|268:284|268:220,1,105.000004005432
188,152,52859,6,0,P|168:188|168:252,1,105.000004005432
248,320,53984,1,0,0:0:0:0:
324,264,54359,2,0,L|440:264,1,105.000004005432
496,72,55859,6,0,L|380:72,1,105.000004005432
300,124,57359,2,0,P|284:160|304:236,1,105.000004005432
380,284,58859,6,0,P|396:248|376:172,1,105.000004005432
296,224,60359,2,0,L|180:216,1,105.000004005432
35,281,61859,6,0,L|139:274,1,87.5
193,218,62609,2,0,P|216:137|169:54,1,175
25,181,64109,2,0,L|152:175,1,87.5
193,218,64671,1,0,0:0:0:0:
274,178,64859,6,0,L|386:174,1,87.5
408,264,65609,2,0,L|296:260,1,87.5
280,344,66359,2,0,L|392:348,1,87.5
456,340,67109,2,0,P|492:296|488:236,1,87.5
448,181,67859,6,0,L|256:177,1,175
266,329,69359,2,0,P|298:289|262:169,1,175
176,176,70484,1,0,0:0:0:0:
152,267,70859,6,0,P|224:259|270:158,1,175
220,92,72359,2,0,L|36:104,1,175
45,103,73296,1,0,0:0:0:0:
152,267,73859,6,0,L|336:255,1,175
396,192,74984,1,0,0:0:0:0:
396,192,75171,1,0,0:0:0:0:
396,192,75359,2,0,P|412:132|396:80,1,87.5
328,48,76109,2,0,L|204:56,1,87.5
144,140,76859,6,0,L|328:140,2,175
16,228,79109,2,0,L|108:224,1,87.5
173,287,79859,6,0,P|197:215|133:135,1,175
103,224,80984,1,0,0:0:0:0:
103,224,81171,1,0,0:0:0:0:
103,224,81359,2,0,L|283:224,1,175
396,200,82484,5,0,0:0:0:0:
432,280,82671,1,0,0:0:0:0:
368,352,82859,2,0,L|248:352,1,87.5
204,300,83609,2,0,P|176:236|224:132,1,175
276,228,84734,1,0,0:0:0:0:
200,300,85109,2,0,P|132:320|84:328,1,87.5
12,224,85859,6,0,L|128:228,1,87.5
172,176,86421,1,0,0:0:0:0:
172,176,86609,6,0,P|192:120|196:80,1,87.5
92,56,87359,2,0,L|100:248,1,175
168,328,88484,5,0,0:0:0:0:
248,360,88671,1,0,0:0:0:0:
336,372,88859,2,0,L|448:372,1,87.5
488,320,89609,2,0,P|492:280|484:132,1,175
308,56,91109,6,0,L|204:52,1,87.5
144,96,91859,2,0,P|120:168|156:264,1,175
232,292,92984,2,0,L|360:284,1,87.5
359,213,93734,2,0,P|323:257|323:309,1,87.5
408,292,94484,5,0,0:0:0:0:
408,292,94671,1,0,0:0:0:0:
408,292,94859,6,0,P|436:256|440:200,1,87.5
388,144,95609,2,0,L|268:144,1,87.5
236,196,96359,2,0,L|56:196,1,175
61,196,97296,1,0,0:0:0:0:
32,340,97859,6,0,L|128:336,1,87.5
152,356,98421,1,0,0:0:0:0:
192,376,98609,2,0,L|280:376,1,87.5
360,336,99171,1,0,0:0:0:0:
360,336,99359,2,0,P|380:280|384:152,1,175
312,116,100484,1,0,0:0:0:0:
244,172,100859,6,0,L|68:160,1,175
24,272,101984,1,0,0:0:0:0:
24,272,102171,1,0,0:0:0:0:
24,272,102359,2,0,L|124:256,1,87.5
164,332,103109,2,0,L|288:336,1,87.5
324,292,103859,5,0,0:0:0:0:
328,188,104046,2,0,L|216:172,2,87.5
408,136,104984,1,0,0:0:0:0:
512,140,105171,1,0,0:0:0:0:
488,228,105359,6,0,L|372:224,1,87.5
368,256,105921,1,0,0:0:0:0:
336,292,106109,2,0,L|216:292,1,87.5
168,252,106859,6,0,P|152:216|144:144,1,105.000004005432
228,88,108359,2,0,P|244:124|252:196,1,105.000004005432
156,351,109859,6,0,L|50:337,1,94.5000003604889
116,260,110609,2,0,L|222:246,1,94.5000003604889
283,188,111359,2,0,P|305:262|277:308,1,94.5000003604889
209,247,112109,2,0,P|187:173|215:127,1,94.5000003604889
262,97,112859,6,0,L|463:86,1,189.000000720978
510,154,113984,1,0,0:0:0:0:
480,243,114359,2,0,L|474:357,1,94.5000003604889
383,362,115109,2,0,L|378:267,1,94.5000003604889
299,223,115859,6,0,P|345:235|384:282,1,94.5000003604889
295,315,116609,2,0,P|249:305|210:258,1,94.5000003604889
210,178,117359,2,0,L|215:54,1,94.5000003604889
311,44,118108,2,0,L|314:138,1,94.5000003604889
384,208,118859,6,0,P|335:233|271:224,1,94.5000003604889
314,138,119609,2,0,P|363:113|427:122,1,94.5000003604889
462,185,120359,2,0,L|470:312,1,94.5000003604889
388,340,121109,2,0,L|268:346,1,94.5000003604889
283,252,121859,6,0,P|300:307|290:355,1,94.5000003604889
213,308,122609,2,0,P|196:253|206:205,1,94.5000003604889
267,155,123171,1,0,0:0:0:0:
201,217,123359,2,0,P|166:233|79:198,1,94.5000003604889
60,146,124109,2,0,P|95:130|182:165,1,94.5000003604889
111,226,124859,2,0,L|109:322,1,94.5000003604889
202,311,125609,2,0,L|200:215,1,94.5000003604889
287,179,126359,2,0,L|285:275,1,94.5000003604889
378,264,127109,2,0,L|376:168,1,94.5000003604889
314,97,127859,6,0,L|115:95,1,189.000000720978
54,158,128984,1,0,0:0:0:0:
106,236,129359,2,0,L|119:348,1,94.5000003604889
209,350,130109,2,0,L|219:256,1,94.5000003604889
272,162,130859,6,0,L|159:159,1,94.5000003604889
156,71,131609,2,0,L|251:68,1,94.5000003604889
338,99,132359,2,0,P|366:162|348:216,1,94.5000003604889
303,257,132921,1,0,0:0:0:0:
303,257,133015,1,0,0:0:0:0:
303,257,133109,6,0,L|255:257,1,47.2500001802444
161,244,133484,1,0,0:0:0:0:
218,164,133859,6,0,P|255:223|239:295,1,105.000004005432
224,337,134609,2,0,L|85:339,1,105.000004005432
56,254,135359,2,0,L|194:240,1,105.000004005432
255,253,136109,2,0,L|370:253,1,105.000004005432
448,310,136859,5,0,0:0:0:0:
511,232,137234,1,0,0:0:0:0:
421,166,137609,1,0,0:0:0:0:
360,253,137984,1,0,0:0:0:0:
421,166,138359,6,0,L|417:26,1,105.000004005432
325,7,139109,2,0,L|321:147,1,105.000004005432
255,168,139671,1,0,0:0:0:0:
255,256,139859,6,0,L|369:252,1,105.000004005432
359,171,140609,2,0,L|245:167,1,105.000004005432
169,208,141171,1,0,0:0:0:0:
169,208,141359,2,0,P|155:271|194:332,1,105.000004005432
255,355,142109,2,0,P|269:292|230:231,1,105.000004005432
169,307,142859,6,0,L|38:316,1,105.000004005432
30,214,143609,2,0,L|161:223,1,105.000004005432
178,125,144359,2,0,L|45:133,1,105.000004005432
11,51,144921,1,0,0:0:0:0:
11,51,145109,2,0,L|143:42,1,105.000004005432
259,86,145859,6,0,P|268:138|239:190,1,105.000004005432
164,222,146609,2,0,P|155:170|184:118,1,105.000004005432
260,89,147171,1,0,0:0:0:0:
346,148,147359,2,0,L|481:140,1,105.000004005432
489,239,148109,2,0,L|354:231,1,105.000004005432
286,213,148859,2,0,P|260:159|276:84,1,105.000004005432
322,50,149609,2,0,P|348:104|332:179,1,105.000004005432
282,210,150359,2,0,L|155:219,2,105.000004005432
384,232,151859,6,0,L|489:239,1,105.000004005432
485,343,152609,2,0,L|380:349,1,105.000004005432
289,296,153359,2,0,L|184:302,1,105.000004005432
154,201,154109,2,0,L|258:207,1,105.000004005432
293,108,154859,6,0,L|188:114,1,105.000004005432
86,140,155609,1,0,0:0:0:0:
63,242,155984,1,0,0:0:0:0:
137,315,156359,2,0,L|257:304,1,105.000004005432
320,236,157109,2,0,L|428:234,1,105.000004005432
508,168,157859,5,4,0:0:0:0:
88,336,181859,6,0,P|136:336|216:324,1,94.5000003604889
212,296,182421,1,0,0:0:0:0:
240,256,182609,2,0,P|244:208|240:156,1,94.5000003604889
220,124,183171,1,0,0:0:0:0:
220,124,183359,2,0,B|236:144|236:144|320:144,1,94.5000003604889
336,108,183921,1,0,0:0:0:0:
376,136,184109,2,0,L|376:260,1,94.5000003604889
400,272,184671,1,0,0:0:0:0:
376,312,184859,6,0,L|248:312,1,94.5000003604889
244,340,185421,2,0,L|132:340,1,94.5000003604889
112,312,185984,2,0,P|100:256|108:184,1,94.5000003604889
256,36,187859,6,0,P|272:64|288:136,1,94.5000003604889
252,152,188421,2,0,P|308:136|364:144,1,94.5000003604889
388,152,188984,2,0,L|388:256,1,94.5000003604889
336,324,189734,1,0,0:0:0:0:
336,324,189921,1,0,0:0:0:0:
336,324,190109,6,0,L|208:324,1,94.5000003604889
204,296,190671,1,0,0:0:0:0:
204,296,190859,6,0,P|192:248|188:176,1,94.5000003604889
260,144,191609,2,0,P|272:192|276:264,1,94.5000003604889
256,192,192359,12,0,193484,0:0:0:0:
261,336,193859,6,0,P|272:290|274:215,1,101.500003097534
244,204,194421,1,0,0:0:0:0:
196,224,194609,2,0,L|48:224,1,101.500003097534
56,192,195171,1,0,0:0:0:0:
56,192,195359,6,0,P|48:132|56:72,1,101.500003097534
92,60,195921,1,0,0:0:0:0:
140,80,196109,2,0,L|248:80,1,101.500003097534
284,48,196671,1,0,0:0:0:0:
284,48,196859,6,0,P|272:100|280:156,1,101.500003097534
316,180,197421,2,0,L|451:177,1,101.500003097534
460,204,197984,2,0,P|480:256|460:336,1,101.500003097534
320,336,199859,6,0,L|212:332,1,101.500003097534
184,296,200421,2,0,P|176:264|184:184,1,101.500003097534
264,151,200984,2,0,L|357:151,1,50.7500015487671
365,238,201359,2,0,L|249:238,1,101.500003097534
256,192,201921,12,0,205109,0:0:0:0:
256,192,205859,12,0,207359,0:0:0:0:
256,192,208859,12,0,209984,0:0:0:0:
308,308,210359,6,0,P|316:268|308:220,1,52.5000020027161
256,192,210734,1,0,0:0:0:0:
184,244,210921,2,0,L|72:248,1,105.000004005432
20,316,211484,1,0,0:0:0:0:
112,352,211671,1,0,0:0:0:0:
112,352,211859,6,0,L|244:344,1,122.500001168251
320,308,212421,1,0,0:0:0:0:
384,244,212609,2,0,P|404:304|380:372,1,122.500001168251
320,308,213171,1,0,0:0:0:0:
320,308,213359,6,0,P|296:248|336:168,1,122.500001168251
368,128,213921,1,0,0:0:0:0:
423,195,214109,2,0,P|375:215|303:187,1,122.500001168251
284,104,214671,1,0,0:0:0:0:
352,32,214859,6,0,L|480:24,2,122.500001168251
260,16,215796,2,0,L|84:20,1,122.500001168251
80,80,216359,6,0,P|68:140|84:208,1,122.500001168251
160,244,216921,1,0,0:0:0:0:
220,172,217109,1,0,0:0:0:0:
264,256,217296,1,0,0:0:0:0:
264,256,217671,1,0,0:0:0:0:
264,256,217859,6,0,L|360:252,1,61.2500005841255
384,344,218234,2,0,L|220:348,1,122.500001168251
173,364,218796,2,0,P|157:300|177:192,1,122.500001168251
224,172,219359,2,0,L|300:168,2,61.2500005841255
192,40,220109,6,0,L|64:32,1,122.500001168251
8,100,220671,1,0,0:0:0:0:
72,176,220859,6,0,L|72:260,1,61.2500005841255
159,243,221234,2,0,L|159:327,1,61.2500005841255
228,356,221609,2,0,L|368:348,1,122.500001168251
396,272,222171,1,0,0:0:0:0:
314,244,222359,6,0,P|314:312|350:348,1,122.500001168251
432,376,222921,1,0,0:0:0:0:
488,304,223109,2,0,L|488:232,1,61.2500005841255
360,64,223859,6,0,L|488:48,2,122.500001168251
240,16,224984,1,0,0:0:0:0:
148,36,225171,1,0,0:0:0:0:
60,64,225359,6,0,L|60:148,1,61.2500005841255
148,148,225734,2,0,L|148:232,1,61.2500005841255
100,292,226109,1,0,0:0:0:0:
35,224,226296,2,0,P|95:196|171:228,1,122.500001168251
208,276,226859,6,0,L|200:368,1,61.2500005841255
296,340,227234,2,0,L|296:264,1,61.2500005841255
368,208,227609,1,0,0:0:0:0:
280,184,227796,1,0,0:0:0:0:
368,208,227984,2,0,L|464:196,1,61.2500005841255
484,136,228359,5,0,0:0:0:0:
448,44,228546,1,0,0:0:0:0:
320,12,228921,1,0,0:0:0:0:
276,96,229109,1,0,0:0:0:0:
280,184,229296,2,0,L|292:340,1,122.500001168251
196,340,229859,6,0,L|208:244,1,61.2500005841255
104,252,230234,2,0,L|111:312,1,61.2500005841255
24,204,230609,2,0,L|12:300,1,61.2500005841255
36,352,230984,1,0,0:0:0:0:
116,316,231171,1,0,0:0:0:0:
204,280,231359,6,0,L|288:276,1,61.2500005841255
340,336,231734,2,0,L|424:340,1,61.2500005841255
480,292,232109,5,0,0:0:0:0:
480,292,232296,2,0,L|488:132,1,122.500001168251
392,152,232859,6,0,L|396:224,1,61.2500005841255
300,228,233234,2,0,L|304:156,1,61.2500005841255
216,192,233609,2,0,L|212:130,1,61.2500005841255
232,48,233984,1,0,0:0:0:0:
320,80,234171,1,0,0:0:0:0:
232,48,234359,6,0,L|96:56,1,122.500001168251
28,104,234921,1,0,0:0:0:0:
52,200,235109,2,0,L|56:284,1,70
218,164,235859,6,0,P|255:223|239:295,1,105.000004005432
224,337,236609,2,0,L|85:339,1,105.000004005432
56,254,237359,2,0,L|194:240,1,105.000004005432
255,253,238109,2,0,L|370:253,1,105.000004005432
448,310,238859,5,0,0:0:0:0:
511,232,239234,1,0,0:0:0:0:
421,166,239609,1,0,0:0:0:0:
360,253,239984,1,0,0:0:0:0:
421,166,240359,6,0,L|417:26,1,105.000004005432
325,7,241109,2,0,L|321:147,1,105.000004005432
255,256,241859,2,0,L|369:252,1,105.000004005432
359,171,242609,2,0,L|245:167,1,105.000004005432
169,208,243359,2,0,P|155:271|194:332,1,105.000004005432
255,355,244109,2,0,P|269:292|230:231,1,105.000004005432
169,307,244859,6,0,L|38:316,1,105.000004005432
30,214,245609,2,0,L|161:223,1,105.000004005432
178,125,246359,6,0,L|45:133,1,105.000004005432
11,51,247109,2,0,L|143:42,1,105.000004005432
259,86,247859,6,0,P|268:138|239:190,1,105.000004005432
164,222,248609,2,0,P|155:170|184:118,1,105.000004005432
346,148,249359,2,0,L|481:140,1,105.000004005432
489,239,250109,2,0,L|354:231,1,105.000004005432
286,213,250859,2,0,P|260:159|276:84,1,105.000004005432
322,50,251609,2,0,P|348:104|332:179,1,105.000004005432
282,210,252359,2,0,L|155:219,2,105.000004005432
384,232,253671,1,0,0:0:0:0:
384,232,253859,6,0,L|489:239,1,105.000004005432
485,343,254609,2,0,L|380:349,1,105.000004005432
289,296,255359,2,0,L|184:302,1,105.000004005432
154,201,256109,2,0,L|258:207,1,105.000004005432
293,108,256859,6,0,L|188:114,1,105.000004005432
86,140,257609,1,0,0:0:0:0:
63,242,257984,1,0,0:0:0:0:
137,315,258359,2,0,L|257:304,1,105.000004005432
320,236,258921,1,0,0:0:0:0:
320,236,259015,1,0,0:0:0:0:
320,236,259109,6,0,L|412:232,1,70
456,168,259859,5,4,0:0:0:0:
