osu file format v14

[General]
AudioFilename: audio.mp3
AudioLeadIn: 0
PreviewTime: 155035
Countdown: 0
SampleSet: Normal
StackLeniency: 0.7
Mode: 1
LetterboxInBreaks: 0
WidescreenStoryboard: 1

[Editor]
DistanceSpacing: 1
BeatDivisor: 4
GridSize: 8
TimelineZoom: 1

[Metadata]
Title:Uta o Utau Hito
TitleUnicode:うたをうたうひと
Artist:cillia
ArtistUnicode:シリア
Creator:mintong89
Version:Futsuu
Source:
Tags:Vocaloid VY1 VY1v4 ぽわぽわP PowaPowaP 椎名もた Shiina Mota Electronic Japanese カバー siinamota dnb drum and bass cover
BeatmapID:2531063
BeatmapSetID:1135401

[Difficulty]
HPDrainRate:7
CircleSize:5
OverallDifficulty:3
ApproachRate:5
SliderMultiplier:1.4
SliderTickRate:1

[Events]
//Background and Video events
0,0,"51867397_p0.jpg",0,110
//Break Periods
//Storyboard Layer 0 (Background)
//Storyboard Layer 1 (Fail)
//Storyboard Layer 2 (Pass)
//Storyboard Layer 3 (Foreground)
//Storyboard Layer 4 (Overlay)
//Storyboard Sound Samples

[TimingPoints]
1210,300,4,1,0,90,1,0
4810,300,7,1,0,90,1,0
9010,300,4,1,0,90,1,0
12610,300,7,1,0,90,1,0
16810,300,6,1,0,90,1,0
16885,-111.111111111111,6,1,0,70,0,0
18610,300,4,1,0,70,1,0
18610,-111.111111111111,4,1,0,70,0,0
21010,300,6,1,0,70,1,0
21010,-111.111111111111,4,1,0,70,0,0
22810,300,7,1,0,70,1,0
22810,-111.111111111111,4,1,0,70,0,0
24910,300,6,1,0,70,1,0
24910,-111.111111111111,4,1,0,70,0,0
26710,300,4,1,0,70,1,0
26710,-111.111111111111,4,1,0,70,0,0
29110,300,6,1,0,70,1,0
29110,-111.111111111111,4,1,0,70,0,0
30910,300,7,1,0,70,1,0
30910,-111.111111111111,4,1,0,70,0,0
33010,300,3,1,0,50,1,0
33010,-111.111111111111,4,1,0,50,0,0
35710,300,4,1,0,90,1,0
35710,-111.111111111111,4,1,0,90,0,0
35785,-100,4,1,0,90,0,0
36910,-100,4,1,0,90,0,1
68110,300,6,1,0,90,1,0
69910,300,4,1,0,60,1,0
72310,300,6,1,0,60,1,0
74110,300,7,1,0,60,1,0
76210,300,6,1,0,60,1,0
78010,300,4,1,0,60,1,0
80410,300,6,1,0,60,1,0
82210,300,7,1,0,60,1,0
84310,300,6,1,0,60,1,0
86110,300,4,1,0,70,1,0
88510,300,6,1,0,70,1,0
90310,300,7,1,0,70,1,0
92410,300,6,1,0,70,1,0
94210,300,4,1,0,70,1,0
96610,300,6,1,0,70,1,0
98410,300,7,1,0,70,1,0
100510,300,3,1,0,50,1,0
103210,300,4,1,0,70,1,0
104410,-100,4,1,0,90,0,1
133810,300,3,1,0,90,1,0
138235,-111.111111111111,4,1,0,30,0,0
154810,-100,3,1,0,90,0,0
155410,300,4,1,0,90,1,0
155710,-100,4,1,0,90,0,1
171910,-100,4,1,0,90,0,0
172210,-100,4,1,0,90,0,1
189010,300,6,1,0,90,1,0
190810,300,4,1,0,50,1,0
190810,-133.333333333333,4,1,0,50,0,0
193210,300,6,1,0,50,1,0
193210,-133.333333333333,4,1,0,50,0,0
195010,300,7,1,0,50,1,0
195010,-133.333333333333,4,1,0,50,0,0
197110,300,6,1,0,50,1,0
197110,-133.333333333333,6,1,0,50,0,0
198910,300,4,1,0,50,1,0
198910,-133.333333333333,4,1,0,50,0,0
201310,300,6,1,0,50,1,0
201310,-133.333333333333,6,1,0,50,0,0
203110,300,7,1,0,50,1,0
203110,-133.333333333333,6,1,0,50,0,0
205210,300,6,1,0,50,1,0
205210,-133.333333333333,6,1,0,50,0,0

[HitObjects]
236,175,1210,5,4,0:0:0:0:
236,175,1810,1,6,0:0:0:0:
178,221,2260,1,4,0:0:0:0:
216,178,3010,1,4,0:0:0:0:
216,178,3760,1,4,0:0:0:0:
163,181,4210,1,6,0:0:0:0:
217,221,4810,1,4,0:0:0:0:
214,209,5110,1,8,0:0:0:0:
323,284,5410,1,0,0:0:0:0:
214,209,6010,1,0,0:0:0:0:
276,186,6310,1,8,0:0:0:0:
276,186,6610,1,0,0:0:0:0:
276,186,6760,1,0,0:0:0:0:
276,186,6910,1,0,0:0:0:0:
305,216,7210,1,8,0:0:0:0:
305,216,7510,1,0,0:0:0:0:
305,216,8110,1,0,0:0:0:0:
305,216,8410,1,8,0:0:0:0:
305,216,8710,1,0,0:0:0:0:
216,148,9010,1,4,0:0:0:0:
233,227,9760,1,4,0:0:0:0:
233,227,10510,1,4,0:0:0:0:
276,172,11110,1,4,0:0:0:0:
276,172,11560,1,4,0:0:0:0:
276,172,12010,1,6,0:0:0:0:
217,221,12610,1,4,0:0:0:0:
214,209,12910,1,8,0:0:0:0:
323,284,13210,1,0,0:0:0:0:
214,209,13810,1,0,0:0:0:0:
276,186,14110,1,8,0:0:0:0:
276,186,14410,1,0,0:0:0:0:
276,186,14560,1,0,0:0:0:0:
276,186,14710,1,0,0:0:0:0:
305,216,15010,1,8,0:0:0:0:
305,216,15310,1,0,0:0:0:0:
305,216,15910,1,0,0:0:0:0:
305,216,16210,1,8,0:0:0:0:
249,246,16510,1,0,0:0:0:0:
249,246,16810,1,4,0:0:0:0:
201,206,18310,1,8,0:0:0:0:
201,206,18610,1,0,0:0:0:0:
251,150,20110,1,0,0:0:0:0:
251,150,20410,1,8,0:0:0:0:
252,195,20710,1,8,0:0:0:0:
252,195,21010,1,0,0:0:0:0:
237,170,22510,1,8,0:0:0:0:
237,170,22660,1,8,0:0:0:0:
237,170,22810,1,8,0:0:0:0:
249,170,24610,1,0,0:0:0:0:
311,208,24910,1,8,0:0:0:0:
248,262,26410,1,8,0:0:0:0:
248,262,26710,1,8,0:0:0:0:
238,166,28210,1,8,0:0:0:0:
238,166,28510,1,0,0:0:0:0:
238,166,28810,1,8,0:0:0:0:
238,166,29110,1,0,0:0:0:0:
224,258,30610,1,8,0:0:0:0:
224,258,30910,1,0,0:0:0:0:
224,258,31210,1,8,0:0:0:0:
299,185,32410,1,8,0:0:0:0:
299,185,32710,1,8,0:0:0:0:
222,165,33010,1,0,0:0:0:0:
222,165,33610,1,0,0:0:0:0:
222,165,33910,1,8,0:0:0:0:
222,165,34210,1,0,0:0:0:0:
222,165,34510,1,8,0:0:0:0:
222,165,34810,1,0,0:0:0:0:
222,165,35260,1,8,0:0:0:0:
222,165,35410,1,8,0:0:0:0:
179,265,35710,1,0,0:0:0:0:
276,281,36910,1,4,0:0:0:0:
315,175,37210,1,0,0:0:0:0:
210,187,37360,1,0,0:0:0:0:
184,252,37810,1,8,0:0:0:0:
264,186,37960,1,8,0:0:0:0:
184,252,38110,1,0,0:0:0:0:
184,252,38410,1,8,0:0:0:0:
184,252,38560,1,8,0:0:0:0:
274,304,39010,1,8,0:0:0:0:
228,188,39160,1,8,0:0:0:0:
274,304,39310,1,0,0:0:0:0:
274,304,39610,1,0,0:0:0:0:
274,304,39760,1,0,0:0:0:0:
259,190,40060,1,8,0:0:0:0:
259,190,40360,1,0,0:0:0:0:
259,190,40660,1,8,0:0:0:0:
259,190,40960,1,0,0:0:0:0:
225,265,41260,1,8,0:0:0:0:
225,265,41410,1,8,0:0:0:0:
259,190,41710,1,0,0:0:0:0:
294,235,42010,1,0,0:0:0:0:
294,235,42160,1,0,0:0:0:0:
294,235,42610,1,8,0:0:0:0:
315,217,42760,1,8,0:0:0:0:
294,235,42910,1,0,0:0:0:0:
294,235,43210,1,8,0:0:0:0:
294,235,43360,1,8,0:0:0:0:
311,197,43810,1,8,0:0:0:0:
315,217,43960,1,8,0:0:0:0:
311,197,44110,1,0,0:0:0:0:
311,197,44410,1,8,0:0:0:0:
311,197,44560,1,8,0:0:0:0:
265,111,44860,1,0,0:0:0:0:
265,111,45160,1,0,0:0:0:0:
265,111,45460,1,8,0:0:0:0:
265,111,45760,1,8,0:0:0:0:
276,281,46510,1,4,0:0:0:0:
315,175,46810,1,0,0:0:0:0:
210,187,46960,1,0,0:0:0:0:
184,252,47410,1,8,0:0:0:0:
286,213,47560,1,8,0:0:0:0:
184,252,47710,1,0,0:0:0:0:
184,252,48010,1,8,0:0:0:0:
184,252,48160,1,8,0:0:0:0:
274,304,48610,1,8,0:0:0:0:
286,213,48760,1,8,0:0:0:0:
274,304,48910,1,0,0:0:0:0:
274,304,49210,1,0,0:0:0:0:
274,304,49360,1,0,0:0:0:0:
259,190,49660,1,8,0:0:0:0:
259,190,49960,1,0,0:0:0:0:
259,190,50260,1,8,0:0:0:0:
259,190,50560,1,0,0:0:0:0:
212,145,50860,1,8,0:0:0:0:
212,145,51010,1,8,0:0:0:0:
259,190,51310,1,0,0:0:0:0:
294,235,51610,1,8,0:0:0:0:
294,235,52210,1,8,0:0:0:0:
216,188,52360,1,8,0:0:0:0:
294,235,52510,1,0,0:0:0:0:
294,235,52810,1,8,0:0:0:0:
294,235,52960,1,8,0:0:0:0:
225,158,53260,1,8,0:0:0:0:
225,158,53410,1,8,0:0:0:0:
233,174,53710,1,8,0:0:0:0:
301,133,54010,1,8,0:0:0:0:
311,156,54310,1,8,0:0:0:0:
301,133,54760,1,8,0:0:0:0:
301,133,55210,1,8,0:0:0:0:
301,133,55510,1,8,0:0:0:0:
301,133,55810,1,8,0:0:0:0:
301,133,56260,1,8,0:0:0:0:
301,133,56710,1,8,0:0:0:0:
301,133,57010,1,8,0:0:0:0:
232,181,57310,1,8,0:0:0:0:
232,181,57610,1,8,0:0:0:0:
232,181,57910,1,8,0:0:0:0:
232,181,58360,1,8,0:0:0:0:
232,181,58810,1,8,0:0:0:0:
253,209,59110,1,8,0:0:0:0:
232,181,59410,1,8,0:0:0:0:
253,209,59860,1,8,0:0:0:0:
233,174,60910,1,8,0:0:0:0:
301,133,61210,1,8,0:0:0:0:
311,156,61510,1,8,0:0:0:0:
301,133,61960,1,8,0:0:0:0:
301,133,62410,1,8,0:0:0:0:
301,133,62710,1,8,0:0:0:0:
301,133,63010,1,8,0:0:0:0:
301,133,63460,1,8,0:0:0:0:
301,133,63910,1,8,0:0:0:0:
301,133,64210,1,8,0:0:0:0:
232,181,64510,1,8,0:0:0:0:
232,181,64810,1,8,0:0:0:0:
232,181,65110,1,8,0:0:0:0:
232,181,65560,1,8,0:0:0:0:
232,181,66010,1,8,0:0:0:0:
253,209,66310,1,8,0:0:0:0:
232,181,66610,1,8,0:0:0:0:
253,209,67060,1,8,0:0:0:0:
255,158,68110,1,4,0:0:0:0:
147,248,69910,1,8,0:0:0:0:
317,257,70660,1,8,0:0:0:0:
317,257,71410,1,8,0:0:0:0:
317,257,72010,1,8,0:0:0:0:
226,172,72310,1,8,0:0:0:0:
226,172,73060,1,8,0:0:0:0:
226,172,73360,1,8,0:0:0:0:
227,218,74110,1,8,0:0:0:0:
227,218,74860,1,8,0:0:0:0:
227,218,75160,1,8,0:0:0:0:
216,255,75910,1,8,0:0:0:0:
296,130,76210,1,0,0:0:0:0:
219,210,76960,1,8,0:0:0:0:
219,210,77260,1,8,0:0:0:0:
219,210,78010,1,8,0:0:0:0:
219,210,78760,1,8,0:0:0:0:
219,210,79060,1,8,0:0:0:0:
219,210,79810,1,8,0:0:0:0:
219,210,80110,1,8,0:0:0:0:
219,210,80410,1,8,0:0:0:0:
219,210,81160,1,8,0:0:0:0:
316,204,81460,1,0,0:0:0:0:
316,204,82210,1,8,0:0:0:0:
200,152,82960,1,8,0:0:0:0:
200,152,83260,1,8,0:0:0:0:
200,152,84010,1,8,0:0:0:0:
200,152,84310,1,4,0:0:0:0:
221,229,84910,1,0,0:0:0:0:
221,229,85210,1,8,0:0:0:0:
221,229,85510,1,0,0:0:0:0:
221,229,85810,1,0,0:0:0:0:
221,229,86110,1,0,0:0:0:0:
221,229,86710,1,0,0:0:0:0:
221,229,87010,1,8,0:0:0:0:
256,169,87310,1,0,0:0:0:0:
221,229,87610,1,8,0:0:0:0:
256,169,87910,1,8,0:0:0:0:
256,169,88060,1,8,0:0:0:0:
256,169,88210,1,8,0:0:0:0:
256,169,88510,1,0,0:0:0:0:
284,174,89110,1,0,0:0:0:0:
284,174,89410,1,8,0:0:0:0:
284,174,89710,1,0,0:0:0:0:
284,174,90010,1,0,0:0:0:0:
284,174,90310,1,0,0:0:0:0:
393,204,90910,1,8,0:0:0:0:
155,161,91210,1,0,0:0:0:0:
270,195,92110,1,8,0:0:0:0:
200,152,92410,1,4,0:0:0:0:
221,229,93010,1,0,0:0:0:0:
221,229,93310,1,8,0:0:0:0:
221,229,93610,1,0,0:0:0:0:
221,229,93910,1,8,0:0:0:0:
221,229,94210,1,0,0:0:0:0:
256,169,94810,1,0,0:0:0:0:
221,229,95110,1,8,0:0:0:0:
221,229,95410,1,0,0:0:0:0:
221,229,95710,1,8,0:0:0:0:
256,169,96010,1,8,0:0:0:0:
256,169,96160,1,8,0:0:0:0:
256,169,96310,1,8,0:0:0:0:
256,169,96610,1,0,0:0:0:0:
284,174,97210,1,0,0:0:0:0:
284,174,97510,1,8,0:0:0:0:
284,174,97810,1,0,0:0:0:0:
284,174,98110,1,8,0:0:0:0:
284,174,98410,1,0,0:0:0:0:
393,204,98710,1,0,0:0:0:0:
393,204,99310,1,8,0:0:0:0:
239,209,99610,1,8,0:0:0:0:
222,165,100510,1,0,0:0:0:0:
222,165,101110,1,0,0:0:0:0:
222,165,101410,1,8,0:0:0:0:
222,165,101710,1,0,0:0:0:0:
222,165,102010,1,8,0:0:0:0:
222,165,102310,1,0,0:0:0:0:
222,165,102760,1,8,0:0:0:0:
222,165,102910,1,8,0:0:0:0:
179,265,103210,1,0,0:0:0:0:
276,281,104410,1,4,0:0:0:0:
315,175,104710,1,0,0:0:0:0:
210,187,104860,1,0,0:0:0:0:
184,252,105310,1,8,0:0:0:0:
216,231,105460,1,8,0:0:0:0:
184,252,105610,1,0,0:0:0:0:
184,252,105910,1,8,0:0:0:0:
184,252,106060,1,8,0:0:0:0:
274,304,106510,1,8,0:0:0:0:
286,211,106660,1,8,0:0:0:0:
274,304,106810,1,0,0:0:0:0:
274,304,107110,1,0,0:0:0:0:
274,304,107260,1,0,0:0:0:0:
259,190,107560,1,8,0:0:0:0:
259,190,107860,1,0,0:0:0:0:
259,190,108160,1,8,0:0:0:0:
259,190,108460,1,0,0:0:0:0:
225,265,108760,1,8,0:0:0:0:
225,265,108910,1,8,0:0:0:0:
259,190,109210,1,0,0:0:0:0:
294,235,109510,1,0,0:0:0:0:
294,235,109660,1,0,0:0:0:0:
294,235,110110,1,8,0:0:0:0:
218,229,110260,1,8,0:0:0:0:
294,235,110410,1,0,0:0:0:0:
294,235,110710,1,8,0:0:0:0:
294,235,110860,1,8,0:0:0:0:
311,197,111310,1,8,0:0:0:0:
286,211,111460,1,8,0:0:0:0:
311,197,111610,1,0,0:0:0:0:
311,197,111910,1,8,0:0:0:0:
311,197,112060,1,8,0:0:0:0:
265,111,112360,1,0,0:0:0:0:
265,111,112660,1,0,0:0:0:0:
265,111,112960,1,8,0:0:0:0:
265,111,113260,1,8,0:0:0:0:
276,281,114010,1,4,0:0:0:0:
315,175,114310,1,0,0:0:0:0:
210,187,114460,1,0,0:0:0:0:
184,252,114910,1,8,0:0:0:0:
224,213,115060,1,8,0:0:0:0:
184,252,115210,1,0,0:0:0:0:
184,252,115510,1,8,0:0:0:0:
184,252,115660,1,8,0:0:0:0:
274,304,116110,1,8,0:0:0:0:
218,213,116260,1,8,0:0:0:0:
274,304,116410,1,0,0:0:0:0:
274,304,116710,1,0,0:0:0:0:
274,304,116860,1,0,0:0:0:0:
259,190,117160,1,8,0:0:0:0:
259,190,117460,1,0,0:0:0:0:
259,190,117760,1,8,0:0:0:0:
259,190,118060,1,0,0:0:0:0:
212,145,118360,1,8,0:0:0:0:
212,145,118510,1,8,0:0:0:0:
259,190,118810,1,0,0:0:0:0:
294,235,119110,1,8,0:0:0:0:
294,235,119710,1,8,0:0:0:0:
289,184,119860,1,8,0:0:0:0:
294,235,120010,1,0,0:0:0:0:
294,235,120310,1,8,0:0:0:0:
294,235,120460,1,8,0:0:0:0:
225,158,120760,1,8,0:0:0:0:
225,158,120910,1,8,0:0:0:0:
233,174,121210,1,8,0:0:0:0:
301,133,121510,1,8,0:0:0:0:
311,156,121810,1,8,0:0:0:0:
301,133,122260,1,8,0:0:0:0:
301,133,122710,1,8,0:0:0:0:
301,133,123010,1,8,0:0:0:0:
301,133,123310,1,8,0:0:0:0:
301,133,123760,1,8,0:0:0:0:
301,133,124210,1,8,0:0:0:0:
301,133,124510,1,8,0:0:0:0:
232,181,124810,1,8,0:0:0:0:
232,181,125110,1,8,0:0:0:0:
232,181,125410,1,8,0:0:0:0:
232,181,125860,1,8,0:0:0:0:
232,181,126310,1,8,0:0:0:0:
253,209,126610,1,8,0:0:0:0:
232,181,126910,1,8,0:0:0:0:
253,209,127360,1,8,0:0:0:0:
233,174,128410,1,8,0:0:0:0:
301,133,128710,1,8,0:0:0:0:
311,156,129010,1,8,0:0:0:0:
301,133,129460,1,8,0:0:0:0:
301,133,129910,1,8,0:0:0:0:
301,133,130210,1,8,0:0:0:0:
301,133,130510,1,8,0:0:0:0:
301,133,130960,1,8,0:0:0:0:
301,133,131410,1,8,0:0:0:0:
301,133,131710,1,8,0:0:0:0:
232,181,132010,1,8,0:0:0:0:
232,181,132310,1,8,0:0:0:0:
232,181,132610,1,8,0:0:0:0:
232,181,133060,1,8,0:0:0:0:
177,217,133810,2,4,L|248:202,16,70
201,198,138310,1,0,0:0:0:0:
201,198,138910,1,8,0:0:0:0:
192,216,139210,1,0,0:0:0:0:
227,123,139810,1,8,0:0:0:0:
177,208,140110,1,8,0:0:0:0:
177,208,140710,1,8,0:0:0:0:
177,208,141010,1,0,0:0:0:0:
177,208,141610,1,0,0:0:0:0:
177,208,141910,1,8,0:0:0:0:
315,154,142510,1,8,0:0:0:0:
315,154,142810,1,8,0:0:0:0:
315,154,143410,1,8,0:0:0:0:
315,154,143710,1,0,0:0:0:0:
315,154,144310,1,8,0:0:0:0:
206,156,144610,1,8,0:0:0:0:
206,156,145210,1,8,0:0:0:0:
206,156,145510,1,8,0:0:0:0:
206,156,146110,1,8,0:0:0:0:
206,156,146410,1,0,0:0:0:0:
248,237,147010,1,8,0:0:0:0:
248,237,147310,1,0,0:0:0:0:
248,237,147910,1,0,0:0:0:0:
248,237,148210,1,8,0:0:0:0:
248,237,148810,1,0,0:0:0:0:
248,237,149110,1,8,0:0:0:0:
209,225,150010,1,8,0:0:0:0:
209,225,150310,1,0,0:0:0:0:
209,225,150610,1,8,0:0:0:0:
209,225,150910,1,0,0:0:0:0:
126,187,151510,1,0,0:0:0:0:
235,167,151810,1,8,0:0:0:0:
235,167,152110,1,0,0:0:0:0:
235,167,152410,1,8,0:0:0:0:
256,192,152710,12,0,154660,0:0:0:0:
155,271,155410,5,0,0:0:0:0:
243,249,155710,1,6,0:0:0:0:
184,252,156310,1,8,0:0:0:0:
262,182,156460,1,8,0:0:0:0:
184,252,156610,1,0,0:0:0:0:
184,252,156910,1,8,0:0:0:0:
184,252,157060,1,8,0:0:0:0:
274,304,157510,1,8,0:0:0:0:
323,229,157660,1,8,0:0:0:0:
274,304,157810,1,0,0:0:0:0:
274,304,158110,1,0,0:0:0:0:
274,304,158260,1,0,0:0:0:0:
259,190,158560,1,8,0:0:0:0:
259,190,158860,1,0,0:0:0:0:
259,190,159160,1,8,0:0:0:0:
259,190,159460,1,0,0:0:0:0:
225,265,159760,1,8,0:0:0:0:
225,265,159910,1,8,0:0:0:0:
259,190,160210,1,0,0:0:0:0:
294,235,160510,1,0,0:0:0:0:
294,235,160660,1,0,0:0:0:0:
294,235,161110,1,8,0:0:0:0:
263,161,161260,1,8,0:0:0:0:
294,235,161410,1,0,0:0:0:0:
294,235,161710,1,8,0:0:0:0:
294,235,161860,1,8,0:0:0:0:
311,197,162310,1,8,0:0:0:0:
263,161,162460,1,8,0:0:0:0:
311,197,162610,1,0,0:0:0:0:
311,197,162910,1,8,0:0:0:0:
416,122,163210,1,8,0:0:0:0:
311,197,163360,1,8,0:0:0:0:
265,111,163660,1,8,0:0:0:0:
265,111,163960,1,8,0:0:0:0:
265,111,164260,1,8,0:0:0:0:
276,281,165010,1,4,0:0:0:0:
315,175,165310,1,0,0:0:0:0:
210,187,165460,1,0,0:0:0:0:
184,252,165910,1,8,0:0:0:0:
263,161,166060,1,8,0:0:0:0:
184,252,166210,1,0,0:0:0:0:
184,252,166510,1,8,0:0:0:0:
184,252,166660,1,8,0:0:0:0:
274,304,167110,1,8,0:0:0:0:
263,161,167260,1,8,0:0:0:0:
274,304,167410,1,0,0:0:0:0:
274,304,167710,1,0,0:0:0:0:
274,304,167860,1,0,0:0:0:0:
259,190,168160,1,8,0:0:0:0:
259,190,168460,1,0,0:0:0:0:
259,190,168760,1,8,0:0:0:0:
259,190,169060,1,0,0:0:0:0:
212,145,169360,1,8,0:0:0:0:
212,145,169510,1,8,0:0:0:0:
259,190,169810,1,0,0:0:0:0:
294,235,170110,1,8,0:0:0:0:
294,235,170710,1,8,0:0:0:0:
262,147,170860,1,8,0:0:0:0:
294,235,171010,1,0,0:0:0:0:
294,235,171310,1,8,0:0:0:0:
294,235,171460,1,8,0:0:0:0:
225,158,171610,1,8,0:0:0:0:
199,256,171910,1,0,0:0:0:0:
233,174,172210,1,6,0:0:0:0:
311,156,172810,1,8,0:0:0:0:
301,133,173260,1,8,0:0:0:0:
301,133,173710,1,8,0:0:0:0:
301,133,174010,1,8,0:0:0:0:
301,133,174310,1,8,0:0:0:0:
301,133,174760,1,8,0:0:0:0:
301,133,175210,1,8,0:0:0:0:
301,133,175510,1,8,0:0:0:0:
232,181,175810,1,8,0:0:0:0:
232,181,176110,1,8,0:0:0:0:
232,181,176410,1,8,0:0:0:0:
232,181,176860,1,8,0:0:0:0:
232,181,177310,1,8,0:0:0:0:
253,209,177610,1,8,0:0:0:0:
232,181,177910,1,8,0:0:0:0:
253,209,178360,1,8,0:0:0:0:
326,154,178810,1,8,0:0:0:0:
252,268,179410,1,6,0:0:0:0:
190,244,179710,1,6,0:0:0:0:
190,244,180010,1,4,0:0:0:0:
190,244,180610,1,6,0:0:0:0:
190,244,180910,1,4,0:0:0:0:
190,244,181210,1,6,0:0:0:0:
233,174,181810,1,6,0:0:0:0:
311,156,182410,1,8,0:0:0:0:
301,133,182860,1,8,0:0:0:0:
301,133,183310,1,8,0:0:0:0:
301,133,183610,1,8,0:0:0:0:
301,133,183910,1,8,0:0:0:0:
301,133,184360,1,8,0:0:0:0:
301,133,184810,1,8,0:0:0:0:
301,133,185110,1,8,0:0:0:0:
232,181,185410,1,8,0:0:0:0:
232,181,185710,1,8,0:0:0:0:
232,181,186010,1,8,0:0:0:0:
232,181,186460,1,8,0:0:0:0:
232,181,186910,1,8,0:0:0:0:
253,209,187210,1,8,0:0:0:0:
232,181,187510,1,8,0:0:0:0:
253,209,187960,1,8,0:0:0:0:
326,154,188410,1,8,0:0:0:0:
217,257,188710,1,8,0:0:0:0:
256,192,189010,12,0,192910,0:0:0:0:
285,204,193210,5,8,0:0:0:0:
285,204,193960,1,8,0:0:0:0:
285,204,194260,1,8,0:0:0:0:
285,204,195010,1,8,0:0:0:0:
343,272,195760,1,8,0:0:0:0:
343,272,196060,1,8,0:0:0:0:
245,277,196810,1,8,0:0:0:0:
245,277,197110,1,0,0:0:0:0:
222,276,197860,1,8,0:0:0:0:
222,276,198160,1,8,0:0:0:0:
288,184,198910,1,8,0:0:0:0:
196,296,199660,1,8,0:0:0:0:
196,296,199960,1,8,0:0:0:0:
270,194,200710,1,8,0:0:0:0:
270,194,201010,1,8,0:0:0:0:
270,194,201310,1,8,0:0:0:0:
264,252,202060,1,8,0:0:0:0:
264,252,202360,1,8,0:0:0:0:
264,252,203110,1,8,0:0:0:0:
264,252,203860,1,8,0:0:0:0:
264,252,204160,1,8,0:0:0:0:
264,252,204910,1,8,0:0:0:0:
264,252,205210,1,8,0:0:0:0:
