osu file format v14

[General]
AudioFilename: The_Transient_Apple_Salesgirl.mp3
AudioLeadIn: 0
PreviewTime: 109084
Countdown: 0
SampleSet: Normal
StackLeniency: 0.7
Mode: 1
LetterboxInBreaks: 0
WidescreenStoryboard: 0

[Editor]
DistanceSpacing: 1.4
BeatDivisor: 4
GridSize: 32
TimelineZoom: 1

[Metadata]
Title:Ringo Uri no Utakata Shoujo
TitleUnicode:林檎売りの泡沫少女
Artist:cillia
ArtistUnicode:シリア
Creator:mintong89
Version:Ringo Oni
Source:
Tags:歌幡メイジ The Transient Apple Salesgirl yukkedoluce kyaami vocaloid vocaloid4 Gahata Meiji Gahata Mage
BeatmapID:866288
BeatmapSetID:398423

[Difficulty]
HPDrainRate:5
CircleSize:5
OverallDifficulty:5.5
ApproachRate:5
SliderMultiplier:1.4
SliderTickRate:1

[Events]
//Background and Video events
0,0,"mc9dW.jpg",0,75
//Break Periods
//Storyboard Layer 0 (Background)
//Storyboard Layer 1 (Fail)
//Storyboard Layer 2 (Pass)
//Storyboard Layer 3 (Foreground)
//Storyboard Sound Samples

[TimingPoints]
5045,266.429840142096,6,1,0,30,1,0
5045,-200,6,1,0,30,0,0
44210,266.429840142096,4,1,0,70,1,0
95364,266.429840142096,3,1,0,70,1,0
95430,-133.333333333333,3,1,0,70,0,0
104955,266.429840142096,4,1,0,70,1,0
109217,-100,4,1,0,70,0,1
126269,266.429840142096,3,1,0,70,1,1
129466,266.429840142096,4,1,0,70,1,1
133728,-100,4,1,0,70,0,0
159306,266.429840142096,3,1,0,70,1,0
159372,-133.333333333333,3,1,0,70,0,0
170496,266.429840142096,4,1,0,70,1,0
170496,-133.333333333333,4,1,0,70,0,0
172627,266.429840142096,3,1,0,70,1,0
172627,-133.333333333333,3,1,0,70,0,0
179021,-100,3,1,0,70,0,0
182218,266.429840142096,4,1,0,70,1,0
186480,-100,4,1,0,70,0,1
203532,266.429840142096,3,1,0,70,1,1
206729,266.429840142096,4,1,0,70,1,1
210992,266.429840142096,3,1,0,70,1,0
265343,266.429840142096,4,1,0,70,1,0
267474,-133.333333333333,4,1,0,30,0,0
283460,-133.333333333333,4,1,0,5,0,0
286124,266.429840142096,4,1,0,70,1,1
303175,266.429840142096,3,1,0,70,1,1
306372,266.429840142096,4,1,0,70,1,1
310635,266.429840142096,3,1,0,70,1,0
334613,-100,3,1,0,60,0,0
335412,-100,3,1,0,45,0,0
336212,-100,3,1,0,30,0,0

[HitObjects]
258,112,17833,5,0,0:0:0:0:
258,112,18233,1,0,0:0:0:0:
258,112,18366,1,8,0:0:0:0:
253,192,18632,1,0,0:0:0:0:
253,192,19032,1,0,0:0:0:0:
253,192,19165,1,8,0:0:0:0:
336,92,19432,1,0,0:0:0:0:
336,92,19831,1,0,0:0:0:0:
268,123,19965,1,0,0:0:0:0:
268,123,20098,1,8,0:0:0:0:
271,137,20231,1,8,0:0:0:0:
366,179,20497,1,0,0:0:0:0:
366,179,20764,1,8,0:0:0:0:
212,71,21030,1,0,0:0:0:0:
212,71,21297,1,0,0:0:0:0:
250,127,21563,1,8,0:0:0:0:
212,71,21830,1,0,0:0:0:0:
250,127,22096,1,8,0:0:0:0:
250,127,22362,1,8,0:0:0:0:
250,127,22629,1,0,0:0:0:0:
250,127,23029,1,8,0:0:0:0:
250,127,23162,1,0,0:0:0:0:
250,127,23295,1,8,0:0:0:0:
250,127,23428,1,8,0:0:0:0:
181,155,23695,1,0,0:0:0:0:
181,155,23961,1,8,0:0:0:0:
247,169,24227,1,0,0:0:0:0:
247,169,24494,1,8,0:0:0:0:
247,169,24760,1,8,0:0:0:0:
247,169,25027,1,0,0:0:0:0:
247,169,25293,1,8,0:0:0:0:
247,169,25560,1,8,0:0:0:0:
247,169,25826,1,0,0:0:0:0:
247,169,26226,1,8,0:0:0:0:
247,169,26359,1,0,0:0:0:0:
247,169,26492,1,0,0:0:0:0:
247,169,26625,1,8,0:0:0:0:
247,169,26892,1,0,0:0:0:0:
271,175,27158,1,8,0:0:0:0:
271,175,27425,1,0,0:0:0:0:
271,175,27691,1,0,0:0:0:0:
271,175,27957,1,8,0:0:0:0:
271,175,28224,1,0,0:0:0:0:
224,119,28490,1,8,0:0:0:0:
224,119,28757,1,8,0:0:0:0:
224,119,29023,1,0,0:0:0:0:
224,119,29423,1,8,0:0:0:0:
224,119,29556,1,8,0:0:0:0:
225,50,29689,1,0,0:0:0:0:
225,50,29822,1,8,0:0:0:0:
294,90,30089,1,0,0:0:0:0:
294,90,30355,1,8,0:0:0:0:
259,148,30622,1,0,0:0:0:0:
259,148,30888,1,0,0:0:0:0:
259,148,31155,1,8,0:0:0:0:
259,148,31421,1,0,0:0:0:0:
259,148,31687,1,8,0:0:0:0:
226,160,31954,1,8,0:0:0:0:
259,148,32220,1,0,0:0:0:0:
226,160,32620,1,0,0:0:0:0:
226,160,32753,1,8,0:0:0:0:
226,160,32886,1,0,0:0:0:0:
226,160,33020,1,8,0:0:0:0:
299,122,33286,1,8,0:0:0:0:
299,122,33552,1,8,0:0:0:0:
299,122,33819,1,0,0:0:0:0:
299,122,34085,1,8,0:0:0:0:
299,122,34352,1,8,0:0:0:0:
299,122,34618,1,0,0:0:0:0:
299,122,34885,1,8,0:0:0:0:
299,122,35151,1,8,0:0:0:0:
299,60,35418,1,0,0:0:0:0:
132,129,35817,1,8,0:0:0:0:
132,129,35950,1,8,0:0:0:0:
132,129,36084,1,0,0:0:0:0:
224,106,36217,1,8,0:0:0:0:
224,106,36483,1,0,0:0:0:0:
254,99,36616,1,0,0:0:0:0:
224,106,36750,1,8,0:0:0:0:
299,113,37016,1,0,0:0:0:0:
286,182,37283,1,0,0:0:0:0:
286,182,37549,1,8,0:0:0:0:
190,217,37815,1,0,0:0:0:0:
190,217,38082,1,0,0:0:0:0:
190,217,38348,1,8,0:0:0:0:
190,217,38615,1,8,0:0:0:0:
225,186,39014,1,8,0:0:0:0:
225,186,39148,1,0,0:0:0:0:
225,186,39281,1,0,0:0:0:0:
225,186,39414,1,8,0:0:0:0:
289,144,39680,1,0,0:0:0:0:
289,144,39947,1,8,0:0:0:0:
352,199,40213,1,0,0:0:0:0:
352,199,40480,1,0,0:0:0:0:
352,199,40746,1,8,0:0:0:0:
352,199,41013,1,0,0:0:0:0:
352,199,41279,1,8,0:0:0:0:
352,199,41545,1,8,0:0:0:0:
352,199,41812,1,0,0:0:0:0:
325,246,42078,1,0,0:0:0:0:
325,246,42345,1,8,0:0:0:0:
325,246,42611,1,0,0:0:0:0:
159,179,43677,1,8,0:0:0:0:
159,179,43943,1,8,0:0:0:0:
174,148,44210,1,4,0:0:0:0:
199,177,44476,1,8,0:0:0:0:
199,177,44609,1,0,0:0:0:0:
199,177,44676,1,0,0:0:0:0:
199,177,44742,1,0,0:0:0:0:
251,224,44876,1,8,0:0:0:0:
251,224,45009,1,8,0:0:0:0:
251,224,45142,1,0,0:0:0:0:
298,131,45275,1,8,0:0:0:0:
298,131,45408,1,0,0:0:0:0:
298,131,45475,1,0,0:0:0:0:
298,131,45542,1,8,0:0:0:0:
291,195,45675,1,0,0:0:0:0:
241,168,45808,1,8,0:0:0:0:
241,168,45875,1,0,0:0:0:0:
241,168,45941,1,0,0:0:0:0:
241,168,46008,1,0,0:0:0:0:
241,168,46075,1,8,0:0:0:0:
241,168,46208,1,8,0:0:0:0:
221,89,46341,1,8,0:0:0:0:
221,89,46474,1,0,0:0:0:0:
221,89,46607,1,8,0:0:0:0:
221,89,46674,1,8,0:0:0:0:
348,97,46741,1,0,0:0:0:0:
221,89,46874,1,8,0:0:0:0:
348,97,47007,1,0,0:0:0:0:
348,97,47140,1,8,0:0:0:0:
348,97,47207,1,8,0:0:0:0:
348,97,47273,1,8,0:0:0:0:
319,142,47407,1,8,0:0:0:0:
319,142,47540,1,0,0:0:0:0:
319,142,47673,1,8,0:0:0:0:
319,142,47806,1,0,0:0:0:0:
197,104,47940,1,8,0:0:0:0:
197,104,48006,1,8,0:0:0:0:
197,104,48073,1,8,0:0:0:0:
197,104,48139,1,8,0:0:0:0:
197,104,48206,1,0,0:0:0:0:
197,104,48273,1,0,0:0:0:0:
197,104,48339,1,0,0:0:0:0:
197,104,48406,1,0,0:0:0:0:
197,104,48472,1,8,0:0:0:0:
280,84,48606,1,0,0:0:0:0:
280,84,48672,1,0,0:0:0:0:
280,84,48739,1,8,0:0:0:0:
268,176,48872,1,8,0:0:0:0:
268,176,49005,1,0,0:0:0:0:
268,176,49138,1,8,0:0:0:0:
137,90,49205,1,8,0:0:0:0:
137,90,49272,1,8,0:0:0:0:
137,90,49405,1,8,0:0:0:0:
181,130,49538,1,0,0:0:0:0:
241,113,49671,1,0,0:0:0:0:
241,113,49805,1,8,0:0:0:0:
241,113,49871,1,8,0:0:0:0:
241,113,49938,1,8,0:0:0:0:
329,78,50071,1,0,0:0:0:0:
329,78,50204,1,8,0:0:0:0:
329,78,50337,1,8,0:0:0:0:
329,78,50404,1,8,0:0:0:0:
329,78,50471,1,8,0:0:0:0:
280,180,50604,1,0,0:0:0:0:
342,177,50737,1,8,0:0:0:0:
387,232,50804,1,8,0:0:0:0:
352,296,50870,1,0,0:0:0:0:
226,293,51003,1,8,0:0:0:0:
144,161,51137,1,8,0:0:0:0:
111,231,51203,1,8,0:0:0:0:
203,236,51270,1,0,0:0:0:0:
411,150,51336,1,0,0:0:0:0:
328,182,51403,1,8,0:0:0:0:
228,115,51536,1,8,0:0:0:0:
311,80,51670,1,0,0:0:0:0:
311,80,51803,1,0,0:0:0:0:
311,80,51936,1,8,0:0:0:0:
311,80,52069,1,8,0:0:0:0:
234,144,52202,1,0,0:0:0:0:
234,144,52269,1,0,0:0:0:0:
234,144,52336,1,0,0:0:0:0:
234,144,52402,1,0,0:0:0:0:
234,144,52469,1,8,0:0:0:0:
234,144,52535,1,8,0:0:0:0:
234,144,52602,1,8,0:0:0:0:
220,131,52669,1,8,0:0:0:0:
220,131,52735,1,0,0:0:0:0:
305,193,53002,1,8,0:0:0:0:
198,233,53135,1,8,0:0:0:0:
198,233,53202,1,8,0:0:0:0:
198,233,53268,1,0,0:0:0:0:
287,196,53401,1,0,0:0:0:0:
287,196,53535,1,8,0:0:0:0:
218,151,53668,1,0,0:0:0:0:
303,241,53801,1,8,0:0:0:0:
294,217,53934,1,0,0:0:0:0:
294,217,54067,1,8,0:0:0:0:
316,244,54201,1,8,0:0:0:0:
316,244,54267,1,8,0:0:0:0:
316,244,54334,1,0,0:0:0:0:
226,260,54467,1,0,0:0:0:0:
221,168,54600,1,8,0:0:0:0:
221,168,54733,1,8,0:0:0:0:
227,328,54867,1,0,0:0:0:0:
239,131,55133,1,8,0:0:0:0:
388,234,55266,1,0,0:0:0:0:
388,234,55333,1,0,0:0:0:0:
388,234,55400,1,8,0:0:0:0:
345,284,55533,1,0,0:0:0:0:
345,284,55666,1,8,0:0:0:0:
323,172,55799,1,0,0:0:0:0:
137,228,55932,1,0,0:0:0:0:
137,228,56065,1,0,0:0:0:0:
137,228,56198,1,8,0:0:0:0:
137,228,56332,1,8,0:0:0:0:
322,179,56465,1,8,0:0:0:0:
322,179,56532,1,8,0:0:0:0:
347,172,56598,1,0,0:0:0:0:
347,172,56732,1,8,0:0:0:0:
347,172,56865,1,8,0:0:0:0:
347,202,56998,1,0,0:0:0:0:
229,220,57265,1,8,0:0:0:0:
214,153,57398,1,0,0:0:0:0:
235,138,57464,1,0,0:0:0:0:
235,138,57531,1,0,0:0:0:0:
235,138,57664,1,0,0:0:0:0:
235,138,57797,1,8,0:0:0:0:
273,132,57931,1,0,0:0:0:0:
336,244,58064,1,8,0:0:0:0:
336,244,58197,1,0,0:0:0:0:
336,244,58330,1,8,0:0:0:0:
319,112,58597,1,0,0:0:0:0:
319,112,58730,1,8,0:0:0:0:
319,112,58863,1,8,0:0:0:0:
319,112,58996,1,0,0:0:0:0:
222,158,59130,1,8,0:0:0:0:
222,158,59196,1,8,0:0:0:0:
222,158,59263,1,0,0:0:0:0:
259,212,59396,1,8,0:0:0:0:
259,212,59529,1,0,0:0:0:0:
259,212,59596,1,0,0:0:0:0:
259,212,59662,1,8,0:0:0:0:
259,212,59796,1,0,0:0:0:0:
259,212,59929,1,8,0:0:0:0:
259,212,60062,1,8,0:0:0:0:
130,210,60195,1,8,0:0:0:0:
186,200,60329,1,0,0:0:0:0:
186,200,60462,1,8,0:0:0:0:
130,210,60595,1,0,0:0:0:0:
363,170,60728,1,8,0:0:0:0:
363,170,60795,1,8,0:0:0:0:
186,200,60861,1,0,0:0:0:0:
186,200,60928,1,0,0:0:0:0:
186,200,60995,1,8,0:0:0:0:
436,89,61128,1,8,0:0:0:0:
71,144,61261,1,4,0:0:0:0:
176,300,61527,1,8,0:0:0:0:
176,300,61661,1,0,0:0:0:0:
218,267,61794,1,8,0:0:0:0:
218,267,61860,1,8,0:0:0:0:
218,267,61927,1,8,0:0:0:0:
218,267,62060,1,0,0:0:0:0:
218,267,62194,1,8,0:0:0:0:
356,248,62327,1,8,0:0:0:0:
356,248,62460,1,0,0:0:0:0:
356,248,62593,1,8,0:0:0:0:
296,109,62726,1,0,0:0:0:0:
106,104,62793,1,0,0:0:0:0:
106,104,62860,1,8,0:0:0:0:
196,174,62993,1,0,0:0:0:0:
196,174,63126,1,8,0:0:0:0:
196,174,63259,1,8,0:0:0:0:
187,79,63392,1,0,0:0:0:0:
187,79,63659,1,8,0:0:0:0:
273,126,63792,1,8,0:0:0:0:
273,126,63859,1,8,0:0:0:0:
273,126,63925,1,0,0:0:0:0:
285,164,64059,1,0,0:0:0:0:
285,164,64192,1,8,0:0:0:0:
285,164,64325,1,8,0:0:0:0:
319,89,64458,1,0,0:0:0:0:
319,89,64525,1,0,0:0:0:0:
319,89,64591,1,0,0:0:0:0:
319,89,64658,1,0,0:0:0:0:
319,89,64725,1,8,0:0:0:0:
354,134,64858,1,0,0:0:0:0:
354,134,64991,1,8,0:0:0:0:
354,134,65058,1,8,0:0:0:0:
354,134,65124,1,0,0:0:0:0:
354,134,65191,1,0,0:0:0:0:
354,134,65257,1,8,0:0:0:0:
405,96,65391,1,8,0:0:0:0:
210,134,65524,1,0,0:0:0:0:
210,134,65790,1,8,0:0:0:0:
219,187,65924,1,0,0:0:0:0:
240,197,66057,1,8,0:0:0:0:
223,272,66190,1,0,0:0:0:0:
331,275,66323,1,8,0:0:0:0:
260,107,66456,1,8,0:0:0:0:
260,107,66523,1,8,0:0:0:0:
260,107,66590,1,0,0:0:0:0:
166,250,66723,1,0,0:0:0:0:
166,250,66856,1,8,0:0:0:0:
166,250,66989,1,8,0:0:0:0:
166,250,67122,1,0,0:0:0:0:
218,258,67189,1,0,0:0:0:0:
218,258,67256,1,8,0:0:0:0:
166,250,67389,1,8,0:0:0:0:
166,250,67522,1,0,0:0:0:0:
224,256,67655,1,8,0:0:0:0:
218,258,67789,1,0,0:0:0:0:
218,258,67855,1,0,0:0:0:0:
166,250,67922,1,8,0:0:0:0:
259,185,68055,1,8,0:0:0:0:
259,185,68188,1,0,0:0:0:0:
259,185,68321,1,8,0:0:0:0:
259,185,68455,1,8,0:0:0:0:
347,208,68588,1,0,0:0:0:0:
345,214,68721,1,8,0:0:0:0:
345,214,68788,1,0,0:0:0:0:
345,214,68854,1,0,0:0:0:0:
345,214,68921,1,0,0:0:0:0:
345,214,68987,1,8,0:0:0:0:
254,245,69121,1,8,0:0:0:0:
262,220,69254,1,0,0:0:0:0:
262,220,69321,1,0,0:0:0:0:
262,220,69387,1,8,0:0:0:0:
262,220,69520,1,0,0:0:0:0:
262,220,69654,1,8,0:0:0:0:
262,220,69787,1,4,0:0:0:0:
276,262,70053,1,8,0:0:0:0:
332,240,70186,1,8,0:0:0:0:
332,240,70253,1,8,0:0:0:0:
312,204,70320,1,0,0:0:0:0:
252,153,70453,1,0,0:0:0:0:
211,98,70586,1,8,0:0:0:0:
211,98,70719,1,0,0:0:0:0:
343,98,70852,1,0,0:0:0:0:
343,98,70986,1,8,0:0:0:0:
274,121,71119,1,8,0:0:0:0:
302,166,71252,1,0,0:0:0:0:
302,166,71319,1,0,0:0:0:0:
274,121,71385,1,0,0:0:0:0:
314,178,71519,1,8,0:0:0:0:
402,157,71652,1,0,0:0:0:0:
314,178,71785,1,8,0:0:0:0:
175,135,71918,1,0,0:0:0:0:
239,84,72185,1,8,0:0:0:0:
257,184,72318,1,0,0:0:0:0:
257,184,72451,1,8,0:0:0:0:
101,226,72584,1,0,0:0:0:0:
101,226,72651,1,0,0:0:0:0:
128,171,72717,1,8,0:0:0:0:
128,171,72851,1,8,0:0:0:0:
239,225,72984,1,0,0:0:0:0:
239,225,73051,1,0,0:0:0:0:
239,225,73117,1,0,0:0:0:0:
239,225,73184,1,0,0:0:0:0:
239,225,73250,1,8,0:0:0:0:
320,173,73384,1,8,0:0:0:0:
320,173,73517,1,0,0:0:0:0:
320,173,73650,1,8,0:0:0:0:
320,173,73783,1,0,0:0:0:0:
331,141,73850,1,0,0:0:0:0:
320,173,73916,1,8,0:0:0:0:
348,224,74050,1,0,0:0:0:0:
278,135,74316,1,8,0:0:0:0:
209,168,74449,1,8,0:0:0:0:
118,84,74583,1,0,0:0:0:0:
118,84,74649,1,0,0:0:0:0:
118,84,74716,1,0,0:0:0:0:
148,191,74849,1,8,0:0:0:0:
219,94,74982,1,0,0:0:0:0:
219,94,75049,1,0,0:0:0:0:
219,94,75115,1,8,0:0:0:0:
262,222,75249,1,0,0:0:0:0:
262,222,75382,1,8,0:0:0:0:
281,172,75515,1,8,0:0:0:0:
457,134,75648,1,0,0:0:0:0:
457,134,75715,1,0,0:0:0:0:
326,84,75781,1,0,0:0:0:0:
326,84,75848,1,0,0:0:0:0:
457,134,75915,1,8,0:0:0:0:
388,227,76048,1,8,0:0:0:0:
370,171,76181,1,0,0:0:0:0:
370,171,76448,1,8,0:0:0:0:
234,113,76581,1,8,0:0:0:0:
234,113,76647,1,8,0:0:0:0:
234,113,76714,1,0,0:0:0:0:
248,155,76847,1,8,0:0:0:0:
248,155,76980,1,8,0:0:0:0:
248,155,77114,1,0,0:0:0:0:
274,128,77247,1,8,0:0:0:0:
274,128,77380,1,0,0:0:0:0:
274,128,77513,1,8,0:0:0:0:
328,98,77646,1,8,0:0:0:0:
328,98,77713,1,8,0:0:0:0:
328,98,77780,1,8,0:0:0:0:
304,207,77913,1,0,0:0:0:0:
304,207,78046,1,8,0:0:0:0:
304,207,78179,1,8,0:0:0:0:
274,89,78313,1,4,0:0:0:0:
195,182,78579,1,8,0:0:0:0:
195,182,78712,1,8,0:0:0:0:
256,96,78845,1,0,0:0:0:0:
256,96,78979,1,0,0:0:0:0:
256,96,79045,1,0,0:0:0:0:
256,96,79112,1,8,0:0:0:0:
256,96,79245,1,8,0:0:0:0:
256,96,79378,1,0,0:0:0:0:
322,173,79511,1,0,0:0:0:0:
317,244,79645,1,8,0:0:0:0:
317,244,79711,1,8,0:0:0:0:
317,244,79778,1,8,0:0:0:0:
351,229,79911,1,0,0:0:0:0:
339,232,80044,1,8,0:0:0:0:
143,205,80178,1,8,0:0:0:0:
143,205,80311,1,0,0:0:0:0:
158,256,80444,1,8,0:0:0:0:
158,256,80577,1,8,0:0:0:0:
158,256,80644,1,8,0:0:0:0:
158,256,80710,1,8,0:0:0:0:
217,246,80844,1,0,0:0:0:0:
217,246,80977,1,8,0:0:0:0:
247,133,81110,1,0,0:0:0:0:
247,133,81177,1,0,0:0:0:0:
247,133,81243,1,8,0:0:0:0:
259,175,81376,1,8,0:0:0:0:
151,179,81510,1,8,0:0:0:0:
151,179,81643,1,0,0:0:0:0:
151,179,81776,1,8,0:0:0:0:
151,179,81909,1,0,0:0:0:0:
151,179,82043,1,8,0:0:0:0:
151,179,82109,1,8,0:0:0:0:
151,179,82176,1,0,0:0:0:0:
151,179,82242,1,0,0:0:0:0:
151,179,82309,1,8,0:0:0:0:
151,179,82442,1,8,0:0:0:0:
151,179,82575,1,0,0:0:0:0:
195,146,82842,1,0,0:0:0:0:
195,146,82975,1,8,0:0:0:0:
292,171,83108,1,0,0:0:0:0:
292,171,83175,1,0,0:0:0:0:
292,171,83241,1,8,0:0:0:0:
257,34,83375,1,8,0:0:0:0:
380,180,83508,1,0,0:0:0:0:
380,180,83575,1,0,0:0:0:0:
346,124,83641,1,0,0:0:0:0:
168,178,83774,1,0,0:0:0:0:
168,178,83908,1,8,0:0:0:0:
235,225,84041,1,8,0:0:0:0:
190,169,84174,1,0,0:0:0:0:
190,169,84241,1,0,0:0:0:0:
190,169,84307,1,8,0:0:0:0:
190,169,84440,1,8,0:0:0:0:
228,183,84574,1,8,0:0:0:0:
228,183,84640,1,8,0:0:0:0:
228,183,84707,1,0,0:0:0:0:
321,279,84840,1,0,0:0:0:0:
321,279,84973,1,8,0:0:0:0:
321,279,85106,1,8,0:0:0:0:
388,229,85240,1,0,0:0:0:0:
388,229,85373,1,0,0:0:0:0:
309,219,85506,1,8,0:0:0:0:
317,109,85773,1,8,0:0:0:0:
317,109,85906,1,0,0:0:0:0:
317,109,86039,1,8,0:0:0:0:
254,175,86172,1,8,0:0:0:0:
254,175,86239,1,8,0:0:0:0:
254,175,86305,1,0,0:0:0:0:
296,200,86439,1,0,0:0:0:0:
296,200,86572,1,8,0:0:0:0:
192,192,86705,1,0,0:0:0:0:
358,82,86838,1,4,0:0:0:0:
216,84,87105,1,8,0:0:0:0:
319,83,87238,1,0,0:0:0:0:
319,83,87305,1,0,0:0:0:0:
319,83,87371,1,8,0:0:0:0:
273,108,87504,1,0,0:0:0:0:
273,108,87638,1,8,0:0:0:0:
273,108,87771,1,8,0:0:0:0:
306,76,87904,1,0,0:0:0:0:
306,76,88037,1,0,0:0:0:0:
306,76,88104,1,0,0:0:0:0:
306,76,88170,1,8,0:0:0:0:
154,91,88304,1,8,0:0:0:0:
237,113,88437,1,0,0:0:0:0:
154,91,88570,1,8,0:0:0:0:
154,91,88637,1,8,0:0:0:0:
154,91,88703,1,0,0:0:0:0:
154,91,88836,1,8,0:0:0:0:
212,155,88970,1,0,0:0:0:0:
212,155,89036,1,0,0:0:0:0:
263,175,89103,1,0,0:0:0:0:
212,155,89236,1,8,0:0:0:0:
195,164,89369,1,0,0:0:0:0:
195,164,89436,1,0,0:0:0:0:
195,164,89503,1,8,0:0:0:0:
270,109,89636,1,0,0:0:0:0:
270,109,89769,1,8,0:0:0:0:
270,109,89902,1,8,0:0:0:0:
350,69,90035,1,0,0:0:0:0:
237,42,90169,1,0,0:0:0:0:
237,42,90302,1,8,0:0:0:0:
237,42,90435,1,8,0:0:0:0:
252,103,90568,1,0,0:0:0:0:
252,103,90635,1,0,0:0:0:0:
252,103,90702,1,0,0:0:0:0:
266,135,90835,1,8,0:0:0:0:
266,135,90968,1,8,0:0:0:0:
314,149,91101,1,0,0:0:0:0:
363,109,91368,1,8,0:0:0:0:
363,109,91501,1,0,0:0:0:0:
217,146,91634,1,8,0:0:0:0:
217,146,91701,1,8,0:0:0:0:
217,146,91767,1,0,0:0:0:0:
266,213,91900,1,8,0:0:0:0:
266,213,92034,1,0,0:0:0:0:
266,213,92100,1,0,0:0:0:0:
266,213,92167,1,8,0:0:0:0:
319,168,92300,1,0,0:0:0:0:
319,168,92433,1,8,0:0:0:0:
319,168,92567,1,8,0:0:0:0:
303,92,92700,1,0,0:0:0:0:
303,92,92766,1,0,0:0:0:0:
303,92,92833,1,0,0:0:0:0:
243,115,92966,1,8,0:0:0:0:
243,115,93099,1,8,0:0:0:0:
243,115,93233,1,0,0:0:0:0:
208,107,93499,1,8,0:0:0:0:
256,224,93632,1,0,0:0:0:0:
208,107,93765,1,0,0:0:0:0:
208,107,93899,1,8,0:0:0:0:
272,67,94032,1,0,0:0:0:0:
256,172,94165,1,8,0:0:0:0:
338,120,94298,1,0,0:0:0:0:
338,120,94365,1,0,0:0:0:0:
338,120,94432,1,0,0:0:0:0:
211,192,94565,1,8,0:0:0:0:
211,192,94698,1,8,0:0:0:0:
152,180,94831,1,0,0:0:0:0:
152,180,94964,1,8,0:0:0:0:
152,180,95098,1,8,0:0:0:0:
229,84,95231,1,0,0:0:0:0:
325,126,95364,1,4,0:0:0:0:
195,193,95763,1,0,0:0:0:0:
354,167,95896,1,8,0:0:0:0:
288,200,96163,1,0,0:0:0:0:
288,200,96429,1,8,0:0:0:0:
288,200,96562,1,8,0:0:0:0:
288,200,96696,1,8,0:0:0:0:
327,227,96962,1,0,0:0:0:0:
327,227,97229,1,0,0:0:0:0:
327,227,97362,1,0,0:0:0:0:
327,227,97495,1,8,0:0:0:0:
327,227,97628,1,8,0:0:0:0:
327,227,97761,1,0,0:0:0:0:
255,113,97895,1,0,0:0:0:0:
255,113,98028,1,8,0:0:0:0:
247,80,98161,1,8,0:0:0:0:
282,124,98294,1,0,0:0:0:0:
252,151,98561,1,0,0:0:0:0:
252,151,98827,1,0,0:0:0:0:
252,151,98960,1,0,0:0:0:0:
252,151,99094,1,8,0:0:0:0:
320,103,99360,1,0,0:0:0:0:
320,103,99626,1,8,0:0:0:0:
320,103,99760,1,8,0:0:0:0:
320,103,99893,1,0,0:0:0:0:
108,142,100159,1,0,0:0:0:0:
279,166,100426,1,0,0:0:0:0:
279,166,100559,1,0,0:0:0:0:
279,166,100692,1,8,0:0:0:0:
279,166,100825,1,8,0:0:0:0:
154,122,100959,1,8,0:0:0:0:
154,122,101092,1,0,0:0:0:0:
234,126,101225,1,0,0:0:0:0:
234,126,101359,1,8,0:0:0:0:
175,222,101491,1,8,0:0:0:0:
320,195,101758,1,0,0:0:0:0:
320,195,102024,1,0,0:0:0:0:
320,195,102157,1,0,0:0:0:0:
320,195,102291,1,8,0:0:0:0:
295,118,102557,1,0,0:0:0:0:
295,118,102824,1,8,0:0:0:0:
295,118,102957,1,8,0:0:0:0:
295,118,103090,1,8,0:0:0:0:
228,169,103356,1,0,0:0:0:0:
228,169,103623,1,8,0:0:0:0:
228,169,103756,1,8,0:0:0:0:
228,169,103889,1,0,0:0:0:0:
228,169,104022,1,0,0:0:0:0:
228,169,104156,1,8,0:0:0:0:
283,148,104422,1,0,0:0:0:0:
283,148,104555,1,8,0:0:0:0:
283,148,104689,1,8,0:0:0:0:
283,148,104822,1,8,0:0:0:0:
326,104,104955,1,4,0:0:0:0:
217,122,105221,1,8,0:0:0:0:
217,122,105354,1,0,0:0:0:0:
217,122,105421,1,0,0:0:0:0:
217,122,105487,1,8,0:0:0:0:
290,180,105621,1,0,0:0:0:0:
290,180,105754,1,8,0:0:0:0:
290,180,105887,1,8,0:0:0:0:
339,168,106020,1,0,0:0:0:0:
339,168,106087,1,0,0:0:0:0:
339,168,106153,1,0,0:0:0:0:
339,168,106220,1,0,0:0:0:0:
339,168,106287,1,8,0:0:0:0:
266,222,106420,1,0,0:0:0:0:
266,222,106553,1,8,0:0:0:0:
266,222,106686,1,0,0:0:0:0:
147,153,106820,1,8,0:0:0:0:
147,153,106886,1,8,0:0:0:0:
147,153,106953,1,0,0:0:0:0:
147,153,107019,1,0,0:0:0:0:
243,255,107086,1,8,0:0:0:0:
147,153,107219,1,0,0:0:0:0:
243,255,107352,1,8,0:0:0:0:
303,162,107486,1,0,0:0:0:0:
303,162,107552,1,0,0:0:0:0:
303,162,107619,1,8,0:0:0:0:
314,200,107752,1,8,0:0:0:0:
314,200,107885,1,8,0:0:0:0:
235,101,108018,1,0,0:0:0:0:
454,181,108152,1,4,0:0:0:0:
323,97,108285,1,8,0:0:0:0:
277,82,108418,1,4,0:0:0:0:
265,148,108551,1,8,0:0:0:0:
358,158,108685,1,4,0:0:0:0:
226,112,108818,1,8,0:0:0:0:
358,158,108951,1,4,0:0:0:0:
351,162,109217,1,4,0:0:0:0:
252,155,109484,1,8,0:0:0:0:
175,116,109617,1,8,0:0:0:0:
175,116,109684,1,8,0:0:0:0:
175,116,109750,1,0,0:0:0:0:
270,101,109883,1,0,0:0:0:0:
270,101,110017,1,8,0:0:0:0:
230,175,110150,1,8,0:0:0:0:
339,132,110283,1,0,0:0:0:0:
339,132,110350,1,0,0:0:0:0:
339,132,110416,1,8,0:0:0:0:
339,132,110483,1,8,0:0:0:0:
339,132,110550,1,8,0:0:0:0:
310,194,110683,1,0,0:0:0:0:
296,108,110816,1,8,0:0:0:0:
296,108,110883,1,8,0:0:0:0:
296,108,110949,1,8,0:0:0:0:
296,108,111016,1,8,0:0:0:0:
296,108,111082,1,0,0:0:0:0:
296,108,111216,1,8,0:0:0:0:
206,190,111349,1,0,0:0:0:0:
206,190,111415,1,0,0:0:0:0:
206,190,111482,1,0,0:0:0:0:
206,190,111615,1,8,0:0:0:0:
206,190,111748,1,8,0:0:0:0:
285,236,111882,1,0,0:0:0:0:
285,236,111948,1,0,0:0:0:0:
285,236,112015,1,8,0:0:0:0:
285,236,112148,1,8,0:0:0:0:
285,236,112281,1,0,0:0:0:0:
182,122,112415,1,8,0:0:0:0:
182,122,112548,1,0,0:0:0:0:
182,122,112615,1,0,0:0:0:0:
383,279,112681,1,0,0:0:0:0:
383,279,112814,1,8,0:0:0:0:
298,120,112947,1,0,0:0:0:0:
298,120,113014,1,0,0:0:0:0:
298,120,113081,1,0,0:0:0:0:
298,120,113147,1,0,0:0:0:0:
298,120,113214,1,8,0:0:0:0:
298,120,113347,1,0,0:0:0:0:
334,181,113480,1,8,0:0:0:0:
225,180,113613,1,0,0:0:0:0:
225,180,113747,1,8,0:0:0:0:
225,180,113880,1,8,0:0:0:0:
225,180,113947,1,8,0:0:0:0:
225,180,114013,1,0,0:0:0:0:
253,217,114146,1,0,0:0:0:0:
253,217,114280,1,8,0:0:0:0:
266,257,114346,1,8,0:0:0:0:
266,257,114413,1,0,0:0:0:0:
266,257,114479,1,0,0:0:0:0:
266,257,114546,1,8,0:0:0:0:
274,278,114679,1,0,0:0:0:0:
274,278,114812,1,8,0:0:0:0:
274,278,114879,1,8,0:0:0:0:
274,278,114946,1,0,0:0:0:0:
281,258,115079,1,8,0:0:0:0:
281,258,115212,1,0,0:0:0:0:
281,257,115279,1,0,0:0:0:0:
281,257,115345,1,8,0:0:0:0:
306,135,115478,1,8,0:0:0:0:
162,174,115612,1,0,0:0:0:0:
162,174,115678,1,0,0:0:0:0:
162,174,115745,1,0,0:0:0:0:
162,174,115812,1,0,0:0:0:0:
228,104,115878,1,8,0:0:0:0:
356,139,116011,1,8,0:0:0:0:
217,129,116145,1,8,0:0:0:0:
217,129,116211,1,8,0:0:0:0:
217,129,116278,1,0,0:0:0:0:
217,129,116344,1,0,0:0:0:0:
217,129,116411,1,8,0:0:0:0:
224,137,116544,1,8,0:0:0:0:
239,161,116677,1,0,0:0:0:0:
239,161,116744,1,0,0:0:0:0:
239,161,116811,1,8,0:0:0:0:
239,161,116944,1,0,0:0:0:0:
239,161,117010,1,0,0:0:0:0:
239,161,117077,1,8,0:0:0:0:
310,251,117210,1,0,0:0:0:0:
310,251,117277,1,0,0:0:0:0:
310,251,117343,1,8,0:0:0:0:
170,184,117410,1,8,0:0:0:0:
310,251,117477,1,8,0:0:0:0:
170,184,117610,1,8,0:0:0:0:
257,238,117743,1,4,0:0:0:0:
117,182,118010,1,8,0:0:0:0:
223,95,118143,1,0,0:0:0:0:
223,101,118209,1,0,0:0:0:0:
231,141,118276,1,8,0:0:0:0:
332,119,118409,1,0,0:0:0:0:
332,119,118542,1,8,0:0:0:0:
282,142,118676,1,8,0:0:0:0:
301,204,118809,1,0,0:0:0:0:
301,204,118875,1,0,0:0:0:0:
301,204,118942,1,0,0:0:0:0:
282,142,119075,1,8,0:0:0:0:
359,137,119208,1,8,0:0:0:0:
328,165,119342,1,0,0:0:0:0:
328,165,119475,1,8,0:0:0:0:
259,107,119608,1,0,0:0:0:0:
259,107,119675,1,0,0:0:0:0:
259,107,119741,1,8,0:0:0:0:
259,107,119875,1,0,0:0:0:0:
232,150,120008,1,8,0:0:0:0:
232,150,120074,1,8,0:0:0:0:
232,150,120141,1,0,0:0:0:0:
257,235,120274,1,8,0:0:0:0:
266,167,120407,1,0,0:0:0:0:
266,167,120474,1,0,0:0:0:0:
266,167,120541,1,0,0:0:0:0:
274,129,120607,1,0,0:0:0:0:
274,124,120674,1,8,0:0:0:0:
274,129,120807,1,0,0:0:0:0:
274,131,120940,1,8,0:0:0:0:
274,131,121007,1,8,0:0:0:0:
274,131,121074,1,8,0:0:0:0:
274,131,121207,1,8,0:0:0:0:
326,247,121340,1,0,0:0:0:0:
326,247,121473,1,8,0:0:0:0:
317,151,121540,1,8,0:0:0:0:
317,151,121606,1,0,0:0:0:0:
317,151,121673,1,0,0:0:0:0:
323,222,121740,1,8,0:0:0:0:
250,111,121873,1,0,0:0:0:0:
250,111,122006,1,8,0:0:0:0:
224,175,122139,1,0,0:0:0:0:
224,175,122206,1,0,0:0:0:0:
224,175,122272,1,0,0:0:0:0:
226,192,122406,1,8,0:0:0:0:
226,192,122539,1,8,0:0:0:0:
286,129,122672,1,0,0:0:0:0:
286,129,122739,1,0,0:0:0:0:
286,129,122805,1,0,0:0:0:0:
286,129,122939,1,8,0:0:0:0:
289,153,123072,1,0,0:0:0:0:
288,151,123138,1,0,0:0:0:0:
289,150,123205,1,0,0:0:0:0:
289,150,123338,1,8,0:0:0:0:
289,150,123471,1,0,0:0:0:0:
288,150,123538,1,0,0:0:0:0:
288,150,123605,1,8,0:0:0:0:
288,150,123738,1,8,0:0:0:0:
256,240,123871,1,0,0:0:0:0:
256,240,123938,1,0,0:0:0:0:
256,240,124004,1,8,0:0:0:0:
235,169,124137,1,0,0:0:0:0:
235,169,124204,1,8,0:0:0:0:
235,169,124271,1,8,0:0:0:0:
351,124,124404,1,8,0:0:0:0:
351,124,124470,1,8,0:0:0:0:
351,124,124537,1,0,0:0:0:0:
241,102,124670,1,8,0:0:0:0:
241,102,124804,1,0,0:0:0:0:
241,102,124937,1,0,0:0:0:0:
156,144,125070,1,8,0:0:0:0:
241,102,125203,1,8,0:0:0:0:
156,144,125336,1,0,0:0:0:0:
156,144,125470,1,8,0:0:0:0:
138,83,125603,1,0,0:0:0:0:
234,163,125736,1,8,0:0:0:0:
234,163,125803,1,8,0:0:0:0:
234,163,125869,1,0,0:0:0:0:
234,163,125936,1,0,0:0:0:0:
234,163,126002,1,8,0:0:0:0:
146,189,126069,1,8,0:0:0:0:
150,194,126136,1,8,0:0:0:0:
263,213,126269,1,4,0:0:0:0:
393,125,126535,1,0,0:0:0:0:
393,125,126668,1,0,0:0:0:0:
393,125,126801,1,8,0:0:0:0:
310,220,127068,1,4,0:0:0:0:
310,220,127335,1,8,0:0:0:0:
310,220,127468,1,8,0:0:0:0:
310,220,127601,1,8,0:0:0:0:
232,129,127867,1,6,0:0:0:0:
209,105,128134,1,8,0:0:0:0:
209,105,128267,1,8,0:0:0:0:
209,105,128400,1,0,0:0:0:0:
223,113,128667,1,6,0:0:0:0:
283,98,128933,1,0,0:0:0:0:
240,76,129066,1,8,0:0:0:0:
240,76,129133,1,8,0:0:0:0:
240,76,129200,1,8,0:0:0:0:
240,76,129332,1,8,0:0:0:0:
205,118,129466,1,8,0:0:0:0:
205,118,129599,1,0,0:0:0:0:
205,118,129732,1,8,0:0:0:0:
205,118,129866,1,0,0:0:0:0:
270,160,129999,1,8,0:0:0:0:
270,160,130132,1,0,0:0:0:0:
270,160,130199,1,0,0:0:0:0:
270,160,130265,1,8,0:0:0:0:
270,160,130399,1,8,0:0:0:0:
332,248,130532,1,0,0:0:0:0:
332,248,130598,1,0,0:0:0:0:
332,248,130665,1,0,0:0:0:0:
242,206,130798,1,8,0:0:0:0:
242,206,130931,1,8,0:0:0:0:
249,165,131065,1,0,0:0:0:0:
249,165,131131,1,0,0:0:0:0:
249,165,131198,1,0,0:0:0:0:
247,168,131264,1,0,0:0:0:0:
247,168,131331,1,8,0:0:0:0:
313,200,131464,1,8,0:0:0:0:
264,131,131597,1,4,0:0:0:0:
172,146,131731,1,8,0:0:0:0:
298,156,131864,1,4,0:0:0:0:
172,146,131997,1,8,0:0:0:0:
298,156,132130,1,4,0:0:0:0:
172,146,132264,1,8,0:0:0:0:
298,156,132397,1,4,0:0:0:0:
172,146,132530,1,8,0:0:0:0:
298,156,132663,1,4,0:0:0:0:
349,307,133729,1,4,0:0:0:0:
250,189,133995,1,8,0:0:0:0:
205,94,134129,1,0,0:0:0:0:
205,94,134195,1,0,0:0:0:0:
205,94,134262,1,8,0:0:0:0:
234,124,134395,1,0,0:0:0:0:
234,124,134528,1,8,0:0:0:0:
167,186,134661,1,8,0:0:0:0:
127,272,134795,1,0,0:0:0:0:
127,272,134928,1,0,0:0:0:0:
248,275,135061,1,8,0:0:0:0:
248,275,135194,1,8,0:0:0:0:
248,275,135261,1,8,0:0:0:0:
248,275,135328,1,0,0:0:0:0:
372,117,135461,1,0,0:0:0:0:
372,117,135594,1,8,0:0:0:0:
372,117,135727,1,8,0:0:0:0:
330,308,135860,1,0,0:0:0:0:
330,308,135994,1,8,0:0:0:0:
330,308,136060,1,8,0:0:0:0:
330,308,136127,1,0,0:0:0:0:
330,308,136193,1,0,0:0:0:0:
287,238,136260,1,0,0:0:0:0:
287,238,136394,1,8,0:0:0:0:
287,238,136527,1,0,0:0:0:0:
330,308,136660,1,8,0:0:0:0:
287,238,136793,1,8,0:0:0:0:
287,238,136859,1,8,0:0:0:0:
287,238,136926,1,0,0:0:0:0:
228,249,137059,1,0,0:0:0:0:
228,249,137193,1,8,0:0:0:0:
228,249,137326,1,8,0:0:0:0:
285,287,137459,1,0,0:0:0:0:
285,287,137526,1,0,0:0:0:0:
285,287,137592,1,8,0:0:0:0:
285,287,137659,1,8,0:0:0:0:
285,287,137725,1,8,0:0:0:0:
308,230,137859,1,8,0:0:0:0:
308,230,137992,1,0,0:0:0:0:
221,148,138258,1,8,0:0:0:0:
229,243,138391,1,0,0:0:0:0:
229,243,138458,1,0,0:0:0:0:
279,231,138525,1,8,0:0:0:0:
279,231,138658,1,0,0:0:0:0:
279,231,138791,1,8,0:0:0:0:
229,243,138924,1,0,0:0:0:0:
148,200,139058,1,0,0:0:0:0:
148,200,139191,1,0,0:0:0:0:
148,200,139257,1,0,0:0:0:0:
148,200,139324,1,8,0:0:0:0:
228,308,139457,1,8,0:0:0:0:
283,253,139590,1,0,0:0:0:0:
283,253,139724,1,0,0:0:0:0:
283,253,139857,1,8,0:0:0:0:
283,253,139990,1,8,0:0:0:0:
307,307,140057,1,8,0:0:0:0:
307,307,140123,1,0,0:0:0:0:
214,94,140256,1,8,0:0:0:0:
214,94,140390,1,0,0:0:0:0:
214,94,140523,1,8,0:0:0:0:
325,200,140656,1,0,0:0:0:0:
325,200,140723,1,0,0:0:0:0:
325,200,140789,1,0,0:0:0:0:
325,200,140923,1,8,0:0:0:0:
359,298,141056,1,0,0:0:0:0:
359,298,141122,1,0,0:0:0:0:
359,298,141189,1,8,0:0:0:0:
359,298,141322,1,8,0:0:0:0:
359,298,141455,1,8,0:0:0:0:
165,272,141589,1,0,0:0:0:0:
165,272,141655,1,8,0:0:0:0:
165,272,141722,1,8,0:0:0:0:
211,78,141855,1,8,0:0:0:0:
211,78,141988,1,8,0:0:0:0:
259,179,142121,1,8,0:0:0:0:
259,179,142255,1,0,0:0:0:0:
217,208,142521,1,8,0:0:0:0:
180,173,142788,1,0,0:0:0:0:
321,253,142921,1,0,0:0:0:0:
286,277,143054,1,8,0:0:0:0:
320,228,143187,1,8,0:0:0:0:
316,148,143320,1,0,0:0:0:0:
353,223,143587,1,8,0:0:0:0:
259,206,143853,1,8,0:0:0:0:
259,206,143986,1,0,0:0:0:0:
172,187,144120,1,8,0:0:0:0:
172,187,144253,1,8,0:0:0:0:
276,188,144386,1,0,0:0:0:0:
214,100,144653,1,8,0:0:0:0:
276,151,144919,1,0,0:0:0:0:
276,151,145052,1,8,0:0:0:0:
276,151,145185,1,0,0:0:0:0:
276,151,145319,1,8,0:0:0:0:
276,151,145452,1,0,0:0:0:0:
310,122,145718,1,8,0:0:0:0:
359,148,145985,1,0,0:0:0:0:
359,148,146118,1,8,0:0:0:0:
359,148,146251,1,8,0:0:0:0:
281,133,146518,1,4,0:0:0:0:
163,132,146784,1,8,0:0:0:0:
217,114,146917,1,0,0:0:0:0:
217,114,146984,1,0,0:0:0:0:
217,114,147050,1,8,0:0:0:0:
217,114,147183,1,0,0:0:0:0:
217,114,147316,1,8,0:0:0:0:
217,114,147450,1,0,0:0:0:0:
240,162,147583,1,0,0:0:0:0:
240,162,147716,1,0,0:0:0:0:
240,162,147783,1,0,0:0:0:0:
240,162,147850,1,8,0:0:0:0:
240,162,147983,1,0,0:0:0:0:
278,210,148116,1,8,0:0:0:0:
278,210,148249,1,0,0:0:0:0:
278,210,148383,1,8,0:0:0:0:
330,253,148516,1,8,0:0:0:0:
330,253,148582,1,8,0:0:0:0:
330,253,148649,1,0,0:0:0:0:
330,253,148782,1,0,0:0:0:0:
330,253,148916,1,8,0:0:0:0:
330,253,149049,1,8,0:0:0:0:
313,207,149182,1,0,0:0:0:0:
313,207,149248,1,0,0:0:0:0:
313,207,149315,1,8,0:0:0:0:
181,170,149448,1,8,0:0:0:0:
181,170,149581,1,0,0:0:0:0:
177,178,149715,1,0,0:0:0:0:
334,155,149848,1,8,0:0:0:0:
241,98,149915,1,8,0:0:0:0:
317,121,149981,1,0,0:0:0:0:
201,90,150114,1,0,0:0:0:0:
83,129,150248,1,8,0:0:0:0:
281,248,150381,1,0,0:0:0:0:
204,151,150514,1,8,0:0:0:0:
250,182,150780,1,0,0:0:0:0:
347,170,151047,1,8,0:0:0:0:
281,178,151180,1,0,0:0:0:0:
281,178,151313,1,0,0:0:0:0:
281,178,151447,1,0,0:0:0:0:
281,178,151580,1,8,0:0:0:0:
375,260,151846,1,0,0:0:0:0:
375,260,152113,1,8,0:0:0:0:
375,260,152246,1,8,0:0:0:0:
375,260,152379,1,0,0:0:0:0:
375,260,152512,1,0,0:0:0:0:
375,260,152645,1,8,0:0:0:0:
390,266,152912,1,0,0:0:0:0:
390,266,153178,1,8,0:0:0:0:
395,269,153312,1,0,0:0:0:0:
396,271,153445,1,8,0:0:0:0:
396,271,153578,1,0,0:0:0:0:
396,271,153711,1,8,0:0:0:0:
365,77,153978,1,0,0:0:0:0:
365,77,154244,1,8,0:0:0:0:
365,77,154377,1,0,0:0:0:0:
365,77,154510,1,8,0:0:0:0:
365,77,154644,1,8,0:0:0:0:
365,77,154777,1,8,0:0:0:0:
223,139,155043,1,4,0:0:0:0:
234,204,155310,1,8,0:0:0:0:
163,205,155443,1,0,0:0:0:0:
163,205,155510,1,0,0:0:0:0:
154,220,155576,1,0,0:0:0:0:
207,285,155709,1,8,0:0:0:0:
207,285,155843,1,8,0:0:0:0:
163,111,155976,1,0,0:0:0:0:
163,111,156042,1,0,0:0:0:0:
163,111,156109,1,8,0:0:0:0:
163,111,156242,1,0,0:0:0:0:
163,111,156375,1,8,0:0:0:0:
163,111,156509,1,0,0:0:0:0:
229,146,156642,1,8,0:0:0:0:
229,146,156708,1,8,0:0:0:0:
229,146,156775,1,0,0:0:0:0:
229,146,156842,1,0,0:0:0:0:
229,146,156908,1,8,0:0:0:0:
297,129,157042,1,0,0:0:0:0:
297,129,157175,1,8,0:0:0:0:
297,129,157308,1,0,0:0:0:0:
297,129,157441,1,8,0:0:0:0:
297,129,157574,1,0,0:0:0:0:
297,129,157641,1,0,0:0:0:0:
297,129,157708,1,0,0:0:0:0:
361,160,157841,1,8,0:0:0:0:
361,160,157974,1,8,0:0:0:0:
361,160,158107,1,0,0:0:0:0:
265,217,158240,1,8,0:0:0:0:
148,138,158374,1,0,0:0:0:0:
148,138,158507,1,8,0:0:0:0:
246,162,158640,1,0,0:0:0:0:
246,162,158707,1,0,0:0:0:0:
279,200,158773,1,8,0:0:0:0:
323,208,158907,1,8,0:0:0:0:
292,197,159040,1,0,0:0:0:0:
292,197,159306,1,4,0:0:0:0:
274,262,159705,1,8,0:0:0:0:
274,262,159838,1,8,0:0:0:0:
276,138,160105,1,0,0:0:0:0:
276,138,160371,1,8,0:0:0:0:
276,138,160504,1,8,0:0:0:0:
276,138,160638,1,8,0:0:0:0:
277,68,160904,1,0,0:0:0:0:
277,68,161171,1,0,0:0:0:0:
277,68,161304,1,0,0:0:0:0:
277,68,161437,1,8,0:0:0:0:
277,68,161570,1,0,0:0:0:0:
223,172,161703,1,8,0:0:0:0:
294,188,161837,1,0,0:0:0:0:
171,122,161970,1,8,0:0:0:0:
271,235,162103,1,8,0:0:0:0:
303,218,162236,1,8,0:0:0:0:
191,196,162503,1,0,0:0:0:0:
195,201,162769,1,0,0:0:0:0:
196,202,162902,1,0,0:0:0:0:
197,202,163036,1,8,0:0:0:0:
202,88,163302,1,0,0:0:0:0:
202,88,163568,1,8,0:0:0:0:
202,88,163702,1,8,0:0:0:0:
202,88,163835,1,8,0:0:0:0:
287,117,164101,1,0,0:0:0:0:
287,117,164368,1,8,0:0:0:0:
287,117,164501,1,8,0:0:0:0:
287,117,164634,1,0,0:0:0:0:
306,186,164767,1,8,0:0:0:0:
306,186,164900,1,8,0:0:0:0:
201,138,165033,1,0,0:0:0:0:
201,138,165166,1,0,0:0:0:0:
287,117,165300,1,8,0:0:0:0:
306,186,165433,1,8,0:0:0:0:
284,125,165700,1,0,0:0:0:0:
284,125,165966,1,0,0:0:0:0:
284,125,166099,1,0,0:0:0:0:
284,125,166233,1,8,0:0:0:0:
188,158,166499,1,0,0:0:0:0:
188,158,166766,1,8,0:0:0:0:
188,158,166899,1,8,0:0:0:0:
188,158,167032,1,8,0:0:0:0:
215,116,167298,1,0,0:0:0:0:
215,116,167565,1,8,0:0:0:0:
215,116,167698,1,8,0:0:0:0:
215,116,167832,1,0,0:0:0:0:
272,135,168098,1,0,0:0:0:0:
272,135,168364,1,8,0:0:0:0:
272,135,168497,1,8,0:0:0:0:
272,135,168631,1,0,0:0:0:0:
159,217,168764,1,0,0:0:0:0:
159,217,168897,1,8,0:0:0:0:
338,133,169163,1,0,0:0:0:0:
338,133,169297,1,8,0:0:0:0:
338,133,169430,1,8,0:0:0:0:
268,200,169563,1,0,0:0:0:0:
266,91,169696,1,8,0:0:0:0:
214,151,169829,1,0,0:0:0:0:
214,151,169963,1,0,0:0:0:0:
212,169,170096,1,8,0:0:0:0:
212,169,170229,1,0,0:0:0:0:
212,169,170362,1,8,0:0:0:0:
220,174,170496,1,8,0:0:0:0:
297,164,170629,1,0,0:0:0:0:
297,164,170695,1,0,0:0:0:0:
297,164,170762,1,0,0:0:0:0:
306,253,170895,1,8,0:0:0:0:
306,253,171028,1,8,0:0:0:0:
311,255,171162,1,0,0:0:0:0:
311,255,171295,1,8,0:0:0:0:
138,140,171560,1,8,0:0:0:0:
138,140,171694,1,0,0:0:0:0:
138,140,171827,1,8,0:0:0:0:
138,140,171961,1,0,0:0:0:0:
138,140,172094,1,8,0:0:0:0:
199,207,172360,1,0,0:0:0:0:
277,131,172627,1,4,0:0:0:0:
192,225,172893,1,8,0:0:0:0:
191,228,173025,1,0,0:0:0:0:
191,228,173092,1,0,0:0:0:0:
228,141,173159,1,8,0:0:0:0:
98,233,173293,1,0,0:0:0:0:
98,233,173426,1,8,0:0:0:0:
98,233,173559,1,8,0:0:0:0:
105,235,173692,1,0,0:0:0:0:
288,233,173825,1,8,0:0:0:0:
288,233,173959,1,0,0:0:0:0:
281,182,174225,1,0,0:0:0:0:
311,208,174358,1,0,0:0:0:0:
281,182,174425,1,0,0:0:0:0:
320,148,174492,1,8,0:0:0:0:
320,148,174625,1,8,0:0:0:0:
320,148,174758,1,0,0:0:0:0:
320,148,174891,1,8,0:0:0:0:
359,177,175024,1,0,0:0:0:0:
230,146,175291,1,8,0:0:0:0:
230,146,175424,1,0,0:0:0:0:
230,146,175557,1,8,0:0:0:0:
230,146,175690,1,8,0:0:0:0:
230,146,175824,1,0,0:0:0:0:
161,96,176090,1,8,0:0:0:0:
161,96,176223,1,8,0:0:0:0:
161,96,176290,1,8,0:0:0:0:
161,96,176357,1,0,0:0:0:0:
161,96,176490,1,8,0:0:0:0:
161,96,176623,1,8,0:0:0:0:
259,78,176756,1,0,0:0:0:0:
245,108,176889,1,0,0:0:0:0:
245,108,177023,1,8,0:0:0:0:
328,213,177156,1,0,0:0:0:0:
338,93,177422,1,0,0:0:0:0:
338,93,177555,1,0,0:0:0:0:
338,93,177622,1,0,0:0:0:0:
338,93,177689,1,8,0:0:0:0:
297,151,177822,1,0,0:0:0:0:
263,200,177955,1,8,0:0:0:0:
263,200,178088,1,8,0:0:0:0:
258,220,178222,1,8,0:0:0:0:
258,220,178355,1,0,0:0:0:0:
186,153,178488,1,0,0:0:0:0:
343,239,178621,1,8,0:0:0:0:
343,239,178754,1,0,0:0:0:0:
207,170,179021,1,4,0:0:0:0:
365,120,179287,1,8,0:0:0:0:
302,144,179420,1,0,0:0:0:0:
302,144,179487,1,0,0:0:0:0:
302,144,179554,1,0,0:0:0:0:
162,177,179687,1,8,0:0:0:0:
250,160,179820,1,4,0:0:0:0:
143,190,180087,1,8,0:0:0:0:
145,191,180220,1,0,0:0:0:0:
146,191,180286,1,0,0:0:0:0:
145,194,180353,1,8,0:0:0:0:
146,194,180486,1,8,0:0:0:0:
146,194,180619,1,4,0:0:0:0:
253,204,180886,1,8,0:0:0:0:
253,204,181019,1,8,0:0:0:0:
303,215,181086,1,8,0:0:0:0:
303,215,181152,1,0,0:0:0:0:
305,219,181285,1,8,0:0:0:0:
305,219,181419,1,4,0:0:0:0:
345,268,181685,1,8,0:0:0:0:
345,268,181818,1,8,0:0:0:0:
345,268,181952,1,0,0:0:0:0:
345,268,182085,1,0,0:0:0:0:
345,268,182218,1,4,0:0:0:0:
345,268,182484,1,8,0:0:0:0:
345,268,182551,1,8,0:0:0:0:
250,62,182617,1,8,0:0:0:0:
313,155,182750,1,0,0:0:0:0:
313,155,182884,1,8,0:0:0:0:
313,155,183017,1,8,0:0:0:0:
313,155,183083,1,8,0:0:0:0:
313,155,183150,1,8,0:0:0:0:
165,134,183283,1,0,0:0:0:0:
165,134,183416,1,0,0:0:0:0:
165,134,183483,1,0,0:0:0:0:
165,134,183550,1,8,0:0:0:0:
220,195,183683,1,8,0:0:0:0:
238,129,183816,1,0,0:0:0:0:
238,129,183883,1,0,0:0:0:0:
380,120,183949,1,0,0:0:0:0:
247,66,184082,1,8,0:0:0:0:
363,166,184216,1,0,0:0:0:0:
98,104,184349,1,8,0:0:0:0:
98,104,184482,1,0,0:0:0:0:
98,104,184615,1,8,0:0:0:0:
98,104,184682,1,8,0:0:0:0:
98,104,184749,1,0,0:0:0:0:
98,104,184882,1,8,0:0:0:0:
98,104,185015,1,0,0:0:0:0:
98,104,185148,1,8,0:0:0:0:
98,104,185215,1,8,0:0:0:0:
98,104,185281,1,0,0:0:0:0:
288,160,185415,1,8,0:0:0:0:
288,160,185481,1,0,0:0:0:0:
288,160,185548,1,0,0:0:0:0:
288,160,185614,1,0,0:0:0:0:
288,160,185681,1,8,0:0:0:0:
288,160,185748,1,0,0:0:0:0:
288,160,185814,1,0,0:0:0:0:
288,160,185881,1,0,0:0:0:0:
320,256,185948,1,8,0:0:0:0:
320,256,186014,1,8,0:0:0:0:
320,256,186081,1,0,0:0:0:0:
320,256,186147,1,0,0:0:0:0:
320,256,186214,1,8,0:0:0:0:
292,210,186480,1,4,0:0:0:0:
443,210,186747,1,8,0:0:0:0:
263,273,186880,1,0,0:0:0:0:
263,273,186947,1,0,0:0:0:0:
263,273,187013,1,8,0:0:0:0:
265,304,187146,1,8,0:0:0:0:
265,304,187280,1,8,0:0:0:0:
340,293,187413,1,8,0:0:0:0:
340,293,187479,1,8,0:0:0:0:
340,293,187546,1,0,0:0:0:0:
331,189,187679,1,0,0:0:0:0:
288,204,187813,1,8,0:0:0:0:
341,159,187946,1,0,0:0:0:0:
288,96,188012,1,0,0:0:0:0:
288,204,188079,1,8,0:0:0:0:
341,159,188212,1,8,0:0:0:0:
341,159,188345,1,0,0:0:0:0:
341,159,188479,1,8,0:0:0:0:
341,159,188545,1,8,0:0:0:0:
341,159,188612,1,0,0:0:0:0:
341,159,188678,1,0,0:0:0:0:
341,159,188745,1,8,0:0:0:0:
341,159,188878,1,8,0:0:0:0:
276,117,189011,1,0,0:0:0:0:
276,117,189078,1,0,0:0:0:0:
276,117,189145,1,8,0:0:0:0:
224,153,189278,1,0,0:0:0:0:
224,153,189411,1,8,0:0:0:0:
275,108,189544,1,0,0:0:0:0:
224,192,189611,1,0,0:0:0:0:
230,98,189678,1,8,0:0:0:0:
230,98,189811,1,8,0:0:0:0:
230,98,189944,1,0,0:0:0:0:
230,98,190077,1,0,0:0:0:0:
150,141,190210,1,8,0:0:0:0:
150,141,190277,1,0,0:0:0:0:
150,141,190344,1,0,0:0:0:0:
150,141,190410,1,0,0:0:0:0:
150,141,190477,1,8,0:0:0:0:
270,149,190610,1,0,0:0:0:0:
270,149,190744,1,8,0:0:0:0:
235,185,190877,1,0,0:0:0:0:
150,141,191010,1,8,0:0:0:0:
270,149,191076,1,8,0:0:0:0:
270,149,191143,1,0,0:0:0:0:
314,182,191276,1,8,0:0:0:0:
314,182,191409,1,8,0:0:0:0:
165,229,191476,1,8,0:0:0:0:
177,173,191543,1,0,0:0:0:0:
177,173,191676,1,8,0:0:0:0:
177,173,191809,1,0,0:0:0:0:
250,44,191942,1,0,0:0:0:0:
250,44,192009,1,0,0:0:0:0:
250,44,192075,1,8,0:0:0:0:
297,137,192209,1,0,0:0:0:0:
238,108,192342,1,8,0:0:0:0:
238,108,192475,1,8,0:0:0:0:
157,237,192542,1,8,0:0:0:0:
238,108,192608,1,0,0:0:0:0:
238,108,192741,1,8,0:0:0:0:
263,190,192875,1,0,0:0:0:0:
263,190,192941,1,0,0:0:0:0:
263,190,193008,1,0,0:0:0:0:
263,190,193075,1,0,0:0:0:0:
263,190,193141,1,8,0:0:0:0:
304,186,193274,1,8,0:0:0:0:
304,186,193407,1,0,0:0:0:0:
304,186,193540,1,8,0:0:0:0:
304,186,193673,1,0,0:0:0:0:
304,186,193807,1,8,0:0:0:0:
393,220,193940,1,0,0:0:0:0:
393,220,194007,1,0,0:0:0:0:
393,220,194074,1,8,0:0:0:0:
393,220,194207,1,0,0:0:0:0:
393,220,194273,1,0,0:0:0:0:
393,220,194340,1,8,0:0:0:0:
246,102,194473,1,0,0:0:0:0:
246,102,194540,1,8,0:0:0:0:
246,102,194606,1,8,0:0:0:0:
243,106,194673,1,8,0:0:0:0:
243,106,194740,1,0,0:0:0:0:
243,106,194806,1,8,0:0:0:0:
243,106,194873,1,8,0:0:0:0:
243,106,194940,1,8,0:0:0:0:
243,106,195006,1,0,0:0:0:0:
345,128,195273,1,8,0:0:0:0:
394,101,195406,1,0,0:0:0:0:
394,101,195472,1,0,0:0:0:0:
250,55,195539,1,8,0:0:0:0:
199,62,195672,1,8,0:0:0:0:
199,62,195805,1,8,0:0:0:0:
255,197,195939,1,0,0:0:0:0:
255,197,196005,1,0,0:0:0:0:
228,203,196072,1,8,0:0:0:0:
255,197,196205,1,0,0:0:0:0:
228,203,196338,1,8,0:0:0:0:
288,133,196471,1,0,0:0:0:0:
270,219,196605,1,8,0:0:0:0:
270,219,196671,1,8,0:0:0:0:
270,219,196738,1,0,0:0:0:0:
270,219,196805,1,0,0:0:0:0:
270,219,196871,1,8,0:0:0:0:
270,219,197004,1,8,0:0:0:0:
340,253,197138,1,0,0:0:0:0:
340,253,197204,1,0,0:0:0:0:
340,253,197271,1,8,0:0:0:0:
340,253,197404,1,8,0:0:0:0:
340,253,197471,1,8,0:0:0:0:
340,253,197537,1,0,0:0:0:0:
425,261,197670,1,8,0:0:0:0:
425,261,197804,1,8,0:0:0:0:
425,261,197937,1,0,0:0:0:0:
288,128,198070,1,8,0:0:0:0:
288,128,198137,1,8,0:0:0:0:
357,138,198203,1,0,0:0:0:0:
357,138,198270,1,0,0:0:0:0:
357,144,198337,1,8,0:0:0:0:
422,177,198470,1,0,0:0:0:0:
353,215,198603,1,0,0:0:0:0:
353,215,198670,1,0,0:0:0:0:
353,215,198736,1,8,0:0:0:0:
353,215,198803,1,8,0:0:0:0:
353,215,198869,1,8,0:0:0:0:
330,253,199003,1,0,0:0:0:0:
184,212,199136,1,0,0:0:0:0:
210,126,199269,1,8,0:0:0:0:
184,212,199402,1,8,0:0:0:0:
184,212,199535,1,0,0:0:0:0:
184,212,199669,1,0,0:0:0:0:
184,212,199735,1,0,0:0:0:0:
184,212,199802,1,8,0:0:0:0:
318,169,199935,1,0,0:0:0:0:
318,169,200068,1,8,0:0:0:0:
318,169,200202,1,8,0:0:0:0:
157,184,200268,1,8,0:0:0:0:
394,191,200335,1,0,0:0:0:0:
394,191,200468,1,8,0:0:0:0:
394,191,200601,1,8,0:0:0:0:
394,191,200734,1,0,0:0:0:0:
397,195,200801,1,0,0:0:0:0:
398,196,200868,1,8,0:0:0:0:
398,196,201001,1,0,0:0:0:0:
398,196,201134,1,8,0:0:0:0:
160,160,201201,1,8,0:0:0:0:
398,196,201267,1,8,0:0:0:0:
308,262,201400,1,0,0:0:0:0:
308,262,201534,1,8,0:0:0:0:
308,262,201667,1,0,0:0:0:0:
308,262,201800,1,8,0:0:0:0:
360,265,201933,1,0,0:0:0:0:
360,265,202000,1,0,0:0:0:0:
360,265,202067,1,0,0:0:0:0:
360,265,202200,1,8,0:0:0:0:
360,265,202333,1,8,0:0:0:0:
127,140,202466,1,0,0:0:0:0:
127,140,202599,1,8,0:0:0:0:
127,140,202733,1,0,0:0:0:0:
127,140,202866,1,8,0:0:0:0:
127,140,202999,1,0,0:0:0:0:
127,140,203066,1,0,0:0:0:0:
127,140,203132,1,8,0:0:0:0:
127,140,203199,1,8,0:0:0:0:
127,140,203265,1,0,0:0:0:0:
127,140,203332,1,0,0:0:0:0:
127,140,203399,1,8,0:0:0:0:
127,140,203532,1,4,0:0:0:0:
343,167,203798,1,8,0:0:0:0:
343,167,203932,1,8,0:0:0:0:
343,167,204065,1,8,0:0:0:0:
343,167,204331,1,4,0:0:0:0:
289,170,204598,1,0,0:0:0:0:
305,180,204731,1,0,0:0:0:0:
305,180,204864,1,8,0:0:0:0:
324,239,205130,1,6,0:0:0:0:
239,213,205397,1,8,0:0:0:0:
239,213,205530,1,8,0:0:0:0:
239,213,205663,1,0,0:0:0:0:
203,234,205930,1,6,0:0:0:0:
227,106,206196,1,0,0:0:0:0:
227,106,206329,1,0,0:0:0:0:
227,106,206463,1,8,0:0:0:0:
322,189,206729,1,0,0:0:0:0:
322,189,206862,1,8,0:0:0:0:
322,189,206995,1,0,0:0:0:0:
322,189,207129,1,8,0:0:0:0:
322,189,207262,1,0,0:0:0:0:
322,189,207329,1,0,0:0:0:0:
322,189,207395,1,0,0:0:0:0:
322,189,207528,1,8,0:0:0:0:
322,189,207662,1,8,0:0:0:0:
357,268,207795,1,0,0:0:0:0:
357,268,207928,1,8,0:0:0:0:
357,268,207995,1,8,0:0:0:0:
357,268,208061,1,0,0:0:0:0:
288,245,208194,1,8,0:0:0:0:
188,220,208328,1,0,0:0:0:0:
188,220,208461,1,0,0:0:0:0:
188,220,208594,1,8,0:0:0:0:
188,220,208727,1,8,0:0:0:0:
275,122,208860,1,4,0:0:0:0:
259,206,209127,1,0,0:0:0:0:
259,206,209260,1,0,0:0:0:0:
259,206,209393,1,0,0:0:0:0:
259,206,209527,1,0,0:0:0:0:
154,199,209660,1,8,0:0:0:0:
154,199,209793,1,8,0:0:0:0:
248,258,209926,1,0,0:0:0:0:
248,258,210059,1,8,0:0:0:0:
248,258,210193,1,0,0:0:0:0:
249,262,210326,1,8,0:0:0:0:
272,275,210459,1,0,0:0:0:0:
272,275,210592,1,0,0:0:0:0:
272,275,210725,1,8,0:0:0:0:
272,275,210859,1,8,0:0:0:0:
272,275,210992,1,4,0:0:0:0:
342,233,211258,1,0,0:0:0:0:
214,184,211524,1,8,0:0:0:0:
172,111,211791,1,0,0:0:0:0:
172,111,212057,1,8,0:0:0:0:
172,111,212324,1,8,0:0:0:0:
233,142,212590,1,0,0:0:0:0:
233,142,212857,1,0,0:0:0:0:
233,142,213123,1,8,0:0:0:0:
204,149,213389,1,4,0:0:0:0:
269,213,213789,1,8,0:0:0:0:
269,213,213922,1,8,0:0:0:0:
274,137,214189,1,4,0:0:0:0:
274,137,214455,1,0,0:0:0:0:
274,137,214722,1,8,0:0:0:0:
148,138,214988,1,0,0:0:0:0:
148,138,215254,1,8,0:0:0:0:
225,229,215521,1,8,0:0:0:0:
160,160,215654,1,0,0:0:0:0:
225,229,215787,1,8,0:0:0:0:
203,152,216054,1,0,0:0:0:0:
203,152,216320,1,8,0:0:0:0:
233,240,216587,1,4,0:0:0:0:
233,240,216853,1,8,0:0:0:0:
233,240,217119,1,8,0:0:0:0:
330,255,217386,1,4,0:0:0:0:
213,156,217652,1,8,0:0:0:0:
213,156,217785,1,0,0:0:0:0:
213,156,217852,1,0,0:0:0:0:
181,184,217919,1,8,0:0:0:0:
181,184,218052,1,0,0:0:0:0:
227,268,218185,1,8,0:0:0:0:
261,166,218452,1,8,0:0:0:0:
339,189,218585,1,8,0:0:0:0:
339,189,218651,1,8,0:0:0:0:
261,166,218718,1,0,0:0:0:0:
261,166,218851,1,0,0:0:0:0:
261,166,218984,1,8,0:0:0:0:
337,97,219251,1,8,0:0:0:0:
337,97,219384,1,0,0:0:0:0:
337,97,219451,1,0,0:0:0:0:
337,97,219517,1,8,0:0:0:0:
226,167,219650,1,0,0:0:0:0:
214,253,219784,1,8,0:0:0:0:
214,253,219850,1,8,0:0:0:0:
214,253,219917,1,0,0:0:0:0:
214,253,219984,1,0,0:0:0:0:
214,253,220050,1,8,0:0:0:0:
255,259,220183,1,0,0:0:0:0:
255,259,220317,1,8,0:0:0:0:
161,135,220450,1,8,0:0:0:0:
310,280,220583,1,4,0:0:0:0:
310,280,220849,1,4,0:0:0:0:
310,280,221382,1,4,0:0:0:0:
310,280,221649,1,4,0:0:0:0:
310,280,222182,1,0,0:0:0:0:
310,280,222448,1,0,0:0:0:0:
276,117,222714,1,8,0:0:0:0:
291,140,222981,1,0,0:0:0:0:
291,140,223247,1,8,0:0:0:0:
291,140,223513,1,8,0:0:0:0:
214,135,223780,1,4,0:0:0:0:
296,228,224047,1,8,0:0:0:0:
299,232,224180,1,8,0:0:0:0:
172,269,224313,1,0,0:0:0:0:
172,269,224380,1,0,0:0:0:0:
172,269,224446,1,0,0:0:0:0:
276,89,224579,1,8,0:0:0:0:
276,89,224713,1,0,0:0:0:0:
276,89,224779,1,0,0:0:0:0:
276,89,224846,1,8,0:0:0:0:
330,185,224979,1,0,0:0:0:0:
330,185,225112,1,8,0:0:0:0:
324,177,225245,1,8,0:0:0:0:
324,177,225379,1,0,0:0:0:0:
416,224,225645,1,0,0:0:0:0:
416,224,225778,1,8,0:0:0:0:
416,224,225912,1,0,0:0:0:0:
416,224,225978,1,0,0:0:0:0:
416,224,226045,1,8,0:0:0:0:
385,332,226178,1,0,0:0:0:0:
385,332,226311,1,8,0:0:0:0:
385,332,226444,1,0,0:0:0:0:
385,332,226578,1,8,0:0:0:0:
206,255,226711,1,8,0:0:0:0:
244,256,226777,1,8,0:0:0:0:
206,255,226844,1,8,0:0:0:0:
206,255,226977,1,4,0:0:0:0:
234,291,227244,1,8,0:0:0:0:
234,291,227377,1,0,0:0:0:0:
234,291,227510,1,8,0:0:0:0:
234,291,227577,1,8,0:0:0:0:
234,291,227643,1,0,0:0:0:0:
290,186,227777,1,8,0:0:0:0:
290,186,227910,1,0,0:0:0:0:
290,186,228043,1,0,0:0:0:0:
290,186,228110,1,0,0:0:0:0:
290,186,228176,1,0,0:0:0:0:
314,263,228309,1,8,0:0:0:0:
314,263,228443,1,8,0:0:0:0:
305,189,228576,1,0,0:0:0:0:
186,154,228842,1,0,0:0:0:0:
186,154,228976,1,8,0:0:0:0:
186,154,229109,1,0,0:0:0:0:
186,154,229175,1,0,0:0:0:0:
186,154,229242,1,8,0:0:0:0:
261,222,229375,1,0,0:0:0:0:
261,222,229508,1,8,0:0:0:0:
261,222,229642,1,8,0:0:0:0:
261,222,229708,1,8,0:0:0:0:
261,222,229775,1,0,0:0:0:0:
319,242,229908,1,8,0:0:0:0:
319,242,230041,1,8,0:0:0:0:
319,242,230174,1,4,0:0:0:0:
346,140,230441,1,0,0:0:0:0:
346,140,230507,1,0,0:0:0:0:
346,140,230574,1,0,0:0:0:0:
346,140,230707,1,8,0:0:0:0:
346,140,230841,1,8,0:0:0:0:
302,91,230974,1,0,0:0:0:0:
293,106,231107,1,8,0:0:0:0:
293,106,231240,1,0,0:0:0:0:
294,106,231307,1,0,0:0:0:0:
294,106,231373,1,0,0:0:0:0:
255,164,231507,1,8,0:0:0:0:
255,164,231640,1,8,0:0:0:0:
336,219,231773,1,0,0:0:0:0:
336,219,231906,1,0,0:0:0:0:
336,219,231973,1,0,0:0:0:0:
336,219,232039,1,8,0:0:0:0:
336,219,232173,1,0,0:0:0:0:
336,219,232306,1,8,0:0:0:0:
359,244,232439,1,8,0:0:0:0:
413,235,232572,1,4,0:0:0:0:
191,137,232839,1,0,0:0:0:0:
191,137,232972,1,0,0:0:0:0:
191,137,233105,1,0,0:0:0:0:
320,169,233372,1,4,0:0:0:0:
243,189,233771,1,0,0:0:0:0:
243,189,233904,1,0,0:0:0:0:
78,147,234171,1,8,0:0:0:0:
242,164,234437,1,0,0:0:0:0:
242,164,234571,1,0,0:0:0:0:
242,164,234704,1,8,0:0:0:0:
348,135,234970,1,0,0:0:0:0:
348,135,235237,1,8,0:0:0:0:
348,135,235370,1,8,0:0:0:0:
348,135,235503,1,8,0:0:0:0:
273,91,235769,1,0,0:0:0:0:
273,91,236036,1,0,0:0:0:0:
273,91,236169,1,8,0:0:0:0:
273,91,236302,1,8,0:0:0:0:
241,120,236569,1,0,0:0:0:0:
318,175,236835,1,0,0:0:0:0:
318,175,237102,1,0,0:0:0:0:
312,233,237368,1,8,0:0:0:0:
312,233,237634,1,8,0:0:0:0:
312,233,237901,1,8,0:0:0:0:
229,218,238168,1,0,0:0:0:0:
229,218,238301,1,0,0:0:0:0:
229,218,238434,1,8,0:0:0:0:
229,218,238567,1,0,0:0:0:0:
270,126,238700,1,8,0:0:0:0:
270,126,238767,1,8,0:0:0:0:
316,149,238833,1,0,0:0:0:0:
270,126,238967,1,8,0:0:0:0:
316,149,239100,1,8,0:0:0:0:
316,149,239233,1,8,0:0:0:0:
308,215,239366,1,0,0:0:0:0:
308,215,239433,1,0,0:0:0:0:
308,215,239499,1,8,0:0:0:0:
329,234,239633,1,0,0:0:0:0:
329,234,239766,1,8,0:0:0:0:
386,238,239899,1,0,0:0:0:0:
386,238,240032,1,8,0:0:0:0:
386,238,240099,1,8,0:0:0:0:
386,238,240166,1,0,0:0:0:0:
386,238,240232,1,0,0:0:0:0:
386,238,240299,1,8,0:0:0:0:
361,250,240432,1,8,0:0:0:0:
366,224,240565,1,8,0:0:0:0:
366,224,240632,1,0,0:0:0:0:
366,224,240698,1,0,0:0:0:0:
366,224,240765,1,0,0:0:0:0:
366,224,240832,1,8,0:0:0:0:
366,224,240965,1,8,0:0:0:0:
366,224,241098,1,0,0:0:0:0:
285,170,241231,1,8,0:0:0:0:
154,183,241365,1,4,0:0:0:0:
254,248,241764,1,0,0:0:0:0:
254,248,241897,1,0,0:0:0:0:
199,186,242164,1,8,0:0:0:0:
296,96,242297,1,0,0:0:0:0:
296,96,242364,1,0,0:0:0:0:
296,106,242430,1,8,0:0:0:0:
290,180,242563,1,0,0:0:0:0:
290,180,242697,1,8,0:0:0:0:
290,180,242830,1,8,0:0:0:0:
307,198,242963,1,0,0:0:0:0:
170,176,243230,1,8,0:0:0:0:
170,176,243363,1,8,0:0:0:0:
170,176,243429,1,8,0:0:0:0:
170,176,243496,1,0,0:0:0:0:
170,176,243629,1,0,0:0:0:0:
170,176,243762,1,8,0:0:0:0:
170,176,243896,1,8,0:0:0:0:
170,176,244029,1,0,0:0:0:0:
170,176,244162,1,8,0:0:0:0:
232,287,244295,1,0,0:0:0:0:
232,287,244428,1,0,0:0:0:0:
232,287,244562,1,8,0:0:0:0:
286,193,244828,1,0,0:0:0:0:
286,193,244961,1,8,0:0:0:0:
286,193,245095,1,0,0:0:0:0:
286,193,245161,1,0,0:0:0:0:
286,193,245228,1,0,0:0:0:0:
290,236,245361,1,8,0:0:0:0:
290,236,245494,1,0,0:0:0:0:
290,236,245627,1,8,0:0:0:0:
290,236,245694,1,8,0:0:0:0:
290,236,245761,1,0,0:0:0:0:
290,236,245894,1,8,0:0:0:0:
303,298,246027,1,8,0:0:0:0:
282,215,246160,1,0,0:0:0:0:
185,104,246427,1,0,0:0:0:0:
192,137,246560,1,8,0:0:0:0:
267,104,246693,1,0,0:0:0:0:
267,104,246760,1,0,0:0:0:0:
267,104,246826,1,0,0:0:0:0:
321,162,246960,1,8,0:0:0:0:
321,162,247093,1,0,0:0:0:0:
303,57,247226,1,8,0:0:0:0:
303,57,247293,1,8,0:0:0:0:
303,57,247359,1,8,0:0:0:0:
303,57,247492,1,0,0:0:0:0:
303,57,247626,1,8,0:0:0:0:
386,151,247759,1,4,0:0:0:0:
221,150,248158,1,0,0:0:0:0:
165,195,248291,1,8,0:0:0:0:
221,150,248425,1,0,0:0:0:0:
165,195,248558,1,8,0:0:0:0:
165,195,248691,1,0,0:0:0:0:
165,195,248758,1,0,0:0:0:0:
165,195,248825,1,0,0:0:0:0:
282,153,248958,1,0,0:0:0:0:
282,153,249091,1,8,0:0:0:0:
282,153,249224,1,0,0:0:0:0:
383,111,249357,1,8,0:0:0:0:
223,75,249624,1,8,0:0:0:0:
187,167,249757,1,0,0:0:0:0:
187,167,249824,1,0,0:0:0:0:
187,167,249890,1,8,0:0:0:0:
247,126,250023,1,0,0:0:0:0:
247,126,250157,1,8,0:0:0:0:
247,126,250223,1,8,0:0:0:0:
247,126,250290,1,0,0:0:0:0:
246,131,250357,1,0,0:0:0:0:
246,131,250423,1,8,0:0:0:0:
297,163,250556,1,0,0:0:0:0:
297,163,250690,1,8,0:0:0:0:
297,163,250823,1,8,0:0:0:0:
297,163,250956,1,0,0:0:0:0:
355,86,251222,1,0,0:0:0:0:
355,86,251356,1,0,0:0:0:0:
352,150,251489,1,0,0:0:0:0:
355,86,251755,1,8,0:0:0:0:
352,150,252022,1,8,0:0:0:0:
352,150,252155,1,8,0:0:0:0:
352,150,252288,1,8,0:0:0:0:
260,75,252555,1,0,0:0:0:0:
260,75,252688,1,8,0:0:0:0:
260,75,252754,1,8,0:0:0:0:
260,75,252821,1,0,0:0:0:0:
280,131,252954,1,0,0:0:0:0:
280,131,253087,1,8,0:0:0:0:
280,131,253221,1,8,0:0:0:0:
280,131,253287,1,8,0:0:0:0:
280,131,253354,1,0,0:0:0:0:
280,131,253420,1,0,0:0:0:0:
280,131,253487,1,8,0:0:0:0:
280,131,253620,1,0,0:0:0:0:
306,99,253687,1,0,0:0:0:0:
306,99,253753,1,8,0:0:0:0:
306,99,253887,1,8,0:0:0:0:
333,128,254020,1,8,0:0:0:0:
344,137,254153,1,4,0:0:0:0:
200,173,254553,1,0,0:0:0:0:
266,190,254686,1,8,0:0:0:0:
263,98,254819,1,0,0:0:0:0:
192,192,254952,1,0,0:0:0:0:
192,192,255019,1,0,0:0:0:0:
266,190,255086,1,0,0:0:0:0:
266,190,255219,1,8,0:0:0:0:
390,202,255352,1,8,0:0:0:0:
390,202,255485,1,0,0:0:0:0:
357,148,255552,1,0,0:0:0:0:
399,221,255618,1,8,0:0:0:0:
399,221,255752,1,0,0:0:0:0:
312,180,256018,1,8,0:0:0:0:
312,180,256151,1,0,0:0:0:0:
287,68,256285,1,8,0:0:0:0:
287,68,256351,1,8,0:0:0:0:
287,68,256418,1,0,0:0:0:0:
329,113,256551,1,0,0:0:0:0:
329,113,256684,1,8,0:0:0:0:
329,113,256817,1,0,0:0:0:0:
329,113,256884,1,0,0:0:0:0:
329,113,256951,1,0,0:0:0:0:
329,113,257084,1,8,0:0:0:0:
368,213,257217,1,8,0:0:0:0:
368,213,257350,1,0,0:0:0:0:
172,109,257617,1,0,0:0:0:0:
369,95,257750,1,8,0:0:0:0:
172,109,257883,1,8,0:0:0:0:
271,97,258016,1,0,0:0:0:0:
271,97,258083,1,0,0:0:0:0:
271,97,258150,1,8,0:0:0:0:
317,168,258283,1,0,0:0:0:0:
317,168,258416,1,8,0:0:0:0:
239,75,258549,1,8,0:0:0:0:
310,66,258682,1,0,0:0:0:0:
310,66,258816,1,8,0:0:0:0:
310,66,258949,1,0,0:0:0:0:
256,206,259215,1,8,0:0:0:0:
256,206,259349,1,0,0:0:0:0:
256,206,259482,1,8,0:0:0:0:
256,206,259548,1,8,0:0:0:0:
256,206,259615,1,0,0:0:0:0:
256,206,259748,1,8,0:0:0:0:
378,254,259881,1,0,0:0:0:0:
378,254,260015,1,0,0:0:0:0:
378,254,260081,1,0,0:0:0:0:
378,254,260148,1,8,0:0:0:0:
305,168,260281,1,0,0:0:0:0:
305,168,260414,1,8,0:0:0:0:
305,168,260547,1,4,0:0:0:0:
374,213,260947,1,0,0:0:0:0:
374,213,261080,1,8,0:0:0:0:
225,205,261347,1,8,0:0:0:0:
225,205,261613,1,0,0:0:0:0:
225,205,261746,1,0,0:0:0:0:
225,205,261880,1,8,0:0:0:0:
270,124,262146,1,6,0:0:0:0:
207,124,262546,1,8,0:0:0:0:
170,139,262679,1,8,0:0:0:0:
265,53,262945,1,8,0:0:0:0:
313,102,263212,1,0,0:0:0:0:
313,102,263345,1,0,0:0:0:0:
313,102,263478,1,8,0:0:0:0:
313,102,263745,1,4,0:0:0:0:
353,212,264144,1,0,0:0:0:0:
353,212,264277,1,0,0:0:0:0:
205,109,264544,1,8,0:0:0:0:
205,109,264810,1,0,0:0:0:0:
205,109,264944,1,0,0:0:0:0:
223,122,265077,1,8,0:0:0:0:
269,142,265343,1,6,0:0:0:0:
301,200,267474,1,0,0:0:0:0:
301,200,267740,1,0,0:0:0:0:
301,200,268007,1,0,0:0:0:0:
301,200,268274,1,8,0:0:0:0:
174,84,268540,1,0,0:0:0:0:
174,84,268806,1,0,0:0:0:0:
174,84,269073,1,8,0:0:0:0:
174,84,269339,1,8,0:0:0:0:
242,174,269605,1,0,0:0:0:0:
242,174,270138,1,8,0:0:0:0:
242,174,270405,1,8,0:0:0:0:
242,174,270671,1,0,0:0:0:0:
199,162,271204,1,8,0:0:0:0:
199,162,271737,1,0,0:0:0:0:
199,162,272003,1,8,0:0:0:0:
199,162,272270,1,0,0:0:0:0:
199,162,272536,1,8,0:0:0:0:
285,145,272803,1,0,0:0:0:0:
285,145,273069,1,0,0:0:0:0:
285,145,273335,1,8,0:0:0:0:
285,145,273602,1,8,0:0:0:0:
285,145,273868,1,0,0:0:0:0:
325,76,274401,1,0,0:0:0:0:
325,76,274668,1,8,0:0:0:0:
325,76,274934,1,0,0:0:0:0:
236,166,275467,1,8,0:0:0:0:
236,166,276000,1,0,0:0:0:0:
236,166,276266,1,0,0:0:0:0:
236,166,276533,1,8,0:0:0:0:
236,166,276799,1,8,0:0:0:0:
271,212,277065,1,0,0:0:0:0:
141,137,277332,1,8,0:0:0:0:
271,212,277598,1,0,0:0:0:0:
271,212,277865,1,8,0:0:0:0:
271,212,278132,1,0,0:0:0:0:
275,128,278664,1,8,0:0:0:0:
275,128,278930,1,8,0:0:0:0:
275,128,279197,1,0,0:0:0:0:
323,214,279730,1,8,0:0:0:0:
323,214,280263,1,0,0:0:0:0:
323,214,280529,1,0,0:0:0:0:
323,214,280795,1,8,0:0:0:0:
323,214,281062,1,8,0:0:0:0:
323,214,281328,1,0,0:0:0:0:
323,214,281595,1,0,0:0:0:0:
323,214,281861,1,8,0:0:0:0:
256,192,283460,12,0,285458,0:0:0:0:
215,194,286124,5,4,0:0:0:0:
237,214,286390,1,8,0:0:0:0:
237,214,286523,1,0,0:0:0:0:
237,214,286590,1,0,0:0:0:0:
237,214,286656,1,8,0:0:0:0:
366,226,286790,1,0,0:0:0:0:
366,226,286923,1,8,0:0:0:0:
366,226,287056,1,8,0:0:0:0:
366,226,287123,1,8,0:0:0:0:
366,226,287189,1,0,0:0:0:0:
366,226,287256,1,0,0:0:0:0:
366,226,287322,1,8,0:0:0:0:
376,154,287456,1,0,0:0:0:0:
376,154,287522,1,0,0:0:0:0:
376,154,287589,1,8,0:0:0:0:
274,164,287722,1,8,0:0:0:0:
274,164,287855,1,0,0:0:0:0:
274,164,287989,1,0,0:0:0:0:
274,164,288122,1,8,0:0:0:0:
274,164,288188,1,8,0:0:0:0:
274,164,288255,1,0,0:0:0:0:
274,164,288388,1,0,0:0:0:0:
274,164,288521,1,8,0:0:0:0:
274,164,288655,1,8,0:0:0:0:
252,93,288788,1,0,0:0:0:0:
252,93,288854,1,0,0:0:0:0:
252,93,288921,1,0,0:0:0:0:
213,44,289054,1,8,0:0:0:0:
213,44,289187,1,8,0:0:0:0:
321,95,289321,1,0,0:0:0:0:
321,95,289454,1,0,0:0:0:0:
321,95,289520,1,0,0:0:0:0:
321,95,289587,1,8,0:0:0:0:
364,80,289720,1,0,0:0:0:0:
363,135,289854,1,8,0:0:0:0:
363,135,289987,1,8,0:0:0:0:
363,135,290120,1,0,0:0:0:0:
363,135,290253,1,0,0:0:0:0:
363,135,290386,1,4,0:0:0:0:
219,166,290653,1,8,0:0:0:0:
272,153,290786,1,8,0:0:0:0:
272,153,290853,1,8,0:0:0:0:
272,153,290919,1,0,0:0:0:0:
245,197,291052,1,0,0:0:0:0:
245,197,291186,1,8,0:0:0:0:
245,197,291252,1,8,0:0:0:0:
245,197,291319,1,0,0:0:0:0:
128,160,291385,1,0,0:0:0:0:
368,277,291452,1,8,0:0:0:0:
368,277,291585,1,0,0:0:0:0:
368,277,291652,1,0,0:0:0:0:
368,277,291719,1,8,0:0:0:0:
368,277,291852,1,8,0:0:0:0:
368,277,291985,1,0,0:0:0:0:
368,277,292052,1,0,0:0:0:0:
368,277,292118,1,0,0:0:0:0:
368,277,292185,1,0,0:0:0:0:
368,277,292251,1,8,0:0:0:0:
379,209,292385,1,8,0:0:0:0:
345,118,292518,1,0,0:0:0:0:
345,118,292584,1,0,0:0:0:0:
345,118,292651,1,8,0:0:0:0:
345,118,292784,1,0,0:0:0:0:
345,118,292851,1,0,0:0:0:0:
345,118,292917,1,8,0:0:0:0:
236,130,293051,1,0,0:0:0:0:
236,130,293184,1,8,0:0:0:0:
236,130,293317,1,0,0:0:0:0:
236,130,293450,1,8,0:0:0:0:
245,102,293584,1,0,0:0:0:0:
245,102,293650,1,0,0:0:0:0:
245,102,293717,1,0,0:0:0:0:
245,102,293783,1,0,0:0:0:0:
245,102,293850,1,8,0:0:0:0:
245,102,293917,1,8,0:0:0:0:
245,102,293983,1,8,0:0:0:0:
245,102,294050,1,8,0:0:0:0:
245,102,294116,1,0,0:0:0:0:
245,102,294183,1,0,0:0:0:0:
245,102,294250,1,8,0:0:0:0:
245,102,294316,1,8,0:0:0:0:
245,102,294383,1,0,0:0:0:0:
245,102,294449,1,8,0:0:0:0:
245,102,294516,1,8,0:0:0:0:
245,102,294583,1,8,0:0:0:0:
245,102,294649,1,0,0:0:0:0:
204,175,294916,1,8,0:0:0:0:
192,190,295049,1,0,0:0:0:0:
334,153,295116,1,0,0:0:0:0:
334,153,295182,1,8,0:0:0:0:
348,200,295315,1,0,0:0:0:0:
348,200,295449,1,8,0:0:0:0:
348,200,295515,1,8,0:0:0:0:
348,200,295582,1,0,0:0:0:0:
348,200,295648,1,0,0:0:0:0:
348,200,295715,1,8,0:0:0:0:
405,224,295848,1,0,0:0:0:0:
405,224,295915,1,0,0:0:0:0:
405,224,295981,1,8,0:0:0:0:
405,224,296115,1,0,0:0:0:0:
405,224,296248,1,8,0:0:0:0:
283,240,296314,1,8,0:0:0:0:
283,240,296381,1,8,0:0:0:0:
283,240,296448,1,8,0:0:0:0:
283,240,296514,1,0,0:0:0:0:
359,264,296647,1,8,0:0:0:0:
359,264,296781,1,0,0:0:0:0:
359,264,296847,1,0,0:0:0:0:
359,264,296914,1,0,0:0:0:0:
359,264,296981,1,0,0:0:0:0:
359,264,297047,1,8,0:0:0:0:
361,108,297180,1,0,0:0:0:0:
361,108,297247,1,0,0:0:0:0:
361,108,297314,1,8,0:0:0:0:
361,108,297447,1,0,0:0:0:0:
361,108,297580,1,8,0:0:0:0:
361,108,297713,1,8,0:0:0:0:
361,108,297780,1,8,0:0:0:0:
361,108,297846,1,0,0:0:0:0:
267,117,297980,1,8,0:0:0:0:
267,117,298113,1,0,0:0:0:0:
267,117,298179,1,0,0:0:0:0:
267,117,298246,1,8,0:0:0:0:
267,117,298313,1,0,0:0:0:0:
267,117,298379,1,8,0:0:0:0:
302,148,298512,1,0,0:0:0:0:
302,148,298646,1,8,0:0:0:0:
302,148,298712,1,0,0:0:0:0:
302,148,298779,1,0,0:0:0:0:
302,148,298846,1,0,0:0:0:0:
302,148,298912,1,8,0:0:0:0:
346,139,299045,1,0,0:0:0:0:
346,139,299179,1,8,0:0:0:0:
346,139,299245,1,8,0:0:0:0:
346,139,299312,1,0,0:0:0:0:
411,166,299445,1,8,0:0:0:0:
411,166,299512,1,8,0:0:0:0:
411,166,299578,1,0,0:0:0:0:
203,174,299645,1,0,0:0:0:0:
203,174,299711,1,8,0:0:0:0:
185,142,299845,1,0,0:0:0:0:
235,221,299911,1,0,0:0:0:0:
185,142,299978,1,8,0:0:0:0:
175,123,300111,1,0,0:0:0:0:
175,123,300178,1,0,0:0:0:0:
175,123,300244,1,8,0:0:0:0:
175,123,300311,1,8,0:0:0:0:
175,123,300377,1,0,0:0:0:0:
175,123,300511,1,8,0:0:0:0:
249,182,300644,1,0,0:0:0:0:
249,182,300777,1,8,0:0:0:0:
249,182,300844,1,8,0:0:0:0:
249,182,300910,1,0,0:0:0:0:
336,72,301044,1,0,0:0:0:0:
336,72,301110,1,0,0:0:0:0:
336,72,301177,1,8,0:0:0:0:
336,72,301310,1,0,0:0:0:0:
336,72,301377,1,0,0:0:0:0:
336,72,301443,1,8,0:0:0:0:
336,72,301576,1,0,0:0:0:0:
336,72,301643,1,0,0:0:0:0:
336,72,301710,1,8,0:0:0:0:
386,153,301843,1,0,0:0:0:0:
386,153,301909,1,0,0:0:0:0:
386,153,301976,1,8,0:0:0:0:
90,133,302109,2,4,B|457:262|457:262|329:259,1,490.000002086161
200,60,303175,1,4,0:0:0:0:
188,217,303441,1,0,0:0:0:0:
188,217,303575,1,0,0:0:0:0:
188,217,303708,1,8,0:0:0:0:
293,224,303974,1,4,0:0:0:0:
262,114,304241,1,0,0:0:0:0:
262,114,304374,1,8,0:0:0:0:
262,114,304507,1,8,0:0:0:0:
301,171,304774,1,6,0:0:0:0:
301,171,305040,1,8,0:0:0:0:
301,171,305173,1,8,0:0:0:0:
301,171,305306,1,0,0:0:0:0:
221,184,305573,1,6,0:0:0:0:
230,164,305839,1,8,0:0:0:0:
230,164,305973,1,0,0:0:0:0:
230,164,306106,1,8,0:0:0:0:
168,99,306372,1,0,0:0:0:0:
168,99,306505,1,8,0:0:0:0:
168,99,306639,1,0,0:0:0:0:
168,99,306772,1,8,0:0:0:0:
245,91,306905,1,0,0:0:0:0:
245,91,306972,1,0,0:0:0:0:
245,91,307038,1,0,0:0:0:0:
279,133,307171,1,8,0:0:0:0:
279,133,307305,1,0,0:0:0:0:
279,133,307371,1,0,0:0:0:0:
279,133,307438,1,8,0:0:0:0:
279,133,307504,1,8,0:0:0:0:
279,133,307571,1,8,0:0:0:0:
241,229,307704,1,0,0:0:0:0:
241,229,307838,1,8,0:0:0:0:
241,229,307971,1,0,0:0:0:0:
241,229,308037,1,0,0:0:0:0:
241,229,308104,1,8,0:0:0:0:
330,255,308237,1,8,0:0:0:0:
330,255,308370,1,0,0:0:0:0:
222,109,308504,1,4,0:0:0:0:
312,124,308770,1,0,0:0:0:0:
312,124,309036,1,0,0:0:0:0:
312,124,309303,1,0,0:0:0:0:
241,88,309569,1,8,0:0:0:0:
241,88,309703,1,0,0:0:0:0:
241,88,309836,1,8,0:0:0:0:
241,88,309969,1,0,0:0:0:0:
241,88,310102,1,8,0:0:0:0:
241,88,310169,1,8,0:0:0:0:
241,88,310235,1,8,0:0:0:0:
194,51,310369,1,0,0:0:0:0:
194,51,310502,1,8,0:0:0:0:
256,192,310635,12,0,312500,0:0:0:0:
224,192,312766,5,0,0:0:0:0:
224,192,313032,1,8,0:0:0:0:
192,192,313298,1,0,0:0:0:0:
192,192,313432,1,0,0:0:0:0:
128,192,313565,1,8,0:0:0:0:
317,70,313832,5,0,0:0:0:0:
317,70,314098,1,0,0:0:0:0:
317,70,314231,1,0,0:0:0:0:
163,160,314365,1,8,0:0:0:0:
243,238,314498,1,0,0:0:0:0:
243,238,314631,1,8,0:0:0:0:
345,182,314897,1,8,0:0:0:0:
345,182,315031,1,0,0:0:0:0:
345,182,315164,1,8,0:0:0:0:
345,182,315297,1,0,0:0:0:0:
345,182,315430,1,0,0:0:0:0:
283,69,315697,1,0,0:0:0:0:
283,69,315830,1,8,0:0:0:0:
282,73,315963,1,8,0:0:0:0:
282,73,316096,1,8,0:0:0:0:
282,73,316230,1,0,0:0:0:0:
283,192,316496,1,8,0:0:0:0:
283,192,316629,1,0,0:0:0:0:
244,117,316762,1,0,0:0:0:0:
244,117,316896,1,8,0:0:0:0:
244,117,317029,1,0,0:0:0:0:
388,246,317295,1,0,0:0:0:0:
388,246,317428,1,0,0:0:0:0:
388,246,317562,1,8,0:0:0:0:
299,189,317828,1,8,0:0:0:0:
299,189,318095,1,8,0:0:0:0:
299,189,318228,1,8,0:0:0:0:
299,189,318361,1,8,0:0:0:0:
359,128,318494,1,8,0:0:0:0:
359,128,318627,1,4,0:0:0:0:
358,217,318894,1,0,0:0:0:0:
358,217,319027,1,0,0:0:0:0:
358,217,319160,1,8,0:0:0:0:
381,117,319427,1,8,0:0:0:0:
310,278,319693,1,0,0:0:0:0:
310,278,319826,1,0,0:0:0:0:
310,278,319960,1,8,0:0:0:0:
341,169,320226,1,0,0:0:0:0:
251,142,320492,1,0,0:0:0:0:
251,142,320626,1,8,0:0:0:0:
251,142,320759,1,0,0:0:0:0:
251,142,320892,1,0,0:0:0:0:
251,142,321025,1,8,0:0:0:0:
262,71,321292,1,8,0:0:0:0:
262,71,321425,1,0,0:0:0:0:
262,71,321558,1,8,0:0:0:0:
262,71,321691,1,8,0:0:0:0:
262,71,321825,1,0,0:0:0:0:
283,186,321958,1,0,0:0:0:0:
283,186,322024,1,0,0:0:0:0:
283,186,322091,1,0,0:0:0:0:
237,212,322224,1,8,0:0:0:0:
270,146,322357,1,0,0:0:0:0:
270,146,322624,1,8,0:0:0:0:
228,248,322757,1,0,0:0:0:0:
228,248,322824,1,0,0:0:0:0:
228,248,322890,1,8,0:0:0:0:
228,248,323023,1,8,0:0:0:0:
264,300,323157,1,0,0:0:0:0:
264,300,323423,1,4,0:0:0:0:
256,128,323690,1,0,0:0:0:0:
256,128,323823,1,0,0:0:0:0:
327,138,323956,1,0,0:0:0:0:
374,201,324222,1,8,0:0:0:0:
241,178,324489,1,8,0:0:0:0:
241,178,324622,1,8,0:0:0:0:
241,178,324755,1,8,0:0:0:0:
241,178,324888,1,8,0:0:0:0:
241,178,325022,1,0,0:0:0:0:
288,91,325288,1,8,0:0:0:0:
288,91,325421,1,8,0:0:0:0:
288,91,325555,1,0,0:0:0:0:
306,130,325821,1,0,0:0:0:0:
306,130,325954,1,0,0:0:0:0:
306,130,326087,1,8,0:0:0:0:
306,130,326221,1,8,0:0:0:0:
306,130,326354,1,8,0:0:0:0:
336,89,326620,1,8,0:0:0:0:
223,131,326887,1,0,0:0:0:0:
223,131,327020,1,0,0:0:0:0:
223,131,327153,1,8,0:0:0:0:
299,157,327420,1,8,0:0:0:0:
299,157,327686,1,0,0:0:0:0:
299,157,327819,1,8,0:0:0:0:
299,157,327952,1,8,0:0:0:0:
173,168,328219,1,0,0:0:0:0:
198,181,328485,1,8,0:0:0:0:
198,181,328619,1,8,0:0:0:0:
198,181,328752,1,0,0:0:0:0:
198,181,328885,1,0,0:0:0:0:
198,181,329018,1,8,0:0:0:0:
270,240,329285,1,8,0:0:0:0:
270,240,329418,1,8,0:0:0:0:
270,240,329551,1,0,0:0:0:0:
270,240,329684,1,0,0:0:0:0:
270,240,329817,1,0,0:0:0:0:
286,152,330084,1,0,0:0:0:0:
286,152,330217,1,0,0:0:0:0:
286,152,330350,1,8,0:0:0:0:
307,153,330617,1,8,0:0:0:0:
307,153,330883,1,8,0:0:0:0:
235,71,331016,1,8,0:0:0:0:
235,71,331150,1,8,0:0:0:0:
263,157,331416,1,0,0:0:0:0:
270,120,331682,1,8,0:0:0:0:
270,120,331816,1,0,0:0:0:0:
270,120,331949,1,8,0:0:0:0:
270,120,332082,1,8,0:0:0:0:
270,120,332215,1,0,0:0:0:0:
328,146,332482,1,0,0:0:0:0:
275,75,332615,1,0,0:0:0:0:
275,75,332748,1,8,0:0:0:0:
275,75,332881,1,8,0:0:0:0:
275,75,333015,1,0,0:0:0:0:
322,228,333281,1,8,0:0:0:0:
322,228,333414,1,8,0:0:0:0:
322,228,333547,1,0,0:0:0:0:
322,228,333814,1,8,0:0:0:0:
310,226,334080,1,8,0:0:0:0:
310,226,334214,1,8,0:0:0:0:
310,226,334347,1,0,0:0:0:0:
365,145,334613,1,0,0:0:0:0:
365,145,334746,1,0,0:0:0:0:
365,145,334813,1,0,0:0:0:0:
365,145,334880,1,0,0:0:0:0:
365,145,335013,1,8,0:0:0:0:
365,145,335146,1,0,0:0:0:0:
223,131,335412,1,8,0:0:0:0:
223,131,335546,1,0,0:0:0:0:
223,131,335612,1,0,0:0:0:0:
223,131,335679,1,0,0:0:0:0:
223,131,335812,1,8,0:0:0:0:
223,131,335945,1,0,0:0:0:0:
235,47,336212,1,4,0:0:0:0:
