osu file format v14

[General]
AudioFilename: audio.mp3
AudioLeadIn: 0
PreviewTime: 109084
Countdown: 0
SampleSet: Soft
StackLeniency: 0.6
Mode: 0
LetterboxInBreaks: 0
WidescreenStoryboard: 1

[Editor]
Bookmarks: 5045,17833,44210,52735,69787,78313,95364,104955,109217,126269,133728,142254,159306,172627,186480,203532,210991,223780,233371,241364,254153,267474,286124,303175,310635,323423,336212
DistanceSpacing: 2.3
BeatDivisor: 4
GridSize: 32
TimelineZoom: 2.999999

[Metadata]
Title:Ringo Uri no Utakata Shoujo
TitleUnicode:林檎売りの泡沫少女
Artist:cillia
ArtistUnicode:シリア
Creator:Logic Agent
Version:Cursed
Source:
Tags:歌幡メイジ The Transient Apple Salesgirl yukkedoluce kyaami karenT vocaloid4 Meiji Gahata Mage UTAUカバー utaite
BeatmapID:1117251
BeatmapSetID:517120

[Difficulty]
HPDrainRate:6
CircleSize:4
OverallDifficulty:8.7
ApproachRate:9.3
SliderMultiplier:1.8
SliderTickRate:1

[Events]
//Background and Video events
0,0,"use w.png",0,0
//Break Periods
2,214389,220029
2,265543,266920
//Storyboard Layer 0 (Background)
//Storyboard Layer 1 (Fail)
//Storyboard Layer 2 (Pass)
//Storyboard Layer 3 (Foreground)
//Storyboard Sound Samples

[TimingPoints]
5045,266.429840142096,6,2,2,50,1,0
5045,-200,6,2,2,50,0,0
17833,-200,6,2,2,50,0,0
30622,-200,6,2,1,30,0,0
31421,-200,6,2,2,50,0,0
33819,-200,6,2,1,30,0,0
34618,-200,6,2,2,50,0,0
37016,-200,6,2,1,30,0,0
37815,-200,6,2,2,50,0,0
40213,-200,6,2,1,30,0,0
41013,-200,6,2,2,50,0,0
43677,-200,6,2,1,40,0,0
44210,266.429840142096,4,2,1,50,1,0
44210,-125,4,2,1,50,0,0
52735,-125,4,2,1,45,0,0
76181,-125,4,2,1,50,0,0
78179,-125,4,2,1,55,0,0
78313,-125,4,2,1,50,0,0
95364,266.429840142096,3,3,1,30,1,0
95364,-142.857142857143,3,3,1,30,0,0
104955,266.429840142096,4,2,1,45,1,0
104955,-133.333333333333,4,2,1,45,0,0
107086,-133.333333333333,4,2,1,50,0,0
108152,-133.333333333333,4,2,1,55,0,0
109217,-111.111111111111,4,2,1,65,0,1
126269,266.429840142096,3,2,1,65,1,1
126269,-125,3,2,1,65,0,1
129466,266.429840142096,4,2,1,65,1,1
129466,-125,4,2,1,65,0,1
131597,-125,4,2,1,55,0,1
132663,-500,4,2,1,30,0,0
133728,-125,4,2,1,50,0,0
142254,-125,4,2,1,45,0,0
145718,-125,4,2,1,48,0,0
145984,-125,4,2,1,51,0,0
146251,-125,4,2,1,55,0,0
150780,-125,4,2,1,45,0,0
154243,-125,4,2,1,48,0,0
154510,-125,4,2,1,51,0,0
154776,-125,4,2,1,55,0,0
155043,-125,4,2,1,50,0,0
159306,266.429840142096,3,2,1,50,1,0
159306,-142.857142857143,3,2,1,50,0,0
170496,266.429840142096,4,2,1,55,1,0
170496,-142.857142857143,4,2,1,55,0,0
171561,-142.857142857143,4,2,1,45,0,0
172627,266.429840142096,3,2,1,50,1,0
172627,-142.857142857143,3,2,1,50,0,0
179021,-142.857142857143,3,2,1,53,0,0
179121,-142.857142857143,3,2,1,55,0,0
182218,266.429840142096,4,2,1,45,1,0
182218,-142.857142857143,4,2,1,45,0,0
184349,-133.333333333333,4,2,1,50,0,0
185415,-133.333333333333,4,2,1,55,0,0
186480,-111.111111111111,4,2,1,55,0,1
203532,266.429840142096,3,2,1,55,1,1
203532,-125,3,2,1,55,0,1
206729,266.429840142096,4,2,1,55,1,1
206729,-125,4,2,1,55,0,1
210991,266.429840142096,3,2,1,60,1,0
210991,-111.111111111111,4,2,1,60,0,0
220583,-125,4,2,1,50,0,0
222181,-166.666666666667,4,2,1,50,0,0
223779,-111.111111111111,4,2,1,65,0,1
226710,-111.111111111111,4,2,1,65,0,0
226976,-111.111111111111,4,2,1,65,0,1
229907,-111.111111111111,4,2,1,65,0,0
230173,-111.111111111111,4,2,1,55,0,1
233371,-133.333333333333,4,2,1,55,0,1
236569,-125,4,2,1,58,0,1
237368,-111.111111111111,4,2,1,61,0,1
238167,-111.111111111111,4,2,1,65,0,1
238967,-111.111111111111,4,2,1,75,0,1
241364,-125,4,2,1,55,0,0
262146,-142.857142857143,4,2,1,50,0,0
264544,-166.666666666667,4,2,1,40,0,0
265343,266.429840142096,4,2,1,35,1,0
265343,-166.666666666667,4,2,1,35,0,0
267474,-333.333333333333,4,2,1,30,0,0
282128,266.429840142096,3,2,1,45,1,0
282394,-500,3,2,1,10,0,0
282461,-500,3,2,1,5,0,0
283460,-500,3,2,1,10,0,0
283993,266.429840142096,4,2,1,10,1,0
286124,-111.111111111111,4,2,1,65,0,1
303175,266.429840142096,3,2,1,55,1,1
303175,-125,3,2,1,55,0,1
306372,266.429840142096,4,2,1,55,1,1
306372,-125,4,2,1,55,0,1
310634,266.429840142096,3,2,1,50,1,0
310634,-142.857142857143,3,2,1,50,0,0
311034,-142.857142857143,3,2,1,50,0,0
329018,-142.857142857143,3,2,1,45,0,0
333015,-142.857142857143,3,2,1,40,0,0
334613,-142.857142857143,3,2,1,30,0,0

[Colours]
Combo1 : 96,166,83
Combo2 : 173,81,75
Combo3 : 115,182,210

[HitObjects]
61,192,5045,6,0,P|69:238|75:283,1,90,2|0,0:0|0:0,0:0:0:0:
74,280,5577,1,0,0:0:0:0:
161,215,5844,2,0,P|204:198|254:211,1,90,0|0,0:0|0:0,0:0:0:0:
296,281,6377,1,0,0:0:0:0:
348,208,6643,6,0,L|341:117,1,90,2|0,0:0|0:0,0:0:0:0:
341,118,7176,1,0,0:0:0:0:
444,75,7442,2,0,L|437:164,1,90,0|0,0:0|0:0,0:0:0:0:
438,165,7975,1,0,0:0:0:0:
411,251,8242,5,2,0:0:0:0:
401,271,8508,1,0,0:0:0:0:
392,292,8775,1,0,0:0:0:0:
308,256,9041,2,0,P|267:243|213:255,1,90,0|0,0:0|0:0,0:0:0:0:
261,334,9574,1,0,0:0:0:0:
112,320,9840,6,0,P|110:278|104:225,2,90,2|0|0,0:0|0:0|0:0,0:0:0:0:
7,284,10640,2,0,P|9:242|15:189,2,90,2|0|0,0:0|0:0|0:0,0:0:0:0:
104,230,11439,5,2,0:0:0:0:
123,240,11705,1,0,0:0:0:0:
142,250,11972,1,0,0:0:0:0:
217,200,12238,2,0,P|266:179|288:143,1,90,0|0,0:0|0:0,0:0:0:0:
327,69,12771,1,0,0:0:0:0:
383,139,13037,6,0,P|382:182|383:232,1,90,2|0,0:0|0:0,0:0:0:0:
453,299,13570,2,0,P|427:319|407:327,1,45,0|0,0:0|0:0,0:0:0:0:
449,353,13837,2,0,P|416:324|356:330,1,90,0|0,0:0|0:0,0:0:0:0:
371,323,14370,1,0,0:0:0:0:
269,339,14636,6,0,P|263:290|256:244,1,90,2|0,0:0|0:0,0:0:0:0:
257,250,15169,1,0,0:0:0:0:
178,294,15435,2,0,P|120:283|86:245,1,90,0|0,0:0|0:0,0:0:0:0:
166,204,15968,2,0,P|187:178|206:168,1,45
158,150,16235,6,0,P|195:172|252:155,1,90,2|0,0:0|0:0,0:0:0:0:
299,98,16767,1,0,0:0:0:0:
371,149,17034,2,0,P|375:187|387:251,1,90,2|0,0:0|0:0,0:0:0:0:
459,286,17567,1,0,0:0:0:0:
269,339,17833,6,0,P|206:335|131:340,1,135,2|0,0:0|0:0,0:0:0:0:
134,339,18366,1,0,0:0:0:0:
30,279,18632,2,0,P|44:223|125:227,1,135,0|0,0:0|0:0,0:0:0:0:
112,216,19165,1,0,0:0:0:0:
269,339,19432,6,0,P|260:275|257:189,1,135,2|0,0:0|0:0,0:0:0:0:
298,264,19965,2,0,P|314:286|328:302,1,45,0|0,0:0|0:0,0:0:0:0:
414,358,20231,2,0,P|467:381|447:296,1,180,0|0,0:0|0:0,0:0:0:0:
361,187,21030,6,0,P|347:139|345:98,1,90,2|0,0:0|0:0,0:0:0:0:
344,99,21563,1,0,0:0:0:0:
256,204,21830,2,0,L|149:209,1,90
166,208,22362,1,0,0:0:0:0:
284,278,22629,6,0,P|327:237|316:153,1,135,2|0,0:0|0:0,0:0:0:0:
166,208,23162,2,0,L|157:264,1,45,0|0,0:0|0:0,0:0:0:0:
141,365,23428,2,0,B|200:351|200:351|321:357,1,180,2|0,0:0|0:0,0:0:0:0:
373,281,24227,6,0,L|282:277,1,90,2|0,0:0|0:0,0:0:0:0:
283,277,24760,1,0,0:0:0:0:
363,191,25027,2,0,P|368:233|373:282,2,90,0|0|0,0:0|0:0|0:0,0:0:0:0:
223,177,25826,6,0,B|73:178,1,135,2|0,0:0|0:0,0:0:0:0:
62,269,26359,2,0,L|116:269,1,45
192,340,26625,2,0,P|239:298|333:352,1,180,0|0,0:0|0:0,0:0:0:0:
442,278,27425,6,0,P|437:325|439:368,1,90,2|0,0:0|0:0,0:0:0:0:
438,367,27957,1,0,0:0:0:0:
331,345,28224,2,0,P|290:340|240:348,1,90,2|0,0:0|0:0,0:0:0:0:
241,347,28757,1,0,0:0:0:0:
138,376,29023,6,0,P|86:365|41:248,1,180,2|0,0:0|0:0,0:0:0:0:
131,280,29822,1,0,0:0:0:0:
205,228,30089,1,0,0:0:0:0:
279,280,30355,1,0,0:0:0:0:
415,225,30622,6,0,L|407:191,10,22.5,2|0|0|0|0|0|0|0|0|0|0,0:0|0:0|0:0|0:0|0:0|0:0|0:0|0:0|0:0|0:0|0:0,0:0:0:0:
358,297,31421,2,0,L|261:299,1,90,2|0,0:0|0:0,0:0:0:0:
268,298,31821,1,0,0:0:0:0:
268,298,31954,1,0,0:0:0:0:
82,180,32220,6,0,P|147:188|185:242,1,135,2|0,0:0|0:0,0:0:0:0:
78,290,32753,2,0,L|107:256,1,45
274,239,33020,2,0,L|185:241,1,90,2|0,0:0|0:0,0:0:0:0:
358,297,33552,1,0,0:0:0:0:
458,232,33819,6,0,L|467:263,10,22.5,2|0|0|0|0|0|0|0|0|0|0,0:0|0:0|0:0|0:0|0:0|0:0|0:0|0:0|0:0|0:0|0:0,0:0:0:0:
360,191,34618,2,0,P|336:153|336:106,1,90,2|0,0:0|0:0,0:0:0:0:
335,109,35018,1,0,0:0:0:0:
335,109,35151,1,0,0:0:0:0:
274,240,35418,6,0,P|241:239|185:242,1,90,2|0,0:0|0:0,0:0:0:0:
126,339,35817,1,0,0:0:0:0:
126,339,35950,2,0,P|113:297|104:279,1,45,0|0,0:0|0:0,0:0:0:0:
14,227,36217,2,0,P|13:260|16:316,1,90,2|0,0:0|0:0,0:0:0:0:
16,316,36616,1,0,0:0:0:0:
16,316,36750,1,0,0:0:0:0:
187,240,37016,6,0,L|196:206,10,22.5,2|0|0|0|0|0|0|0|0|0|0,0:0|0:0|0:0|0:0|0:0|0:0|0:0|0:0|0:0|0:0|0:0,0:0:0:0:
259,321,37815,2,0,P|328:308|362:324,1,90,2|0,0:0|0:0,0:0:0:0:
344,313,38215,1,0,0:0:0:0:
344,313,38348,1,0,0:0:0:0:
464,356,38615,6,0,P|452:308|447:213,1,135,2|0,0:0|0:0,0:0:0:0:
485,127,39148,2,0,L|432:121,1,45,0|0,0:0|0:0,0:0:0:0:
369,47,39414,2,0,L|267:53,1,90,2|0,0:0|0:0,0:0:0:0:
282,191,39947,1,0,0:0:0:0:
166,136,40213,6,0,L|174:108,10,22.5,2|0|0|0|0|0|0|0|0|0|0,0:0|0:0|0:0|0:0|0:0|0:0|0:0|0:0|0:0|0:0|0:0,0:0:0:0:
59,173,41013,2,0,P|66:210|72:262,1,90,2|0,0:0|0:0,0:0:0:0:
71,261,41412,1,0,0:0:0:0:
71,261,41545,1,0,0:0:0:0:
49,367,41812,6,0,P|137:359|231:360,1,180,2|0,0:0|0:0,0:0:0:0:
228,359,42611,1,0,0:0:0:0:
414,339,43677,5,2,1:0:0:0:
431,350,43943,1,2,1:0:0:0:
313,274,44210,6,0,P|298:237|305:186,1,72,4|0,0:0|0:0,0:0:0:0:
427,178,44476,2,0,P|406:206|375:225,1,72,8|0,0:0|0:0,0:0:0:0:
347,137,44742,1,2,0:0:0:0:
313,274,44876,1,8,0:0:0:0:
262,111,45009,2,0,P|221:108|180:112,1,72,8|0,0:0|0:0,0:0:0:0:
28,185,45275,6,0,L|43:258,1,72,2|0,0:0|0:0,0:0:0:0:
184,228,45542,2,0,L|91:207,1,72,8|0,0:0|0:0,0:0:0:0:
105,298,45808,1,2,0:0:0:0:
125,135,45941,1,0,0:0:0:0:
212,298,46075,2,0,P|241:278|257:247,1,72,8|0,0:0|0:0,0:0:0:0:
395,251,46341,6,0,B|333:269|333:269|242:240,1,144,2|8,0:0|0:0,0:0:0:0:
246,156,46741,1,0,0:0:0:0:
374,337,46874,2,0,L|464:309,1,72,2|8,0:0|0:0,0:0:0:0:
394,179,47140,2,0,L|395:257,1,72,8|0,0:0|0:0,0:0:0:0:
469,184,47407,6,0,P|457:136|422:109,1,72,2|0,0:0|0:0,0:0:0:0:
339,116,47673,1,8,0:0:0:0:
394,179,47806,1,0,0:0:0:0:
482,86,47940,2,0,L|382:78,1,72,2|8,1:0|0:0,0:0:0:0:
313,6,48206,2,0,L|384:4,1,72,8|0,0:0|0:0,0:0:0:0:
253,134,48472,6,0,L|257:33,1,72,2|0,1:0|0:0,0:0:0:0:
171,180,48739,2,0,L|167:108,1,72,8|0,0:0|0:0,0:0:0:0:
195,260,49005,2,0,P|234:252|272:263,1,72,2|0,0:0|0:0,0:0:0:0:
186,352,49272,2,0,P|147:360|109:349,1,72,8|0,0:0|0:0,0:0:0:0:
25,180,49538,6,0,L|42:251,1,72,2|0,1:0|0:0,0:0:0:0:
129,130,49805,2,0,L|113:201,1,72,8|0,0:0|0:0,0:0:0:0:
51,104,50071,1,2,1:0:0:0:
195,186,50204,1,8,0:0:0:0:
48,321,50337,2,0,L|41:249,1,72,8|0,0:0|0:0,0:0:0:0:
133,360,50604,6,0,P|202:355|290:359,1,144,2|8,1:0|0:0,0:0:0:0:
370,372,51003,1,0,0:0:0:0:
443,246,51137,2,0,P|446:282|440:318,1,72,2|8,0:0|0:0,0:0:0:0:
332,270,51403,2,0,P|325:234|328:198,1,72,8|0,0:0|0:0,0:0:0:0:
469,108,51670,6,0,P|433:110|398:108,1,72,2|0,1:0|0:0,0:0:0:0:
317,48,51936,1,8,0:0:0:0:
230,100,52069,1,0,0:0:0:0:
64,70,52202,2,0,P|92:32|143:24,1,72,2|0,1:0|0:0,0:0:0:0:
114,23,52402,1,0,0:0:0:0:
114,23,52469,1,8,0:0:0:0:
52,172,52602,1,8,0:0:0:0:
149,303,52735,6,0,P|153:253|148:169,1,108
140,159,53002,1,8,0:0:0:0:
60,300,53135,1,0,0:0:0:0:
248,290,53268,2,0,P|293:287|324:288,1,72,0|8,0:0|0:0,0:0:0:0:
416,380,53535,2,0,P|380:383|345:384,1,72,8|0,0:0|0:0,0:0:0:0:
457,273,53801,6,0,P|470:239|474:204,1,72,0|0,0:0|0:0,0:0:0:0:
410,134,54067,1,8,0:0:0:0:
324,174,54201,1,0,0:0:0:0:
243,125,54334,2,0,P|207:118|143:134,1,72
123,225,54600,2,0,P|158:231|193:228,1,72,8|0,0:0|0:0,0:0:0:0:
333,102,54867,6,0,P|327:136|323:186,1,72,0|0,0:0|0:0,0:0:0:0:
379,249,55133,1,8,0:0:0:0:
466,213,55266,1,0,0:0:0:0:
421,378,55400,2,0,P|385:380|333:379,1,72,0|8,0:0|0:0,0:0:0:0:
262,341,55666,1,8,0:0:0:0:
171,366,55799,1,0,0:0:0:0:
38,246,55932,6,0,P|61:197|113:180,1,108,0|0,0:0|0:0,0:0:0:0:
143,192,56199,2,0,P|185:181|213:148,1,72,8|0,0:0|0:0,0:0:0:0:
180,59,56465,2,0,L|108:62,1,72
205,161,56732,2,0,L|280:160,1,72,8|0,0:0|0:0,0:0:0:0:
452,69,56998,6,0,P|457:139|461:237,1,144,2|8,0:0|0:0,0:0:0:0:
368,289,57398,1,0,0:0:0:0:
368,289,57531,2,0,L|287:290,1,72
203,236,57797,2,8,L|122:237,1,72,8|0,0:0|0:0,0:0:0:0:
0,374,58064,6,0,P|43:331|129:367,1,144,0|8,0:0|0:0,0:0:0:0:
205,381,58463,1,0,0:0:0:0:
205,381,58597,2,0,L|291:379,1,72,0|8,0:0|0:0,0:0:0:0:
341,311,58863,1,8,0:0:0:0:
415,367,58996,1,0,0:0:0:0:
482,225,59130,6,0,P|483:261|477:297,1,72,0|0,0:0|0:0,0:0:0:0:
372,228,59396,2,0,P|368:192|370:156,1,72,8|0,0:0|0:0,0:0:0:0:
462,97,59662,1,0,0:0:0:0:
369,156,59796,1,8,0:0:0:0:
289,79,59929,2,0,P|221:83|186:90,1,72,8|0,0:0|0:0,0:0:0:0:
144,207,60195,5,0,0:0:0:0:
226,161,60329,1,0,0:0:0:0:
272,241,60462,2,0,P|320:236|345:236,1,72,8|0,0:0|0:0,0:0:0:0:
262,357,60728,2,0,P|213:357|188:355,1,72,8|0,0:0|0:0,0:0:0:0:
190,355,60928,1,0,0:0:0:0:
190,355,60995,1,8,0:0:0:0:
144,207,61128,1,8,0:0:0:0:
27,311,61261,6,0,P|23:248|23:193,1,108,4|0,0:0|0:0,0:0:0:0:
35,169,61527,1,8,0:0:0:0:
114,319,61661,1,0,0:0:0:0:
215,256,61794,2,0,L|293:254,1,72,0|0,0:0|0:0,0:0:0:0:
329,343,62060,2,0,L|400:341,1,72,8|0,0:0|0:0,0:0:0:0:
462,188,62327,6,0,L|391:190,1,72,0|0,0:0|0:0,0:0:0:0:
325,121,62593,1,8,0:0:0:0:
236,151,62726,1,0,0:0:0:0:
156,28,62860,2,0,L|149:101,1,72,8|0,0:0|0:0,0:0:0:0:
44,57,63126,2,0,L|54:128,1,72,8|0,0:0|0:0,0:0:0:0:
136,222,63392,6,0,P|99:223|58:238,1,72,0|0,0:0|0:0,0:0:0:0:
60,328,63659,1,8,0:0:0:0:
145,367,63792,1,0,0:0:0:0:
238,222,63925,2,0,L|235:128,1,72,0|0,0:0|0:0,0:0:0:0:
316,100,64192,1,8,0:0:0:0:
362,181,64325,1,0,0:0:0:0:
153,104,64458,6,0,P|101:88|35:106,1,108,0|0,0:0|0:0,0:0:0:0:
19,119,64725,2,0,L|36:197,1,72,8|0,0:0|0:0,0:0:0:0:
171,285,64991,2,0,P|176:244|150:196,1,72,8|0,0:2|0:0,0:0:0:0:
12,311,65257,2,0,L|27:382,1,72,8|0,0:0|0:0,0:0:0:0:
225,381,65524,6,0,P|283:377|370:378,1,144,0|8,0:0|0:0,0:0:0:0:
325,290,65924,1,0,0:0:0:0:
325,290,66057,2,0,P|312:249|316:218,1,72,0|0,0:0|0:0,0:0:0:0:
455,157,66323,2,0,P|457:192|445:226,1,72,8|0,0:0|0:0,0:0:0:0:
423,77,66590,6,0,P|368:74|276:77,1,144,0|8,0:0|0:0,0:0:0:0:
232,184,66989,1,0,0:0:0:0:
232,184,67122,2,0,L|236:259,1,72,0|8,0:0|0:0,0:0:0:0:
142,241,67389,1,8,0:0:0:0:
99,324,67522,1,0,0:0:0:0:
5,203,67655,6,0,P|1:178|1:122,1,72
143,169,67922,2,0,P|144:205|142:241,1,72,8|0,0:0|0:0,0:0:0:0:
81,99,68188,1,0,0:0:0:0:
142,28,68321,1,8,0:0:0:0:
221,79,68455,2,0,P|256:77|292:80,1,72,8|0,0:0|0:0,0:0:0:0:
405,226,68721,6,0,P|369:225|333:220,1,72,0|0,0:0|0:0,0:0:0:0:
249,178,68987,1,8,0:0:0:0:
206,262,69121,1,0,0:0:0:0:
345,143,69254,1,2,0:0:0:0:
293,313,69387,1,8,0:0:0:0:
293,313,69454,1,0,0:0:0:0:
293,313,69520,2,0,P|288:348|282:384,1,72,8|0,0:0|0:0,0:0:0:0:
108,273,69787,6,0,P|99:226|92:150,1,108,6|0,0:0|0:0,0:0:0:0:
100,130,70053,1,8,0:0:0:0:
198,197,70186,2,0,P|233:200|268:193,1,72,0|0,0:0|0:0,0:0:0:0:
359,119,70453,1,8,0:0:0:0:
219,15,70586,2,0,P|228:51|253:89,1,72,8|0,0:0|0:0,0:0:0:0:
495,214,70852,6,0,P|448:203|384:216,1,108,0|0,0:0|0:0,0:0:0:0:
364,239,71119,1,8,0:0:0:0:
475,364,71252,2,0,P|481:316|480:285,1,72
351,378,71519,1,8,0:0:0:0:
228,308,71652,2,0,L|137:308,1,72,8|0,0:0|0:0,0:0:0:0:
18,186,71918,6,0,P|71:185|137:179,1,108,2|0,0:0|0:0,0:0:0:0:
160,171,72185,1,8,0:0:0:0:
214,56,72318,2,0,P|182:35|134:33,1,72,0|0,0:0|0:0,0:0:0:0:
63,92,72584,1,8,0:0:0:0:
237,144,72717,2,0,L|312:141,1,72,8|0,0:0|0:0,0:0:0:0:
508,73,72984,6,0,P|467:43|386:53,1,108,0|0,0:0|0:0,0:0:0:0:
379,59,73250,1,8,0:0:0:0:
480,169,73384,2,0,P|479:217|473:253,1,72,0|0,0:0|0:0,0:0:0:0:
369,199,73650,1,8,0:0:0:0:
339,321,73783,2,0,P|306:325|241:322,1,72,8|0,0:0|0:0,0:0:0:0:
50,180,74050,6,0,P|63:256|79:354,1,144,2|8,0:0|0:0,0:0:0:0:
155,252,74449,1,0,0:0:0:0:
155,252,74583,2,0,L|239:243,1,72,0|0,0:0|0:0,0:0:0:0:
346,132,74849,2,0,P|305:130|259:156,1,72,8|0,0:0|0:0,0:0:0:0:
347,361,75115,6,0,P|336:290|321:220,1,144,2|8,0:0|0:0,0:0:0:0:
162,95,75515,1,0,0:0:0:0:
162,95,75648,2,0,P|170:130|183:164,1,72,0|8,0:0|0:0,0:0:0:0:
304,96,75915,2,0,P|306:61|302:25,1,72,8|0,0:0|0:0,0:0:0:0:
52,46,76181,6,0,P|65:94|92:172,1,108,8|0,0:0|0:0,0:0:0:0:
106,177,76448,1,8,0:0:0:0:
183,23,76581,1,0,0:0:0:0:
267,118,76714,2,0,P|303:122|339:122,1,72,2|8,0:0|0:0,0:0:0:0:
432,52,76980,1,8,0:0:0:0:
354,332,77247,6,0,P|313:286|305:216,1,108,8|0,0:0|0:0,0:0:0:0:
309,206,77513,1,8,0:0:0:0:
431,291,77646,1,0,0:0:0:0:
226,364,77780,2,0,L|129:363,1,72,2|8,0:0|0:0,0:0:0:0:
154,363,77979,1,0,0:0:0:0:
154,363,78046,1,8,0:0:0:0:
167,209,78179,1,8,0:0:0:0:
24,224,78313,6,0,L|131:215,1,108,4|0,0:0|0:0,0:0:0:0:
167,209,78579,1,8,0:0:0:0:
64,119,78712,1,0,0:0:0:0:
103,293,78845,2,0,L|175:288,1,72,2|0,0:0|0:0,0:0:0:0:
276,191,79112,1,8,0:0:0:0:
276,191,79245,1,0,0:0:0:0:
426,290,79378,6,0,P|391:283|356:293,1,72
299,380,79645,1,8,0:0:0:0:
491,330,79778,2,0,P|502:293|496:258,1,72,0|2,0:0|0:0,0:0:0:0:
443,172,80044,1,8,0:0:0:0:
285,285,80178,2,0,P|320:290|356:292,1,72,8|0,0:0|0:0,0:0:0:0:
238,208,80444,6,0,P|174:205|120:215,1,108,2|0,0:0|0:0,0:0:0:0:
105,238,80710,2,0,P|69:243|19:240,1,72,8|0,0:0|0:0,0:0:0:0:
0,114,80977,2,0,P|19:77|88:66,1,108,2|0,0:0|0:0,0:0:0:0:
110,82,81243,2,0,P|162:75|182:61,1,72,8|0,0:0|0:0,0:0:0:0:
367,33,81510,6,0,L|272:36,1,72,2|0,0:0|0:0,0:0:0:0:
386,138,81776,2,0,L|481:141,1,72,8|0,0:0|0:0,0:0:0:0:
338,217,82043,1,2,0:0:0:0:
265,157,82176,1,8,0:0:0:0:
171,161,82309,2,0,P|149:128|152:82,1,72,8|0,0:0|0:0,0:0:0:0:
295,35,82575,6,0,P|366:32|438:34,1,144,2|8,0:0|0:0,0:0:0:0:
413,194,82975,1,0,0:0:0:0:
413,194,83108,2,0,P|367:170|322:179,1,72,2|0,0:0|0:0,0:0:0:0:
445,265,83375,2,0,P|483:229|488:184,1,72,8|0,0:0|0:0,0:0:0:0:
264,142,83641,6,0,P|269:222|274:289,1,144,2|8,0:0|0:0,0:0:0:0:
162,345,84041,1,0,0:0:0:0:
162,345,84174,2,0,P|160:296|156:260,1,72,2|8,0:0|0:0,0:0:0:0:
74,145,84440,2,0,P|72:181|74:217,1,72,8|0,0:0|0:0,0:0:0:0:
231,113,84707,6,0,L|303:106,1,72,2|0,0:0|0:0,0:0:0:0:
413,190,84973,2,0,L|341:183,1,72,8|0,0:0|0:0,0:0:0:0:
419,105,85240,2,0,L|490:111,1,72,2|0,0:0|0:0,0:0:0:0:
363,37,85506,1,8,0:0:0:0:
302,106,85639,1,0,0:0:0:0:
303,238,85773,6,0,P|334:212|336:162,1,72,2|0,0:0|0:0,0:0:0:0:
147,241,86039,2,0,P|160:305|181:379,1,108,8|0,0:0|0:0,0:0:0:0:
194,373,86305,1,2,0:0:0:0:
232,194,86439,1,8,0:0:0:0:
232,194,86505,1,0,0:0:0:0:
232,194,86572,2,0,P|222:151|209:101,1,72,8|8,0:0|0:0,0:0:0:0:
33,45,86838,6,0,P|95:30|150:31,1,108,4|0,0:0|0:0,0:0:0:0:
174,37,87104,2,0,P|213:35|258:28,1,72,8|0,0:0|0:0,0:0:0:0:
366,12,87371,1,2,0:0:0:0:
336,117,87504,1,0,0:0:0:0:
472,180,87638,2,0,P|474:144|464:109,1,72,8|0,0:0|0:0,0:0:0:0:
326,366,87904,6,0,L|236:359,1,72,2|0,0:0|0:0,0:0:0:0:
160,308,88170,1,8,0:0:0:0:
232,240,88304,1,0,0:0:0:0:
327,271,88437,2,0,L|417:277,1,72,2|8,0:0|0:0,0:0:0:0:
426,175,88703,2,0,L|353:175,1,72,8|0,0:0|0:0,0:0:0:0:
387,346,88970,6,0,P|398:306|397:263,1,72,2|0,0:0|0:0,0:0:0:0:
354,175,89236,1,8,0:0:0:0:
259,220,89369,1,0,0:0:0:0:
185,53,89503,2,0,P|145:56|113:62,1,72,2|0,0:0|0:0,0:0:0:0:
49,138,89769,1,8,0:0:0:0:
115,213,89902,1,0,0:0:0:0:
38,342,90035,6,0,P|77:300|128:307,1,108,2|0,0:0|0:0,0:0:0:0:
152,325,90302,2,0,P|195:329|235:317,1,72,8|0,0:0|0:0,0:0:0:0:
330,217,90568,2,0,P|295:212|260:220,1,72,8|0,0:0|0:0,0:0:0:0:
378,317,90835,2,0,P|421:321|461:309,1,72,8|0,0:0|0:0,0:0:0:0:
512,77,91101,6,0,P|503:160|489:235,1,144,2|8,0:0|0:0,0:0:0:0:
413,241,91501,1,0,0:0:0:0:
431,75,91634,2,0,L|354:73,1,72,2|0,0:0|0:0,0:0:0:0:
278,189,91900,2,0,L|349:176,1,72,8|0,0:0|0:0,0:0:0:0:
206,29,92167,6,0,P|159:31|32:53,1,144,2|8,0:0|0:0,0:0:0:0:
63,45,92567,1,0,0:0:0:0:
0,163,92700,2,0,P|13:205|42:235,1,72,2|8,0:0|0:0,0:0:0:0:
150,219,92966,2,0,P|137:177|108:147,1,72,8|0,0:0|0:0,0:0:0:0:
31,362,93233,6,0,L|135:356,1,72,2|0,0:0|0:0,0:0:0:0:
247,297,93499,1,8,0:0:0:0:
247,297,93632,2,0,L|143:291,1,72,0|2,0:0|0:0,0:0:0:0:
320,371,93899,1,8,0:0:0:0:
320,371,94032,2,0,L|424:365,1,72,8|0,0:0|0:0,0:0:0:0:
468,222,94298,6,0,P|454:171|453:102,1,108,2|0,0:0|0:0,0:0:0:0:
445,79,94565,2,0,P|423:118|368:138,1,72,8|0,0:0|0:0,0:0:0:0:
292,123,94831,1,2,0:0:0:0:
241,218,94964,1,8,0:0:0:0:
241,218,95031,1,0,0:0:0:0:
241,218,95098,2,0,L|242:311,1,72,8|8,0:0|0:0,0:0:0:0:
59,189,95364,6,0,P|57:141|56:46,1,125.999996154785,6|0,0:0|0:0,0:0:0:0:
55,63,95763,1,0,0:0:0:0:
144,119,95896,2,0,P|175:124|206:111,1,62.9999980773926,0|0,0:0|0:0,0:0:0:0:
319,10,96163,6,0,P|290:21|271:46,1,62.9999980773926,8|0,0:0|0:0,0:0:0:0:
323,124,96429,1,0,0:0:0:0:
409,85,96562,1,0,0:0:0:0:
481,147,96696,2,0,L|473:224,1,62.9999980773926,0|0,0:0|0:0,0:0:0:0:
395,342,96962,6,0,B|333:374|333:321|251:350,1,125.999996154785,6|0,0:0|0:0,0:0:0:0:
179,362,97362,1,0,0:0:0:0:
100,309,97495,2,0,L|94:371,1,62.9999980773926,0|0,0:0|0:0,0:0:0:0:
19,313,97761,5,8,0:0:0:0:
70,230,97895,1,0,0:0:0:0:
162,249,98028,2,0,P|196:252|232:245,1,62.9999980773926,2|0,0:0|0:0,0:0:0:0:
341,172,98294,2,0,P|310:175|279:171,1,62.9999980773926,0|0,0:0|0:0,0:0:0:0:
98,36,98561,6,0,P|159:25|226:32,1,125.999996154785,6|0,0:0|0:0,0:0:0:0:
222,31,98960,1,0,0:0:0:0:
287,108,99094,2,0,L|274:194,1,62.9999980773926,0|0,0:0|0:0,0:0:0:0:
451,147,99360,6,0,P|414:146|382:165,1,62.9999980773926,8|0,0:0|0:0,0:0:0:0:
433,309,99626,2,0,L|436:247,1,62.9999980773926,2|0,0:0|0:0,0:0:0:0:
331,322,99893,2,0,L|340:384,1,62.9999980773926
63,302,100159,6,0,P|55:239|54:176,1,125.999996154785,6|0,0:0|0:0,0:0:0:0:
102,87,100559,1,0,0:0:0:0:
188,191,100692,2,0,L|181:253,1,62.9999980773926,2|0,0:0|0:0,0:0:0:0:
250,340,100959,5,8,0:0:0:0:
298,266,101092,1,0,0:0:0:0:
358,329,101225,2,0,P|397:320|431:320,1,62.9999980773926,2|2,0:0|0:0,0:0:0:0:
512,347,101491,2,0,P|504:316|502:285,1,62.9999980773926,2|0,0:0|0:0,0:0:0:0:
505,118,101758,6,0,P|462:149|385:150,1,125.999996154785,6|0,0:0|0:0,0:0:0:0:
390,151,102157,1,0,0:0:0:0:
301,105,102291,2,0,L|232:108,1,62.9999980773926,0|0,0:0|0:0,0:0:0:0:
109,176,102557,6,0,P|129:201|157:215,1,62.9999980773926,10|0,0:0|0:0,0:0:0:0:
306,188,102824,2,0,P|274:191|249:209,1,62.9999980773926,0|0,0:0|0:0,0:0:0:0:
183,344,103090,2,0,P|202:319|208:289,1,62.9999980773926,0|0,0:0|0:0,0:0:0:0:
94,50,103356,6,0,P|104:111|110:182,1,125.999996154785,6|0,0:0|0:0,0:0:0:0:
33,219,103756,1,0,0:0:0:0:
33,219,103889,2,0,P|26:257|22:302,1,62.9999980773926,0|0,0:0|0:0,0:0:0:0:
120,348,104156,6,0,L|195:343,1,62.9999980773926,10|0,0:0|0:0,0:0:0:0:
250,277,104422,2,0,L|325:278,1,62.9999980773926,0|0,0:0|0:0,0:0:0:0:
381,344,104689,2,0,L|456:339,1,62.9999980773926,2|0,0:0|0:0,0:0:0:0:
427,146,104955,6,0,P|387:131|327:168,1,101.250003862381,4|0,0:0|0:0,0:0:0:0:
320,184,105221,1,8,0:0:0:0:
408,262,105354,1,0,0:0:0:0:
493,185,105487,2,0,P|503:148|496:112,1,67.5000025749208,2|0,0:0|0:0,0:0:0:0:
341,88,105754,2,0,P|331:125|338:161,1,67.5000025749208,8|0,0:0|0:0,0:0:0:0:
457,300,106020,6,0,P|372:282|337:287,1,101.250003862381,2|0,0:0|0:0,0:0:0:0:
328,300,106287,1,8,0:0:0:0:
213,233,106420,1,0,0:0:0:0:
126,340,106553,2,0,L|46:336,1,67.5000025749208,2|0,0:0|0:0,0:0:0:0:
0,213,106820,2,0,L|67:210,1,67.5000025749208,8|0,0:0|0:0,0:0:0:0:
252,64,107086,6,0,P|214:51|137:77,1,101.250003862381,2|0,0:0|0:0,0:0:0:0:
132,88,107352,1,8,0:0:0:0:
322,7,107486,1,0,0:0:0:0:
383,130,107619,2,0,P|420:123|468:125,1,67.5000025749208,2|0,0:0|0:0,0:0:0:0:
340,229,107885,2,0,P|303:236|255:234,1,67.5000025749208,8|0,0:0|0:0,0:0:0:0:
52,76,108152,6,0,P|56:135|67:211,1,135.000005149842,2|8,1:0|0:0,0:0:0:0:
155,63,108551,1,0,0:0:0:0:
206,247,108685,2,0,L|284:234,1,67.5000025749208,8|8,0:0|0:0,0:0:0:0:
451,276,108951,2,0,L|384:264,1,67.5000025749208,8|8,0:0|0:0,0:0:0:0:
257,136,109217,6,0,P|318:114|363:144,1,121.499996292114,4|0,0:0|0:0,0:0:0:0:
376,179,109484,1,8,0:0:0:0:
462,84,109617,1,0,0:0:0:0:
464,278,109750,2,0,L|380:264,1,80.9999975280763,2|8,0:0|0:0,0:0:0:0:
281,213,110017,1,8,0:0:0:0:
178,263,110150,1,0,0:0:0:0:
96,107,110283,6,0,P|92:165|103:209,1,80.9999975280763,2|0,0:0|0:0,0:0:0:0:
229,109,110550,2,0,P|233:68|228:28,1,80.9999975280763,8|0,0:0|0:0,0:0:0:0:
35,230,110816,2,0,P|95:226|166:230,1,121.499996292114,2|0,0:0|0:0,0:0:0:0:
178,263,111082,1,8,0:0:0:0:
96,107,111216,1,0,0:0:0:0:
81,354,111349,6,0,P|135:349|163:349,1,80.9999975280763,2|0,0:0|0:0,0:0:0:0:
292,253,111615,2,0,P|295:293|302:333,1,80.9999975280763,8|0,0:0|0:0,0:0:0:0:
398,189,111882,2,0,P|394:145|386:102,1,80.9999975280763,2|8,0:0|0:0,0:0:0:0:
255,30,112148,1,8,0:0:0:0:
238,128,112281,1,0,0:0:0:0:
381,280,112415,6,0,P|442:266|484:167,1,161.999995056153,2|8,0:0|0:0,0:0:0:0:
387,108,112814,1,0,0:0:0:0:
292,253,112947,2,0,P|248:251|207:251,1,80.9999975280763,2|8,0:0|0:0,0:0:0:0:
69,346,113214,2,0,P|109:344|149:345,1,80.9999975280763,8|0,0:0|0:0,0:0:0:0:
39,178,113480,6,0,P|94:155|111:87,1,121.499996292114,6|0,0:0|0:0,0:0:0:0:
103,59,113747,1,8,0:0:0:0:
129,228,113880,1,0,0:0:0:0:
272,135,114013,2,0,P|305:131|354:128,1,80.9999975280763,2|0,0:0|0:0,0:0:0:0:
197,59,114280,1,8,0:0:0:0:
268,285,114413,1,0,0:0:0:0:
434,171,114546,6,0,P|443:116|429:79,1,80.9999975280763,6|0,0:0|0:0,0:0:0:0:
271,207,114812,2,0,P|262:262|276:299,1,80.9999975280763,8|0,0:0|0:0,0:0:0:0:
512,173,115079,2,0,P|457:164|420:178,1,80.9999975280763,2|0,0:0|0:0,0:0:0:0:
190,283,115345,2,0,P|245:292|282:278,1,80.9999975280763,8|0,0:0|0:0,0:0:0:0:
336,41,115612,6,0,B|205:46,1,121.499996292114,6|0,0:0|0:0,0:0:0:0:
171,58,115878,1,8,0:0:0:0:
271,207,116011,1,0,0:0:0:0:
49,171,116145,2,0,P|89:164|129:163,1,80.9999975280763,6|0,0:0|0:0,0:0:0:0:
351,199,116411,2,0,P|311:206|270:206,1,80.9999975280763,8|0,0:0|0:0,0:0:0:0:
36,255,116677,6,0,B|18:308|49:365|49:365|53:340|71:322,1,161.999995056153,6|8,0:0|0:0,0:0:0:0:
177,362,117077,1,0,0:0:0:0:
177,362,117210,2,0,P|217:362|257:359,1,80.9999975280763,8|8,0:0|0:0,0:0:0:0:
333,296,117477,2,0,P|373:292|419:293,1,80.9999975280763,8|8,0:0|0:0,0:0:0:0:
304,61,117743,6,0,P|245:59|169:64,1,121.499996292114,6|0,0:0|0:0,0:0:0:0:
146,75,118010,1,8,0:0:0:0:
359,118,118143,2,0,P|381:70|378:34,1,80.9999975280763,0|2,0:0|0:0,0:0:0:0:
219,142,118409,1,8,0:0:0:0:
333,296,118542,1,8,0:0:0:0:
374,209,118676,1,0,0:0:0:0:
100,192,118809,6,0,P|103:239|115:282,1,80.9999975280763,2|0,0:0|0:0,0:0:0:0:
219,142,119075,2,0,P|216:95|204:52,1,80.9999975280763,8|0,0:0|0:0,0:0:0:0:
54,314,119342,2,0,P|129:302|190:307,1,121.499996292114,2|0,0:0|0:0,0:0:0:0:
210,323,119608,1,8,0:0:0:0:
9,384,119741,1,0,0:0:0:0:
5,150,119875,6,0,L|13:234,1,80.9999975280763,2|0,0:0|0:0,0:0:0:0:
136,76,120141,1,8,0:0:0:0:
60,23,120274,1,0,0:0:0:0:
100,192,120407,2,0,P|137:186|184:185,1,80.9999975280763,2|8,0:0|0:0,0:0:0:0:
290,315,120674,2,0,P|253:321|206:322,1,80.9999975280763,8|0,0:0|0:0,0:0:0:0:
342,173,120940,6,0,P|368:129|470:143,1,161.999995056153,2|8,0:0|0:0,0:0:0:0:
489,229,121340,1,0,0:0:0:0:
489,229,121473,2,0,L|480:313,1,80.9999975280763,2|8,0:0|0:0,0:0:0:0:
373,278,121740,1,8,0:0:0:0:
468,348,121873,1,0,0:0:0:0:
220,361,122006,6,0,P|144:361|92:364,1,121.499996292114,6|0,0:0|0:0,0:0:0:0:
58,370,122272,1,8,0:0:0:0:
158,249,122406,1,0,0:0:0:0:
0,160,122539,2,0,L|12:254,1,80.9999975280763,2|0,0:0|0:0,0:0:0:0:
222,177,122805,1,8,0:0:0:0:
158,249,122939,1,0,0:0:0:0:
58,58,123072,6,0,B|91:58|112:42|112:42|159:73|159:73|190:60|230:58,1,161.999995056153,6|8,0:0|0:0,0:0:0:0:
305,97,123471,1,0,0:0:0:0:
305,97,123605,2,0,P|348:91|397:91,1,80.9999975280763,2|8,0:0|0:0,0:0:0:0:
442,220,123871,1,8,0:0:0:0:
501,149,124004,1,0,0:0:0:0:
242,145,124137,6,0,P|222:86|249:36,1,121.499996292114,6|0,0:0|0:0,0:0:0:0:
285,18,124404,1,8,0:0:0:0:
160,181,124537,1,0,0:0:0:0:
79,120,124670,2,0,P|75:82|68:32,1,80.9999975280763,6|0,0:0|0:0,0:0:0:0:
0,198,124937,2,0,P|4:236|11:286,1,80.9999975280763,8|0,0:0|0:0,0:0:0:0:
226,286,125203,6,0,P|239:236|140:188,1,161.999995056153,6|8,0:0|0:0,0:0:0:0:
129,378,125603,1,0,0:0:0:0:
129,378,125736,2,0,L|222:372,1,80.9999975280763,2|0,0:0|0:0,0:0:0:0:
308,336,126002,2,0,L|388:341,1,80.9999975280763,8|0,0:0|0:0,0:0:0:0:
478,140,126269,6,0,B|500:205|462:225|478:290,1,144,4|0,0:0|0:0,0:0:0:0:
375,182,126668,1,0,0:0:0:0:
375,182,126801,2,0,L|286:188,1,72,2|0,0:0|0:0,0:0:0:0:
95,290,127068,2,0,B|183:305|183:305|231:272,2,144,8|2|8,0:0|0:0|0:0,0:0:0:0:
16,194,127867,6,0,P|12:127|11:49,1,144,4|2,0:0|0:0,0:0:0:0:
95,153,128267,1,0,0:0:0:0:
95,153,128400,2,0,L|178:150,1,72,0|0,0:0|0:0,0:0:0:0:
300,62,128666,2,0,P|267:51|220:58,1,72,8|0,0:0|0:0,0:0:0:0:
244,177,128933,5,8,0:0:0:0:
274,266,129066,1,8,0:0:0:0:
398,182,129199,1,8,0:0:0:0:
368,271,129332,1,8,0:0:0:0:
147,309,129466,6,0,B|184:269|184:269|298:264,1,144,6|8,0:0|0:0,0:0:0:0:
469,210,129865,2,0,P|469:155|380:107,1,144,0|0,0:0|0:0,0:0:0:0:
368,271,130265,2,0,L|382:350,1,72,8|0,0:0|0:0,0:0:0:0:
244,177,130531,6,0,P|190:174|90:181,1,144,2|8,0:0|0:0,0:0:0:0:
212,255,130931,1,0,0:0:0:0:
124,103,131064,2,0,L|36:106,1,72,2|0,0:0|0:0,0:0:0:0:
165,27,131331,2,0,L|236:29,1,72,8|0,0:0|0:0,0:0:0:0:
402,105,131597,5,6,0:0:0:0:
100,179,131863,1,8,0:0:0:0:
476,312,132130,2,0,P|479:249|476:153,1,144,2|8,0:0|0:0,0:0:0:0:
387,285,132663,6,0,P|386:325|389:364,1,72,4|0,0:0|0:0,0:0:0:0:
387,285,133728,6,0,P|307:290|240:289,1,144,4|8,0:0|0:0,0:0:0:0:
191,213,134128,1,0,0:0:0:0:
294,136,134261,2,0,P|297:190|288:222,1,72,2|0,0:0|0:0,0:0:0:0:
188,99,134528,2,0,P|185:45|194:13,1,72,8|0,0:0|0:0,0:0:0:0:
430,223,134794,6,0,B|383:198|383:198|283:208,1,144,2|8,0:0|0:0,0:0:0:0:
243,289,135194,1,0,0:0:0:0:
150,248,135327,2,0,P|106:252|68:242,1,72,2|0,0:0|0:0,0:0:0:0:
118,151,135593,1,8,0:0:0:0:
153,355,135727,1,0,0:0:0:0:
428,327,135860,6,0,P|431:264|430:178,2,144,2|8|2,0:0|0:0|0:0,0:0:0:0:
335,252,136526,1,0,0:0:0:0:
242,288,136659,2,0,P|206:291|150:289,1,72,8|0,0:0|0:0,0:0:0:0:
6,169,136926,6,0,P|60:122|124:164,1,144,2|8,0:0|0:0,0:0:0:0:
203,192,137325,1,0,0:0:0:0:
302,71,137458,2,0,L|296:143,1,72,2|0,1:0|0:0,0:0:0:0:
393,34,137725,2,0,L|400:106,1,72,8|0,0:0|0:0,0:0:0:0:
443,285,137991,6,0,P|386:261|321:313,1,144,6|8,0:0|0:0,0:0:0:0:
447,378,138391,1,0,0:0:0:0:
257,338,138524,2,0,P|248:303|256:268,1,72,2|0,0:0|0:0,0:0:0:0:
442,215,138791,2,0,P|449:265|432:299,1,72,8|0,0:0|0:0,0:0:0:0:
180,357,139057,6,0,P|125:356|31:362,1,144,2|8,0:0|0:0,0:0:0:0:
80,270,139457,1,0,0:0:0:0:
9,108,139590,2,0,L|5:180,1,72,2|0,0:0|0:0,0:0:0:0:
101,64,139856,2,0,L|108:139,1,72,8|0,0:0|0:0,0:0:0:0:
180,357,140123,6,0,P|210:314|189:212,1,144,2|8,1:0|0:0,0:0:0:0:
115,280,140522,1,0,0:0:0:0:
279,384,140656,2,0,L|358:381,1,72,2|0,1:0|0:0,0:0:0:0:
453,254,140922,2,0,P|429:292|400:308,1,72,8|0,0:0|0:0,0:0:0:0:
184,156,141188,6,0,P|191:192|204:246,1,72,2|0,1:0|0:0,0:0:0:0:
278,118,141455,2,0,P|271:82|258:28,1,72,8|0,0:0|0:0,0:0:0:0:
128,7,141721,1,2,1:0:0:0:
79,96,141854,1,0,0:0:0:0:
263,47,141988,2,0,L|347:50,1,72,8|8,0:0|0:0,0:0:0:0:
328,254,142254,6,0,P|236:256|187:205,1,144,12|2,3:0|3:0,0:0:0:0:
198,225,142654,1,8,3:0:0:0:
10,384,142920,1,8,3:0:0:0:
10,384,143053,2,0,L|97:383,1,72,2|0,3:0|3:0,0:0:0:0:
25,212,143320,5,12,3:0:0:0:
269,82,143586,1,2,3:0:0:0:
269,82,143719,2,0,P|205:52|127:81,1,144,8|8,3:0|3:0,0:0:0:0:
193,157,144119,2,0,L|278:156,1,72,2|2,3:0|3:0,0:0:0:0:
463,166,144386,5,12,3:0:0:0:
288,340,144652,1,2,3:0:0:0:
288,340,144785,2,0,P|208:342|121:340,1,144,8|8,3:0|3:0,0:0:0:0:
177,261,145185,2,0,P|210:263|248:260,1,72,2|0,3:0|3:0,0:0:0:0:
386,85,145451,6,0,L|382:156,1,72,12|0,3:0|3:0,0:0:0:0:
267,42,145718,2,0,L|283:112,1,72,2|0,3:0|3:0,0:0:0:0:
147,36,145984,2,0,L|175:102,1,72,12|0,3:0|3:0,0:0:0:0:
248,260,146251,2,0,L|219:193,1,72,2|2,3:0|3:0,0:0:0:0:
60,153,146517,6,0,P|20:163|20:269,1,144,4|8,0:0|0:0,0:0:0:0:
69,317,146917,1,0,0:0:0:0:
69,317,147050,2,0,P|114:308|147:314,1,72,2|0,0:0|0:0,0:0:0:0:
271,375,147316,2,0,P|236:383|200:380,1,72,8|0,0:0|0:0,0:0:0:0:
238,148,147583,6,0,L|231:291,1,144,2|8,0:0|0:0,0:0:0:0:
335,189,147982,1,0,0:0:0:0:
335,189,148116,2,0,L|319:259,1,72,2|0,0:0|0:0,0:0:0:0:
131,189,148382,2,0,L|146:259,1,72,8|0,0:0|0:0,0:0:0:0:
277,377,148648,6,0,L|360:371,1,72,2|0,0:0|0:0,0:0:0:0:
413,303,148915,1,8,0:0:0:0:
492,352,149048,1,0,0:0:0:0:
512,183,149181,2,0,P|495:214|464:232,1,72,2|0,0:0|0:0,0:0:0:0:
389,111,149448,2,0,P|406:142|438:160,1,72,8|0,0:0|0:0,0:0:0:0:
279,48,149714,6,0,L|180:50,1,72,2|0,0:0|0:0,0:0:0:0:
207,49,149914,1,0,0:0:0:0:
207,49,149981,1,8,0:0:0:0:
112,225,150114,2,0,B|84:174|84:174|89:84,1,144,2|0,0:0|0:0,0:0:0:0:
284,224,150513,2,0,L|198:227,1,72,8|0,0:0|0:0,0:0:0:0:
59,365,150780,6,0,P|172:360|204:363,1,144,12|2,3:0|3:0,0:0:0:0:
202,362,151180,1,8,3:0:0:0:
415,208,151446,1,8,3:0:0:0:
415,208,151579,2,0,L|403:298,1,72,2|0,3:0|3:0,0:0:0:0:
189,250,151846,5,12,3:0:0:0:
499,170,152112,1,2,3:0:0:0:
499,170,152245,2,0,P|439:119|367:131,1,144,8|8,3:0|3:0,0:0:0:0:
196,321,152645,2,0,L|187:232,1,72,2|2,3:0|3:0,0:0:0:0:
241,100,152911,5,12,3:0:0:0:
53,246,153178,1,2,3:0:0:0:
53,246,153311,2,0,B|99:271|99:271|201:246,1,144,8|8,3:0|3:0,0:0:0:0:
241,100,153711,2,0,P|207:128|199:173,1,72,2|0,3:0|3:0,0:0:0:0:
295,333,153977,6,0,L|384:327,1,72,12|0,3:0|3:0,0:0:0:0:
467,226,154243,2,0,L|377:224,1,72,2|0,3:0|3:0,0:0:0:0:
254,366,154510,2,0,L|358:358,1,72,12|0,3:0|3:0,0:0:0:0:
510,196,154776,2,0,L|405:193,1,72,2|2,3:0|3:0,0:0:0:0:
208,273,155043,6,0,P|185:234|233:151,1,144,4|8,0:0|0:0,0:0:0:0:
328,144,155442,1,0,0:0:0:0:
328,144,155576,2,0,L|325:215,1,72,2|0,0:0|0:0,0:0:0:0:
226,153,155842,2,0,L|216:81,1,72,8|0,0:0|0:0,0:0:0:0:
109,108,156108,6,0,P|88:154|-12:166,1,144,2|8,0:0|0:0,0:0:0:0:
31,100,156508,1,0,0:0:0:0:
109,235,156641,2,0,L|190:226,1,72,2|0,0:0|0:0,0:0:0:0:
286,136,156908,2,0,L|215:132,1,72,8|0,0:0|0:0,0:0:0:0:
311,214,157174,6,0,P|354:180|367:144,1,72,2|0,0:0|0:0,0:0:0:0:
165,81,157441,2,0,P|199:124|235:137,1,72,8|0,0:0|0:0,0:0:0:0:
292,6,157707,2,0,P|261:25|242:55,1,72,2|0,0:0|0:0,0:0:0:0:
260,262,157973,2,0,P|290:243|310:213,1,72,8|0,0:0|0:0,0:0:0:0:
153,10,158240,6,0,L|166:90,1,72,2|0,0:0|0:0,0:0:0:0:
41,191,158506,2,0,L|53:120,1,72,8|0,0:0|0:0,0:0:0:0:
159,216,158773,2,0,L|148:288,1,72,2|0,0:0|0:0,0:0:0:0:
25,372,159039,2,0,L|14:301,1,72,8|0,0:0|0:0,0:0:0:0:
160,379,159306,6,0,P|220:353|282:378,1,125.999996154785,4|0,0:0|0:0,0:0:0:0:
367,357,159705,1,0,0:0:0:0:
459,276,159838,2,0,L|445:346,1,62.9999980773926,0|0,0:0|0:0,0:0:0:0:
377,261,160105,6,0,L|383:198,1,62.9999980773926,8|0,0:0|0:0,0:0:0:0:
464,128,160371,2,0,L|465:190,1,62.9999980773926,2|0,0:0|0:0,0:0:0:0:
377,261,160638,1,0,0:0:0:0:
282,211,160771,1,0,0:0:0:0:
96,311,160904,6,0,P|164:308|233:284,1,125.999996154785,2|0,0:0|0:0,0:0:0:0:
195,195,161304,1,0,0:0:0:0:
244,382,161437,1,0,0:0:0:0:
327,321,161570,1,0,0:0:0:0:
411,375,161703,6,0,L|486:371,1,62.9999980773926,8|0,0:0|0:0,0:0:0:0:
503,237,161970,2,0,P|478:198|447:185,1,62.9999980773926,2|0,0:0|0:0,0:0:0:0:
349,282,162236,2,0,P|381:281|410:269,1,62.9999980773926,0|0,0:0|0:0,0:0:0:0:
456,66,162503,6,0,B|471:112|471:112|463:206,1,125.999996154785,4|0,0:0|0:0,0:0:0:0:
371,142,162902,1,0,0:0:0:0:
290,194,163036,2,0,L|215:198,1,62.9999980773926,0|0,0:0|0:0,0:0:0:0:
65,134,163302,6,0,L|70:204,1,62.9999980773926,8|0,0:0|0:0,0:0:0:0:
148,91,163568,2,0,L|148:162,1,62.9999980773926,2|0,0:0|0:0,0:0:0:0:
231,134,163835,2,0,L|226:204,1,62.9999980773926,0|0,0:0|0:0,0:0:0:0:
106,306,164101,6,0,P|72:270|79:179,1,125.999996154785,2|0,0:0|0:0,0:0:0:0:
153,228,164501,1,0,0:0:0:0:
212,303,164634,2,0,L|281:299,1,62.9999980773926
361,240,164901,5,8,0:0:0:0:
449,291,165034,1,0,0:0:0:0:
361,240,165167,1,2,0:0:0:0:
441,176,165300,1,0,0:0:0:0:
274,299,165433,2,0,P|255:266|252:229,1,62.9999980773926
201,99,165700,6,0,P|156:150|99:147,1,125.999996154785,4|0,0:0|0:0,0:0:0:0:
34,91,166099,1,0,0:0:0:0:
64,278,166233,2,0,L|148:263,1,62.9999980773926,2|0,0:0|0:0,0:0:0:0:
434,248,166499,6,0,P|393:206|320:221,1,125.999996154785,8|0,0:0|0:0,0:0:0:0:
295,334,166899,1,0,0:0:0:0:
251,105,167032,2,0,L|245:43,1,62.9999980773926,0|0,0:0|0:0,0:0:0:0:
12,319,167298,6,0,B|71:294|73:339|139:313,1,125.999996154785,4|0,0:0|0:0,0:0:0:0:
239,209,167698,1,0,0:0:0:0:
62,74,167831,2,0,L|-10:82,1,62.9999980773926,2|0,0:0|0:0,0:0:0:0:
242,41,168098,6,0,L|330:45,1,62.9999980773926,8|0,0:0|0:0,0:0:0:0:
386,6,168364,1,2,0:0:0:0:
421,94,168497,1,0,0:0:0:0:
512,64,168631,2,0,P|511:95|508:126,1,62.9999980773926,8|0,0:0|0:0,0:0:0:0:
389,331,168897,6,0,P|332:327|258:332,1,125.999996154785,4|0,0:0|0:0,0:0:0:0:
186,375,169297,1,0,0:0:0:0:
101,350,169430,2,0,P|65:352|32:347,1,62.9999980773926,2|0,0:0|0:0,0:0:0:0:
6,179,169696,6,0,L|17:247,1,62.9999980773926,8|0,0:0|0:0,0:0:0:0:
100,184,169963,1,2,0:0:0:0:
46,98,170096,1,0,0:0:0:0:
149,271,170229,2,0,P|187:264|225:271,1,62.9999980773926,8|0,0:0|0:0,0:0:0:0:
372,350,170496,6,0,B|225:354,1,125.999996154785,2|8,0:0|0:0,0:0:0:0:
148,377,170895,1,0,0:0:0:0:
148,377,171028,2,8,L|76:376,1,62.9999980773926,0|0,0:0|0:0,0:0:0:0:
2,344,171295,1,8,0:0:0:0:
148,208,171561,6,0,L|144:291,1,62.9999980773926,2|0,1:0|0:0,0:0:0:0:
286,177,171828,2,0,L|203:173,1,62.9999980773926,2|0,1:0|0:0,0:0:0:0:
231,266,172094,1,0,0:0:0:0:
288,96,172227,1,0,0:0:0:0:
345,266,172361,2,0,L|341:338,1,62.9999980773926,2|0,0:0|0:0,0:0:0:0:
474,235,172627,6,0,L|480:98,1,125.999996154785,4|0,0:0|0:0,0:0:0:0:
391,106,173026,1,0,0:0:0:0:
342,34,173159,2,0,P|306:16|261:17,1,62.9999980773926,0|0,0:0|0:0,0:0:0:0:
253,182,173426,5,8,0:0:0:0:
288,96,173559,1,0,0:0:0:0:
205,59,173692,2,0,L|142:59,1,62.9999980773926,0|0,0:0|0:0,0:0:0:0:
67,158,173959,2,0,L|129:164,1,62.9999980773926,0|0,0:0|0:0,0:0:0:0:
302,219,174225,6,0,P|260:182|190:217,1,125.999996154785,2|8,0:0|0:0,0:0:0:0:
325,301,174624,1,0,0:0:0:0:
426,187,174758,2,0,P|417:219|400:243,1,62.9999980773926,0|0,0:0|0:0,0:0:0:0:
198,202,175024,5,8,0:0:0:0:
142,271,175158,1,0,0:0:0:0:
71,221,175291,2,0,P|66:186|67:155,1,62.9999980773926,0|0,0:0|0:0,0:0:0:0:
142,59,175557,2,0,P|147:94|146:125,1,62.9999980773926,0|0,0:0|0:0,0:0:0:0:
10,23,175824,6,0,L|160:16,1,125.999996154785,4|0,0:0|0:0,0:0:0:0:
220,41,176223,1,0,0:0:0:0:
301,173,176357,2,0,P|337:157|355:130,1,62.9999980773926,0|0,0:0|0:0,0:0:0:0:
356,51,176623,5,8,0:0:0:0:
285,95,176756,1,0,0:0:0:0:
431,186,176889,2,0,L|512:185,1,62.9999980773926,0|0,0:0|0:0,0:0:0:0:
408,270,177156,2,0,L|470:262,1,62.9999980773926,0|0,0:0|0:0,0:0:0:0:
397,368,177422,6,0,B|356:346|356:346|266:350,1,125.999996154785,2|8,0:0|0:0,0:0:0:0:
101,373,177822,1,0,0:0:0:0:
153,297,177955,2,0,P|184:336|192:364,1,62.9999980773926,0|0,0:0|0:0,0:0:0:0:
4,303,178222,5,8,0:0:0:0:
73,248,178355,1,0,0:0:0:0:
13,178,178488,2,0,P|6:140|8:110,1,62.9999980773926,0|0,0:0|0:0,0:0:0:0:
146,133,178754,2,0,P|115:139|84:139,1,62.9999980773926,8|0,0:0|0:0,0:0:0:0:
204,47,179021,6,0,B|250:69|250:69|346:51,1,125.999996154785,4|0,0:0|0:0,0:0:0:0:
421,107,179420,1,0,0:0:0:0:
421,107,179554,2,0,L|412:178,1,62.9999980773926,0|0,0:0|0:0,0:0:0:0:
314,352,179820,6,0,P|248:352|178:346,2,125.999996154785,8|0|8,0:0|0:0|0:0,0:0:0:0:
186,159,180619,6,0,P|123:147|87:204,1,125.999996154785,4|0,0:0|0:0,0:0:0:0:
259,192,181019,1,0,0:0:0:0:
259,192,181152,2,0,P|264:142|249:113,1,62.9999980773926,0|0,0:0|0:0,0:0:0:0:
189,286,181419,6,0,P|184:336|199:365,1,62.9999980773926,8|0,0:0|0:0,0:0:0:0:
273,318,181685,2,0,L|339:318,1,62.9999980773926
411,365,181952,2,0,L|477:365,1,62.9999980773926,8|0,0:0|0:0,0:0:0:0:
467,199,182218,6,0,P|465:141|415:88,1,125.999996154785,2|8,0:0|0:0,0:0:0:0:
259,192,182617,2,0,B|307:204|307:204|376:172,1,125.999996154785
453,27,183017,2,0,P|421:19|372:41,1,62.9999980773926,8|0,0:0|0:0,0:0:0:0:
259,192,183283,6,0,P|266:255|261:334,1,125.999996154785,2|8,0:0|0:0,0:0:0:0:
83,301,183683,2,0,P|121:255|187:268,1,125.999996154785,0|0,0:0|0:0,0:0:0:0:
10,362,184083,2,0,L|-2:292,1,62.9999980773926,8|0,0:0|0:0,0:0:0:0:
45,105,184349,6,0,L|59:180,1,67.5000025749208,12|0,0:0|0:0,0:0:0:0:
128,52,184615,2,0,L|128:128,1,67.5000025749208,8|0,0:0|0:0,0:0:0:0:
211,105,184882,2,0,L|197:180,1,67.5000025749208,8|0,0:0|0:0,0:0:0:0:
168,328,185148,2,0,L|182:253,1,67.5000025749208,8|0,0:0|0:0,0:0:0:0:
286,95,185415,5,8,0:0:0:0:
127,205,185548,1,8,0:0:0:0:
336,235,185681,1,8,0:0:0:0:
211,105,185814,1,8,0:0:0:0:
252,324,185948,1,8,0:0:0:0:
324,148,186081,1,8,0:0:0:0:
180,261,186214,1,8,0:0:0:0:
422,195,186347,1,8,0:0:0:0:
163,141,186480,6,0,P|173:195|181:272,1,121.499996292114,4|0,0:0|0:0,0:0:0:0:
183,302,186747,1,8,0:0:0:0:
75,182,186880,1,0,0:0:0:0:
254,112,187013,2,0,L|338:108,1,80.9999975280763,2|8,0:0|0:0,0:0:0:0:
458,181,187280,1,8,0:0:0:0:
414,268,187413,1,0,0:0:0:0:
253,192,187546,6,0,P|256:160|251:105,1,80.9999975280763,2|0,0:0|0:0,0:0:0:0:
140,211,187813,2,0,P|136:242|141:297,1,80.9999975280763,8|0,0:0|0:0,0:0:0:0:
415,269,188079,2,0,P|467:233|455:177,1,121.499996292114,2|0,0:0|0:0,0:0:0:0:
421,156,188345,1,8,0:0:0:0:
472,356,188479,1,0,0:0:0:0:
231,285,188612,6,0,P|190:279|150:281,1,80.9999975280763,2|0,0:0|0:0,0:0:0:0:
270,378,188878,2,0,P|310:380|350:374,1,80.9999975280763,8|0,0:0|0:0,0:0:0:0:
271,203,189145,1,2,0:0:0:0:
159,370,189278,1,8,0:0:0:0:
35,260,189411,2,0,P|25:220|24:180,1,80.9999975280763,8|0,0:0|0:0,0:0:0:0:
201,85,189678,6,0,P|128:83|31:88,1,161.999995056153,2|8,0:0|0:0,0:0:0:0:
133,179,190077,1,0,0:0:0:0:
258,140,190210,2,0,P|279:91|275:59,1,80.9999975280763,2|8,0:0|0:0,0:0:0:0:
201,85,190477,1,8,0:0:0:0:
133,179,190610,1,0,0:0:0:0:
467,306,190743,6,0,P|468:251|464:172,1,121.499996292114,6|0,0:0|0:0,0:0:0:0:
459,144,191010,1,8,0:0:0:0:
361,79,191143,1,0,0:0:0:0:
293,215,191276,2,0,P|299:255|309:295,1,80.9999975280763,2|0,0:0|0:0,0:0:0:0:
363,163,191543,1,8,0:0:0:0:
285,44,191676,1,0,0:0:0:0:
55,116,191809,6,0,P|98:109|143:111,1,80.9999975280763,6|0,0:0|0:0,0:0:0:0:
293,215,192075,2,0,P|250:208|205:210,1,80.9999975280763,8|0,0:0|0:0,0:0:0:0:
40,286,192342,2,0,B|43:329|52:369,1,80.9999975280763,2|0,0:0|0:0,0:0:0:0:
224,289,192608,2,0,B|221:246|212:206,1,80.9999975280763,8|0,0:0|0:0,0:0:0:0:
16,118,192875,6,0,B|70:135|70:135|152:105,1,121.499996292114,6|0,0:0|0:0,0:0:0:0:
163,88,193141,1,8,0:0:0:0:
51,21,193274,1,0,0:0:0:0:
26,206,193408,2,0,L|42:293,1,80.9999975280763,6|0,0:0|0:0,0:0:0:0:
143,304,193674,2,0,L|238:283,1,80.9999975280763,8|0,0:0|0:0,0:0:0:0:
430,173,193940,6,0,B|416:141|416:121|416:121|371:149|306:138,1,161.999995056153,6|8,0:0|0:0,0:0:0:0:
233,79,194340,1,0,0:0:0:0:
233,79,194473,2,0,L|135:73,1,80.9999975280763,8|8,0:0|0:0,0:0:0:0:
123,169,194740,2,0,L|42:173,1,80.9999975280763,8|8,0:0|0:0,0:0:0:0:
163,338,195006,6,0,P|233:328|284:326,1,121.499996292114,4|0,0:0|0:0,0:0:0:0:
323,336,195273,1,8,0:0:0:0:
356,217,195406,1,0,0:0:0:0:
506,301,195539,2,0,L|414:305,1,80.9999975280763,2|8,0:0|0:0,0:0:0:0:
283,326,195805,1,8,0:0:0:0:
208,242,195939,1,0,0:0:0:0:
378,136,196072,6,0,P|378:178|371:222,1,80.9999975280763,2|0,0:0|0:0,0:0:0:0:
270,121,196338,2,0,P|264:80|264:40,1,80.9999975280763,8|0,0:0|0:0,0:0:0:0:
432,255,196605,2,0,P|371:244|302:254,1,121.499996292114,2|0,0:0|0:0,0:0:0:0:
280,276,196871,1,8,0:0:0:0:
441,350,197004,1,0,0:0:0:0:
204,378,197138,6,0,P|163:380|123:378,1,80.9999975280763,2|0,0:0|0:0,0:0:0:0:
43,249,197404,2,0,P|83:246|123:248,1,80.9999975280763,8|0,0:0|0:0,0:0:0:0:
14,339,197670,1,2,0:0:0:0:
77,158,197804,1,8,0:0:0:0:
162,311,197937,2,0,P|191:281|193:229,1,80.9999975280763,8|0,0:0|0:0,0:0:0:0:
45,0,198203,6,0,P|55:59|77:160,1,161.999995056153,2|8,0:0|0:0,0:0:0:0:
154,64,198603,1,0,0:0:0:0:
196,243,198736,1,2,0:0:0:0:
340,164,198869,1,8,0:0:0:0:
166,154,199002,1,8,0:0:0:0:
290,248,199135,1,0,0:0:0:0:
461,29,199269,6,0,P|420:24|334:25,1,121.499996292114,6|0,0:0|0:0,0:0:0:0:
301,38,199535,1,8,0:0:0:0:
340,164,199669,1,0,0:0:0:0:
473,124,199802,2,0,P|474:89|469:33,1,80.9999975280763,2|0,0:0|0:0,0:0:0:0:
261,130,200068,1,8,0:0:0:0:
364,257,200202,1,0,0:0:0:0:
127,252,200335,6,0,B|119:275|121:300|121:300|81:250|95:177,1,161.999995056153,6|8,0:0|0:0,0:0:0:0:
181,134,200734,1,0,0:0:0:0:
181,134,200868,2,0,P|225:128|268:132,1,80.9999975280763,2|8,0:0|0:0,0:0:0:0:
445,252,201134,2,0,P|405:258|364:257,1,80.9999975280763,8|0,0:0|0:0,0:0:0:0:
121,301,201400,6,0,P|88:256|100:179,1,121.499996292114,6|0,0:0|0:0,0:0:0:0:
118,160,201667,1,8,0:0:0:0:
205,306,201800,1,0,0:0:0:0:
7,231,201933,2,0,L|2:148,1,80.9999975280763,6|0,0:0|0:0,0:0:0:0:
122,79,202200,2,0,L|117:162,1,80.9999975280763,8|0,0:0|0:0,0:0:0:0:
11,311,202466,6,8,L|0:113,1,161.999995056153,4|8,0:0|0:0,0:0:0:0:
45,34,202866,1,0,0:0:0:0:
45,34,202999,2,0,L|132:32,1,80.9999975280763,2|0,0:0|0:0,0:0:0:0:
167,115,203265,2,0,L|254:113,1,80.9999975280763,8|0,0:0|0:0,0:0:0:0:
483,224,203532,6,0,P|484:171|482:64,1,144,4|0,0:0|0:0,0:0:0:0:
395,187,203931,1,0,0:0:0:0:
351,261,204064,2,0,P|311:263|277:261,1,72,2|0,0:0|0:0,0:0:0:0:
104,117,204331,2,0,P|176:111|253:113,2,144,8|2|8,0:0|0:0|0:0,0:0:0:0:
44,278,205130,6,0,P|68:367|174:336,1,216,4|0,0:0|0:0,0:0:0:0:
254,273,205663,2,0,L|266:358,1,72,0|0,0:0|0:0,0:0:0:0:
386,243,205929,6,0,P|382:198|366:165,1,72,8|0,0:0|0:0,0:0:0:0:
290,139,206196,1,2,0:0:0:0:
254,273,206329,1,0,0:0:0:0:
148,209,206462,2,0,P|101:207|68:210,1,72,8|0,0:0|0:0,0:0:0:0:
186,350,206729,6,0,P|258:352|342:344,1,144,6|8,0:0|0:0,0:0:0:0:
368,241,207128,2,0,P|300:224|253:302,1,144,0|0,0:0|0:0,0:0:0:0:
459,302,207528,2,0,L|449:225,1,72,8|0,0:0|0:0,0:0:0:0:
349,98,207794,6,0,L|370:256,1,144,2|8,0:0|0:0,0:0:0:0:
260,91,208194,1,0,0:0:0:0:
260,91,208327,2,0,L|270:168,1,72,2|0,0:0|0:0,0:0:0:0:
164,113,208594,2,0,L|154:36,1,72,8|0,0:0|0:0,0:0:0:0:
55,199,208860,6,0,P|86:192|133:192,1,72,8|0,0:0|0:0,0:0:0:0:
252,272,209126,2,0,P|217:279|181:279,1,72,8|0,0:0|0:0,0:0:0:0:
269,162,209393,2,0,P|300:155|347:155,1,72,8|0,0:0|0:0,0:0:0:0:
466,235,209659,2,0,P|431:242|395:242,1,72,8|0,0:0|0:0,0:0:0:0:
273,77,209926,5,8,0:0:0:0:
252,272,210059,1,8,0:0:0:0:
121,124,210192,1,8,0:0:0:0:
81,280,210325,1,8,0:0:0:0:
233,144,210459,1,8,0:0:0:0:
158,331,210592,1,8,0:0:0:0:
45,178,210724,1,8,0:0:0:0:
252,272,210858,1,8,0:0:0:0:
24,364,210991,5,4,0:0:0:0:
256,192,211058,12,0,214189,0:0:0:0:
217,49,220583,5,8,0:0:0:0:
265,356,220849,1,8,0:0:0:0:
58,182,221382,5,8,0:0:0:0:
425,205,221648,1,8,0:0:0:0:
146,74,222181,6,0,P|146:111|154:202,1,107.999996704102,8|8,0:0|0:0,0:0:0:0:
238,25,222714,1,8,0:0:0:0:
317,206,222981,2,0,P|371:208|425:205,1,107.999996704102,8|8,0:0|0:0,0:0:0:0:
238,25,223514,1,8,0:0:0:0:
179,293,223780,6,0,P|143:291|90:295,1,80.9999975280763,4|0,0:0|0:0,0:0:0:0:
26,371,224046,1,0,0:0:0:0:
232,382,224180,1,0,0:0:0:0:
232,382,224246,1,0,0:0:0:0:
232,382,224313,2,0,L|322:377,1,80.9999975280763,0|0,0:0|0:0,0:0:0:0:
395,124,224579,6,0,L|403:208,1,80.9999975280763,8|0,0:0|0:0,0:0:0:0:
407,309,224846,1,0,0:0:0:0:
293,207,224979,1,0,0:0:0:0:
293,207,225045,1,0,0:0:0:0:
293,207,225112,2,0,P|251:211|203:209,1,80.9999975280763,0|0,0:0|0:0,0:0:0:0:
29,61,225379,6,0,L|45:231,1,161.999995056153,4|0,0:0|0:0,0:0:0:0:
113,20,225778,2,0,L|124:147,1,121.499996292114,0|0,0:0|0:0,0:0:0:0:
127,182,226045,1,0,0:0:0:0:
294,48,226178,6,0,P|252:43|209:48,1,80.9999975280763,8|0,0:0|0:0,0:0:0:0:
255,210,226444,1,0,0:0:0:0:
365,131,226578,1,0,0:0:0:0:
201,146,226711,1,8,0:0:0:0:
383,147,226844,1,0,0:0:0:0:
148,257,226977,6,0,P|129:223|129:172,1,80.9999975280763,4|0,0:0|0:0,0:0:0:0:
249,260,227244,1,0,0:0:0:0:
131,367,227377,1,0,0:0:0:0:
90,369,227443,1,0,0:0:0:0:
50,371,227510,1,0,0:0:0:0:
44,222,227643,1,0,0:0:0:0:
297,322,227776,6,0,P|324:283|321:233,1,80.9999975280763,8|0,0:0|0:0,0:0:0:0:
213,159,228043,1,0,0:0:0:0:
121,327,228176,2,0,L|134:382,2,40.4999987640381
297,322,228443,1,0,0:0:0:0:
42,303,228576,6,0,L|43:209,1,80.9999975280763,4|0,0:0|0:0,0:0:0:0:
93,89,228842,1,0,0:0:0:0:
213,159,228975,1,0,0:0:0:0:
253,157,229041,1,0,0:0:0:0:
293,155,229108,1,0,0:0:0:0:
236,47,229242,1,0,0:0:0:0:
325,250,229375,6,0,L|427:243,1,80.9999975280763,8|0,0:0|0:0,0:0:0:0:
211,372,229641,2,0,L|130:366,1,80.9999975280763
114,223,229908,1,8,0:0:0:0:
42,303,230041,1,0,0:0:0:0:
141,48,230174,6,0,P|186:51|250:51,1,80.9999975280763,4|0,0:0|0:0,0:0:0:0:
55,30,230441,1,0,0:0:0:0:
213,159,230573,2,0,L|174:171,2,40.4999987640381
235,33,230840,1,0,0:0:0:0:
325,250,230974,6,0,P|325:210|323:160,1,80.9999975280763,8|0,0:0|0:0,0:0:0:0:
406,310,231240,1,0,0:0:0:0:
291,369,231373,1,0,0:0:0:0:
291,369,231440,1,0,0:0:0:0:
291,369,231506,2,0,P|251:368|201:371,1,80.9999975280763,0|0,0:0|0:0,0:0:0:0:
44,247,231773,6,0,P|90:260|114:295,1,80.9999975280763,4|0,0:0|0:0,0:0:0:0:
37,335,232039,1,0,0:0:0:0:
81,164,232172,2,0,L|196:156,1,80.9999975280763
188,262,232439,1,0,0:0:0:0:
307,89,232572,6,0,L|319:169,1,80.9999975280763,12|0,0:0|0:0,0:0:0:0:
422,149,232839,2,0,L|409:229,1,80.9999975280763,0|0,0:0|0:0,0:0:0:0:
238,177,233105,2,0,P|279:169|334:170,1,80.9999975280763,8|0,0:0|0:0,0:0:0:0:
482,316,233371,6,0,P|420:311|331:321,2,135.000005149842,4|0|0,0:0|0:0|0:0,0:0:0:0:
409,229,234171,1,8,0:0:0:0:
164,345,234437,6,0,P|186:313|188:279,1,67.5000025749208,0|0,0:0|0:0,0:0:0:0:
91,177,234704,2,0,P|112:203|143:217,1,67.5000025749208,0|0,0:0|0:0,0:0:0:0:
287,188,234970,6,0,P|254:192|228:213,1,67.5000025749208,2|0,0:0|0:0,0:0:0:0:
288,319,235236,2,0,L|356:316,1,67.5000025749208,0|0,0:0|0:0,0:0:0:0:
409,229,235503,2,0,L|477:226,1,67.5000025749208,0|0,0:0|0:0,0:0:0:0:
387,61,235769,6,0,L|393:132,1,67.5000025749208,8|0,0:0|0:0,0:0:0:0:
307,40,236036,2,0,L|301:107,1,67.5000025749208,0|0,0:0|0:0,0:0:0:0:
210,68,236302,2,0,L|216:139,1,67.5000025749208,0|0,0:0|0:0,0:0:0:0:
355,316,236569,6,0,L|349:245,2,72,12|0|0,0:0|0:0|0:0,0:0:0:0:
221,249,236968,1,8,0:0:0:0:
124,325,237102,2,0,L|45:325,1,72,0|0,0:0|0:0,0:0:0:0:
124,194,237368,6,0,P|165:169|176:130,1,80.9999975280763,12|0,0:0|0:0,0:0:0:0:
138,23,237634,1,0,0:0:0:0:
44,106,237768,1,8,0:0:0:0:
261,78,237901,2,0,L|346:73,1,80.9999975280763,0|0,0:0|0:0,0:0:0:0:
429,241,238167,6,0,L|343:244,1,80.9999975280763,12|0,0:0|0:0,0:0:0:0:
192,250,238434,1,8,0:0:0:0:
260,150,238567,1,0,0:0:0:0:
298,316,238700,1,8,0:0:0:0:
124,194,238833,1,0,0:0:0:0:
26,305,238967,6,0,L|41:389,1,80.9999975280763,12|0,0:0|0:0,0:0:0:0:
192,250,239233,1,8,0:0:0:0:
55,130,239366,1,0,0:0:0:0:
122,359,239499,2,0,L|228:354,1,80.9999975280763,8|0,0:0|0:0,0:0:0:0:
244,166,239766,5,8,0:0:0:0:
439,308,239899,1,8,0:0:0:0:
313,100,240032,1,8,0:0:0:0:
343,355,240165,1,8,0:0:0:0:
168,209,240299,1,8,0:0:0:0:
415,205,240432,1,8,0:0:0:0:
206,341,240565,1,8,0:0:0:0:
313,100,240698,1,8,0:0:0:0:
299,284,240832,5,8,0:0:0:0:
148,109,240965,1,8,0:0:0:0:
134,310,241098,1,8,0:0:0:0:
286,193,241231,1,8,0:0:0:0:
69,116,241364,6,0,P|84:60|181:37,1,144,4|0,0:0|0:0,0:0:0:0:
430,207,241897,1,0,0:0:0:0:
50,321,242164,6,0,P|123:319|195:311,2,144,8|0|0,0:0|0:0|0:0,0:0:0:0:
335,175,242963,6,0,P|328:251|328:340,1,144,0|8,0:0|0:0,0:0:0:0:
443,310,243363,1,0,0:0:0:0:
418,153,243496,2,0,P|413:188|411:224,1,72
247,186,243762,6,0,P|274:108|328:83,1,144,8|0,0:0|0:0,0:0:0:0:
411,224,244295,1,8,0:0:0:0:
176,338,244562,6,0,B|22:342,1,144,4|0,0:0|0:0,0:0:0:0:
222,210,245094,1,0,0:0:0:0:
0,16,245361,6,0,P|15:90|27:165,2,144,8|0|0,0:0|0:0|0:0,0:0:0:0:
180,108,246160,6,0,P|219:82|335:99,1,144,0|8,0:0|0:0,0:0:0:0:
261,177,246560,1,0,0:0:0:0:
127,180,246693,2,0,P|99:147|92:105,1,72,0|0,0:0|0:0,0:0:0:0:
134,37,246959,5,8,0:0:0:0:
38,211,247093,1,0,0:0:0:0:
127,180,247226,1,0,0:0:0:0:
198,238,247359,1,0,0:0:0:0:
198,238,247492,2,0,P|251:227|284:228,1,72,8|0,0:0|0:0,0:0:0:0:
160,366,247759,6,0,P|110:373|1:373,1,144,4|0,0:0|0:0,0:0:0:0:
91,119,248292,1,0,0:0:0:0:
319,287,248558,6,0,P|347:224|315:162,2,144,8|0|8,0:0|0:0|0:0,0:0:0:0:
91,119,249357,6,0,B|61:79|68:24|68:24|86:54|134:55,1,144,4|0,0:0|0:0,0:0:0:0:
271,17,249890,1,0,0:0:0:0:
268,226,250157,6,0,L|258:297,1,72,8|0,0:0|0:0,0:0:0:0:
160,244,250423,1,0,0:0:0:0:
358,286,250556,1,0,0:0:0:0:
121,374,250689,2,0,P|69:372|26:357,1,72,8|0,0:0|0:0,0:0:0:0:
160,244,250956,6,0,P|155:160|146:93,2,144,4|0|0,0:0|0:0|0:0,0:0:0:0:
317,171,251755,1,8,0:0:0:0:
388,294,252022,1,0,0:0:0:0:
208,175,252288,1,8,0:0:0:0:
468,122,252554,6,0,P|435:86|338:91,1,144,4|0,0:0|0:0,0:0:0:0:
317,171,252954,1,0,0:0:0:0:
468,122,253087,2,0,P|492:74|493:52,1,72,0|0,0:0|0:0,0:0:0:0:
221,45,253354,5,8,0:0:0:0:
317,171,253487,1,0,0:0:0:0:
357,55,253620,1,8,0:0:0:0:
226,153,253753,1,0,0:0:0:0:
398,211,253887,1,0,0:0:0:0:
267,288,254020,1,0,0:0:0:0:
465,359,254153,6,8,B|435:359|407:345|407:345|373:357|373:357|352:343|326:350,1,144,4|0,0:0|0:0,0:0:0:0:
317,171,254686,1,0,0:0:0:0:
422,56,254952,6,0,P|408:122|392:219,1,144,8|0,0:0|0:0,0:0:0:0:
322,40,255485,1,8,0:0:0:0:
190,305,255752,6,0,P|118:306|37:308,2,144
249,231,256418,1,0,0:0:0:0:
314,377,256551,5,8,0:0:0:0:
398,298,256684,1,0,0:0:0:0:
209,379,256817,2,0,P|171:375|132:377,1,72,0|0,0:0|0:0,0:0:0:0:
0,297,257084,2,0,P|38:301|77:299,1,72,8|0,0:0|0:0,0:0:0:0:
177,228,257350,6,0,P|123:232|71:300,1,144,4|0,0:0|0:0,0:0:0:0:
243,312,257883,1,0,0:0:0:0:
417,156,258149,6,0,P|412:206|397:299,2,144,8|0|8,0:0|0:0|0:0,0:0:0:0:
313,87,258949,6,0,P|245:67|191:118,1,144,4|0,0:0|0:0,0:0:0:0:
188,200,259348,1,0,0:0:0:0:
346,168,259482,2,0,L|426:154,1,72,0|0,0:0|0:0,0:0:0:0:
400,301,259748,5,8,0:0:0:0:
441,35,260014,1,0,0:0:0:0:
313,87,260281,1,8,0:0:0:0:
498,169,260547,6,0,P|491:237|487:327,1,144,4|0,0:0|0:0,0:0:0:0:
356,198,261080,1,0,0:0:0:0:
281,367,261347,2,0,P|223:363|124:371,1,144,8|0,0:0|0:0,0:0:0:0:
128,196,261879,1,8,0:0:0:0:
38,357,262146,6,0,P|21:297|0:237,2,125.999996154785,4|0|0,0:0|0:0|0:0,0:0:0:0:
110,305,262945,2,0,P|158:285|242:300,1,125.999996154785,8|0,0:0|0:0,0:0:0:0:
229,293,263345,1,0,0:0:0:0:
229,293,263478,1,8,0:0:0:0:
316,370,263744,6,0,P|371:365|459:368,1,125.999996154785,4|0,0:0|0:0,0:0:0:0:
447,277,264144,1,0,0:0:0:0:
447,277,264277,2,0,L|370:279,1,62.9999980773926,0|0,0:0|0:0,0:0:0:0:
297,244,264544,6,0,P|296:211|296:181,1,53.9999983520508,8|0,0:0|0:0,0:0:0:0:
291,30,264810,2,8,P|292:63|292:93,1,53.9999983520508,0|0,0:0|0:0,0:0:0:0:
418,139,265077,2,0,P|391:138|364:137,1,53.9999983520508,8|0,0:0|0:0,0:0:0:0:
230,137,265343,5,4,0:0:0:0:
48,303,267474,6,0,L|59:364,1,53.9999983520508,2|0,1:0|0:0,0:0:0:0:
146,331,268007,2,0,L|135:392,1,53.9999983520508,0|0,0:0|0:0,0:0:0:0:
231,342,268540,5,2,0:0:0:0:
305,310,268806,1,0,0:0:0:0:
365,364,269073,1,0,0:0:0:0:
443,343,269339,1,0,0:0:0:0:
313,256,269605,6,0,L|305:309,1,53.9999983520508
393,264,270138,2,0,P|391:228|382:207,1,53.9999983520508,0|0,0:0|0:0,0:0:0:0:
329,151,270671,5,2,0:0:0:0:
261,185,270938,1,0,0:0:0:0:
191,155,271204,1,0,0:0:0:0:
136,206,271470,1,0,0:0:0:0:
53,322,271737,6,0,L|46:266,1,53.9999983520508,2|0,1:0|0:0,0:0:0:0:
129,259,272270,2,0,L|136:203,1,53.9999983520508,0|0,0:0|0:0,0:0:0:0:
207,254,272803,5,2,0:0:0:0:
280,220,273069,1,0,0:0:0:0:
280,300,273335,1,0,0:0:0:0:
207,334,273601,1,0,0:0:0:0:
321,382,273868,6,0,P|357:376|381:379,1,53.9999983520508,0|0,0:0|0:0,0:0:0:0:
491,339,274401,2,0,P|464:333|437:334,1,53.9999983520508,0|0,0:0|0:0,0:0:0:0:
364,299,274934,5,2,0:0:0:0:
426,247,275200,1,0,0:0:0:0:
364,299,275467,1,0,0:0:0:0:
426,247,275733,1,0,0:0:0:0:
339,220,276000,6,0,L|349:166,1,53.9999983520508,2|0,1:0|0:0,0:0:0:0:
260,222,276533,2,0,L|269:169,1,53.9999983520508
188,166,277065,5,2,0:0:0:0:
121,203,277332,1,0,0:0:0:0:
58,161,277598,1,0,0:0:0:0:
117,114,277865,1,0,0:0:0:0:
35,20,278131,6,0,P|24:44|23:71,1,53.9999983520508
113,32,278664,2,0,L|168:33,1,53.9999983520508
237,72,279197,5,2,0:0:0:0:
308,38,279463,1,0,0:0:0:0:
384,62,279730,1,0,0:0:0:0:
457,29,279996,1,0,0:0:0:0:
501,160,280263,6,0,L|491:106,1,53.9999983520508,2|0,1:0|0:0,0:0:0:0:
417,140,280795,2,0,L|407:194,1,53.9999983520508
339,139,281328,6,0,P|305:135|276:139,1,53.9999983520508,2|0,0:0|0:0,0:0:0:0:
221,178,281861,1,0,0:0:0:0:
161,125,282128,1,0,0:0:0:0:
99,177,282394,6,0,L|112:248,1,72,2|0,0:0|0:0,0:0:0:0:
111,247,283460,1,2,0:0:0:0:
256,192,283993,12,0,285458,0:0:0:0:
58,238,286124,6,0,P|105:267|162:234,1,121.499996292114,4|0,0:0|0:0,0:0:0:0:
168,199,286390,1,8,0:0:0:0:
118,350,286523,1,0,0:0:0:0:
272,371,286656,2,0,P|315:368|352:367,1,80.9999975280763,2|8,0:0|0:0,0:0:0:0:
409,193,286923,1,8,0:0:0:0:
468,270,287056,1,0,0:0:0:0:
208,75,287189,6,0,P|217:125|245:153,1,80.9999975280763,2|0,0:0|0:0,0:0:0:0:
409,193,287456,2,0,P|400:143|372:115,1,80.9999975280763,8|0,0:0|0:0,0:0:0:0:
140,217,287722,2,0,P|148:278|165:362,1,121.499996292114,2|0,0:0|0:0,0:0:0:0:
188,366,287989,1,8,0:0:0:0:
262,221,288122,1,0,0:0:0:0:
15,158,288255,6,0,P|50:148|103:138,1,80.9999975280763,2|0,0:0|0:0,0:0:0:0:
275,31,288521,2,0,P|241:29|184:35,1,80.9999975280763,8|0,0:0|0:0,0:0:0:0:
54,60,288788,1,2,0:0:0:0:
162,245,288921,1,8,0:0:0:0:
189,111,289054,1,8,0:0:0:0:
7,177,289187,1,0,0:0:0:0:
251,251,289321,6,0,P|313:241|384:239,1,121.499996292114,2|0,0:0|0:0,0:0:0:0:
417,256,289587,1,8,0:0:0:0:
252,330,289720,1,0,0:0:0:0:
316,153,289854,1,2,0:0:0:0:
399,349,289987,1,8,0:0:0:0:
216,225,290120,1,8,0:0:0:0:
457,168,290254,1,0,0:0:0:0:
129,78,290387,6,0,P|171:37|230:42,1,121.499996292114,4|0,0:0|0:0,0:0:0:0:
258,72,290653,1,8,0:0:0:0:
94,190,290786,1,0,0:0:0:0:
317,123,290919,2,0,P|335:79|329:40,1,80.9999975280763,2|0,0:0|0:0,0:0:0:0:
232,245,291186,1,8,0:0:0:0:
117,71,291319,1,0,0:0:0:0:
27,300,291452,6,0,P|71:292|112:291,1,80.9999975280763,6|0,0:0|0:0,0:0:0:0:
257,372,291719,2,0,P|217:379|176:381,1,80.9999975280763,8|0,0:0|0:0,0:0:0:0:
218,231,291985,2,0,P|262:223|303:222,1,80.9999975280763,2|0,0:0|0:0,0:0:0:0:
448,303,292252,2,0,P|408:310|367:312,1,80.9999975280763,8|0,0:0|0:0,0:0:0:0:
178,111,292518,6,0,P|192:182|199:235,1,121.499996292114,6|0,0:0|0:0,0:0:0:0:
192,270,292784,1,8,0:0:0:0:
96,124,292917,1,0,0:0:0:0:
308,204,293051,2,0,P|357:214|394:197,1,80.9999975280763,6|0,0:0|0:0,0:0:0:0:
314,77,293317,2,0,P|265:67|228:84,1,80.9999975280763,8|0,0:0|0:0,0:0:0:0:
474,317,293584,6,0,P|479:236|491:127,1,161.999995056153,4|8,0:0|0:0,0:0:0:0:
377,283,293983,1,0,0:0:0:0:
377,283,294116,2,0,P|386:236|384:197,1,80.9999975280763,8|8,0:0|0:0,0:0:0:0:
255,212,294383,2,0,P|247:173|249:132,1,80.9999975280763,8|8,0:0|0:0,0:0:0:0:
43,200,294650,6,0,P|61:266|75:326,1,121.499996292114,4|0,0:0|0:0,0:0:0:0:
64,354,294916,1,8,0:0:0:0:
89,131,295049,1,0,0:0:0:0:
255,212,295182,2,0,P|214:209|157:215,1,80.9999975280763,2|8,0:0|0:0,0:0:0:0:
224,343,295449,1,8,0:0:0:0:
270,200,295582,1,0,0:0:0:0:
469,225,295715,6,0,P|471:195|479:144,1,80.9999975280763,2|0,0:0|0:0,0:0:0:0:
332,285,295981,2,0,P|330:315|321:365,1,80.9999975280763,8|0,0:0|0:0,0:0:0:0:
184,111,296248,2,0,P|243:83|303:106,1,121.499996292114,2|0,0:0|0:0,0:0:0:0:
323,126,296514,1,8,0:0:0:0:
105,188,296647,1,0,0:0:0:0:
383,73,296781,6,0,L|496:70,1,80.9999975280763,2|0,0:0|0:0,0:0:0:0:
286,201,297047,2,0,L|205:203,1,80.9999975280763,8|0,0:0|0:0,0:0:0:0:
31,207,297314,1,2,0:0:0:0:
199,219,297447,1,8,0:0:0:0:
80,369,297580,2,0,P|68:334|63:279,1,80.9999975280763,8|0,0:0|0:0,0:0:0:0:
268,57,297847,6,0,P|251:115|225:170,1,121.499996292114,2|0,0:0|0:0,0:0:0:0:
205,202,298113,1,8,0:0:0:0:
164,60,298246,1,0,0:0:0:0:
334,235,298379,1,2,0:0:0:0:
341,83,298512,1,8,0:0:0:0:
127,147,298646,1,8,0:0:0:0:
334,261,298779,1,0,0:0:0:0:
22,187,298912,6,0,P|14:126|10:66,1,121.499996292114,4|0,0:0|0:0,0:0:0:0:
36,33,299179,1,8,0:0:0:0:
144,164,299312,1,0,0:0:0:0:
344,57,299445,2,0,P|301:53|260:55,1,80.9999975280763,2|0,0:0|0:0,0:0:0:0:
237,215,299711,1,8,0:0:0:0:
164,60,299845,1,0,0:0:0:0:
439,237,299978,6,0,P|440:196|442:142,1,80.9999975280763,6|0,0:0|0:0,0:0:0:0:
293,279,300244,2,0,P|292:320|290:374,1,80.9999975280763,8|0,0:0|0:0,0:0:0:0:
248,176,300511,1,2,0:0:0:0:
420,341,300644,1,8,0:0:0:0:
142,356,300777,2,0,P|98:357|52:354,1,80.9999975280763,8|0,0:0|0:0,0:0:0:0:
172,40,301044,6,0,P|229:23|290:39,1,121.499996292114,4|0,0:0|0:0,0:0:0:0:
315,67,301310,1,8,0:0:0:0:
242,288,301443,1,8,0:0:0:0:
165,118,301576,1,6,0:0:0:0:
416,191,301710,1,8,0:0:0:0:
278,382,301843,2,0,P|241:384|170:382,1,80.9999975280763,8|0,0:0|0:0,0:0:0:0:
11,114,302109,6,0,P|20:195|29:276,1,161.999995056153,6|8,0:0|0:0,0:0:0:0:
28,275,302509,1,0,0:0:0:0:
126,208,302642,2,8,L|210:200,1,80.9999975280763,2|0,0:0|0:0,0:0:0:0:
242,288,302909,2,8,L|325:285,1,80.9999975280763,8|0,0:0|0:0,0:0:0:0:
464,121,303175,6,0,P|410:94|339:128,1,144,4|0,0:0|0:0,0:0:0:0:
339,127,303574,1,0,0:0:0:0:
399,241,303707,2,0,P|411:208|406:173,1,72
189,62,303974,2,0,L|341:56,2,144,8|2|8,0:0|0:0|0:0,0:0:0:0:
86,201,304773,6,0,P|99:269|111:347,2,144,4|0|0,0:0|0:0|0:0,0:0:0:0:
6,246,305439,1,0,0:0:0:0:
179,266,305572,2,0,L|256:257,1,72,8|0,0:0|0:0,0:0:0:0:
303,344,305839,2,0,L|379:330,1,72,2|0,0:0|0:0,0:0:0:0:
383,237,306105,2,0,L|460:228,1,72,8|0,0:0|0:0,0:0:0:0:
268,59,306372,6,0,P|215:52|103:64,1,144,2|8,0:0|0:0,0:0:0:0:
286,144,306771,2,0,P|343:112|355:33,1,144
164,138,307171,2,0,P|136:136|88:141,1,72,8|0,0:0|0:0,0:0:0:0:
237,276,307437,6,0,P|303:269|383:263,1,144,2|8,0:0|0:0,0:0:0:0:
259,363,307837,1,0,0:0:0:0:
259,363,307970,2,0,L|168:373,1,72,0|0,0:0|0:0,0:0:0:0:
92,285,308237,2,0,L|162:270,1,72,8|0,0:0|0:0,0:0:0:0:
389,191,308503,6,0,L|378:282,1,72,8|0,0:0|0:0,0:0:0:0:
303,147,308769,2,0,L|299:238,1,72,8|0,0:0|0:0,0:0:0:0:
212,112,309036,2,0,L|216:203,1,72,8|0,0:0|0:0,0:0:0:0:
371,333,309302,2,0,L|382:242,1,72,8|0,0:0|0:0,0:0:0:0:
471,90,309569,5,8,0:0:0:0:
360,22,309702,1,8,0:0:0:0:
335,150,309835,1,8,0:0:0:0:
224,82,309968,1,8,0:0:0:0:
229,265,310102,2,8,P|229:295|220:349,1,72,8|8,0:0|0:0,0:0:0:0:
77,274,310368,2,8,P|107:274|161:283,1,72,8|8,0:0|0:0,0:0:0:0:
30,346,310634,6,0,P|-5:294|13:222,1,125.999996154785,4|0,0:0|0:0,0:0:0:0:
90,181,311034,1,0,0:0:0:0:
148,279,311167,2,0,P|191:273|214:274,1,62.9999980773926
289,354,311434,6,0,P|246:360|223:359,1,62.9999980773926,8|0,0:0|0:0,0:0:0:0:
348,282,311700,1,2,0:0:0:0:
411,351,311833,1,0,0:0:0:0:
484,290,311967,2,0,P|506:258|508:225,1,62.9999980773926,8|0,0:0|0:0,0:0:0:0:
429,105,312233,6,0,P|428:168|432:231,2,125.999996154785,2|0|0,0:0|0:0|0:0,0:0:0:0:
341,208,312899,1,0,0:0:0:0:
272,121,313032,6,0,L|209:122,1,62.9999980773926,8|0,0:0|0:0,0:0:0:0:
242,211,313299,2,0,L|176:213,1,62.9999980773926,2|0,0:0|0:0,0:0:0:0:
71,124,313565,2,0,P|72:165|84:194,1,62.9999980773926,8|0,0:0|0:0,0:0:0:0:
191,309,313832,6,0,P|235:279|232:194,1,125.999996154785,2|0,0:0|0:0,0:0:0:0:
209,122,314231,1,0,0:0:0:0:
269,49,314365,2,0,P|304:44|339:47,1,62.9999980773926,0|0,0:0|0:0,0:0:0:0:
418,122,314631,6,0,L|412:184,1,62.9999980773926,8|0,0:0|0:0,0:0:0:0:
319,174,314897,2,0,L|324:236,1,62.9999980773926,2|0,0:0|0:0,0:0:0:0:
394,342,315164,2,0,L|400:280,1,62.9999980773926,8|0,0:0|0:0,0:0:0:0:
266,362,315430,6,0,P|204:352|135:361,2,125.999996154785,2|8|2,0:0|0:0|0:0,0:0:0:0:
180,278,316230,1,8,0:0:0:0:
31,301,316496,2,0,L|46:372,1,62.9999980773926,10|8,0:0|0:0,0:0:0:0:
100,260,316762,1,8,0:0:0:0:
36,192,316896,1,8,0:0:0:0:
205,112,317029,6,0,P|264:105|349:105,1,125.999996154785,4|0,0:0|0:0,0:0:0:0:
227,27,317428,1,0,0:0:0:0:
172,216,317562,2,0,P|124:212|87:216,1,62.9999980773926,0|0,0:0|0:0,0:0:0:0:
207,338,317828,6,0,P|249:272|347:304,1,188.999994232178,8|0,0:0|0:0,0:0:0:0:
392,371,318361,2,0,P|440:367|457:362,1,62.9999980773926,8|0,0:0|0:0,0:0:0:0:
445,222,318627,6,0,P|424:268|426:290,1,62.9999980773926,4|0,0:0|0:0,0:0:0:0:
507,279,318894,1,0,0:0:0:0:
358,204,319027,1,0,0:0:0:0:
260,283,319160,2,0,P|254:248|255:211,1,62.9999980773926,0|0,0:0|0:0,0:0:0:0:
352,141,319427,2,0,P|358:176|357:213,1,62.9999980773926,8|0,0:0|0:0,0:0:0:0:
327,336,319693,2,0,P|277:328|199:335,1,125.999996154785,2|8,0:0|0:0,0:0:0:0:
16,359,320226,6,0,P|-2:298|96:234,1,188.999994232178,4|0,0:0|0:0,0:0:0:0:
170,262,320759,2,0,P|184:225|183:201,1,62.9999980773926,0|0,0:0|0:0,0:0:0:0:
159,99,321025,5,8,0:0:0:0:
80,148,321158,1,0,0:0:0:0:
262,220,321292,2,0,L|334:216,1,62.9999980773926,2|0,0:0|0:0,0:0:0:0:
358,301,321558,2,0,L|295:298,1,62.9999980773926,8|0,0:0|0:0,0:0:0:0:
189,348,321825,6,0,P|159:337|126:339,1,62.9999980773926,6|0,0:0|0:0,0:0:0:0:
128,338,322024,1,0,0:0:0:0:
128,338,322091,1,8,0:0:0:0:
34,361,322224,2,0,P|24:318|22:297,2,62.9999980773926,8|8|0,0:0|0:0|0:0,0:0:0:0:
101,252,322624,5,8,0:0:0:0:
80,148,322757,1,8,0:0:0:0:
101,252,322890,1,8,0:0:0:0:
175,184,323023,2,0,P|239:173|260:182,1,62.9999980773926,0|0,0:0|0:0,0:0:0:0:
303,232,323290,1,0,0:0:0:0:
488,135,323423,6,0,P|431:132|340:143,1,125.999996154785,4|0,0:0|0:0,0:0:0:0:
473,209,323823,1,0,0:0:0:0:
392,56,323956,2,0,P|361:57|311:67,1,62.9999980773926,0|0,0:0|0:0,0:0:0:0:
273,267,324222,6,0,P|265:225|272:124,2,125.999996154785,8|2|8,0:0|0:0|0:0,0:0:0:0:
131,303,325022,2,0,P|95:297|1:309,1,125.999996154785,2|0,0:0|0:0,0:0:0:0:
38,220,325421,1,0,0:0:0:0:
96,384,325555,2,0,L|168:384,1,62.9999980773926,0|0,0:0|0:0,0:0:0:0:
212,316,325821,6,0,L|283:313,1,62.9999980773926,8|0,0:0|0:0,0:0:0:0:
378,375,326087,2,0,P|388:328|381:300,1,62.9999980773926,2|0,0:0|0:0,0:0:0:0:
336,181,326354,2,0,P|326:228|333:256,1,62.9999980773926,8|0,0:0|0:0,0:0:0:0:
484,146,326620,6,0,P|491:85|377:57,1,188.999994232178,6|0,0:0|0:0,0:0:0:0:
307,114,327153,1,0,0:0:0:0:
236,60,327286,1,0,0:0:0:0:
216,228,327420,6,0,P|161:228|76:232,1,125.999996154785,8|2,0:0|0:0,0:0:0:0:
54,314,327819,1,0,0:0:0:0:
141,378,327952,2,0,P|174:381|208:373,1,62.9999980773926,8|0,0:0|0:0,0:0:0:0:
167,302,328219,5,2,0:0:0:0:
17,164,328485,2,0,B|41:105|-8:105|24:25,1,125.999996154785,8|0,0:0|0:0,0:0:0:0:
90,231,329018,5,4,0:0:0:0:
200,116,329285,2,0,L|213:194,1,62.9999980773926,8|0,0:0|0:0,0:0:0:0:
302,152,329551,2,0,L|289:230,1,62.9999980773926,0|0,0:0|0:0,0:0:0:0:
74,344,329817,6,0,B|118:313|118:313|265:313,1,188.999994232178
391,379,330350,2,0,L|317:379,1,62.9999980773926
302,152,330617,6,0,P|365:113|414:212,1,188.999994232178,8|0,0:0|0:0,0:0:0:0:
286,237,331150,1,8,0:0:0:0:
286,237,331416,6,0,P|220:236|145:240,2,125.999996154785,4|0|0,0:0|0:0|0:0,0:0:0:0:
63,265,332215,1,8,0:0:0:0:
63,265,332482,2,0,P|60:293|67:330,1,62.9999980773926,2|0,0:0|0:0,0:0:0:0:
160,238,332748,2,0,P|165:207|162:175,1,62.9999980773926,8|0,0:0|0:0,0:0:0:0:
10,95,333015,6,0,B|105:132|106:47|214:82,1,188.999994232178,6|0,0:0|0:0,0:0:0:0:
279,42,333547,2,0,P|255:7|227:-6,1,62.9999980773926,0|0,0:0|0:0,0:0:0:0:
214,168,333814,6,0,P|226:219|238:304,1,125.999996154785,2|0,0:0|0:0,0:0:0:0:
124,195,334347,1,0,0:0:0:0:
304,125,334613,5,2,0:0:0:0:
375,175,334746,2,0,L|369:219,2,31.4999990386963,0|0|0,0:0|0:0|0:0,0:0:0:0:
451,123,335013,1,0,0:0:0:0:
393,41,335146,2,0,P|372:36|319:39,1,62.9999980773926,0|0,0:0|0:0,0:0:0:0:
241,129,335412,6,0,P|273:131|304:125,1,62.9999980773926,2|0,0:0|0:0,0:0:0:0:
240,40,335679,1,0,0:0:0:0:
149,128,335812,1,0,0:0:0:0:
106,57,335945,1,0,0:0:0:0:
88,71,336212,5,4,0:0:0:0:
