osu file format v14

[General]
AudioFilename: audio.mp3
AudioLeadIn: 0
PreviewTime: 94678
Countdown: 0
SampleSet: Soft
StackLeniency: 0.7
Mode: 0
LetterboxInBreaks: 0
WidescreenStoryboard: 1

[Editor]
Bookmarks: 11920,32790,48442,69312,95399,116268,137138
DistanceSpacing: 1
BeatDivisor: 4
GridSize: 16
TimelineZoom: 1

[Metadata]
Title:Pretender (Short Ver.)
TitleUnicode:Pretender (Short Ver.)
Artist:cillia
ArtistUnicode:cillia
Creator:Rizen
Version:Normal
Source:コンフィデンスマンJP ーロマンス編ー
Tags:moph collaboration collab kyaami cover japanese pop official hige dandism ohd Official髭男dism traveler confidence man jp the movie jpop j-pop harumia Ryo.N
BeatmapID:2390387
BeatmapSetID:1144729

[Difficulty]
HPDrainRate:4
CircleSize:3.7
OverallDifficulty:5.5
ApproachRate:6.6
SliderMultiplier:1.8
SliderTickRate:1

[Events]
//Background and Video events
0,0,"bg.jpg",0,0
//Break Periods
//Storyboard Layer 0 (Background)
//Storyboard Layer 1 (Fail)
//Storyboard Layer 2 (Pass)
//Storyboard Layer 3 (Foreground)
//Storyboard Layer 4 (Overlay)
//Storyboard Sound Samples

[TimingPoints]
11852,652.173913043478,4,2,1,70,1,0
32721,-133.333333333333,4,2,1,40,0,0
48373,-117.647058823529,4,2,1,50,0,0
69243,-117.647058823529,4,2,1,60,0,0
93047,-117.647058823529,4,2,1,65,0,0
93373,-117.647058823529,4,2,1,70,0,0
93699,-117.647058823529,4,2,1,75,0,0
94025,-117.647058823529,4,2,1,80,0,0
95330,-100,4,2,1,70,0,0
137150,-100,4,2,1,30,0,0
139351,-100,4,2,1,5,0,0

[Colours]
Combo1 : 243,163,232
Combo2 : 179,114,49
Combo3 : 21,166,104
Combo4 : 241,154,37

[HitObjects]
53,269,11852,6,0,L|152:262,1,90,6|2,1:2|0:2,0:0:0:0:
190,338,12504,2,0,P|251:352|332:298,1,135,8|2,0:2|1:2,0:0:0:0:
295,188,13482,1,2,1:2:0:0:
380,218,13808,2,0,L|477:209,1,90,10|2,0:2|0:2,0:0:0:0:
502,126,14460,6,0,L|412:117,1,90,2|0,1:2|0:2,0:0:0:0:
378,33,15112,2,0,P|300:20|258:56,1,135,8|2,0:2|1:2,0:0:0:0:
191,169,16091,1,2,1:2:0:0:
130,104,16417,2,0,L|28:120,1,90,10|2,0:2|0:2,0:0:0:0:
7,201,17069,6,0,P|-3:238|27:312,1,90,2|2,1:2|0:2,0:0:0:0:
67,355,17721,2,0,L|242:337,1,135,8|2,0:2|1:2,0:0:0:0:
334,319,18699,1,2,1:2:0:0:
417,353,19025,2,0,L|467:345,2,45,10|2|2,0:2|0:2|0:2,0:0:0:0:
404,263,19678,6,0,L|417:155,1,90,2|0,1:2|0:2,0:0:0:0:
465,99,20330,2,0,P|417:83|338:132,1,135,8|2,0:2|1:2,0:0:0:0:
301,244,21308,1,2,1:2:0:0:
217,215,21634,6,0,P|193:221|165:247,1,45,8|8,0:2|0:2,0:0:0:0:
161,274,21960,2,0,P|164:293|190:320,1,45,8|8,0:2|0:2,0:0:0:0:
214,342,22286,6,0,L|324:332,1,90,6|2,1:2|0:2,0:0:0:0:
383,375,22938,2,0,B|395:313|395:313|392:302|392:302|407:227,1,135,8|2,0:2|1:2,0:0:0:0:
422,108,23917,1,2,1:2:0:0:
338,140,24243,2,0,L|244:117,1,90,10|2,0:2|0:2,0:0:0:0:
231,31,24895,6,0,P|186:32|151:57,1,90,2|0,1:2|0:2,0:0:0:0:
149,147,25547,2,0,P|176:179|171:296,1,135,8|2,0:2|1:2,0:0:0:0:
53,303,26525,1,2,1:2:0:0:
104,376,26851,2,0,L|200:355,1,90,10|2,0:2|0:2,0:0:0:0:
267,310,27504,6,0,L|368:335,1,90,2|2,1:2|0:2,0:0:0:0:
439,361,28156,2,0,B|434:296|434:296|424:289|424:289|418:226,1,135,8|2,0:2|1:2,0:0:0:0:
387,101,29134,1,2,1:2:0:0:
450,36,29460,2,0,P|471:25|510:22,2,45,10|2|2,0:2|0:2|0:2,0:0:0:0:
387,101,30112,6,0,P|335:100|296:70,1,90,2|0,1:2|0:2,0:0:0:0:
227,32,30765,2,0,P|159:23|97:63,1,135,8|2,0:2|1:2,0:0:0:0:
67,185,31743,1,2,1:2:0:0:
156,189,32069,6,0,P|174:205|186:242,1,45,8|8,0:2|0:2,0:0:0:0:
194,266,32395,2,0,P|189:287|175:304,1,45,8|8,0:2|0:2,0:0:0:0:
146,323,32721,5,4,1:2:0:0:
384,318,35330,5,2,0:2:0:0:
370,193,36634,1,2,0:2:0:0:
258,265,37938,1,2,0:2:0:0:
98,240,40547,5,2,0:2:0:0:
183,95,43156,2,0,P|204:157|180:218,1,135.000005149842,2|0,0:2|0:2,0:0:0:0:
12,256,44460,1,0,0:2:0:0:
85,196,44786,1,0,0:2:0:0:
188,315,45601,1,0,0:2:0:0:
188,315,45765,6,0,B|248:336|248:336|317:320,2,135.000005149842,2|0|2,0:2|0:0|0:2,0:0:0:0:
257,193,47721,1,2,0:2:0:0:
91,99,48373,6,0,B|82:166|82:166|91:181|91:181|81:252,1,153.000002918243,6|2,1:2|3:2,0:0:0:0:
36,353,49515,2,0,P|85:327|163:351,1,114.750002188683,0|2,1:2|1:2,0:0:0:0:
205,377,50330,1,2,3:2:0:0:
281,373,50656,1,2,0:2:0:0:
330,314,50982,6,0,B|320:257|320:257|338:233|338:233|323:162,1,153.000002918243,0|0,1:2|3:2,0:0:0:0:
346,17,52286,2,0,L|268:27,1,76.5000014591217,2|2,0:2|1:2,0:0:0:0:
217,82,52938,2,0,L|139:72,1,76.5000014591217,0|2,3:2|0:2,0:0:0:0:
64,63,53591,6,0,L|78:227,1,153.000002918243,0|0,1:2|3:2,0:0:0:0:
38,323,54732,2,0,P|93:303|173:328,1,114.750002188683,2|2,1:2|1:2,0:0:0:0:
206,360,55547,1,2,3:2:0:0:
351,312,56199,6,0,B|390:329|405:362|405:362|409:323|435:292,1,153.000002918243,2|2,1:2|3:2,0:0:0:0:
509,203,57341,2,0,L|390:190,1,114.750002188683,2|2,1:2|1:2,0:0:0:0:
318,181,58156,1,0,3:2:0:0:
349,31,58808,6,0,B|311:26|270:51|305:73|258:101|202:89,1,153.000002918243,2|2,1:2|3:2,0:0:0:0:
109,53,59949,2,0,P|138:93|129:164,1,114.750002188683,2|2,1:2|1:2,0:0:0:0:
68,195,60765,1,2,3:2:0:0:
220,208,61417,6,0,B|207:269|207:269|221:295|221:295|205:361,1,153.000002918243,2|0,1:2|3:2,0:0:0:0:
312,309,62558,2,0,P|371:297|425:333,1,114.750002188683,2|2,1:2|1:2,0:0:0:0:
472,374,63373,1,2,3:2:0:0:
426,228,64025,6,0,L|452:56,1,153.000002918243,2|2,1:2|3:2,0:0:0:0:
354,11,65167,2,0,B|325:86|325:86|343:117,1,114.750002188683,0|0,1:2|1:2,0:0:0:0:
328,190,65982,2,0,P|288:204|237:191,1,76.5000014591217,2|2,3:2|0:2,0:0:0:0:
191,156,66634,6,0,L|32:136,1,153.000002918243,0|0,1:2|3:2,0:0:0:0:
2,245,67775,2,0,B|82:256|82:256|107:290,1,114.750002188683,0|0,1:2|1:2,0:0:0:0:
129,355,68591,1,0,3:2:0:0:
244,255,69243,6,0,L|320:263,1,76.5000014591217,6|0,1:2|0:2,0:0:0:0:
384,304,69895,1,8,0:2:0:0:
335,363,70221,2,0,L|258:354,1,76.5000014591217,2|2,1:2|1:2,0:0:0:0:
188,382,70873,1,0,0:2:0:0:
113,363,71199,1,10,0:2:0:0:
77,295,71525,2,0,L|73:256,1,38.2500007295609,2|0,1:2|0:0,0:0:0:0:
56,223,71851,6,0,P|92:234|130:231,1,76.5000014591217,2|0,0:2|0:2,0:0:0:0:
184,177,72504,1,8,0:2:0:0:
208,110,72830,1,0,1:2:0:0:
208,110,72993,1,0,0:2:0:0:
208,110,73156,2,0,L|212:33,1,76.5000014591217,2|0,1:2|0:2,0:0:0:0:
286,11,73808,1,10,0:2:0:0:
354,44,74134,1,2,1:2:0:0:
428,28,74460,6,0,P|424:65|407:99,1,76.5000014591217,2|0,0:2|0:2,0:0:0:0:
379,125,74949,1,0,0:0:0:0:
379,125,75112,2,0,L|303:133,1,76.5000014591217,8|2,0:2|1:2,0:0:0:0:
266,122,75601,2,0,L|275:197,1,76.5000014591217,0|0,3:2|0:0,0:0:0:0:
294,230,76091,1,0,0:2:0:0:
237,281,76417,1,10,0:2:0:0:
163,259,76743,1,2,1:2:0:0:
141,185,77069,5,2,0:2:0:0:
197,133,77395,2,0,L|189:56,2,76.5000014591217,2|10|2,1:2|0:2|0:2,0:0:0:0:
278,161,78373,1,0,3:2:0:0:
278,161,78536,1,0,3:2:0:0:
278,161,78699,2,0,L|284:123,2,38.2500007295609,2|0|14,1:2|1:2|0:2,0:0:0:0:
293,243,79351,1,2,1:2:0:0:
38,69,80330,5,8,0:2:0:0:
38,69,80493,2,0,L|75:63,1,38.2500007295609,2|2,0:2|1:2,0:0:0:0:
139,106,80982,2,0,L|129:181,1,76.5000014591217,2|0,1:2|0:2,0:0:0:0:
75,236,81634,1,10,0:2:0:0:
100,308,81960,2,0,L|102:346,1,38.2500007295609,2|0,1:2|0:0,0:0:0:0:
132,370,82286,6,0,P|169:364|203:346,1,76.5000014591217,2|0,0:2|0:2,0:0:0:0:
238,278,82938,2,0,L|232:240,2,38.2500007295609,8|0|2,0:2|0:2|1:2,0:0:0:0:
271,306,83428,1,0,3:2:0:0:
271,306,83591,2,0,P|306:318|344:319,1,76.5000014591217,2|0,1:2|0:2,0:0:0:0:
395,376,84243,1,10,0:2:0:0:
468,355,84569,1,2,1:2:0:0:
493,282,84895,6,0,L|486:205,1,76.5000014591217,2|0,0:2|0:2,0:0:0:0:
464,174,85384,2,0,L|467:135,1,38.2500007295609,0|8,0:2|0:2,0:0:0:0:
391,150,85873,1,2,1:2:0:0:
391,150,86036,1,0,3:2:0:0:
391,150,86199,2,0,P|353:146|317:131,1,76.5000014591217,2|0,1:2|0:2,0:0:0:0:
245,157,86851,2,0,P|242:120|257:85,1,76.5000014591217,10|2,0:2|1:2,0:0:0:0:
235,53,87341,6,0,L|349:45,1,114.750002188683,2|2,1:2|1:2,0:0:0:0:
425,36,88156,2,0,L|421:74,1,38.2500007295609,10|10,0:2|0:2,0:0:0:0:
458,97,88482,1,6,1:2:0:0:
458,97,88645,2,0,L|465:211,1,114.750002188683,0|0,1:2|1:2,0:0:0:0:
488,284,89460,2,0,P|469:288|450:285,1,38.2500007295609,8|8,0:3|0:3,0:0:0:0:
415,270,89786,2,0,P|396:266|377:271,1,38.2500007295609,4|4,0:3|0:3,0:0:0:0:
344,290,90112,6,0,P|270:286|233:223,1,153.000002918243,6|2,1:2|1:2,0:0:0:0:
87,176,91417,2,0,P|160:172|197:109,1,153.000002918243,2|2,1:2|1:2,0:0:0:0:
311,6,92721,6,0,L|304:82,1,76.5000014591217,2|2,1:2|1:2,0:0:0:0:
380,74,93373,2,0,L|373:150,1,76.5000014591217,2|2,1:2|1:2,0:0:0:0:
450,149,94025,2,0,L|443:225,1,76.5000014591217,2|2,1:2|1:2,0:0:0:0:
218,376,95330,5,4,1:2:0:0:
286,318,95656,2,0,L|389:346,2,90,2|10|2,0:2|0:2|1:2,0:0:0:0:
199,293,96634,1,0,0:2:0:0:
121,339,96960,2,0,P|109:291|123:245,1,90,2|10,1:2|0:2,0:0:0:0:
191,199,97612,1,2,1:2:0:0:
106,167,97938,6,0,P|73:129|75:74,1,90,6|0,1:2|0:2,0:0:0:0:
101,57,98428,1,2,0:2:0:0:
101,57,98591,2,0,P|149:47|196:76,1,90,10|2,0:2|0:2,0:0:0:0:
211,104,99080,1,2,1:2:0:0:
211,104,99243,2,0,L|272:86,1,45,2|2,0:2|0:2,0:0:0:0:
296,75,99569,1,2,1:2:0:0:
381,45,99895,1,8,0:2:0:0:
453,116,100221,1,0,0:2:0:0:
453,116,100384,1,2,0:2:0:0:
453,116,100547,6,0,P|458:162|432:208,1,90,6|0,1:2|0:2,0:0:0:0:
403,225,101036,1,2,0:2:0:0:
403,225,101199,2,0,P|398:271|424:317,1,90,10|2,0:2|0:2,0:0:0:0:
446,349,101688,1,2,1:2:0:0:
446,349,101851,2,0,L|381:352,1,45,2|2,0:2|0:2,0:0:0:0:
356,356,102178,1,2,1:2:0:0:
289,295,102504,1,8,0:2:0:0:
176,367,102993,1,2,0:2:0:0:
176,367,103156,6,0,L|62:377,1,90,6|0,1:2|0:2,0:0:0:0:
52,354,103645,1,2,0:2:0:0:
52,354,103808,2,0,P|31:298|56:256,1,90,10|2,0:2|0:2,0:0:0:0:
63,233,104297,1,2,1:2:0:0:
63,233,104460,2,0,L|123:226,1,45,2|2,0:2|0:2,0:0:0:0:
152,227,104786,1,2,1:2:0:0:
141,137,105112,2,0,P|126:98|148:42,1,90,10|2,0:2|0:2,0:0:0:0:
176,27,105601,1,2,3:2:0:0:
176,27,105765,6,0,B|244:38|244:38|256:74|256:74|342:87,1,180,6|8,1:2|0:2,0:0:0:0:
411,49,106743,2,0,P|417:69|412:119,1,45,2|0,0:2|1:2,0:0:0:0:
415,137,107069,2,0,L|510:152,1,90,2|2,0:2|1:2,0:0:0:0:
493,240,107721,2,0,L|398:225,1,90,10|2,0:2|0:2,0:0:0:0:
366,246,108210,1,0,0:2:0:0:
366,246,108373,6,0,B|344:286|344:286|371:341,1,90,4|2,1:2|0:2,0:0:0:0:
286,370,109025,2,0,L|191:355,1,90,10|2,0:2|0:2,0:0:0:0:
155,354,109515,1,0,1:2:0:0:
155,354,109678,2,0,L|170:297,1,45,2|0,0:2|0:2,0:0:0:0:
177,266,110004,1,2,1:2:0:0:
128,190,110330,1,10,0:2:0:0:
51,229,110656,1,2,0:2:0:0:
51,229,110819,1,2,3:2:0:0:
51,229,110982,6,0,P|28:189|34:146,1,90,6|0,1:2|0:2,0:0:0:0:
81,70,111634,2,0,B|123:55|123:55|172:93,1,90,10|2,0:2|0:2,0:0:0:0:
196,107,112123,2,0,L|344:87,1,135,2|2,1:2|1:2,0:0:0:0:
385,17,112938,1,8,0:2:0:0:
448,80,113265,1,0,0:2:0:0:
387,146,113591,6,0,P|367:187|371:240,1,90,6|2,1:2|0:2,0:0:0:0:
392,274,114080,1,2,0:2:0:0:
392,274,114243,2,0,L|295:266,1,90,8|2,0:2|0:2,0:0:0:0:
257,262,114732,2,0,P|220:288|205:337,1,90,2|2,1:2|0:2,0:0:0:0:
203,373,115221,1,2,1:2:0:0:
113,360,115547,6,0,P|87:347|70:318,1,45,10|8,0:2|0:2,0:0:0:0:
67,290,115873,2,0,P|84:267|115:255,1,45,10|8,0:2|0:2,0:0:0:0:
142,254,116199,5,4,1:2:0:0:
196,182,116525,2,0,P|154:165|110:171,2,90,2|10|2,0:2|0:2|0:2,0:0:0:0:
228,213,117341,1,0,1:2:0:0:
359,184,117830,1,2,1:2:0:0:
442,218,118156,1,10,0:2:0:0:
442,307,118482,1,2,0:2:0:0:
353,326,118808,6,0,P|309:325|268:307,1,90,4|0,1:2|0:2,0:0:0:0:
230,327,119297,1,2,0:2:0:0:
230,327,119460,2,0,P|230:282|248:241,1,90,10|2,0:2|0:2,0:0:0:0:
282,213,119949,1,2,1:2:0:0:
282,213,120112,2,0,L|326:219,2,45,2|2|2,0:2|0:2|1:2,0:0:0:0:
240,133,120765,1,8,0:2:0:0:
150,144,121091,1,0,0:2:0:0:
130,231,121417,6,0,P|122:274|92:307,1,90,6|0,1:2|0:2,0:0:0:0:
52,319,121906,1,2,0:2:0:0:
52,319,122069,2,0,P|22:286|14:242,1,90,10|2,0:2|0:2,0:0:0:0:
32,203,122558,1,2,1:2:0:0:
32,203,122721,2,0,L|20:159,2,45,2|2|2,0:2|0:2|1:2,0:0:0:0:
109,157,123373,1,8,0:2:0:0:
65,78,123699,1,0,0:2:0:0:
139,27,124025,6,0,L|227:45,1,90,6|0,1:2|0:2,0:0:0:0:
274,37,124515,1,2,0:2:0:0:
274,37,124678,1,10,0:2:0:0:
353,98,125004,1,2,0:2:0:0:
353,98,125167,1,2,1:2:0:0:
353,98,125330,2,0,L|397:89,2,45,2|2|2,0:2|0:2|1:2,0:0:0:0:
314,179,125982,1,10,0:2:0:0:
228,173,126308,1,2,0:2:0:0:
228,173,126471,1,2,3:2:0:0:
228,173,126634,6,0,L|237:262,1,90,6|0,1:2|0:2,0:0:0:0:
290,335,127286,2,0,P|250:354|206:347,1,90,8|2,0:2|0:2,0:0:0:0:
171,319,127775,1,0,1:2:0:0:
171,319,127938,2,0,L|81:328,1,90,2|2,0:2|1:2,0:0:0:0:
68,239,128591,2,0,L|157:229,1,90,10|2,0:2|0:2,0:0:0:0:
234,182,129243,5,4,1:2:0:0:
264,266,129569,1,2,0:2:0:0:
353,278,129895,2,0,P|369:237|371:192,1,90,10|2,0:2|0:2,0:0:0:0:
351,156,130384,1,0,1:2:0:0:
351,156,130547,2,0,L|378:120,1,45,2|0,0:2|0:2,0:0:0:0:
407,85,130873,1,2,1:2:0:0:
377,0,131199,1,10,0:2:0:0:
311,62,131525,1,2,0:2:0:0:
229,34,131851,6,0,P|184:35|143:17,1,90,6|0,1:2|0:2,0:0:0:0:
102,37,132341,1,2,0:2:0:0:
102,37,132504,2,0,B|113:72|113:72|104:124,1,90,10|0,0:2|0:2,0:0:0:0:
80,162,132993,2,0,P|120:144|165:145,1,90,2|0,1:2|0:2,0:0:0:0:
206,164,133482,1,2,1:2:0:0:
288,129,133808,2,0,L|293:84,2,45,10|2|2,0:2|0:2|0:2,0:0:0:0:
350,193,134460,6,0,P|394:194|435:176,1,90,4|0,1:2|0:2,0:0:0:0:
488,249,135112,1,8,0:2:0:0:
419,307,135438,1,2,0:2:0:0:
419,307,135601,1,2,1:2:0:0:
419,307,135765,2,0,L|424:351,2,45,2|2|2,0:2|0:2|1:2,0:0:0:0:
325,267,136417,6,0,P|302:268|281:276,1,45,10|8,0:2|0:2,0:0:0:0:
243,300,136743,2,0,P|220:297|199:289,1,45,10|8,0:2|0:2,0:0:0:0:
162,264,137069,1,4,1:2:0:0:
256,192,137150,12,0,139351,0:2:0:0:
