osu file format v14

[General]
AudioFilename: audio.mp3
AudioLeadIn: 0
PreviewTime: 94678
Countdown: 0
SampleSet: Soft
StackLeniency: 0.7
Mode: 0
LetterboxInBreaks: 0
WidescreenStoryboard: 1

[Editor]
Bookmarks: 11920,32790,48442,69312,95399,116268,137138
DistanceSpacing: 1.2
BeatDivisor: 8
GridSize: 32
TimelineZoom: 1.8

[Metadata]
Title:Pretender (Short Ver.)
TitleUnicode:Pretender (Short Ver.)
Artist:cillia
ArtistUnicode:cillia
Creator:Rizen
Version:Insane
Source:コンフィデンスマンJP ーロマンス編ー
Tags:moph collaboration collab kyaami cover japanese pop official hige dandism ohd Official髭男dism traveler confidence man jp the movie jpop j-pop harumia Ryo.N
BeatmapID:2390025
BeatmapSetID:1144729

[Difficulty]
HPDrainRate:5
CircleSize:4
OverallDifficulty:7.5
ApproachRate:8.7
SliderMultiplier:2.6
SliderTickRate:1

[Events]
//Background and Video events
0,0,"bg.jpg",0,0
//Break Periods
//Storyboard Layer 0 (Background)
//Storyboard Layer 1 (Fail)
//Storyboard Layer 2 (Pass)
//Storyboard Layer 3 (Foreground)
//Storyboard Layer 4 (Overlay)
//Storyboard Sound Samples

[TimingPoints]
11852,652.173913043478,4,2,1,70,1,0
11852,-83.3333333333333,4,2,1,70,0,0
32721,-133.333333333333,4,2,1,40,0,0
48373,-133.333333333333,4,2,1,50,0,0
69243,-100,4,2,1,60,0,0
70466,-100,4,2,1,5,0,0
70547,-100,4,2,1,60,0,0
73074,-100,4,2,1,5,0,0
73156,-100,4,2,1,60,0,0
79270,-100,4,2,1,5,0,0
79351,-100,4,2,1,60,0,0
90112,-133.333333333333,4,2,1,60,0,0
93047,-133.333333333333,4,2,1,65,0,0
93373,-133.333333333333,4,2,1,70,0,0
93699,-133.333333333333,4,2,1,75,0,0
94025,-133.333333333333,4,2,1,80,0,0
95330,-83.3333333333333,4,2,1,70,0,0
139351,-83.3333333333333,4,2,1,5,0,0

[Colours]
Combo1 : 243,163,232
Combo2 : 179,114,49
Combo3 : 21,166,104
Combo4 : 241,154,37

[HitObjects]
100,202,11852,6,0,P|170:195|231:272,1,155.999995239258,6|2,1:2|0:2,0:0:0:0:
242,328,12341,1,2,0:2:0:0:
362,222,12504,2,0,P|315:220|285:197,1,77.999997619629,8|0,0:2|0:2,0:0:0:0:
310,52,12830,1,2,1:2:0:0:
310,52,12993,2,0,P|374:48|429:117,1,155.999995239258,2|0,1:2|0:2,0:0:0:0:
362,222,13482,2,0,P|395:202|433:203,1,77.999997619629,2|0,1:2|0:2,0:0:0:0:
507,337,13808,1,10,0:2:0:0:
441,379,13971,1,2,0:2:0:0:
365,358,14134,2,0,L|271:336,1,77.999997619629,2|2,0:2|0:2,0:0:0:0:
114,378,14460,6,0,P|173:356|170:259,1,155.999995239258,2|0,1:2|0:2,0:0:0:0:
132,210,14949,1,2,0:2:0:0:
275,192,15112,2,0,P|280:218|264:266,1,77.999997619629,8|0,0:2|0:0,0:0:0:0:
193,154,15438,1,2,1:2:0:0:
193,154,15601,2,0,L|163:-45,1,155.999995239258,2|0,1:2|0:2,0:0:0:0:
304,102,16091,2,0,B|321:71|321:71|306:25,1,77.999997619629,2|0,1:2|0:2,0:0:0:0:
87,20,16417,1,10,0:2:0:0:
39,81,16580,1,2,0:2:0:0:
90,139,16743,2,0,L|79:235,1,77.999997619629,2|2,0:2|0:2,0:0:0:0:
252,109,17069,6,0,L|256:267,1,155.999995239258,2|2,1:2|0:2,0:0:0:0:
191,308,17558,1,2,0:2:0:0:
362,384,17721,2,0,L|372:291,1,77.999997619629,8|0,0:2|0:2,0:0:0:0:
507,202,18047,1,2,1:2:0:0:
436,169,18210,2,0,L|414:0,1,155.999995239258,2|0,1:2|0:2,0:0:0:0:
311,142,18699,2,0,L|321:49,1,77.999997619629,2|0,1:2|0:2,0:0:0:0:
181,165,19025,1,10,0:2:0:0:
116,121,19188,1,2,0:2:0:0:
183,81,19351,2,0,L|173:-12,1,77.999997619629,2|2,0:2|0:2,0:0:0:0:
251,215,19678,6,0,L|242:292,1,77.999997619629,2|0,1:2|0:0,0:0:0:0:
175,332,20004,1,0,0:2:0:0:
237,378,20167,1,2,0:2:0:0:
332,267,20330,2,0,B|398:273|398:273|413:296|413:296|498:305,1,155.999995239258,8|2,0:2|1:2,0:0:0:0:
242,292,20819,2,0,B|180:298|180:298|165:321|165:321|99:327,1,155.999995239258,2|0,1:2|0:2,0:0:0:0:
3,214,21308,2,0,B|34:191|34:191|74:189,1,77.999997619629,2|0,1:2|0:2,0:0:0:0:
150,223,21634,5,8,0:2:0:0:
195,60,21797,1,8,0:2:0:0:
217,179,21960,5,8,0:2:0:0:
128,102,22123,1,8,0:2:0:0:
293,149,22286,6,0,P|363:142|408:55,1,155.999995239258,6|2,1:2|0:2,0:0:0:0:
366,9,22775,1,2,0:2:0:0:
376,176,22938,2,0,P|401:204|441:218,1,77.999997619629,8|0,0:2|0:2,0:0:0:0:
397,358,23265,1,2,1:2:0:0:
397,358,23428,2,0,P|353:296|278:295,1,155.999995239258,2|0,1:2|0:2,0:0:0:0:
148,367,23917,2,0,L|236:358,1,77.999997619629,2|0,1:2|0:2,0:0:0:0:
222,178,24243,1,10,0:2:0:0:
164,230,24406,1,2,0:2:0:0:
108,174,24569,2,0,L|20:165,1,77.999997619629,2|2,0:2|0:2,0:0:0:0:
9,351,24895,6,0,B|79:348|79:348|95:330|95:330|166:326,1,155.999995239258,2|0,1:2|0:2,0:0:0:0:
225,359,25384,1,2,0:2:0:0:
220,220,25547,2,0,L|312:242,1,77.999997619629,8|0,0:2|0:2,0:0:0:0:
443,364,25873,1,0,1:2:0:0:
508,321,26036,2,0,L|341:340,1,155.999995239258,2|0,1:2|0:2,0:0:0:0:
385,201,26525,2,0,L|477:223,1,77.999997619629,2|0,1:2|0:2,0:0:0:0:
507,54,26851,1,10,0:2:0:0:
443,9,27015,1,2,0:2:0:0:
389,66,27178,2,0,L|297:88,1,77.999997619629,2|2,0:2|0:2,0:0:0:0:
143,108,27504,6,0,B|205:119|205:119|221:144|221:144|295:161,1,155.999995239258,2|2,1:2|0:2,0:0:0:0:
313,84,27993,1,2,0:2:0:0:
364,248,28156,2,0,L|287:253,1,77.999997619629,8|0,0:2|0:2,0:0:0:0:
208,253,28482,1,2,1:2:0:0:
44,182,28645,2,0,P|109:208|98:315,1,155.999995239258,2|0,1:2|0:2,0:0:0:0:
31,384,29134,2,0,P|23:344|58:299,1,77.999997619629,2|0,1:2|0:2,0:0:0:0:
208,253,29460,1,10,0:2:0:0:
270,299,29623,1,2,0:2:0:0:
231,367,29786,2,0,L|153:357,1,77.999997619629,2|2,0:2|0:2,0:0:0:0:
303,226,30112,6,0,L|381:236,1,77.999997619629,2|0,1:2|0:0,0:0:0:0:
430,295,30438,1,0,0:2:0:0:
492,248,30601,1,2,0:2:0:0:
498,97,30765,2,0,B|403:88|461:158|350:151,1,155.999995239258,8|2,0:2|1:2,0:0:0:0:
231,19,31254,2,0,B|330:12|272:82|367:73,1,155.999995239258,2|0,1:2|0:2,0:0:0:0:
314,215,31743,2,0,P|283:170|287:129,1,77.999997619629,2|0,1:2|0:2,0:0:0:0:
292,66,32069,5,8,0:2:0:0:
164,165,32232,1,8,0:2:0:0:
282,148,32395,5,8,0:2:0:0:
180,83,32558,1,8,0:2:0:0:
88,203,32721,1,6,1:2:0:0:
107,275,33047,5,0,0:2:0:0:
175,314,33373,2,0,P|223:318|269:305,1,97.50000371933,0|0,0:2|0:2,0:0:0:0:
362,256,34025,2,0,L|356:354,2,97.50000371933,0|0|0,0:2|0:2|0:2,0:0:0:0:
208,159,35004,2,0,P|193:250|268:303,1,195.00000743866,2|2,0:2|0:2,0:0:0:0:
433,190,36145,5,0,0:2:0:0:
413,179,36308,1,0,0:2:0:0:
387,181,36471,1,0,0:2:0:0:
440,215,36634,2,0,L|434:117,1,97.50000371933,2|0,0:2|0:2,0:0:0:0:
380,35,37286,1,0,0:2:0:0:
274,210,37612,2,0,B|295:106|226:152|245:23,1,195.00000743866,2|2,0:2|0:2,0:0:0:0:
187,180,38917,5,0,0:2:0:0:
115,223,39080,2,0,P|66:218|25:193,1,97.50000371933,0|0,0:2|0:2,0:0:0:0:
187,180,39569,2,0,L|191:132,1,48.750001859665,0|0,0:2|0:2,0:0:0:0:
208,284,39895,1,0,0:2:0:0:
257,220,40058,2,0,B|215:206|215:206|115:222,1,146.250005578995,0|2,0:2|0:2,0:0:0:0:
280,350,41036,5,0,0:0:0:0:
297,356,41199,2,0,P|321:354|344:347,1,48.750001859665,0|0,0:2|0:2,0:0:0:0:
454,210,41525,1,0,0:2:0:0:
486,293,41688,2,0,P|437:296|393:277,1,97.50000371933,0|0,0:2|0:2,0:0:0:0:
334,213,42178,1,0,0:2:0:0:
334,213,43156,6,0,L|237:226,1,97.50000371933,2|0,0:2|0:2,0:0:0:0:
131,281,43645,1,0,0:2:0:0:
146,268,43808,2,0,L|159:171,1,97.50000371933,0|0,0:2|0:2,0:0:0:0:
0,196,44460,1,0,0:2:0:0:
60,39,44786,1,0,0:2:0:0:
158,171,45601,5,0,0:2:0:0:
272,109,45765,2,0,L|223:110,2,48.750001859665,2|2|2,0:2|0:2|0:2,0:0:0:0:
236,294,46743,5,0,0:2:0:0:
396,253,46906,2,0,P|351:233|303:237,1,97.50000371933,0|0,0:2|0:2,0:0:0:0:
236,294,47395,1,0,0:2:0:0:
439,327,47721,1,2,0:2:0:0:
370,139,48047,1,0,0:2:0:0:
143,262,48373,6,0,L|32:251,1,97.50000371933,6|2,1:2|0:2,0:0:0:0:
86,24,49025,2,0,P|121:51|129:117,1,97.50000371933,2|2,3:2|0:2,0:0:0:0:
46,253,49515,1,0,1:2:0:0:
2,185,49678,2,0,P|-2:164|8:130,1,48.750001859665,2|0,0:2|0:2,0:0:0:0:
201,151,50004,2,0,P|205:171|194:205,1,48.750001859665,2|0,1:2|0:2,0:0:0:0:
107,320,50330,2,0,P|155:292|217:301,1,97.50000371933,2|2,3:2|0:2,0:0:0:0:
257,339,50819,1,0,0:0:0:0:
396,375,50982,6,0,P|444:373|484:347,2,97.50000371933,0|2|0,1:2|0:2|3:2,0:0:0:0:
347,313,51797,1,2,0:2:0:0:
451,251,51960,2,0,L|463:193,1,48.750001859665,2|2,0:2|1:2,0:0:0:0:
326,190,52286,2,0,L|307:64,1,97.50000371933,2|2,0:2|1:2,0:0:0:0:
311,93,52938,2,0,P|335:103|374:108,1,48.750001859665,0|0,3:2|0:2,0:0:0:0:
249,45,53265,2,0,P|225:49|202:59,1,48.750001859665,2|0,0:2|0:0,0:0:0:0:
142,168,53591,6,0,P|93:168|31:128,1,97.50000371933,0|2,1:2|0:2,0:0:0:0:
50,147,54243,2,0,P|33:124|28:95,1,48.750001859665,0|0,3:2|0:0,0:0:0:0:
65,36,54569,1,2,0:2:0:0:
47,234,54732,2,0,L|34:342,1,97.50000371933,2|0,1:2|0:2,0:0:0:0:
145,220,55221,2,0,L|148:268,1,48.750001859665,2|0,1:2|0:2,0:0:0:0:
154,346,55547,1,2,3:2:0:0:
257,242,55710,2,0,L|244:350,1,97.50000371933,2|0,0:2|0:0,0:0:0:0:
391,381,56199,6,0,L|378:273,2,97.50000371933,2|0|2,1:2|0:0|3:2,0:0:0:0:
391,381,57015,1,0,0:2:0:0:
464,262,57178,1,2,0:2:0:0:
405,202,57341,2,0,P|402:164|419:104,1,97.50000371933,2|0,1:2|0:2,0:0:0:0:
344,21,57830,2,0,P|347:43|339:70,1,48.750001859665,2|0,1:2|0:0,0:0:0:0:
290,132,58156,1,0,3:2:0:0:
291,141,58319,1,0,0:0:0:0:
292,150,58482,1,0,0:0:0:0:
292,158,58645,1,0,0:0:0:0:
265,45,58808,6,0,P|248:26|227:16,1,48.750001859665,2|2,1:2|0:2,0:0:0:0:
128,147,59134,2,0,B|186:119|186:119|203:90,1,97.50000371933,2|2,0:2|3:2,0:0:0:0:
202,90,59786,1,2,0:2:0:0:
12,175,59949,2,0,B|70:203|70:203|87:232,1,97.50000371933,2|0,1:2|0:2,0:0:0:0:
183,338,60438,2,0,L|233:327,1,48.750001859665,2|0,1:2|0:0,0:0:0:0:
408,373,60765,2,0,L|281:354,1,97.50000371933,2|0,3:2|0:2,0:0:0:0:
311,358,61254,1,0,0:2:0:0:
465,317,61417,6,0,L|525:306,1,48.750001859665,2|2,1:2|0:2,0:0:0:0:
322,231,61743,2,0,L|223:250,1,97.50000371933,2|0,0:2|3:2,0:0:0:0:
390,294,62232,2,0,L|400:241,1,48.750001859665,2|2,0:2|0:2,0:0:0:0:
417,168,62558,1,2,1:2:0:0:
303,313,62721,6,0,P|306:336|321:355,1,48.750001859665,2|0,0:2|0:2,0:0:0:0:
498,271,63047,2,0,P|494:247|479:228,1,48.750001859665,2|0,1:2|0:2,0:0:0:0:
399,246,63373,1,2,3:2:0:0:
417,168,63536,1,2,0:2:0:0:
435,90,63699,1,2,0:2:0:0:
435,90,64025,6,0,B|326:85|374:168|260:163,1,195.00000743866,2|2,1:2|3:2,0:0:0:0:
264,163,65167,2,0,B|290:168|306:185|306:185|300:165|309:134,1,97.50000371933,0|0,1:2|0:0,0:0:0:0:
257,76,65656,2,0,B|236:61|236:61|239:90,1,48.750001859665,0|0,1:2|0:0,0:0:0:0:
264,163,65982,1,2,3:2:0:0:
264,163,66634,6,0,P|272:114|189:153,1,195.00000743866,0|0,1:2|3:2,0:0:0:0:
187,148,67775,6,0,P|215:177|217:255,1,97.50000371933,0|0,1:2|0:0,0:0:0:0:
313,249,68265,2,0,P|291:271|284:297,1,48.750001859665,0|0,1:2|0:0,0:0:0:0:
196,305,68591,2,0,P|217:327|224:353,1,48.750001859665,0|0,3:2|0:0,0:0:0:0:
227,352,68917,1,2,0:2:0:0:
229,361,69080,1,0,0:0:0:0:
103,375,69243,6,0,L|113:245,1,130,6|0,1:2|0:2,0:0:0:0:
168,48,69895,1,8,0:2:0:0:
31,185,70221,2,0,P|77:172|111:138,1,97.5,2|0,1:2|3:2,0:0:0:0:
116,118,70547,2,0,B|154:135|154:135|240:117,1,130,2|0,1:2|0:2,0:0:0:0:
401,148,71036,1,0,0:2:0:0:
336,79,71199,2,0,L|331:14,1,65,10|0,0:2|0:0,0:0:0:0:
258,214,71525,2,0,L|262:278,1,65,2|0,1:2|0:0,0:0:0:0:
461,283,71851,6,0,P|414:238|351:232,1,130,0|0,0:2|0:2,0:0:0:0:
185,342,72504,1,8,0:2:0:0:
8,242,72830,2,0,L|105:232,1,97.5,0|0,0:2|0:0,0:0:0:0:
94,251,73156,2,0,P|63:196|90:139,1,130,2|0,1:2|0:2,0:0:0:0:
243,108,73645,1,0,0:2:0:0:
158,64,73808,2,0,L|153:0,1,65,10|0,0:2|0:0,0:0:0:0:
271,225,74134,2,0,P|208:223|173:172,1,130,2|0,1:2|0:2,0:0:0:0:
77,369,74786,5,0,0:2:0:0:
42,280,74949,2,0,B|78:272|78:272|169:295,1,130,0|2,0:0|0:2,0:0:0:0:
311,253,75438,1,2,1:2:0:0:
456,329,75601,1,0,3:2:0:0:
456,329,75683,1,0,3:2:0:0:
456,329,75765,2,0,L|391:335,1,65,2|0,1:2|0:0,0:0:0:0:
320,239,76091,1,0,0:2:0:0:
329,224,76417,2,0,P|338:193|336:160,1,65,10|0,0:2|0:0,0:0:0:0:
195,145,76743,2,0,P|216:168|245:183,1,65,2|0,1:2|0:2,0:0:0:0:
282,33,77069,6,0,L|277:97,1,65,2|0,0:2|0:2,0:0:0:0:
112,217,77395,2,0,B|104:203|104:203|99:154,1,65,2|0,1:2|0:2,0:0:0:0:
233,246,77721,2,0,B|240:232|240:232|245:183,1,65,10|0,0:2|0:2,0:0:0:0:
74,337,78047,2,0,P|104:325|136:322,1,65,2|0,0:2|0:2,0:0:0:0:
303,332,78373,5,0,3:2:0:0:
233,246,78536,1,0,3:2:0:0:
396,184,78699,1,2,1:2:0:0:
401,292,78862,1,0,1:2:0:0:
291,156,79025,2,0,L|299:58,1,97.5,14|0,0:2|0:2,0:0:0:0:
317,53,79351,1,2,1:2:0:0:
317,53,80330,5,8,0:2:0:0:
337,154,80493,1,2,0:2:0:0:
226,94,80656,2,0,L|161:90,1,65,2|0,1:2|3:2,0:0:0:0:
100,33,80900,1,0,3:2:0:0:
100,33,80982,2,0,B|118:62|118:62|106:156,1,130,2|0,1:2|0:2,0:0:0:0:
32,219,81471,1,0,0:2:0:0:
185,204,81634,2,0,L|177:268,1,65,10|0,0:2|0:0,0:0:0:0:
57,367,81960,2,0,L|116:341,1,65,2|0,1:2|0:0,0:0:0:0:
332,377,82286,6,0,B|299:386|299:386|210:351,1,130,0|0,0:2|0:2,0:0:0:0:
185,204,82938,1,8,0:2:0:0:
304,304,83265,2,0,L|311:239,1,65,2|0,1:2|3:2,0:0:0:0:
261,181,83509,1,0,3:2:0:0:
261,181,83591,2,0,P|324:182|374:143,1,130,2|0,1:2|0:2,0:0:0:0:
404,51,84080,1,0,0:2:0:0:
453,189,84243,2,0,L|460:253,1,65,10|0,0:2|0:0,0:0:0:0:
293,95,84569,2,0,L|285:30,1,65,2|0,1:2|0:0,0:0:0:0:
261,181,84895,6,0,P|197:182|147:143,1,130,0|0,0:2|0:2,0:0:0:0:
124,42,85384,1,0,0:2:0:0:
60,183,85547,2,0,P|51:151|53:119,1,65,8|2,0:2|0:2,0:0:0:0:
135,244,85873,1,2,1:2:0:0:
17,326,86036,1,0,3:2:0:0:
17,326,86118,1,0,3:2:0:0:
17,326,86199,2,0,L|81:332,1,65,2|0,1:2|0:2,0:0:0:0:
194,371,86525,2,0,L|258:377,1,65,0|0,0:2|0:2,0:0:0:0:
402,280,86851,2,0,L|337:273,1,65,10|0,0:2|0:0,0:0:0:0:
157,227,87178,1,2,1:2:0:0:
245,92,87341,6,0,B|215:197|279:167|246:282,1,195,2|2,1:2|1:2,0:0:0:0:
331,137,88156,1,10,0:2:0:0:
350,287,88319,1,10,0:2:0:0:
157,227,88482,1,6,1:2:0:0:
308,216,88645,1,0,3:2:0:0:
308,216,88726,1,0,3:2:0:0:
308,216,88808,2,0,L|373:209,1,65,0|0,3:2|3:2,0:0:0:0:
452,276,89134,1,0,1:2:0:0:
378,67,89460,5,8,0:3:0:0:
287,51,89623,1,8,0:3:0:0:
219,81,89786,1,4,0:3:0:0:
192,125,89949,1,4,0:3:0:0:
190,154,90112,6,0,L|202:250,1,97.50000371933,6|0,1:2|0:2,0:0:0:0:
349,183,90765,2,0,L|336:279,1,97.50000371933,2|0,1:2|0:2,0:0:0:0:
146,323,91417,2,0,P|189:343|238:339,1,97.50000371933,2|0,1:2|0:2,0:0:0:0:
428,296,92069,2,0,P|384:275|335:279,1,97.50000371933,2|0,1:2|0:2,0:0:0:0:
418,117,92721,5,2,1:2:0:0:
400,199,93047,1,2,1:2:0:0:
251,67,93373,1,2,1:2:0:0:
259,194,93699,1,2,1:2:0:0:
18,132,94025,1,2,1:2:0:0:
72,325,94351,1,2,1:2:0:0:
72,325,95330,6,0,P|106:313|174:331,1,77.999997619629,4|0,1:2|0:0,0:0:0:0:
311,359,95656,2,0,P|272:363|235:350,1,77.999997619629,2|0,0:2|0:2,0:0:0:0:
116,201,95982,2,0,L|287:185,1,155.999995239258,10|2,0:2|0:2,0:0:0:0:
460,292,96471,2,0,B|395:334|395:334|372:245,1,155.999995239258,0|0,1:2|0:0,0:0:0:0:
375,257,96960,6,0,P|407:233|426:190,1,77.999997619629,2|0,1:2|0:2,0:0:0:0:
301,308,97286,2,0,P|306:347|334:385,1,77.999997619629,10|0,0:2|0:2,0:0:0:0:
296,227,97612,2,0,P|258:212|211:217,1,77.999997619629,2|0,0:2|0:2,0:0:0:0:
46,340,97938,6,0,P|86:338|127:234,1,155.999995239258,6|0,1:2|0:2,0:0:0:0:
88,167,98428,1,2,0:2:0:0:
50,348,98591,6,0,P|90:346|136:243,1,155.999995239258,10|2,0:2|0:2,0:0:0:0:
96,176,99080,1,2,1:2:0:0:
188,173,99243,5,2,0:2:0:0:
62,48,99406,1,2,0:2:0:0:
253,27,99569,2,0,P|289:32|334:58,1,77.999997619629,2|0,1:2|0:2,0:0:0:0:
397,209,99895,2,0,P|383:150|438:59,1,155.999995239258,8|0,0:2|0:2,0:0:0:0:
506,44,100384,1,2,0:2:0:0:
451,269,100547,6,0,B|387:258|387:258|378:234|378:234|301:225,1,155.999995239258,6|0,1:2|0:2,0:0:0:0:
227,217,101036,1,2,0:2:0:0:
444,277,101199,6,0,B|380:266|380:266|371:242|371:242|294:233,1,155.999995239258,10|2,0:2|0:2,0:0:0:0:
220,225,101688,1,2,1:2:0:0:
259,304,101851,5,2,0:2:0:0:
105,205,102015,1,2,0:2:0:0:
280,156,102178,2,0,L|298:62,1,77.999997619629,2|0,1:2|0:2,0:0:0:0:
92,49,102504,2,0,L|107:233,1,155.999995239258,8|0,0:2|0:2,0:0:0:0:
105,205,102993,1,2,0:2:0:0:
0,299,103156,6,0,B|33:266|95:283|104:319|104:319|83:336|82:358,1,155.999995239258,6|0,1:2|0:2,0:0:0:0:
85,343,103645,1,2,0:2:0:0:
280,249,103808,2,0,B|247:216|184:233|175:269|175:269|196:286|197:308,1,155.999995239258,10|2,0:2|0:2,0:0:0:0:
193,292,104297,1,2,1:2:0:0:
176,380,104460,5,2,0:2:0:0:
259,360,104623,1,2,0:2:0:0:
342,341,104786,1,2,1:2:0:0:
342,341,105112,6,0,L|425:359,1,77.999997619629,10|0,0:2|0:2,0:0:0:0:
494,317,105438,1,2,0:2:0:0:
379,219,105601,1,2,3:2:0:0:
512,78,105765,6,0,L|341:45,1,155.999995239258,6|0,1:2|0:2,0:0:0:0:
182,209,106417,2,0,B|248:249|248:249|265:168,1,155.999995239258,8|2,0:2|0:2,0:0:0:0:
264,171,106906,1,0,1:2:0:0:
197,57,107069,6,0,P|183:89|197:132,1,77.999997619629,2|0,0:2|0:2,0:0:0:0:
320,92,107395,2,0,P|311:54|280:31,1,77.999997619629,2|0,1:2|0:2,0:0:0:0:
268,174,107721,6,0,P|240:195|231:239,1,77.999997619629,10|0,0:2|0:2,0:0:0:0:
358,263,108047,2,0,P|368:226|352:191,1,77.999997619629,2|0,0:2|0:2,0:0:0:0:
315,350,108373,6,0,P|357:307|476:303,1,155.999995239258,4|2,1:2|0:2,0:0:0:0:
239,378,109025,2,0,L|163:359,1,77.999997619629,10|0,0:2|0:2,0:0:0:0:
85,382,109351,1,2,0:2:0:0:
174,230,109515,1,0,1:2:0:0:
95,264,109678,6,0,P|53:260|18:238,1,77.999997619629,2|0,0:2|0:2,0:0:0:0:
221,304,110004,2,0,P|238:342|236:383,1,77.999997619629,2|0,1:2|0:2,0:0:0:0:
194,148,110330,2,0,P|218:113|255:94,1,77.999997619629,10|0,0:2|0:2,0:0:0:0:
334,99,110656,1,2,0:2:0:0:
208,19,110819,1,2,3:2:0:0:
384,15,110982,6,0,L|361:185,1,155.999995239258,6|0,1:2|0:2,0:0:0:0:
284,204,111471,1,2,0:2:0:0:
467,269,111634,2,0,L|483:371,1,77.999997619629,10|0,0:2|0:0,0:0:0:0:
401,381,111960,1,2,0:2:0:0:
198,290,112123,2,0,P|194:213|303:264,1,233.999992858887,2|2,1:2|1:2,0:0:0:0:
277,327,112775,1,2,0:2:0:0:
479,346,112938,2,0,L|463:259,1,77.999997619629,8|0,0:2|0:0,0:0:0:0:
465,269,113265,1,0,0:2:0:0:
364,138,113428,1,2,0:2:0:0:
511,121,113591,6,0,B|448:117|448:117|423:141|423:141|352:138,1,155.999995239258,6|2,1:2|0:2,0:0:0:0:
308,73,114080,1,2,0:2:0:0:
248,269,114243,2,0,L|234:99,1,155.999995239258,8|2,0:2|0:2,0:0:0:0:
62,214,114732,2,0,L|76:44,1,155.999995239258,2|2,1:2|0:2,0:0:0:0:
9,278,115221,2,0,P|41:295|90:291,1,77.999997619629,2|0,1:2|0:2,0:0:0:0:
147,238,115547,5,10,0:2:0:0:
230,364,115710,1,8,0:2:0:0:
280,179,115873,5,10,0:2:0:0:
246,362,116036,1,8,0:2:0:0:
417,250,116199,6,0,B|439:176|439:176|416:100,1,155.999995239258,4|2,1:2|0:2,0:0:0:0:
338,42,116688,1,0,0:2:0:0:
279,179,116851,2,0,P|317:186|354:174,1,77.999997619629,10|0,0:2|0:2,0:0:0:0:
416,100,117178,1,2,0:2:0:0:
219,112,117341,6,0,B|179:100|168:56|168:56|143:92|102:85,1,155.999995239258,0|0,1:2|0:0,0:0:0:0:
11,203,117830,2,0,P|16:164|9:126,1,77.999997619629,2|0,1:2|0:2,0:0:0:0:
95,251,118156,2,0,P|118:220|132:183,1,77.999997619629,10|0,0:2|0:2,0:0:0:0:
150,340,118482,1,2,0:2:0:0:
150,340,118808,6,0,B|152:309|189:309|231:362|288:356,1,155.999995239258,4|0,1:2|0:2,0:0:0:0:
384,304,119297,1,2,0:2:0:0:
163,328,119460,2,0,B|165:297|202:297|244:350|301:344,1,155.999995239258,10|2,0:2|0:2,0:0:0:0:
398,287,119949,1,2,1:2:0:0:
274,181,120112,6,0,P|273:219|288:255,1,77.999997619629,2|2,0:2|0:2,0:0:0:0:
477,339,120438,2,0,P|491:303|491:264,1,77.999997619629,2|0,1:2|0:2,0:0:0:0:
359,126,120765,2,0,P|418:164|460:107,1,155.999995239258,8|0,0:2|0:2,0:0:0:0:
397,36,121254,1,2,0:2:0:0:
255,74,121417,6,0,B|225:92|225:92|105:77,1,155.999995239258,6|0,1:2|0:2,0:0:0:0:
13,45,121906,1,2,0:2:0:0:
262,90,122069,2,0,B|232:108|232:108|112:93,1,155.999995239258,10|2,0:2|0:2,0:0:0:0:
20,61,122558,1,2,1:2:0:0:
104,193,122721,6,0,B|110:233|110:233|97:268,1,77.999997619629,2|2,0:2|0:2,0:0:0:0:
223,373,123047,2,0,B|217:333|217:333|229:297,1,77.999997619629,2|0,1:2|0:2,0:0:0:0:
445,293,123373,2,0,P|385:340|308:339,1,155.999995239258,8|0,0:2|0:2,0:0:0:0:
308,339,123862,1,2,0:2:0:0:
306,152,124025,6,0,B|355:185|357:255|357:255|368:220,1,155.999995239258,6|0,1:2|0:2,0:0:0:0:
368,220,124515,1,2,0:2:0:0:
461,96,124678,2,0,B|487:150|453:210|453:210|480:186,1,155.999995239258,10|2,0:2|0:2,0:0:0:0:
480,186,125167,1,2,1:2:0:0:
461,96,125330,5,2,0:2:0:0:
366,81,125493,1,2,0:2:0:0:
271,66,125656,1,2,1:2:0:0:
271,66,125982,2,0,L|193:77,1,77.999997619629,10|0,0:2|0:2,0:0:0:0:
124,32,126308,1,2,0:2:0:0:
134,199,126471,1,2,3:2:0:0:
0,112,126634,6,0,B|44:97|44:97|30:205,1,155.999995239258,6|0,1:2|0:2,0:0:0:0:
164,292,127286,2,0,B|120:307|120:307|133:198,1,155.999995239258,8|2,0:2|0:2,0:0:0:0:
133,198,127775,1,0,1:2:0:0:
235,112,127938,6,0,P|273:113|308:130,1,77.999997619629,2|0,0:2|0:2,0:0:0:0:
462,71,128265,2,0,P|425:84|397:111,1,77.999997619629,2|0,1:2|0:2,0:0:0:0:
263,251,128591,2,0,P|299:237|327:210,1,77.999997619629,10|0,0:2|0:2,0:0:0:0:
490,209,128917,2,0,P|451:208|416:191,1,77.999997619629,2|0,0:2|0:2,0:0:0:0:
338,55,129243,6,0,L|371:207,1,155.999995239258,4|2,1:2|0:2,0:0:0:0:
235,112,129895,2,0,L|226:189,1,77.999997619629,10|0,0:2|0:2,0:0:0:0:
64,289,130221,1,2,0:2:0:0:
142,156,130384,1,0,1:2:0:0:
282,230,130547,6,0,P|250:208|213:198,1,77.999997619629,2|0,0:2|0:2,0:0:0:0:
1,333,130873,2,0,P|36:315|64:289,1,77.999997619629,2|0,1:2|0:2,0:0:0:0:
59,37,131199,2,0,P|57:76|67:114,1,77.999997619629,10|0,0:2|0:2,0:0:0:0:
158,271,131525,1,2,0:2:0:0:
158,271,131851,6,0,B|234:256|262:297|312:281,1,155.999995239258,6|0,1:2|0:2,0:0:0:0:
461,236,132341,1,2,0:2:0:0:
285,206,132504,2,0,B|268:280|268:280|289:357,1,155.999995239258,10|0,0:2|0:2,0:0:0:0:
359,133,132993,6,0,P|424:202|445:109,1,233.999992858887,2|2,1:2|1:2,0:0:0:0:
444,108,133645,1,2,0:2:0:0:
372,234,133808,2,0,L|377:311,1,77.999997619629,10|2,0:2|0:2,0:0:0:0:
279,128,134134,2,0,L|284:205,1,77.999997619629,2|0,0:2|0:2,0:0:0:0:
138,233,134460,6,0,P|166:298|235:281,2,155.999995239258,4|0|8,1:2|0:2|0:2,0:0:0:0:
279,128,135438,1,2,0:2:0:0:
236,279,135601,1,2,1:2:0:0:
151,146,135765,6,0,L|155:68,1,77.999997619629,2|2,0:2|0:2,0:0:0:0:
40,193,136091,2,0,L|36:115,1,77.999997619629,2|0,1:2|0:2,0:0:0:0:
43,316,136417,5,10,0:2:0:0:
234,236,136580,1,8,0:2:0:0:
40,193,136743,1,10,0:2:0:0:
175,350,136906,1,8,0:2:0:0:
151,146,137069,1,4,1:2:0:0:
256,192,137150,12,0,139351,0:2:0:0:
