osu file format v14

[General]
AudioFilename: audio.mp3
AudioLeadIn: 0
PreviewTime: 94678
Countdown: 0
SampleSet: Soft
StackLeniency: 0.7
Mode: 0
LetterboxInBreaks: 0
WidescreenStoryboard: 1

[Editor]
Bookmarks: 11920,32790,48442,69312,95399,116268,137138
DistanceSpacing: 1.2
BeatDivisor: 8
GridSize: 16
TimelineZoom: 2.599999

[Metadata]
Title:Pretender (Short Ver.)
TitleUnicode:Pretender (Short Ver.)
Artist:cillia
ArtistUnicode:cillia
Creator:Rizen
Version:Extra
Source:コンフィデンスマンJP ーロマンス編ー
Tags:moph collaboration collab kyaami cover japanese pop official hige dandism ohd Official髭男dism traveler confidence man jp the movie jpop j-pop harumia Ryo.N
BeatmapID:2390023
BeatmapSetID:1144729

[Difficulty]
HPDrainRate:6
CircleSize:4.2
OverallDifficulty:8.2
ApproachRate:9.3
SliderMultiplier:2.8
SliderTickRate:1

[Events]
//Background and Video events
0,0,"bg.jpg",0,0
//Break Periods
//Storyboard Layer 0 (Background)
//Storyboard Layer 1 (Fail)
//Storyboard Layer 2 (Pass)
//Storyboard Layer 3 (Foreground)
//Storyboard Layer 4 (Overlay)
//Storyboard Sound Samples

[TimingPoints]
11852,652.173913043478,4,2,1,70,1,0
11852,-83.3333333333333,4,2,1,70,0,0
32721,-133.333333333333,4,2,1,40,0,0
48373,-133.333333333333,4,2,1,50,0,0
69161,-133.333333333333,4,2,1,5,0,0
69243,-100,4,2,1,60,0,0
71444,-100,4,2,1,5,0,0
71525,-100,4,2,1,60,0,0
74053,-100,4,2,1,5,0,0
74134,-100,4,2,1,60,0,0
76661,-100,4,2,1,5,0,0
76743,-100,4,2,1,60,0,0
79270,-100,4,2,1,5,0,0
79351,-100,4,2,1,60,0,0
81879,-100,4,2,1,5,0,0
81960,-100,4,2,1,60,0,0
84487,-100,4,2,1,5,0,0
84569,-100,4,2,1,60,0,0
87096,-100,4,2,1,5,0,0
87178,-100,4,2,1,60,0,0
90112,-133.333333333333,4,2,1,60,0,0
92721,-142.857142857143,4,2,1,60,0,0
93047,-125,4,2,1,65,0,0
93373,-111.111111111111,4,2,1,70,0,0
93699,-100,4,2,1,75,0,0
94025,-90.9090909090909,4,2,1,80,0,0
94351,-83.3333333333333,4,2,1,80,0,0
95330,-83.3333333333333,4,2,1,70,0,0
137150,-83.3333333333333,4,2,1,30,0,0
139351,-83.3333333333333,4,2,1,5,0,0

[Colours]
Combo1 : 243,163,232
Combo2 : 179,114,49
Combo3 : 21,166,104
Combo4 : 241,154,37

[HitObjects]
405,298,11852,6,0,P|405:257|394:216,1,83.9999974365235,6|0,1:2|0:2,0:2:0:0:
249,173,12178,1,2,0:2:0:0:
267,327,12341,1,2,0:2:0:0:
267,327,12504,2,0,P|288:290|299:250,1,83.9999974365235,8|0,0:2|0:2,0:2:0:0:
151,375,12830,1,2,1:2:0:0:
45,253,12993,6,0,B|76:236|76:236|206:256,1,167.999994873047,2|0,1:2|0:2,0:2:0:0:
124,143,13482,2,0,L|41:129,1,83.9999974365235,2|0,1:2|0:2,0:2:0:0:
206,256,13808,5,10,0:2:0:0:
303,248,13971,1,2,0:2:0:0:
379,305,14134,1,2,0:2:0:0:
469,294,14297,1,2,0:2:0:0:
323,356,14460,6,0,B|332:277|332:277|343:267|343:267|353:194,1,167.999994873047,2|0,1:2|0:2,0:2:0:0:
331,104,14949,1,2,0:2:0:0:
433,223,15112,1,8,0:2:0:0:
433,223,15438,1,2,1:2:0:0:
331,104,15601,1,2,1:2:0:0:
502,120,15765,6,0,L|418:130,1,83.9999974365235,0|0,0:2|0:2,0:2:0:0:
269,183,16091,2,0,L|352:193,1,83.9999974365235,2|0,1:2|0:2,0:2:0:0:
233,79,16417,5,10,0:2:0:0:
171,144,16580,1,2,0:2:0:0:
82,161,16743,1,2,0:2:0:0:
4,113,16906,1,2,0:2:0:0:
106,12,17069,6,0,P|104:53|113:94,1,83.9999974365235,2|0,1:2|0:2,0:2:0:0:
269,183,17395,1,2,0:2:0:0:
66,272,17558,1,2,0:2:0:0:
66,272,17721,2,0,P|74:231|73:189,1,83.9999974365235,8|0,0:2|0:2,0:2:0:0:
167,340,18047,1,2,1:2:0:0:
267,263,18210,6,0,B|284:147|284:147|269:99,1,167.999994873047,2|0,1:2|0:2,0:2:0:0:
116,119,18699,2,0,P|151:143|190:156,1,83.9999974365235,2|0,1:2|0:2,0:2:0:0:
364,116,19025,5,10,0:2:0:0:
446,230,19188,1,2,0:2:0:0:
350,214,19351,1,2,0:2:0:0:
460,133,19515,1,2,0:2:0:0:
457,313,19678,6,0,P|375:325|304:284,1,167.999994873047,2|0,1:2|0:2,0:2:0:0:
350,214,20167,1,2,0:2:0:0:
375,361,20330,1,8,0:2:0:0:
375,361,20656,1,2,1:2:0:0:
446,230,20819,1,2,1:2:0:0:
303,283,20982,2,0,L|291:366,1,83.9999974365235,0|0,0:2|0:2,0:2:0:0:
457,313,21308,2,0,L|445:229,1,83.9999974365235,2|0,1:2|0:2,0:2:0:0:
281,13,21634,5,8,0:2:0:0:
303,283,21797,1,8,0:2:0:0:
451,52,21960,1,8,0:2:0:0:
187,154,22123,1,8,0:2:0:0:
445,229,22286,6,0,L|460:146,1,83.9999974365235,6|0,1:2|0:2,0:2:0:0:
387,6,22612,1,2,0:2:0:0:
340,157,22775,1,2,0:2:0:0:
340,157,22938,2,0,L|325:74,1,83.9999974365235,8|0,0:2|0:2,0:2:0:0:
121,194,23265,1,2,1:2:0:0:
83,106,23428,6,0,B|177:79|160:149|243:125,1,167.999994873047,2|0,1:2|0:2,0:2:0:0:
136,275,23917,2,0,P|122:235|120:193,1,83.9999974365235,2|0,1:2|0:2,0:2:0:0:
217,34,24243,1,10,0:2:0:0:
243,125,24406,1,2,0:2:0:0:
340,157,24569,1,2,0:2:0:0:
419,107,24732,1,2,0:2:0:0:
458,226,24895,6,0,B|426:221|393:243|393:243|390:228|390:228|353:246|307:235,1,167.999994873047,2|0,1:2|0:2,0:2:0:0:
340,157,25384,1,2,0:2:0:0:
447,308,25547,2,0,P|433:347|409:381,1,83.9999974365235,8|0,0:2|0:2,0:2:0:0:
340,157,25873,1,0,1:2:0:0:
447,308,26036,1,2,1:2:0:0:
268,350,26199,6,0,P|243:316|230:276,1,83.9999974365235,0|0,0:2|0:2,0:2:0:0:
385,88,26525,2,0,P|368:126|339:157,1,83.9999974365235,2|0,1:2|0:2,0:2:0:0:
99,101,26851,5,10,0:2:0:0:
185,125,27015,1,2,0:2:0:0:
233,193,27178,1,2,0:2:0:0:
230,276,27341,1,2,0:2:0:0:
57,346,27504,6,0,P|57:304|70:264,1,83.9999974365235,2|0,1:2|0:2,0:2:0:0:
185,125,27830,1,2,0:2:0:0:
312,267,27993,1,2,0:2:0:0:
312,267,28156,2,0,B|272:279|272:279|229:275,1,83.9999974365235,8|0,0:2|0:2,0:2:0:0:
264,189,28482,1,2,1:2:0:0:
360,345,28645,6,0,B|280:369|280:369|195:362,1,167.999994873047,2|0,1:2|0:2,0:2:0:0:
421,253,29134,2,0,P|462:252|503:262,1,83.9999974365235,2|0,1:2|0:2,0:2:0:0:
316,81,29460,5,10,0:2:0:0:
469,171,29623,1,2,0:2:0:0:
445,51,29786,1,2,0:2:0:0:
342,203,29949,1,2,0:2:0:0:
102,152,30112,6,0,P|48:90|58:9,1,167.999994873047,2|0,1:2|0:2,0:2:0:0:
192,127,30601,1,2,0:2:0:0:
192,127,30765,2,0,L|177:209,1,83.9999974365235,8|0,0:2|0:2,0:2:0:0:
112,314,31091,1,2,1:2:0:0:
348,380,31254,2,0,P|422:346|446:268,1,167.999994873047,2|0,1:2|0:2,0:2:0:0:
370,191,31743,2,0,L|385:109,1,83.9999974365235,2|0,1:2|0:2,0:2:0:0:
348,380,32069,5,8,0:2:0:0:
385,108,32232,1,8,0:2:0:0:
208,328,32395,1,8,0:2:0:0:
465,258,32558,1,8,0:2:0:0:
192,127,32721,1,4,1:2:0:0:
258,183,33047,5,0,0:2:0:0:
258,183,33373,2,0,P|221:210|141:192,1,105.000004005432,0|0,0:2|0:2,0:2:0:0:
25,261,34025,2,0,P|76:256|119:285,1,105.000004005432,0|0,0:2|0:2,0:2:0:0:
134,368,34678,1,0,0:2:0:0:
97,114,35004,1,0,0:2:0:0:
167,159,35330,2,0,P|222:160|274:106,1,105.000004005432,2|0,0:2|0:2,0:2:0:0:
260,131,36145,5,0,0:2:0:0:
265,122,36308,1,0,0:2:0:0:
270,112,36471,1,0,0:2:0:0:
266,34,36634,2,0,L|386:61,1,105.000004005432,2|0,0:2|0:2,0:2:0:0:
450,75,37286,1,0,0:2:0:0:
318,198,37612,1,0,0:2:0:0:
398,175,37938,2,0,P|436:202|448:269,1,105.000004005432,2|0,0:2|0:2,0:2:0:0:
450,256,38917,5,0,0:2:0:0:
507,324,39080,2,0,L|404:347,1,105.000004005432,0|0,0:2|0:2,0:2:0:0:
300,275,39569,2,0,L|357:285,1,52.5000020027161,0|0,0:2|0:2,0:2:0:0:
228,317,39895,1,0,0:2:0:0:
228,317,40058,2,0,B|139:319|203:374|77:372,1,157.500006008148,0|2,0:2|0:2,0:2:0:0:
91,236,40873,2,0,L|106:300,1,52.5000020027161
16,346,41199,5,0,0:2:0:0:
22,331,41362,1,0,0:2:0:0:
28,316,41525,1,0,0:2:0:0:
103,288,41688,2,0,L|76:177,1,105.000004005432,0|0,0:2|0:2,0:2:0:0:
48,114,42178,1,0,0:2:0:0:
48,114,43156,6,0,P|74:131|95:135,1,52.5000020027161,2|0,0:2|0:2,0:2:0:0:
174,108,43482,1,0,0:2:0:0:
174,108,43645,1,0,0:2:0:0:
137,227,43808,2,0,P|170:198|248:198,1,105.000004005432,0|0,0:2|0:2,0:2:0:0:
228,191,44460,6,0,P|255:206|275:233,1,52.5000020027161,0|0,0:2|0:2,0:2:0:0:
357,278,44786,2,0,P|330:293|299:368,1,105.000004005432,0|0,0:2|0:2,0:2:0:0:
298,357,45601,1,0,0:2:0:0:
176,318,45765,6,0,L|115:325,1,52.5000020027161,2|2,0:2|0:2,0:2:0:0:
39,334,46091,1,2,0:2:0:0:
39,334,46743,5,0,0:2:0:0:
163,243,46906,1,0,0:2:0:0:
106,188,47069,2,0,P|96:156|99:131,1,52.5000020027161,2|0,0:2|0:2,0:2:0:0:
143,70,47395,1,0,0:2:0:0:
143,70,47721,6,0,P|118:60|97:45,1,52.5000020027161,2|0,0:2|0:2,0:2:0:0:
202,133,48047,2,0,P|223:117|278:107,1,78.7500030040742,0|0,0:2|0:2,0:2:0:0:
296,119,48373,6,2,L|286:223,1,105.000004005432,6|2,1:2|0:2,0:2:0:0:
245,349,49025,1,2,3:2:0:0:
337,323,49351,1,2,0:2:0:0:
426,346,49515,1,0,1:2:0:0:
425,332,49678,6,0,L|424:279,1,52.5000020027161,2|0,0:2|0:2,0:2:0:0:
336,309,50004,2,0,L|335:256,1,52.5000020027161,2|0,1:2|0:2,0:2:0:0:
245,334,50330,2,0,L|244:281,1,52.5000020027161,2|0,3:2|0:2,0:2:0:0:
77,361,50656,6,0,P|125:382|176:373,1,105.000004005432,2|0,0:2|1:2,0:2:0:0:
53,178,51308,2,0,P|47:229|71:275,1,105.000004005432,2|0,0:2|3:2,0:2:0:0:
230,202,51797,1,2,0:2:0:0:
193,128,51960,1,2,0:2:0:0:
110,116,52123,1,2,1:2:0:0:
71,275,52286,6,0,P|92:290|117:296,1,52.5000020027161,2|0,0:2|0:2,0:2:0:0:
230,202,52612,2,0,P|206:212|188:231,1,52.5000020027161,2|0,1:2|0:2,0:2:0:0:
208,380,52938,2,0,P|210:354|203:328,1,52.5000020027161,0|0,3:2|0:2,0:2:0:0:
340,338,53265,6,0,P|354:287|352:235,1,105.000004005432,2|0,0:2|1:2,0:2:0:0:
217,99,53917,2,0,P|215:151|229:201,1,105.000004005432,2|0,0:2|3:2,0:2:0:0:
413,133,54569,5,2,0:2:0:0:
417,147,54732,2,0,L|312:139,1,105.000004005432,2|0,1:2|0:2,0:2:0:0:
177,197,55221,2,0,L|229:201,1,52.5000020027161,2|0,1:2|0:2,0:2:0:0:
209,111,55547,1,2,3:2:0:0:
96,254,55710,2,0,B|79:210|79:210|97:100,1,157.500006008148,2|2,0:2|1:2,0:2:0:0:
212,184,56688,5,0,0:2:0:0:
229,201,56851,1,2,3:2:0:0:
305,192,57015,1,0,0:2:0:0:
382,184,57178,1,2,0:2:0:0:
492,255,57341,2,0,L|439:250,1,52.5000020027161,2|0,1:2|0:2,0:2:0:0:
382,184,57667,1,0,0:2:0:0:
371,310,57830,2,0,L|266:321,1,105.000004005432,2|0,1:2|3:2,0:2:0:0:
103,242,58808,5,2,1:2:0:0:
126,239,58971,1,2,0:2:0:0:
188,293,59134,2,0,L|184:345,1,52.5000020027161,2|0,0:2|0:2,0:2:0:0:
160,162,59460,1,2,3:2:0:0:
260,254,59786,1,2,0:2:0:0:
245,172,59949,2,0,P|255:121|293:87,1,105.000004005432,2|0,1:2|0:2,0:2:0:0:
318,82,60438,1,2,1:2:0:0:
189,95,60765,1,2,3:2:0:0:
80,29,61091,5,0,0:2:0:0:
86,49,61254,1,0,0:2:0:0:
93,124,61417,2,0,P|91:150|82:174,1,52.5000020027161,2|2,1:2|0:2,0:2:0:0:
172,234,61743,2,0,P|132:267|81:281,1,105.000004005432,2|0,0:2|3:2,0:2:0:0:
0,350,62232,5,2,0:2:0:0:
21,343,62395,1,2,0:2:0:0:
119,354,62558,1,2,1:2:0:0:
209,363,62721,2,0,L|214:310,1,52.5000020027161,2|0,0:2|0:2,0:2:0:0:
249,213,63047,2,0,L|196:207,1,52.5000020027161,2|0,1:2|0:2,0:2:0:0:
408,281,63373,2,0,L|460:286,2,52.5000020027161,2|2|2,3:2|0:2|0:2,0:2:0:0:
338,337,64025,6,0,P|322:288|327:236,1,105.000004005432,2|0,1:2|0:2,0:2:0:0:
419,136,64515,1,0,0:2:0:0:
421,152,64678,2,0,B|386:160|386:160|319:141,1,105.000004005432,2|0,3:2|0:2,0:2:0:0:
228,105,65167,1,0,1:2:0:0:
228,105,65656,1,0,1:2:0:0:
242,200,65982,2,0,P|190:197|149:164,1,105.000004005432,2|2,3:2|0:2,0:2:0:0:
43,275,66471,1,0,0:2:0:0:
61,261,66634,6,0,L|165:270,1,105.000004005432,0|0,1:2|0:2,0:2:0:0:
302,378,67123,1,0,0:2:0:0:
363,312,67286,2,0,L|366:259,2,52.5000020027161,0|0|0,3:2|0:2|0:2,0:2:0:0:
206,355,67775,1,0,1:2:0:0:
154,194,68265,1,0,1:2:0:0:
322,148,68591,1,0,3:2:0:0:
265,254,68917,2,0,L|186:261,1,78.7500030040742,2|0,0:2|0:2,0:2:0:0:
171,265,69243,6,0,P|215:291|217:394,1,140,6|0,1:2|0:2,0:2:0:0:
114,192,69813,1,0,3:2:0:0:
114,192,69895,2,0,P|112:153|128:120,1,70,8|0,0:2|0:2,0:2:0:0:
201,91,70221,1,2,1:2:0:0:
29,38,70384,1,0,3:2:0:0:
29,38,70466,1,0,3:2:0:0:
29,38,70547,2,0,L|181:15,1,140,2|0,1:2|0:2,0:2:0:0:
250,8,71036,1,0,0:2:0:0:
406,176,71199,2,0,B|422:198|425:226|425:226|437:203|468:179,1,105,10|0,0:2|0:2,0:2:0:0:
469,181,71525,2,0,B|416:192|416:192|409:212|409:212|344:226,1,140,2|0,1:2|0:2,0:2:0:0:
345,225,72178,5,0,0:2:0:0:
271,377,72422,1,0,3:2:0:0:
271,377,72504,2,0,L|251:230,1,140,8|0,0:2|0:2,0:2:0:0:
239,155,72993,1,0,0:2:0:0:
62,237,73156,2,0,L|82:90,1,140,2|0,1:2|0:2,0:2:0:0:
0,122,73645,1,0,0:2:0:0:
59,318,73808,2,0,B|32:319|9:301|9:301|23:326|20:351,1,105,10|0,0:2|0:2,0:2:0:0:
25,365,74134,6,0,L|193:351,1,140,2|0,1:2|0:2,0:2:0:0:
164,353,74786,1,0,0:2:0:0:
150,189,75112,2,0,P|131:214|134:263,1,70,8|2,0:2|0:2,0:2:0:0:
271,364,75438,2,0,P|270:329|250:301,1,70,2|0,1:2|3:2,0:2:0:0:
243,294,75683,1,0,3:2:0:0:
236,287,75765,2,0,L|390:312,1,140,2|0,1:2|0:2,0:2:0:0:
431,370,76254,1,0,1:2:0:0:
484,178,76417,2,0,P|444:175|412:239,1,105,10|0,0:2|0:2,0:2:0:0:
414,240,76743,2,0,L|327:224,1,70,2|0,1:2|0:2,0:2:0:0:
120,259,77069,6,0,P|152:271|186:268,1,70,2|0,0:2|0:2,0:2:0:0:
253,98,77395,2,0,P|275:124|282:158,1,70,2|0,1:2|0:2,0:2:0:0:
170,375,77721,6,0,P|202:364|227:339,1,70,10|0,0:2|0:2,0:2:0:0:
148,162,78047,2,0,P|182:168|209:189,1,70,2|0,0:2|0:2,0:2:0:0:
229,265,78373,5,0,3:2:0:0:
122,63,78536,1,0,3:2:0:0:
276,110,78699,5,2,1:2:0:0:
74,217,78862,1,0,1:2:0:0:
209,188,79025,6,0,B|193:173|191:142|191:142|178:168|156:182,1,105,14|0,0:2|0:2,0:2:0:0:
152,199,79351,2,0,B|164:257|164:257|173:265|173:265|185:333,1,140,2|0,1:2|0:2,0:2:0:0:
184,332,80004,1,0,0:2:0:0:
28,314,80248,1,0,3:2:0:0:
28,314,80330,2,0,L|104:304,1,70,8|2,0:2|0:2,0:2:0:0:
259,280,80656,1,2,1:2:0:0:
83,184,80819,1,0,3:2:0:0:
83,184,80900,1,0,3:2:0:0:
83,184,80982,2,0,L|163:195,1,70,2|0,1:2|0:2,0:2:0:0:
213,57,81308,2,0,L|143:66,1,70,0|0,0:2|0:2,0:2:0:0:
298,157,81634,2,0,B|320:165|333:193|333:193|331:161|352:137,1,105,10|0,0:2|0:2,0:2:0:0:
356,132,81960,6,0,L|216:153,1,140,2|0,1:2|0:2,0:2:0:0:
217,152,82612,1,0,0:2:0:0:
419,201,82857,1,0,3:2:0:0:
419,201,82938,2,0,L|487:215,1,70,8|0,0:2|0:2,0:2:0:0:
503,298,83265,1,2,1:2:0:0:
307,345,83428,1,0,3:2:0:0:
307,345,83509,1,0,3:2:0:0:
307,345,83591,2,0,P|267:345|227:317,1,70,2|0,1:2|0:2,0:2:0:0:
61,282,83917,2,0,P|93:267|128:270,1,70,0|0,0:2|0:2,0:2:0:0:
302,217,84243,2,0,B|281:228|278:261|278:261|271:232|245:217,1,105,10|0,0:2|0:2,0:2:0:0:
239,204,84569,6,0,L|399:223,1,140,2|0,1:2|0:2,0:2:0:0:
378,220,85221,1,0,0:2:0:0:
454,176,85384,1,0,0:2:0:0:
309,176,85547,1,8,0:2:0:0:
388,307,85710,1,2,0:2:0:0:
323,361,85873,2,0,P|283:364|247:329,1,70,2|0,1:2|3:2,0:2:0:0:
207,249,86118,5,0,3:2:0:0:
207,249,86199,2,0,P|167:246|131:281,1,70,2|0,1:2|0:2,0:2:0:0:
65,382,86525,2,0,L|140:363,1,70,0|0,0:2|0:2,0:2:0:0:
103,170,86851,2,0,P|44:177|-7:224,1,105,10|0,0:2|0:2,0:2:0:0:
0,217,87178,1,2,1:2:0:0:
299,281,87341,1,0,0:2:0:0:
271,200,87504,6,0,L|277:124,1,70,0|0,0:2|0:2,0:2:0:0:
449,291,87830,2,0,L|455:367,1,70,2|0,1:2|0:2,0:2:0:0:
439,206,88156,1,10,0:2:0:0:
198,117,88319,1,10,0:2:0:0:
370,37,88482,2,0,L|362:123,1,70,6|0,1:2|3:2,0:2:0:0:
363,119,88726,1,0,3:2:0:0:
362,132,88808,5,0,3:2:0:0:
439,206,88971,1,0,3:2:0:0:
264,270,89134,1,0,1:2:0:0:
264,270,89460,5,8,0:3:0:0:
363,229,89623,1,8,0:3:0:0:
427,297,89786,1,4,0:3:0:0:
434,334,89949,1,4,0:3:0:0:
425,351,90112,6,0,L|312:362,1,105.000004005432,6|0,1:2|0:2,0:2:0:0:
87,351,90765,2,0,L|200:362,1,105.000004005432,2|0,1:2|0:2,0:2:0:0:
462,254,91417,6,0,L|349:265,1,105.000004005432,2|0,1:2|0:2,0:2:0:0:
50,254,92069,2,0,L|163:265,1,105.000004005432,2|0,1:2|0:2,0:2:0:0:
154,264,92721,6,0,P|141:243|141:218,1,48.9999985046387,2|0,1:2|0:2,0:2:0:0:
72,190,93047,6,0,P|85:166|109:152,1,56,2|0,1:2|0:2,0:2:0:0:
96,77,93373,6,0,P|127:76|154:91,1,62.9999980773926,2|0,1:2|0:2,0:2:0:0:
211,41,93699,6,0,P|228:70|228:105,1,70,2|0,1:2|0:2,0:2:0:0:
302,126,94025,6,0,P|283:159|251:178,1,77.0000023498536,2|0,1:2|0:2,0:2:0:0:
270,254,94351,6,0,P|228:252|192:231,1,83.9999974365235,2|0,1:2|0:2,0:2:0:0:
101,353,95330,6,0,P|173:379|210:311,1,167.999994873047,4|2,1:2|0:2,0:2:0:0:
138,186,95819,1,0,0:2:0:0:
2,284,95982,2,0,L|85:277,1,83.9999974365235,10|0,0:2|0:2,0:2:0:0:
294,304,96308,2,0,L|210:310,1,83.9999974365235,2|0,0:2|1:2,0:2:0:0:
321,219,96634,1,0,0:2:0:0:
481,375,96960,6,0,P|440:377|402:361,1,83.9999974365235,2|0,1:2|0:2,0:2:0:0:
455,160,97286,2,0,P|478:194|483:235,1,83.9999974365235,10|0,0:2|0:2,0:2:0:0:
271,282,97612,2,0,P|289:244|322:219,1,83.9999974365235,2|0,0:2|0:2,0:2:0:0:
463,0,97938,6,0,B|469:72|469:72|450:91|450:91|454:159,1,167.999994873047,6|0,1:2|0:2,0:2:0:0:
488,263,98428,1,2,0:2:0:0:
330,59,98591,2,0,B|336:131|336:131|317:150|317:150|321:218,1,167.999994873047,10|2,0:2|0:2,0:2:0:0:
363,318,99080,1,2,1:2:0:0:
245,100,99243,5,2,0:2:0:0:
454,159,99406,1,2,0:2:0:0:
234,277,99569,2,0,B|192:286|192:286|153:273,1,83.9999974365235,2|0,1:2|0:2,0:2:0:0:
86,144,99895,2,0,B|105:238|45:206|64:305,1,167.999994873047,8|0,0:2|0:2,0:2:0:0:
198,198,100384,1,2,0:2:0:0:
40,67,100547,6,0,P|106:96|115:24,1,167.999994873047,6|0,1:2|0:2,0:2:0:0:
115,24,101036,1,2,0:2:0:0:
320,142,101199,2,0,P|253:171|244:99,1,167.999994873047,10|2,0:2|0:2,0:2:0:0:
244,100,101688,1,2,1:2:0:0:
282,288,101851,5,2,0:2:0:0:
423,161,102015,1,2,0:2:0:0:
198,197,102178,2,0,P|189:238|202:278,1,83.9999974365235,2|0,1:2|0:2,0:2:0:0:
351,321,102504,2,0,P|343:241|270:211,1,167.999994873047,8|0,0:2|0:2,0:2:0:0:
106,250,102993,1,2,0:2:0:0:
297,384,103156,6,0,B|345:362|345:362|459:376,1,167.999994873047,6|0,1:2|0:2,0:2:0:0:
512,294,103645,1,2,0:2:0:0:
472,119,103808,2,0,B|424:97|424:97|310:111,1,167.999994873047,10|2,0:2|0:2,0:2:0:0:
251,250,104297,1,2,1:2:0:0:
185,10,104460,5,2,0:2:0:0:
422,60,104623,1,2,0:2:0:0:
232,144,104786,2,0,P|191:138|152:123,1,83.9999974365235,2|0,1:2|0:2,0:2:0:0:
36,176,105112,2,0,L|31:92,1,83.9999974365235,10|0,0:2|0:2,0:2:0:0:
106,250,105438,1,2,0:2:0:0:
213,58,105601,1,2,3:2:0:0:
213,58,105683,1,0,3:2:0:0:
213,58,105765,6,0,P|255:128|245:210,2,167.999994873047,6|0|8,1:2|0:2|0:2,0:2:0:0:
213,58,106743,1,2,0:2:0:0:
113,284,106906,1,0,1:2:0:0:
44,141,107069,6,0,P|81:124|123:118,1,83.9999974365235,2|0,0:2|0:2,0:2:0:0:
324,233,107395,2,0,P|285:216|244:210,1,83.9999974365235,2|0,1:2|0:2,0:2:0:0:
48,353,107721,2,0,P|85:369|127:375,1,83.9999974365235,10|0,0:2|0:2,0:2:0:0:
108,200,108047,2,0,L|112:283,1,83.9999974365235,2|0,0:2|0:2,0:2:0:0:
244,159,108373,5,4,1:2:0:0:
407,229,108536,1,0,0:2:0:0:
407,229,108618,1,0,0:2:0:0:
407,229,108699,2,0,L|324:233,1,83.9999974365235,2|0,0:2|0:2,0:2:0:0:
112,283,109025,2,0,L|195:279,1,83.9999974365235,10|0,0:2|0:2,0:2:0:0:
327,380,109351,1,2,0:2:0:0:
362,109,109515,1,0,1:2:0:0:
190,198,109678,6,0,P|183:239|195:279,1,83.9999974365235,2|0,0:2|0:2,0:2:0:0:
230,68,110004,1,2,1:2:0:0:
323,233,110167,1,0,0:2:0:0:
115,107,110330,2,0,B|109:64|109:64|119:24,1,83.9999974365235,10|0,0:2|0:2,0:2:0:0:
195,278,110656,1,2,0:2:0:0:
72,188,110819,1,2,3:2:0:0:
72,188,110900,1,0,3:2:0:0:
72,187,110982,6,0,B|158:212|145:164|237:191,1,167.999994873047,6|0,1:2|0:2,0:2:0:0:
306,282,111471,1,2,0:2:0:0:
438,92,111634,2,0,P|361:110|321:43,1,167.999994873047,10|2,0:2|0:2,0:2:0:0:
422,233,112123,6,0,P|381:300|305:281,1,167.999994873047,2|0,1:2|0:2,0:2:0:0:
449,370,112612,1,2,1:2:0:0:
337,185,112775,1,2,0:2:0:0:
164,314,112938,2,0,B|73:347|104:285|0:317,1,167.999994873047,8|0,0:2|0:2,0:2:0:0:
120,235,113428,1,2,0:2:0:0:
20,4,113591,6,0,B|-4:52|-4:52|12:164,1,167.999994873047,6|2,1:2|0:2,0:2:0:0:
120,235,114080,1,2,0:2:0:0:
289,37,114243,2,0,B|240:12|240:12|128:29,1,167.999994873047,8|2,0:2|0:2,0:2:0:0:
12,165,114732,1,2,1:2:0:0:
241,170,114895,6,0,L|229:86,1,83.9999974365235,0|2,0:2|0:2,0:2:0:0:
120,235,115221,1,2,1:2:0:0:
12,165,115384,1,0,0:2:0:0:
229,86,115547,5,10,0:2:0:0:
387,332,115710,1,8,0:2:0:0:
120,235,115873,1,10,0:2:0:0:
405,159,116036,1,8,0:2:0:0:
221,373,116199,6,0,L|208:187,1,167.999994873047,4|2,1:2|0:2,0:2:0:0:
129,143,116688,1,0,0:2:0:0:
26,320,116851,2,0,P|64:325|105:307,1,83.9999974365235,10|0,0:2|0:2,0:2:0:0:
330,297,117178,2,0,P|292:279|251:284,1,83.9999974365235,2|0,0:2|1:2,0:2:0:0:
221,373,117504,1,0,0:2:0:0:
237,129,117830,6,0,P|271:150|292:197,1,83.9999974365235,2|0,1:2|0:2,0:2:0:0:
305,373,118156,2,0,P|306:333|336:291,1,83.9999974365235,10|0,0:2|0:2,0:2:0:0:
485,189,118482,2,0,P|449:207|398:202,1,83.9999974365235,2|0,0:2|0:2,0:2:0:0:
194,198,118808,6,0,B|292:196|229:128|351:125,1,167.999994873047,4|0,1:2|0:2,0:2:0:0:
194,198,119297,1,2,0:2:0:0:
55,45,119460,2,0,B|162:47|98:115|195:117,1,167.999994873047,10|2,0:2|0:2,0:2:0:0:
55,45,119949,1,2,1:2:0:0:
193,38,120112,5,2,0:2:0:0:
95,240,120275,1,2,0:2:0:0:
273,212,120438,2,0,B|234:193|234:193|193:197,1,83.9999974365235,2|0,1:2|0:2,0:2:0:0:
16,335,120765,2,0,L|211:318,1,167.999994873047,8|0,0:2|0:2,0:2:0:0:
271,368,121254,1,2,0:2:0:0:
200,227,121417,6,0,B|200:172|255:156|292:170|292:170|297:193|323:217,1,167.999994873047,6|0,1:2|0:2,0:2:0:0:
387,268,121906,1,2,0:2:0:0:
485,128,122069,2,0,B|485:183|430:199|393:185|393:185|388:162|362:138,1,167.999994873047,10|2,0:2|0:2,0:2:0:0:
298,87,122558,1,2,1:2:0:0:
310,204,122721,5,2,0:2:0:0:
389,6,122884,1,2,0:2:0:0:
177,43,123047,2,0,L|89:19,1,83.9999974365235,2|0,1:2|0:2,0:2:0:0:
17,181,123373,2,0,B|84:176|84:176|116:207|116:207|183:200,1,167.999994873047,8|0,0:2|0:2,0:2:0:0:
240,127,123862,1,2,0:2:0:0:
334,269,124025,6,0,B|349:219|311:194|311:194|267:200|254:273,1,167.999994873047,6|0,1:2|0:2,0:2:0:0:
258,251,124515,1,2,0:2:0:0:
136,350,124678,2,0,B|121:300|159:275|159:275|203:281|216:354,1,167.999994873047,10|2,0:2|0:2,0:2:0:0:
212,332,125167,1,2,1:2:0:0:
48,330,125330,5,2,0:2:0:0:
199,172,125493,1,2,0:2:0:0:
304,364,125656,2,0,P|343:381|388:379,1,83.9999974365235,2|0,1:2|0:2,0:2:0:0:
491,200,125982,2,0,P|452:183|411:183,1,83.9999974365235,10|0,0:2|0:2,0:2:0:0:
311,195,126308,1,2,0:2:0:0:
377,40,126471,1,2,3:2:0:0:
377,40,126553,1,0,3:2:0:0:
377,40,126634,6,0,P|291:72|202:37,2,167.999994873047,6|0|8,1:2|0:2|0:2,0:2:0:0:
377,40,127612,1,2,0:2:0:0:
236,157,127775,1,0,1:2:0:0:
420,179,127938,6,0,P|376:156|323:155,1,83.9999974365235,2|0,0:2|0:2,0:2:0:0:
164,234,128265,2,0,P|207:256|260:257,1,83.9999974365235,2|0,1:2|0:2,0:2:0:0:
262,79,128591,2,0,P|239:122|238:175,1,83.9999974365235,10|0,0:2|0:2,0:2:0:0:
317,335,128917,2,0,P|339:291|340:238,1,83.9999974365235,2|0,0:2|0:2,0:2:0:0:
342,152,129243,5,4,1:2:0:0:
493,206,129406,1,0,0:2:0:0:
493,206,129487,1,0,0:2:0:0:
493,206,129569,2,0,L|410:210,1,83.9999974365235,2|0,0:2|0:2,0:2:0:0:
157,256,129895,2,0,L|240:260,1,83.9999974365235,10|0,0:2|0:2,0:2:0:0:
367,350,130221,1,2,0:2:0:0:
281,119,130384,1,0,1:2:0:0:
94,312,130547,6,0,L|-8:310,1,83.9999974365235,2|0,0:2|0:2,0:2:0:0:
185,366,130873,1,2,1:2:0:0:
75,133,131036,1,0,0:2:0:0:
164,186,131199,2,0,L|248:188,1,83.9999974365235,10|0,0:2|0:2,0:2:0:0:
248,188,131525,1,2,0:2:0:0:
364,65,131688,1,2,3:2:0:0:
364,65,131770,1,0,3:2:0:0:
364,64,131851,6,0,B|348:128|348:128|365:163|365:163|345:243,1,167.999994873047,6|0,1:2|0:2,0:2:0:0:
264,278,132341,1,2,0:2:0:0:
465,350,132504,2,0,P|405:303|318:367,1,167.999994873047,10|0,0:2|0:2,0:2:0:0:
79,374,132993,2,0,L|257:361,1,167.999994873047,2|0,1:2|0:2,0:2:0:0:
264,278,133482,1,2,1:2:0:0:
396,382,133645,1,2,0:2:0:0:
499,192,133808,2,0,L|392:182,1,83.9999974365235,10|2,0:2|0:2,0:2:0:0:
366,89,134134,1,2,0:2:0:0:
264,278,134297,1,0,0:2:0:0:
195,113,134460,6,0,B|223:89|253:93|279:112|279:112|286:144|308:167|350:168,1,167.999994873047,4|0,1:2|0:2,0:2:0:0:
415,184,134949,1,0,0:2:0:0:
373,5,135112,2,0,L|363:122,1,83.9999974365235,8|0,0:2|0:2,0:2:0:0:
280,115,135438,1,2,0:2:0:0:
488,264,135601,1,2,1:2:0:0:
270,366,135765,6,0,P|230:366|178:338,1,83.9999974365235,2|2,0:2|0:2,0:2:0:0:
101,147,136091,2,0,P|140:146|192:174,1,83.9999974365235,2|0,1:2|0:2,0:2:0:0:
190,349,136417,5,10,0:2:0:0:
14,107,136580,1,8,0:2:0:0:
298,199,136743,1,10,0:2:0:0:
14,291,136906,1,8,0:2:0:0:
206,0,137069,1,4,1:2:0:0:
256,192,137150,12,0,139351,0:2:0:0:
