osu file format v14

[General]
AudioFilename: Fairytale.mp3
AudioLeadIn: 500
PreviewTime: 202839
Countdown: 0
SampleSet: Soft
StackLeniency: 0.7
Mode: 0
LetterboxInBreaks: 0
EpilepsyWarning: 1
WidescreenStoryboard: 1

[Editor]
Bookmarks: 1189,41705,80674,100468,101705,121499,128921,143767,154901,179643,198200,202530,204385,243973,263767,283560,293845,304131
DistanceSpacing: 2
BeatDivisor: 4
GridSize: 4
TimelineZoom: 2.1

[Metadata]
Title:Fairytale,
TitleUnicode:Fairytale,
Artist:cillia
ArtistUnicode:シリア
Creator:Nevo
Version:Torment
Source:
Tags:kyaami vocaloid vocaloid4 buzzG VY1V4 cover japanese rock nikakis fieryrage
BeatmapID:2120935
BeatmapSetID:1000669

[Difficulty]
HPDrainRate:6.4
CircleSize:4
OverallDifficulty:9
ApproachRate:9.4
SliderMultiplier:1.7
SliderTickRate:1

[Events]
//Background and Video events
0,0,"bg.jpg",0,0
Video,0,"Videoplayback (2)-1.m4v"
//Break Periods
2,83270,84231
//Storyboard Layer 0 (Background)
//Storyboard Layer 1 (Fail)
//Storyboard Layer 2 (Pass)
//Storyboard Layer 3 (Foreground)
//Storyboard Layer 4 (Overlay)
//Storyboard Sound Samples

[TimingPoints]
184,309.278350515464,4,2,1,55,1,0
1111,-250.000000000001,4,2,1,55,0,0
1421,-166.666666666667,4,2,1,55,0,0
22142,-222.222222222222,4,2,1,55,0,0
23689,-166.666666666667,4,2,1,55,0,0
25235,-250.000000000001,4,2,1,55,0,0
26163,-166.666666666667,4,2,1,50,0,0
26781,-200,4,2,1,45,0,0
27400,-250.000000000001,4,2,1,40,0,0
28019,-333.333333333334,4,2,1,35,0,0
28637,-1000,4,2,1,30,0,0
31111,-166.666666666667,4,2,1,55,0,0
32039,-250.000000000001,4,2,1,55,0,0
33586,-166.666666666667,4,2,1,55,0,0
34513,-250.000000000001,4,2,1,55,0,0
38534,-333.333333333336,4,2,1,50,0,0
39771,-666.666666666667,4,2,1,45,0,0
41936,-285.714285714286,4,2,1,55,0,0
42245,-153.846153846154,4,2,1,60,0,0
42709,-117.647058823529,4,2,1,85,0,0
43173,-153.846153846153,4,2,1,85,0,0
43482,-86.9565217391304,4,2,1,90,0,1
54307,-95.2380952380952,4,2,1,90,0,1
62812,-95.2380952380952,4,2,1,85,0,0
63276,-86.9565217391304,4,2,1,90,0,1
78740,-95.2380952380952,4,2,1,90,0,1
80596,-95.2380952380952,4,2,1,80,0,0
84771,-125,4,2,1,80,0,0
90029,-111.111111111111,4,2,1,85,0,0
90184,-100,4,2,1,85,0,0
90338,-90.9090909090909,4,2,1,90,0,1
100390,-142.857142857143,4,2,1,90,0,0
118946,-125,4,2,1,80,0,0
121421,309.278350515464,6,2,1,80,1,0
121421,-166.666666666667,6,2,1,70,0,0
143379,-200,6,2,1,70,0,0
143689,-166.666666666667,6,2,1,70,0,0
154823,309.278350515464,4,2,1,70,1,0
154823,-125,4,2,1,80,0,0
159152,-117.647058823529,4,2,1,85,0,0
159771,-100,4,2,1,85,0,0
179255,-125,4,2,1,85,0,0
179565,-125,4,2,1,75,0,0
185750,-142.857142857143,4,2,1,70,0,0
189462,-111.111111111111,4,2,1,80,0,0
190390,-142.857142857143,4,2,1,80,0,0
191936,-111.111111111111,4,2,1,80,0,0
192864,-142.857142857143,4,2,1,80,0,0
194410,-111.111111111111,4,2,1,80,0,0
198121,-249.999999999999,4,2,1,50,0,0
198508,-249.999999999999,4,2,1,5,0,0
198585,-249.999999999999,4,2,1,45,0,0
198972,-249.999999999999,4,2,1,5,0,0
199049,-249.999999999999,4,2,1,40,0,0
199281,-249.999999999999,4,2,1,5,0,0
199359,-499.999999999997,4,2,1,35,0,0
200286,-1000,4,2,1,30,0,0
202374,-200,4,2,1,5,0,0
202451,-200,4,2,1,60,0,0
203070,-142.857142857143,4,2,1,75,0,0
203534,-111.111111111111,4,2,1,75,0,0
203998,-500,4,2,1,75,0,0
204307,-83.3333333333333,4,2,1,90,0,1
215132,-90.9090909090909,4,2,1,90,0,1
223792,-90.9090909090909,4,2,1,90,0,0
224101,-80,4,2,1,90,0,1
242658,-95.2380952380952,4,2,1,80,0,0
263688,-95.2380952380952,4,2,1,90,0,1
283482,857.142857142857,4,2,1,80,1,0
283482,-181.818181818181,4,2,1,80,0,0
285196,-181.818181818181,4,2,1,75,0,0
286910,-181.818181818181,4,2,1,70,0,0
288624,-181.818181818181,4,2,1,65,0,0
290339,-181.818181818181,4,2,1,60,0,0
292053,-181.818181818181,4,2,1,55,0,0
293767,-181.818181818181,4,2,1,30,0,0

[Colours]
Combo1 : 88,157,190
Combo2 : 80,160,160
Combo3 : 139,138,116
Combo4 : 157,145,166

[HitObjects]
248,272,1111,6,0,L|296:266,1,34,2|2,0:0|0:0,0:0:0:0:
200,216,1421,6,0,P|217:253|205:314,1,101.999996887207,2|2,0:0|0:0,0:0:0:0:
43,281,1885,2,0,B|65:256|65:256|146:267,1,101.999996887207,2|2,0:0|0:0,0:0:0:0:
225,168,2348,2,0,L|115:178,1,101.999996887207,2|0,0:0|0:0,0:0:0:0:
296,11,2967,2,0,P|310:46|294:123,1,101.999996887207,2|2,0:0|0:0,0:0:0:0:
373,243,3586,2,0,B|363:189|363:189|372:165,1,76.4999976654053,2|0,0:0|0:0,0:0:0:0:
429,119,3895,6,0,P|432:84|428:59,1,50.9999984436036,2|0,0:0|0:0,0:0:0:0:
282,214,4204,1,2,0:0:0:0:
282,214,4359,2,0,P|279:179|283:154,1,50.9999984436036,2|0,0:0|0:0,0:0:0:0:
431,317,4668,1,2,0:0:0:0:
431,317,4823,2,0,P|389:291|291:312,1,152.999995330811,2|0,0:0|0:0,0:0:0:0:
108,258,5441,2,0,L|225:267,1,101.999996887207,0|0,0:0|0:0,0:0:0:0:
59,156,6060,1,2,0:0:0:0:
55,176,6214,1,2,0:0:0:0:
165,142,6369,6,0,P|215:129|276:130,1,101.999996887207,2|2,0:0|0:0,0:0:0:0:
317,45,6833,2,0,P|361:71|403:115,1,101.999996887207,2|2,0:0|0:0,0:0:0:0:
493,83,7297,2,0,P|506:133|505:194,1,101.999996887207,2|0,0:0|0:0,0:0:0:0:
409,341,7915,2,0,L|398:227,1,101.999996887207,2|0,0:0|0:0,0:0:0:0:
245,167,8534,2,0,P|282:182|315:176,1,50.9999984436036,2|0,0:0|0:0,0:0:0:0:
256,84,8843,6,0,B|230:76|201:94|201:94|144:91,1,101.999996887207,2|0,0:0|0:0,0:0:0:0:
35,15,9307,2,0,P|55:47|73:125,1,101.999996887207,2|0,0:0|0:0,0:0:0:0:
87,265,9771,2,0,P|98:215|124:171,1,101.999996887207,2|0,0:0|0:0,0:0:0:0:
264,344,10390,2,0,L|152:353,1,101.999996887207,0|0,0:0|0:0,0:0:0:0:
311,224,11008,1,2,0:0:0:0:
319,253,11163,1,2,0:0:0:0:
453,373,11318,6,0,P|457:313|469:249,1,101.999996887207,2|2,0:0|0:0,0:0:0:0:
304,196,11781,2,0,P|300:136|288:72,1,101.999996887207,2|2,0:0|0:0,0:0:0:0:
476,0,12245,2,0,P|461:54|465:168,1,152.999995330811,2|0,0:0|0:0,0:0:0:0:
363,289,12864,2,0,P|319:279|263:287,1,101.999996887207,2|2,0:0|0:0,0:0:0:0:
137,232,13482,2,0,L|201:236,1,50.9999984436036,2|0,0:0|0:0,0:0:0:0:
70,380,13792,6,0,B|60:341|60:341|70:269,1,101.999996887207,2|2,0:0|0:0,0:0:0:0:
193,164,14256,2,0,P|220:206|212:271,1,101.999996887207,2|2,0:0|0:0,0:0:0:0:
127,92,14720,2,0,B|201:79|201:79|237:89,1,101.999996887207,2|0,0:0|0:0,0:0:0:0:
434,7,15338,2,0,L|321:23,1,101.999996887207,2|2,0:0|0:0,0:0:0:0:
226,86,15802,1,2,0:0:0:0:
345,215,16111,1,2,0:0:0:0:
357,183,16266,6,0,P|309:176|249:187,1,101.999996887207,2|2,0:0|0:0,0:0:0:0:
72,141,16730,2,0,P|71:83|82:29,1,101.999996887207,2|2,0:0|0:0,0:0:0:0:
178,227,17194,2,0,P|175:168|168:125,1,101.999996887207,2|0,0:0|0:0,0:0:0:0:
0,327,17812,2,0,L|111:321,1,101.999996887207,2|0,0:0|0:0,0:0:0:0:
298,296,18431,2,0,L|235:287,1,50.9999984436036,2|0,0:0|0:0,0:0:0:0:
356,196,18740,6,0,P|384:213|411:290,1,101.999996887207,2|2,0:0|0:0,0:0:0:0:
319,117,19204,2,0,P|350:109|424:144,1,101.999996887207,2|2,0:0|0:0,0:0:0:0:
232,91,19668,2,0,P|253:55|365:28,1,152.999995330811,2|0,0:0|0:0,0:0:0:0:
238,206,20287,2,0,L|118:195,1,101.999996887207,0|0,0:0|0:0,0:0:0:0:
94,42,20905,2,0,P|123:61|143:84,1,50.9999984436036,2|0,0:0|0:0,0:0:0:0:
73,266,21214,6,0,B|46:241|42:213|42:213|67:108,1,152.999995330811,2|0,0:0|0:0,0:0:0:0:
225,260,21833,2,0,P|203:285|177:302,1,50.9999984436036,2|0,0:0|0:0,0:0:0:0:
251,149,22142,2,0,L|224:268,1,114.749996498108,2|0,0:0|0:0,0:0:0:0:
103,335,22761,2,0,L|98:284,1,38.2499988327027,2|0,0:0|0:0,0:0:0:0:
335,373,23379,2,0,L|344:323,1,38.2499988327027,2|0,0:0|0:0,0:0:0:0:
429,209,23689,6,0,P|374:234|310:236,2,101.999996887207,2|2|2,0:0|0:0|0:0,0:0:0:0:
185,126,24616,2,0,B|197:164|255:192|255:192|278:164|308:154,1,152.999995330811,2|0,0:0|0:0,0:0:0:0:
448,93,25235,2,0,P|395:64|347:58,1,102,2|0,0:0|0:0,0:0:0:0:
162,52,25854,2,0,L|208:45,1,34,2|0,0:0|0:0,0:0:0:0:
88,123,26163,6,0,P|86:81|62:13,1,101.999996887207,2|0,0:0|0:0,0:0:0:0:
239,199,26781,2,0,P|248:164|282:115,1,85,2|0,0:0|0:0,0:0:0:0:
98,243,27400,2,0,P|96:212|79:163,1,68,2|0,0:0|0:0,0:0:0:0:
206,311,28019,2,0,P|212:289|233:258,1,50.9999984436036,2|0,0:0|0:0,0:0:0:0:
102,357,28637,6,0,P|100:333|87:297,1,59.5,2|0,0:0|0:0,0:0:0:0:
16,228,29874,2,0,P|16:214|24:193,1,34,2|0,0:0|0:0,0:0:0:0:
151,90,30957,1,2,0:0:0:0:
176,131,31111,6,0,P|211:121|288:116,1,101.999996887207,2|2,0:0|0:0,0:0:0:0:
295,11,31575,2,0,P|326:28|384:79,1,101.999996887207,2|2,0:0|0:0,0:0:0:0:
475,32,32039,2,0,P|485:67|489:146,1,102,2|0,0:0|0:0,0:0:0:0:
442,212,32658,1,2,0:0:0:0:
241,335,33276,2,0,L|201:333,1,34,2|0,0:0|0:0,0:0:0:0:
79,286,33586,6,0,P|124:282|153:227,1,101.999996887207,2|2,0:0|0:0,0:0:0:0:
55,196,34049,2,0,P|35:236|69:289,1,101.999996887207,2|2,0:0|0:0,0:0:0:0:
144,220,34513,2,0,P|118:183|55:185,1,101.999996887207,2|0,0:0|0:0,0:0:0:0:
0,265,35132,1,2,0:0:0:0:
210,122,35751,2,0,L|244:118,1,34,2|0,0:0|0:0,0:0:0:0:
353,11,36060,6,0,B|353:36|338:61|338:61|336:98|360:126,1,101.999996887207,2|0,0:0|0:0,0:0:0:0:
429,180,36678,2,0,P|397:174|383:174,1,34,2|0,0:0|0:0,0:0:0:0:
217,258,36988,2,0,B|292:239|292:239|329:244,1,102,2|0,0:0|0:0,0:0:0:0:
382,328,37606,2,0,P|354:321|415:280,1,170,2|0,0:0|0:0,0:0:0:0:
451,362,38534,6,0,B|418:381|363:363|363:363|308:345|273:374,1,178.499994552612,2|0,0:0|0:0,0:0:0:0:
95,321,39771,6,0,P|161:322|228:295,1,140.24999571991,2|0,0:0|0:0,0:0:0:0:
190,87,41936,2,0,P|186:110|191:128,1,29.7499990921021,2|0,0:0|0:0,0:0:0:0:
180,75,42245,6,0,P|173:112|202:187,1,110.499994941712,2|0,0:0|0:0,0:0:0:0:
352,245,42709,2,0,B|310:226|262:239|262:239|234:262|204:269,1,144.500002756119,2|0,0:0|0:0,0:0:0:0:
60,237,43173,2,0,B|118:226|118:226|148:235,1,82.8749962062838,2|0,0:0|0:0,0:0:0:0:
216,265,43482,6,0,P|231:319|222:367,1,97.7500018644333,6|0,1:2|0:0,0:0:0:0:
73,147,43792,1,8,0:0:0:0:
224,156,43946,1,0,0:0:0:0:
17,308,44101,1,0,1:0:0:0:
57,128,44256,1,0,1:0:0:0:
172,295,44410,1,10,0:0:0:0:
329,85,44565,6,0,B|338:150|338:150|324:192|324:192|325:300,1,195.500003728867,0|0,1:0|1:0,0:0:0:0:
150,112,45029,2,0,P|214:119|274:140,1,97.7500018644333,8|0,0:0|0:0,0:0:0:0:
461,53,45338,1,0,1:0:0:0:
329,85,45493,1,0,1:0:0:0:
399,302,45647,1,8,0:0:0:0:
422,156,45802,1,0,0:0:0:0:
268,349,45957,6,0,L|146:332,1,97.7500018644333,0|0,1:0|1:0,0:0:0:0:
262,195,46266,1,8,0:0:0:0:
62,289,46421,1,0,0:0:0:0:
1,119,46575,2,0,L|123:102,1,97.7500018644333,0|0,1:0|1:0,0:0:0:0:
382,44,46885,6,0,P|302:3|246:28,1,146.62500279665,10|0,0:0|0:0,0:0:0:0:
309,154,47194,2,0,P|384:105|390:44,1,146.62500279665,2|0,0:0|0:0,0:0:0:0:
250,35,47503,2,0,P|254:124|304:160,1,146.62500279665,10|0,0:0|0:0,0:0:0:0:
409,222,47812,6,0,P|458:273|453:344,1,146.62500279665,2|0,1:2|0:0,0:0:0:0:
302,315,48122,2,0,P|321:246|385:215,1,146.62500279665,10|0,0:0|0:0,0:0:0:0:
437,362,48431,6,0,B|375:339|375:339|241:361,1,195.500003728867,2|8,1:2|0:0,0:0:0:0:
81,302,48895,1,2,0:0:0:0:
195,163,49049,2,0,P|217:235|218:281,1,97.7500018644333,2|0,1:2|1:0,0:0:0:0:
0,142,49359,2,0,P|6:93|23:47,1,97.7500018644333,10|0,0:0|1:0,0:0:0:0:
343,120,49668,6,0,P|345:195|334:239,1,97.7500018644333,2|0,0:0|1:0,0:0:0:0:
122,108,49977,2,0,P|138:34|161:-5,1,97.7500018644333,10|0,0:0|0:0,0:0:0:0:
410,59,50287,1,2,1:2:0:0:
208,167,50441,1,0,1:0:0:0:
394,321,50596,2,0,B|407:211|407:211|387:159,1,146.62500279665,10|0,0:0|0:0,0:0:0:0:
332,115,50905,6,0,P|312:68|318:19,1,97.7500018644333,2|0,1:2|1:0,0:0:0:0:
316,257,51214,2,0,L|206:245,1,97.7500018644333,8|0,0:0|0:0,0:0:0:0:
122,345,51524,1,0,1:0:0:0:
272,167,51678,1,0,1:0:0:0:
35,80,51833,6,0,L|57:191,1,97.7500018644333,10|0,0:0|1:0,0:0:0:0:
210,367,52142,2,0,L|232:256,1,97.7500018644333,2|0,0:0|1:0,0:0:0:0:
0,245,52452,2,0,P|67:263|137:202,1,146.62500279665,10|0,0:0|0:0,0:0:0:0:
188,161,52761,2,0,P|252:139|310:163,1,97.7500018644333,2|0,1:2|1:0,0:0:0:0:
359,325,53070,2,0,B|348:225|348:225|382:175,1,146.62500279665,10|0,0:0|0:0,0:0:0:0:
498,132,53379,6,0,P|451:157|347:70,1,195.500003728867,6|8,1:2|0:0,0:0:0:0:
477,239,53843,2,0,B|416:255|360:228|360:228|307:216|274:251,1,195.500003728867,2|0,0:0|1:0,0:0:0:0:
164,313,54307,2,0,P|272:278|171:261,1,267.749991828919,10|0,0:0|1:0,0:0:0:0:
47,116,54926,2,0,L|61:220,1,89.2499972763062,8|0,0:0|0:0,0:0:0:0:
242,102,55235,1,2,1:2:0:0:
151,63,55390,1,0,1:0:0:0:
348,30,55544,2,0,L|334:134,1,89.2499972763062,10|0,0:0|0:0,0:0:0:0:
167,234,55854,6,0,B|211:181|279:193|279:193|321:219|362:205,1,178.499994552612,2|8,1:2|0:0,0:0:0:0:
446,125,56318,1,0,1:0:0:0:
444,138,56395,1,0,1:0:0:0:
442,154,56472,2,0,L|429:251,1,89.2499972763062,0|0,1:0|1:0,0:0:0:0:
261,369,56781,2,0,L|248:272,1,89.2499972763062,10|0,0:0|0:0,0:0:0:0:
120,83,57091,6,0,P|79:126|72:172,1,89.2499972763062,2|0,1:2|1:0,0:0:0:0:
335,319,57400,2,0,L|322:222,1,89.2499972763062,10|0,0:0|0:0,0:0:0:0:
45,140,57709,2,0,P|46:199|73:236,1,89.2499972763062,2|8,1:2|0:0,0:0:0:0:
365,243,58019,1,8,3:0:0:0:
166,164,58173,1,4,3:0:0:0:
459,112,58328,6,0,B|444:176|444:176|463:216|463:216|452:287,1,178.499994552612,6|8,1:2|0:0,0:0:0:0:
195,262,58792,2,0,B|235:230|283:248|283:248|332:264|366:242,1,178.499994552612,2|0,1:2|1:0,0:0:0:0:
249,65,59256,2,0,P|235:121|238:158,1,89.2499972763062,10|0,0:0|0:0,0:0:0:0:
497,137,59565,6,0,B|410:107|410:107|324:124,1,178.499994552612,2|8,1:2|0:0,0:0:0:0:
79,73,60029,2,0,P|137:92|261:55,1,178.499994552612,2|0,1:2|1:0,0:0:0:0:
9,24,60493,1,10,0:0:0:0:
166,143,60647,1,0,0:0:0:0:
13,267,60802,5,8,3:0:0:0:
48,240,60879,1,8,3:0:0:0:
91,228,60956,1,8,3:0:0:0:
135,234,61033,1,8,3:0:0:0:
174,257,61111,1,8,3:0:0:0:
209,284,61189,1,8,3:0:0:0:
251,295,61266,1,8,3:0:0:0:
295,289,61343,1,8,3:0:0:0:
334,267,61421,2,0,L|341:175,1,89.2499972763062,8|8,0:0|0:0,0:0:0:0:
444,46,61730,1,10,3:0:0:0:
236,129,61885,1,4,3:0:0:0:
390,331,62039,6,0,B|456:344|522:320|522:320|453:295,1,178.499994552612,2|8,0:0|0:0,0:0:0:0:
259,209,62503,2,0,P|193:203|134:216,1,89.2499972763062,2|0,1:2|0:0,0:0:0:0:
65,270,62812,1,8,0:0:0:0:
50,278,62890,1,8,0:0:0:0:
33,288,62967,2,0,L|35:232,1,44.6249986381531,8|0,0:0|0:0,0:0:0:0:
85,152,63122,1,8,0:0:0:0:
81,133,63199,1,8,0:0:0:0:
77,117,63276,6,0,P|151:70|274:104,1,195.500003728867,6|8,1:2|0:0,0:0:0:0:
399,240,63740,1,0,0:0:0:0:
181,194,63895,1,0,1:0:0:0:
438,151,64049,1,0,1:0:0:0:
251,264,64204,2,0,P|252:312|258:361,1,97.7500018644333,10|0,0:0|0:0,0:0:0:0:
359,102,64513,6,0,P|360:35|358:-2,1,97.7500018644333,2|0,0:0|1:0,0:0:0:0:
181,194,64823,1,8,0:0:0:0:
399,240,64977,1,0,0:0:0:0:
126,283,65132,1,0,1:0:0:0:
240,111,65287,1,0,1:0:0:0:
34,25,65441,2,0,P|34:93|54:138,1,97.7500018644333,8|0,0:0|0:0,0:0:0:0:
264,259,65751,5,0,1:0:0:0:
22,252,65905,1,0,1:0:0:0:
286,277,66060,2,0,L|397:254,1,97.7500018644333,8|0,0:0|0:0,0:0:0:0:
148,153,66369,5,0,1:0:0:0:
390,146,66523,1,0,1:0:0:0:
126,171,66678,2,0,B|66:182|17:152|17:152|64:137,1,146.62500279665,10|0,0:0|0:0,0:0:0:0:
212,106,66988,2,0,B|251:152|250:209|250:209|213:176,1,146.62500279665,2|0,0:0|0:0,0:0:0:0:
113,65,67297,2,0,B|133:7|183:-19|183:-19|173:28,1,146.62500279665,10|0,0:0|0:0,0:0:0:0:
126,171,67606,6,0,P|125:235|186:311,1,146.62500279665,2|0,1:2|0:0,0:0:0:0:
245,370,67915,2,0,P|190:337|93:351,1,146.62500279665,10|0,0:0|0:0,0:0:0:0:
170,301,68225,6,0,L|377:283,1,195.500003728867,2|8,1:2|0:0,0:0:0:0:
486,78,68689,1,2,0:0:0:0:
486,78,68843,2,0,P|430:100|393:133,1,97.7500018644333,2|0,1:2|1:0,0:0:0:0:
486,299,69153,2,0,L|494:192,1,97.7500018644333,10|0,0:0|1:0,0:0:0:0:
337,50,69462,2,0,P|313:105|311:155,1,97.7500018644333,2|0,0:0|1:0,0:0:0:0:
504,312,69771,2,0,L|512:205,1,97.7500018644333,10|0,0:0|0:0,0:0:0:0:
270,255,70080,2,0,B|320:270|320:270|379:258,1,97.7500018644333,2|0,1:2|1:0,0:0:0:0:
94,10,70390,2,0,P|71:60|94:148,1,146.62500279665,10|0,0:0|0:0,0:0:0:0:
199,202,70699,5,0,1:0:0:0:
7,258,70854,1,0,1:0:0:0:
221,362,71008,2,0,P|227:264|234:145,1,195.500003728867,10|0,0:0|1:0,0:0:0:0:
512,214,71472,1,0,1:0:0:0:
351,265,71627,1,8,0:0:0:0:
407,55,71781,6,0,B|417:34|447:27|447:27|435:175,1,195.500003728867,0|0,1:0|1:0,0:0:0:0:
161,99,72245,2,0,P|236:73|273:72,1,97.7500018644333,10|0,0:0|0:0,0:0:0:0:
96,227,72555,2,0,P|21:201|-16:200,1,97.7500018644333,2|0,1:2|1:0,0:0:0:0:
161,355,72864,2,0,P|236:329|273:328,1,97.7500018644333,10|0,0:0|0:0,0:0:0:0:
512,231,73173,6,0,P|446:263|343:193,1,195.500003728867,6|8,1:2|0:0,0:0:0:0:
407,55,73637,1,2,0:0:0:0:
279,280,73792,2,0,P|247:213|317:111,1,195.500003728867,2|8,1:2|0:0,0:0:0:0:
455,175,74256,1,2,1:2:0:0:
230,49,74410,2,0,P|296:17|350:27,1,97.7500018644333,2|0,0:0|1:0,0:0:0:0:
468,272,74720,2,0,P|419:267|379:240,1,97.7500018644333,10|0,0:0|0:0,0:0:0:0:
453,83,75029,2,0,B|469:109|469:109|449:201,1,97.7500018644333,2|0,1:2|1:0,0:0:0:0:
283,287,75338,1,10,0:0:0:0:
248,290,75415,1,8,0:0:0:0:
214,293,75492,1,8,0:0:0:0:
180,296,75569,1,8,0:0:0:0:
146,299,75647,6,0,B|129:184|129:184|162:128,1,146.62500279665,6|0,1:2|0:0,0:0:0:0:
199,94,75957,2,0,P|221:38|210:0,1,97.7500018644333,10|0,0:0|0:0,0:0:0:0:
214,207,76266,2,0,B|325:192|325:192|365:202,1,146.62500279665,2|0,1:2|0:0,0:0:0:0:
434,294,76575,2,0,L|307:281,1,97.7500018644333,10|0,0:0|0:0,0:0:0:0:
71,377,76885,6,0,B|141:367|141:367|197:383|197:383|269:369,1,195.500003728867,2|8,1:2|0:0,0:0:0:0:
146,260,77348,1,0,0:0:0:0:
379,145,77503,2,0,P|396:212|384:252,1,97.7500018644333,2|0,1:2|1:0,0:0:0:0:
144,157,77812,2,0,P|138:108|155:63,1,97.7500018644333,10|0,0:0|0:0,0:0:0:0:
460,67,78122,6,0,P|496:139|500:258,1,195.500003728867,2|0,1:2|1:0,0:0:0:0:
348,151,78586,1,8,0:0:0:0:
223,328,78740,2,0,B|282:288|345:323|345:323|386:317|401:286,1,178.499994552612,2|8,1:2|0:0,0:0:0:0:
326,77,79204,1,0,0:0:0:0:
128,191,79359,5,2,1:2:0:0:
130,200,79435,1,0,1:0:0:0:
132,209,79513,1,0,1:0:0:0:
134,218,79591,1,0,1:0:0:0:
136,227,79669,1,0,1:0:0:0:
138,236,79745,1,0,1:0:0:0:
140,245,79823,1,0,1:0:0:0:
142,254,79899,1,0,1:0:0:0:
144,263,79977,5,10,0:0:0:0:
181,293,80054,1,8,0:0:0:0:
228,306,80131,1,8,0:0:0:0:
276,299,80208,1,8,0:0:0:0:
318,273,80287,2,0,L|323:214,1,44.6249986381531,8|8,0:0|0:0,0:0:0:0:
392,173,80441,2,0,L|387:128,1,44.6249986381531,8|8,0:0|0:0,0:0:0:0:
283,0,80596,5,6,1:2:0:0:
256,192,80673,12,0,83070,1:2:0:0:
162,293,84771,5,0,1:0:0:0:
355,220,84925,1,8,0:0:0:0:
262,188,85080,1,0,1:0:0:0:
459,121,85235,2,0,L|447:207,1,68,8|4,3:0|3:0,0:0:0:0:
267,318,85544,5,4,1:2:0:0:
497,284,85699,1,0,1:0:0:0:
250,300,85854,2,0,P|180:291|157:294,2,68,2|2|10,0:0|1:2|0:0,0:0:0:0:
376,323,86318,1,2,0:0:0:0:
356,241,86472,1,2,1:2:0:0:
339,161,86627,1,2,0:0:0:0:
185,186,86781,6,0,P|250:189|280:175,1,68,2|10,0:0|0:0,0:0:0:0:
383,74,87091,2,0,P|448:71|478:85,1,68,2|2,0:0|1:2,0:0:0:0:
174,199,87400,6,0,P|239:202|269:188,1,68,10|2,0:0|0:0,0:0:0:0:
392,61,87709,2,0,P|457:58|487:72,1,68,2|2,1:2|0:0,0:0:0:0:
194,40,88019,6,0,L|203:130,1,68,2|8,1:2|0:0,0:0:0:0:
320,225,88328,2,0,L|403:211,2,68,2|2|10,0:0|1:2|0:0,0:0:0:0:
189,271,88792,1,2,0:0:0:0:
112,250,88946,1,2,0:0:0:0:
33,228,89101,1,10,0:0:0:0:
161,123,89256,6,0,B|174:157|174:157|169:211,1,68,2|10,0:0|0:0,0:0:0:0:
48,313,89565,1,2,1:2:0:0:
286,250,89720,1,0,1:0:0:0:
75,93,89874,6,0,L|66:149,1,34,2|0,1:2|1:0,0:0:0:0:
118,287,90029,2,0,L|109:231,1,38.2499988327027,2|0,1:2|1:0,0:0:0:0:
212,65,90184,6,0,L|203:121,1,42.5,8|8,0:0|0:0,0:0:0:0:
293,296,90338,2,0,L|284:240,1,46.7500014266968,8|8,0:0|0:0,0:0:0:0:
380,43,90493,5,4,1:2:0:0:
474,279,90647,1,0,1:2:0:0:
497,19,90802,5,10,0:0:0:0:
386,220,90957,1,2,1:2:0:0:
175,48,91111,5,2,1:2:0:0:
274,256,91266,1,2,0:0:0:0:
278,30,91421,5,10,0:0:0:0:
184,207,91575,1,2,1:2:0:0:
80,67,91730,5,10,0:0:0:0:
274,136,91885,1,2,1:2:0:0:
62,82,92039,5,10,0:0:0:0:
282,111,92194,1,2,0:0:0:0:
46,282,92348,5,2,1:2:0:0:
264,233,92503,1,2,1:2:0:0:
33,263,92657,5,10,0:0:0:0:
274,256,92812,1,10,0:0:0:0:
133,55,92967,5,4,1:2:0:0:
228,327,93122,1,0,1:2:0:0:
213,38,93276,5,10,0:0:0:0:
147,357,93431,1,2,1:2:0:0:
292,25,93586,5,2,1:2:0:0:
82,298,93740,1,2,0:0:0:0:
371,10,93895,5,10,0:0:0:0:
113,223,94049,1,2,1:2:0:0:
421,328,94204,5,2,1:2:0:0:
441,129,94359,1,2,1:2:0:0:
393,334,94513,5,10,0:0:0:0:
472,150,94668,1,2,0:0:0:0:
268,363,94823,5,2,1:2:0:0:
248,162,94978,1,2,1:2:0:0:
296,369,95132,5,10,0:0:0:0:
217,183,95287,1,10,0:0:0:0:
498,239,95441,6,0,P|441:252|394:242,1,93.5000028533936,4|0,1:2|1:2,0:0:0:0:
186,74,95751,2,0,P|230:61|277:65,1,93.5000028533936,10|2,0:0|1:2,0:0:0:0:
144,324,96060,5,2,1:2:0:0:
87,146,96215,1,2,0:0:0:0:
215,376,96369,5,10,0:0:0:0:
258,189,96524,1,2,1:2:0:0:
54,317,96678,6,0,B|101:333|101:333|157:321,1,93.5000028533936,2|2,0:0|1:2,0:0:0:0:
400,128,96988,2,0,B|353:112|353:112|297:124,1,93.5000028533936,10|2,0:0|0:0,0:0:0:0:
321,316,97297,6,0,L|341:218,1,93.5000028533936,2|2,1:2|1:2,0:0:0:0:
71,49,97606,2,0,L|91:151,1,93.5000028533936,10|10,0:0|0:0,0:0:0:0:
358,210,97915,5,4,1:2:0:0:
138,282,98070,1,0,1:2:0:0:
384,297,98225,5,10,0:0:0:0:
110,193,98379,1,2,1:2:0:0:
437,156,98534,5,2,1:2:0:0:
211,223,98689,1,2,0:0:0:0:
472,251,98843,5,2,1:2:0:0:
185,131,98998,1,10,0:0:0:0:
438,49,99153,5,2,1:2:0:0:
359,276,99307,1,2,1:2:0:0:
422,35,99462,5,10,0:0:0:0:
371,300,99616,1,2,0:0:0:0:
181,14,99771,5,2,1:2:0:0:
206,238,99926,1,10,0:0:0:0:
210,273,100003,1,0,1:0:0:0:
212,307,100080,1,10,0:0:0:0:
87,134,100235,1,10,0:0:0:0:
306,238,100390,6,0,B|339:248|371:232|371:232|393:243|393:243|415:229|459:233,1,148.74999546051,2|0,0:0|0:0,0:0:0:0:
512,293,100854,1,0,1:0:0:0:
216,151,101008,5,8,0:0:0:0:
424,37,101240,1,2,0:0:0:0:
410,298,101472,1,2,1:2:0:0:
400,301,101549,1,2,0:0:0:0:
391,304,101627,6,0,L|305:293,1,59.4999981842042,6|0,1:2|0:0,0:0:0:0:
249,326,101936,1,10,0:0:0:0:
109,220,102091,2,0,P|169:250|225:229,1,118.999996368408,2|0,0:0|0:0,0:0:0:0:
240,73,102555,2,0,P|184:109|174:168,1,118.999996368408,10|0,0:0|1:0,0:0:0:0:
172,157,103173,6,0,L|185:240,1,59.4999981842042,10|0,0:0|0:0,0:0:0:0:
332,103,103482,2,0,L|322:161,1,59.4999981842042,2|0,1:2|1:0,0:0:0:0:
472,48,103792,2,0,L|487:144,1,89.2499972763062,10|0,0:0|0:0,0:0:0:0:
512,209,104101,6,0,P|479:187|440:183,1,59.4999981842042,2|0,1:2|0:0,0:0:0:0:
350,241,104410,1,8,0:0:0:0:
472,322,104565,2,0,P|468:293|454:267,1,59.4999981842042,2|0,0:0|1:0,0:0:0:0:
343,324,104874,1,2,1:2:0:0:
224,256,105029,6,0,P|163:237|104:258,2,118.999996368408,10|0|8,0:0|1:0|0:0,0:0:0:0:
224,256,105957,2,0,L|221:176,1,59.4999981842042,0|0,1:0|1:0,0:0:0:0:
164,78,106266,1,10,0:0:0:0:
183,2,106421,1,2,0:0:0:0:
281,109,106575,6,0,P|322:112|355:97,1,59.4999981842042,2|0,1:2|0:0,0:0:0:0:
394,16,106885,1,10,0:0:0:0:
386,181,107039,2,0,P|417:154|429:120,1,59.4999981842042,2|0,0:0|1:0,0:0:0:0:
400,35,107349,1,2,1:2:0:0:
508,170,107503,2,0,P|514:115|461:55,1,118.999996368408,10|0,0:0|1:0,0:0:0:0:
355,269,108122,6,0,L|428:263,1,59.4999981842042,10|0,0:0|0:0,0:0:0:0:
294,192,108431,2,0,L|210:183,1,59.4999981842042,2|0,1:2|1:0,0:0:0:0:
92,27,108740,2,0,P|139:45|154:59,1,59.4999981842042,10|0,0:0|0:0,0:0:0:0:
95,172,109049,6,0,L|89:107,1,59.4999981842042,2|0,1:2|0:0,0:0:0:0:
178,193,109359,1,10,0:0:0:0:
5,235,109513,2,0,L|11:170,1,59.4999981842042,2|0,0:0|1:0,0:0:0:0:
176,280,109823,1,2,1:2:0:0:
98,376,109978,6,0,L|87:252,1,118.999996368408,10|0,0:0|1:0,0:0:0:0:
267,210,110441,1,0,0:0:0:0:
354,232,110596,1,10,0:0:0:0:
376,145,110751,1,0,0:0:0:0:
290,120,110905,2,0,L|230:107,1,59.4999981842042,2|8,1:2|0:0,0:0:0:0:
106,65,111214,2,0,L|166:52,1,59.4999981842042,2|10,1:2|0:0,0:0:0:0:
186,208,111524,6,0,P|143:168|85:170,1,118.999996368408,6|10,1:2|0:0,0:0:0:0:
176,302,111988,2,0,L|307:290,1,118.999996368408,2|0,0:0|1:0,0:0:0:0:
467,370,112452,2,0,L|336:358,1,118.999996368408,10|0,0:0|1:0,0:0:0:0:
348,359,113070,2,0,P|360:303|370:281,1,59.4999981842042,10|0,0:0|0:0,0:0:0:0:
454,245,113379,2,0,P|442:189|432:167,1,59.4999981842042,2|0,1:2|1:0,0:0:0:0:
348,131,113689,2,0,P|360:75|370:53,1,59.4999981842042,10|0,0:0|0:0,0:0:0:0:
459,14,113998,6,0,P|397:38|338:7,1,118.999996368408,2|10,1:2|0:0,0:0:0:0:
269,96,114462,2,0,P|207:72|148:103,1,118.999996368408,2|0,0:0|1:0,0:0:0:0:
86,171,114926,2,0,B|83:219|83:219|107:251|107:251|108:294,1,118.999996368408,10|0,0:0|1:0,0:0:0:0:
107,282,115544,2,0,P|161:263|183:264,1,59.4999981842042,10|0,0:0|0:0,0:0:0:0:
252,308,115854,1,2,1:2:0:0:
343,262,116008,2,0,L|348:202,1,59.4999981842042,2|8,1:2|0:0,0:0:0:0:
291,127,116318,1,2,0:0:0:0:
451,84,116472,6,0,L|439:230,1,118.999996368408,2|10,1:2|0:0,0:0:0:0:
352,380,116936,2,0,L|342:261,1,118.999996368408,2|2,0:0|1:2,0:0:0:0:
141,181,117400,2,0,P|196:207|275:184,1,118.999996368408,10|0,0:0|1:0,0:0:0:0:
251,198,118019,6,0,L|240:267,1,59.4999981842042,10|0,0:0|0:0,0:0:0:0:
131,122,118328,2,0,L|142:191,1,59.4999981842042,0|0,1:0|1:0,0:0:0:0:
250,45,118637,2,0,L|241:104,1,59.4999981842042,10|0,0:0|1:0,0:0:0:0:
251,198,118946,6,0,P|298:173|390:167,1,136,10|0,0:0|1:0,0:0:0:0:
169,289,119410,2,0,P|130:252|42:223,1,136,10|2,0:0|1:2,0:0:0:0:
264,363,119874,2,0,P|292:317|368:266,1,136,10|0,0:0|0:0,0:0:0:0:
482,208,120338,1,2,1:2:0:0:
400,341,120493,5,10,0:0:0:0:
393,183,120648,1,0,1:0:0:0:
308,321,120802,5,8,3:0:0:0:
292,144,120957,1,8,0:0:0:0:
218,333,121111,5,4,3:0:0:0:
196,172,121266,1,0,1:0:0:0:
114,318,121421,5,6,1:2:0:0:
87,195,123276,6,0,P|127:179|152:178,1,50.9999984436036,2|0,0:0|0:0,0:0:0:0:
134,74,125132,6,0,P|173:91|192:108,1,50.9999984436036,2|0,0:0|0:0,0:0:0:0:
253,23,126988,6,0,P|269:63|270:88,1,50.9999984436036,2|0,0:0|0:0,0:0:0:0:
373,70,128843,6,0,P|356:109|339:128,1,50.9999984436036,2|0,0:0|0:0,0:0:0:0:
217,216,129462,2,0,P|269:199|284:200,1,50.9999984436036,2|0,0:0|0:0,0:0:0:0:
428,292,129771,2,0,L|271:279,1,152.999995330811,2|0,0:0|0:0,0:0:0:0:
161,337,130390,2,0,L|222:326,1,50.9999984436036,2|0,0:0|0:0,0:0:0:0:
76,150,130699,6,0,P|92:228|89:309,1,152.999995330811,2|0,0:0|0:0,0:0:0:0:
192,241,131317,2,0,P|198:198|205:183,1,50.9999984436036,2|0,0:0|0:0,0:0:0:0:
342,44,131627,2,0,B|378:23|416:33|416:33|463:47|501:35,1,152.999995330811,2|0,0:0|0:0,0:0:0:0:
461,126,132245,2,0,P|428:121|404:116,1,50.9999984436036,2|0,0:0|0:0,0:0:0:0:
228,53,132555,6,0,P|166:39|62:71,1,152.999995330811,2|0,0:0|0:0,0:0:0:0:
187,246,133173,2,0,P|228:190|122:233,1,305.999990661621,2|0,0:0|0:0,0:0:0:0:
384,339,134410,6,0,P|400:299|401:274,1,50.9999984436036,2|0,0:0|0:0,0:0:0:0:
321,152,135029,2,0,P|316:111|356:56,1,101.999996887207,2|2,0:0|0:0,0:0:0:0:
441,220,135647,2,0,L|371:208,1,50.9999984436036,2|0,0:0|0:0,0:0:0:0:
328,260,135957,2,0,L|266:265,1,50.9999984436036,2|0,0:0|0:0,0:0:0:0:
200,200,136266,6,0,L|43:179,1,152.999995330811,2|0,0:0|0:0,0:0:0:0:
174,120,136884,2,0,P|133:144|171:280,1,203.999993774414,2|0,0:0|0:0,0:0:0:0:
158,275,137812,2,0,L|87:283,1,50.9999984436036,2|0,0:0|0:0,0:0:0:0:
312,371,138122,6,0,L|149:356,1,152.999995330811,2|0,0:0|0:0,0:0:0:0:
370,278,138740,2,0,L|301:286,1,50.9999984436036,2|0,0:0|0:0,0:0:0:0:
477,207,139049,6,0,L|314:192,1,152.999995330811,2|0,0:0|0:0,0:0:0:0:
388,63,139668,2,0,P|403:98|406:114,1,50.9999984436036,2|0,0:0|0:0,0:0:0:0:
269,259,139977,6,0,P|235:207|270:114,1,152.999995330811,2|0,0:0|0:0,0:0:0:0:
193,191,140596,2,0,L|135:187,1,50.9999984436036,2|0,0:0|0:0,0:0:0:0:
28,118,140905,6,0,P|101:105|140:42,1,152.999995330811,2|0,0:0|0:0,0:0:0:0:
119,141,141524,2,0,L|141:186,1,50.9999984436036,2|0,0:0|0:0,0:0:0:0:
97,329,141833,6,0,P|65:305|45:299,1,50.9999984436036,2|0,0:0|0:0,0:0:0:0:
261,267,142142,2,0,P|285:235|303:224,1,50.9999984436036,2|0,0:0|0:0,0:0:0:0:
59,204,142451,2,0,P|21:189|1:188,1,50.9999984436036,2|0,0:0|0:0,0:0:0:0:
262,127,142761,2,0,P|294:102|314:97,1,50.9999984436036,2|0,0:0|0:0,0:0:0:0:
61,63,143070,1,2,0:0:0:0:
184,16,143225,1,8,0:0:0:0:
184,24,143302,1,0,1:0:0:0:
183,32,143379,2,0,L|176:99,1,63.75,10|0,3:0|0:0,0:0:0:0:
198,191,143689,6,0,P|229:165|342:161,1,152.999995330811,6|0,1:2|1:0,0:0:0:0:
447,210,144307,1,2,0:0:0:0:
421,126,144462,1,0,1:0:0:0:
287,254,144616,6,0,P|256:228|143:224,1,152.999995330811,10|0,0:0|0:0,0:0:0:0:
36,292,145235,2,0,P|76:287|90:280,1,50.9999984436036,2|0,1:2|0:0,0:0:0:0:
220,363,145544,6,0,L|380:351,1,152.999995330811,2|0,1:2|1:0,0:0:0:0:
468,287,146163,2,0,L|397:277,1,50.9999984436036,0|0,0:0|0:0,0:0:0:0:
287,238,146472,2,0,P|274:212|268:191,1,50.9999984436036,10|0,0:0|0:0,0:0:0:0:
382,123,146781,2,0,P|395:97|401:76,1,50.9999984436036,2|0,0:0|0:0,0:0:0:0:
240,93,147091,2,0,L|311:83,1,50.9999984436036,2|0,1:2|1:0,0:0:0:0:
169,25,147400,6,0,L|1:2,1,152.999995330811,2|0,1:2|1:0,0:0:0:0:
42,105,148018,2,0,L|112:98,1,50.9999984436036,2|0,0:0|1:0,0:0:0:0:
239,208,148328,6,0,L|71:185,1,152.999995330811,10|0,0:0|0:0,0:0:0:0:
112,288,148946,2,0,L|182:281,1,50.9999984436036,2|0,1:2|0:0,0:0:0:0:
316,360,149256,6,0,P|357:328|422:323,1,101.999996887207,2|0,1:2|0:0,0:0:0:0:
492,338,149719,2,0,P|443:318|406:264,1,101.999996887207,0|0,1:0|1:0,0:0:0:0:
459,159,150183,2,0,P|438:194|412:207,1,50.9999984436036,10|0,0:0|1:0,0:0:0:0:
461,272,150493,2,0,P|421:281|393:272,1,50.9999984436036,10|0,0:0|1:0,0:0:0:0:
382,353,150802,2,0,P|346:332|333:305,1,50.9999984436036,10|8,0:0|3:0,0:0:0:0:
331,162,151111,6,0,L|229:175,1,101.999996887207,2|2,1:2|0:0,0:0:0:0:
150,126,151575,2,0,L|251:139,1,101.999996887207,0|0,1:0|1:0,0:0:0:0:
109,242,152039,2,0,P|96:208|100:182,1,50.9999984436036,10|0,0:0|0:0,0:0:0:0:
18,163,152348,2,0,P|32:129|54:114,1,50.9999984436036,2|0,1:2|0:0,0:0:0:0:
9,42,152658,2,0,P|43:29|69:33,1,50.9999984436036,2|0,1:2|0:0,0:0:0:0:
208,198,152967,6,0,L|196:308,1,101.999996887207,2|0,1:2|0:0,0:0:0:0:
290,239,153431,1,2,1:2:0:0:
344,317,153585,2,0,P|404:326|454:305,1,101.999996887207,8|10,0:0|0:0,0:0:0:0:
512,224,154049,1,0,1:0:0:0:
479,148,154204,1,10,0:0:0:0:
393,208,154359,2,0,L|350:204,1,25.4999992218018,8|8,0:0|0:0,0:0:0:0:
261,158,154513,1,10,3:0:0:0:
245,160,154591,1,8,3:0:0:0:
231,163,154668,1,4,3:0:0:0:
217,165,154745,1,4,3:0:0:0:
206,168,154823,6,0,L|54:155,1,136,6|0,1:2|0:0,0:0:0:0:
264,51,155286,1,2,1:2:0:0:
280,52,155363,1,0,1:0:0:0:
297,54,155440,1,8,0:0:0:0:
314,55,155517,1,8,0:0:0:0:
331,57,155595,1,8,0:0:0:0:
348,58,155672,1,8,0:0:0:0:
365,60,155750,2,0,P|378:104|375:133,1,68,0|0,1:0|1:0,0:0:0:0:
274,311,156060,6,0,P|273:277|285:245,1,68,0|0,1:0|0:0,0:0:0:0:
442,245,156369,1,8,0:0:0:0:
363,289,156524,1,0,1:0:0:0:
468,235,156678,1,8,0:0:0:0:
315,181,156833,1,0,1:0:0:0:
461,74,156987,1,0,1:0:0:0:
459,97,157064,1,0,1:0:0:0:
457,121,157141,1,8,0:0:0:0:
456,144,157218,1,8,0:0:0:0:
454,168,157297,6,0,L|468:238,2,68,8|0|0,0:0|1:0|1:0,0:0:0:0:
279,253,157761,2,0,L|265:323,2,68,8|0|0,0:0|1:0|1:0,0:0:0:0:
75,163,158225,1,8,0:0:0:0:
95,243,158379,1,8,0:0:0:0:
168,124,158534,2,0,P|215:114|252:112,1,68,2|8,0:0|0:0,0:0:0:0:
343,250,158843,6,0,B|332:170|332:170|350:136,1,102,2|0,1:2|0:0,0:0:0:0:
396,96,159152,2,0,P|411:58|404:13,1,72.2500013780594,6|8,3:0|0:0,0:0:0:0:
222,50,159462,1,6,3:0:0:0:
331,230,159616,1,8,0:0:0:0:
337,240,159694,1,8,0:0:0:0:
343,250,159771,6,0,B|388:244|388:244|406:258|406:258|430:210|430:210|487:203,1,170,6|0,1:2|1:0,0:0:0:0:
384,340,160235,2,0,L|285:330,1,85,8|0,0:0|0:0,0:0:0:0:
132,358,160544,1,0,0:0:0:0:
221,151,160699,6,0,B|208:225|208:225,1,42.5,10|0,0:0|0:0,0:0:0:0:
123,301,160853,1,8,3:0:0:0:
126,320,160931,1,4,3:0:0:0:
129,343,161008,1,12,0:0:0:0:
57,228,161163,1,0,1:0:0:0:
256,289,161317,1,0,1:0:0:0:
44,334,161472,1,8,0:0:0:0:
28,345,161627,1,8,3:0:0:0:
108,148,161781,1,8,3:0:0:0:
126,130,161858,1,8,3:0:0:0:
148,117,161935,1,4,3:0:0:0:
172,108,162012,1,4,3:0:0:0:
197,105,162090,1,4,3:0:0:0:
222,106,162167,1,4,3:0:0:0:
247,112,162245,6,0,B|293:137|293:137|381:124,1,127.5,4|0,1:2|0:0,0:0:0:0:
461,69,162554,2,0,L|398:64,1,42.5,0|0,1:0|0:0,0:0:0:0:
269,225,162709,2,0,B|343:214|343:214|389:239,1,127.5,8|0,0:0|0:0,0:0:0:0:
461,315,163018,2,0,L|398:320,1,42.5,0|0,1:0|0:0,0:0:0:0:
228,370,163173,1,8,0:0:0:0:
100,262,163328,1,8,3:0:0:0:
98,253,163405,1,8,3:0:0:0:
96,244,163482,5,12,0:0:0:0:
188,142,163637,1,0,1:0:0:0:
28,88,163792,1,0,1:0:0:0:
247,33,163946,1,8,0:0:0:0:
265,41,164101,1,8,3:0:0:0:
399,154,164255,1,8,3:0:0:0:
411,158,164333,1,6,3:0:0:0:
424,162,164410,2,0,P|480:155|474:80,1,127.5,8|0,0:0|0:0,0:0:0:0:
432,39,164719,6,0,B|454:76|454:76|439:202,1,170,6|0,1:2|1:0,0:0:0:0:
277,285,165183,2,0,P|197:245|97:236,1,170,8|2,0:0|1:2,0:0:0:0:
331,366,165647,1,8,0:0:0:0:
427,269,165802,1,10,3:0:0:0:
422,258,165879,1,8,3:0:0:0:
416,246,165957,5,12,0:0:0:0:
333,186,166111,1,2,1:2:0:0:
467,114,166266,1,0,1:0:0:0:
297,66,166420,1,8,0:0:0:0:
270,78,166575,1,8,3:0:0:0:
115,157,166730,1,8,3:0:0:0:
95,172,166807,1,8,3:0:0:0:
70,174,166884,1,6,3:0:0:0:
48,162,166961,1,4,3:0:0:0:
37,139,167039,1,6,3:0:0:0:
41,115,167116,1,6,3:0:0:0:
60,95,167194,6,0,B|86:133|86:133|66:292,1,170,6|0,1:2|1:0,0:0:0:0:
185,43,167658,2,0,L|164:221,1,170,8|2,0:0|1:2,0:0:0:0:
255,314,168121,1,8,0:0:0:0:
320,232,168276,1,10,3:0:0:0:
334,235,168353,1,8,3:0:0:0:
348,238,168431,5,12,0:0:0:0:
462,336,168585,1,8,0:0:0:0:
487,194,168740,1,0,1:0:0:0:
354,349,168895,1,10,0:0:0:0:
361,373,169049,1,8,3:0:0:0:
252,172,169204,1,0,1:0:0:0:
144,358,169359,5,8,0:0:0:0:
116,368,169436,1,8,0:0:0:0:
86,372,169513,1,8,0:0:0:0:
57,368,169590,1,8,0:0:0:0:
29,358,169668,6,0,B|13:274|13:274|23:254|51:261,1,127.5,2|0,0:0|0:0,0:0:0:0:
129,280,169977,2,0,L|140:239,1,42.5,2|0,1:2|0:0,0:0:0:0:
65,148,170132,6,0,B|94:192|146:192|146:192|187:170|248:182,1,170,14|0,0:0|1:0,0:0:0:0:
336,222,170596,1,10,0:0:0:0:
137,296,170750,2,0,L|148:255,1,42.5,8|4,3:0|3:0,0:0:0:0:
71,132,170905,6,0,B|100:176|152:176|152:176|193:154|254:166,1,170,14|2,0:0|1:2,0:0:0:0:
424,92,171369,2,0,B|353:76|353:76|322:95|322:95|233:77,1,170,10|8,0:0|3:0,0:0:0:0:
486,28,171833,1,2,1:2:0:0:
502,52,171910,1,0,1:0:0:0:
511,80,171987,1,10,0:0:0:0:
512,110,172064,1,8,0:0:0:0:
504,138,172142,6,0,L|516:234,2,85,6|2|2,1:2|0:0|1:2,0:0:0:0:
325,306,172606,2,0,L|335:221,2,85,10|2|2,0:0|0:0|1:2,0:0:0:0:
96,188,173070,1,10,0:0:0:0:
121,173,173147,1,8,3:0:0:0:
149,163,173224,1,10,3:0:0:0:
178,157,173301,1,4,3:0:0:0:
208,157,173379,1,14,0:0:0:0:
133,322,173534,6,0,B|91:319|91:319|48:332,2,85,2|2|10,1:2|1:2|0:0,0:0:0:0:
260,367,173998,1,10,3:0:0:0:
348,277,174152,1,6,3:0:0:0:
482,366,174307,1,10,0:0:0:0:
477,323,174384,1,8,0:0:0:0:
473,281,174461,1,8,0:0:0:0:
469,239,174538,1,8,0:0:0:0:
465,196,174616,6,0,P|398:167|321:169,1,127.5,6|0,1:2|0:0,0:0:0:0:
271,213,174926,1,2,1:2:0:0:
424,92,175080,1,10,0:0:0:0:
309,39,175236,1,2,0:0:0:0:
317,301,175390,5,2,1:2:0:0:
339,142,175545,1,10,0:0:0:0:
143,267,175699,1,10,3:0:0:0:
134,268,175776,1,6,3:0:0:0:
125,270,175853,5,14,0:0:0:0:
101,107,176009,1,2,1:2:0:0:
271,213,176163,1,2,1:2:0:0:
35,306,176317,5,10,0:0:0:0:
218,119,176472,1,8,3:0:0:0:
19,182,176627,1,2,1:2:0:0:
10,183,176704,1,10,3:0:0:0:
1,185,176781,1,14,3:0:0:0:
222,319,176936,1,2,1:2:0:0:
336,135,177091,5,6,1:2:0:0:
172,203,177245,1,2,0:0:0:0:
398,321,177400,2,0,L|493:301,1,85,2|10,1:2|0:0,0:0:0:0:
313,251,177709,1,2,1:2:0:0:
145,340,177864,5,2,1:2:0:0:
101,151,178018,1,10,0:0:0:0:
231,287,178173,1,10,3:0:0:0:
192,110,178328,5,10,0:0:0:0:
123,243,178482,1,2,1:2:0:0:
49,79,178637,1,2,1:2:0:0:
243,196,178792,5,10,0:0:0:0:
101,151,178946,1,10,3:0:0:0:
290,128,179101,1,10,0:0:0:0:
256,292,179255,6,0,B|238:251|233:217|233:217|251:175,1,102,10|0,3:0|0:0,0:0:0:0:
290,128,179565,6,0,P|290:81|200:52,1,136,6|8,1:2|0:0,0:0:0:0:
150,82,180029,1,2,0:0:0:0:
242,195,180183,2,0,B|277:219|324:207|324:207|350:186,1,102,0|0,1:0|0:0,0:0:0:0:
390,128,180493,2,0,P|419:97|446:195,1,204,10|0,0:0|1:0,0:0:0:0:
347,300,181111,2,0,L|185:287,1,136,10|0,0:0|1:0,0:0:0:0:
121,326,181575,1,0,1:0:0:0:
47,209,181730,2,0,P|42:169|45:130,1,68,10|0,0:0|0:0,0:0:0:0:
152,39,182039,6,0,P|192:34|231:37,1,68,2|0,1:2|0:0,0:0:0:0:
324,107,182348,2,0,B|355:122|392:111|392:111|430:94|459:102,1,136,10|0,0:0|1:0,0:0:0:0:
510,198,182812,1,0,1:0:0:0:
323,92,182967,2,0,B|354:107|391:96|391:96|429:79|458:87,1,136,10|0,0:0|1:0,0:0:0:0:
455,86,183585,2,0,L|444:237,1,136,10|0,0:0|1:0,0:0:0:0:
396,299,184049,1,0,1:0:0:0:
303,245,184204,2,0,P|249:234|206:232,1,68,10|0,0:0|0:0,0:0:0:0:
52,338,184513,6,0,B|129:322|129:322|181:338|181:338|258:326,1,204,2|0,1:2|0:0,0:0:0:0:
46,354,185132,2,0,B|123:338|123:338|175:354|175:354|252:342,1,204,2|0,1:2|0:0,0:0:0:0:
452,252,185750,6,0,B|384:238|384:238|339:252|339:252|273:242,1,178.499994552612,2|0,1:2|0:0,0:0:0:0:
458,268,186369,2,0,B|391:254|391:254|346:268|346:268|281:258,1,178.499994552612,2|0,1:2|0:0,0:0:0:0:
77,180,186987,6,0,P|144:188|197:149,1,118.999996368408,2|0,1:2|1:0,0:0:0:0:
139,49,187451,2,0,B|114:21|114:21|124:120,1,118.999996368408,8|0,0:0|1:0,0:0:0:0:
259,205,187915,1,8,0:0:0:0:
346,80,188070,2,0,P|397:52|455:62,1,118.999996368408,0|8,0:0|0:0,0:0:0:0:
400,223,188534,1,0,1:0:0:0:
235,159,188688,1,8,0:0:0:0:
244,176,188998,5,8,0:0:0:0:
241,187,189075,1,8,0:0:0:0:
239,199,189152,2,0,L|232:233,1,29.7499990921021,8|0,0:0|0:0,0:0:0:0:
179,316,189307,1,8,0:0:0:0:
181,332,189384,1,8,0:0:0:0:
184,348,189462,6,0,P|226:322|340:356,1,152.999995330811,6|10,1:2|0:0,0:0:0:0:
465,245,189926,2,0,P|422:219|308:253,1,152.999995330811,0|2,0:0|1:2,0:0:0:0:
98,162,190390,2,0,P|146:132|273:172,1,178.499994552612,10|0,0:0|0:0,0:0:0:0:
326,236,191008,1,10,0:0:0:0:
444,113,191317,2,0,L|455:45,1,59.4999981842042,0|0,1:0|1:0,0:0:0:0:
347,0,191627,2,0,L|358:68,1,59.4999981842042,10|0,0:0|0:0,0:0:0:0:
470,195,191936,6,0,L|445:353,1,152.999995330811,2|10,1:2|0:0,0:0:0:0:
310,132,192400,2,0,L|334:290,1,152.999995330811,2|0,0:0|1:0,0:0:0:0:
196,68,192864,2,0,L|167:256,1,178.499994552612,10|0,0:0|0:0,0:0:0:0:
98,323,193482,1,10,0:0:0:0:
246,354,193792,2,0,P|286:340|323:339,1,59.4999981842042,0|0,1:0|1:0,0:0:0:0:
391,371,194101,2,0,P|420:366|447:355,1,59.4999981842042,10|0,0:0|0:0,0:0:0:0:
512,244,194410,6,0,L|339:226,1,152.999995330811,2|8,1:2|0:0,0:0:0:0:
210,202,194874,1,0,0:0:0:0:
248,332,195029,2,0,P|268:289|277:254,1,76.4999976654053,2|0,1:2|1:0,0:0:0:0:
129,365,195338,2,0,P|109:322|100:287,1,76.4999976654053,10|0,0:0|0:0,0:0:0:0:
171,110,195647,5,0,1:0:0:0:
185,121,195957,2,0,P|221:105|314:104,1,114.749996498108,10|0,0:0|0:0,0:0:0:0:
368,147,196266,1,0,1:0:0:0:
143,240,196420,1,8,0:0:0:0:
379,289,196575,1,8,3:0:0:0:
78,325,196730,1,0,1:0:0:0:
297,226,196884,5,8,0:0:0:0:
173,63,197039,1,0,1:0:0:0:
62,237,197194,1,0,1:0:0:0:
306,194,197348,5,8,0:0:0:0:
144,68,197503,1,0,1:0:0:0:
81,264,197658,1,0,1:0:0:0:
306,160,197811,5,8,0:0:0:0:
117,81,197966,1,0,0:0:0:0:
107,286,198121,6,0,B|201:276,1,85,2|0,0:0|0:0,0:0:0:0:
254,225,198585,2,0,B|347:235,1,85,2|0,0:0|0:0,0:0:0:0:
389,294,199049,2,0,L|452:285,1,51,2|0,0:0|0:0,0:0:0:0:
499,228,199359,6,0,P|504:191|485:141,1,85,2|0,0:0|0:0,0:0:0:0:
410,101,200286,6,0,B|406:63|426:33|426:33|422:48|430:77,1,114.75,2|0,0:0|0:0,0:0:0:0:
328,235,202761,6,0,P|299:219|275:220,1,42.5,2|0,0:0|0:0,0:0:0:0:
344,230,203070,6,0,P|293:205|191:217,1,148.74999546051,2|0,0:0|0:0,0:0:0:0:
154,346,203534,2,0,B|176:212|176:212|149:153,1,191.249994163513,2|0,0:0|0:0,0:0:0:0:
131,82,203998,6,0,L|160:85,1,25.5,2|0,0:0|0:0,0:0:0:0:
190,95,204307,6,0,L|309:84,1,101.999996887207,6|0,1:2|0:0,0:0:0:0:
462,1,204616,1,8,0:0:0:0:
388,244,204771,1,0,0:0:0:0:
309,104,204926,1,0,1:0:0:0:
492,247,205080,1,0,1:0:0:0:
327,349,205235,1,10,0:0:0:0:
394,144,205390,6,0,B|452:103|529:108|529:108|497:128|474:170,1,203.999993774414,0|0,1:0|1:0,0:0:0:0:
207,247,205853,2,0,P|125:220|80:217,1,101.999996887207,8|0,0:0|0:0,0:0:0:0:
287,179,206163,1,0,1:0:0:0:
327,318,206317,1,0,1:0:0:0:
191,146,206472,1,8,0:0:0:0:
385,204,206627,1,0,0:0:0:0:
164,322,206781,6,0,P|104:313|53:278,1,101.999996887207,0|0,1:0|1:0,0:0:0:0:
265,82,207091,2,0,P|287:138|282:200,1,101.999996887207,8|0,0:0|0:0,0:0:0:0:
86,115,207400,1,0,1:0:0:0:
305,198,207554,1,0,1:0:0:0:
164,322,207709,6,0,L|176:190,1,101.999996887207,10|0,0:0|1:0,0:0:0:0:
263,18,208018,2,0,P|321:70|326:131,1,101.999996887207,2|0,0:0|1:0,0:0:0:0:
86,274,208328,2,0,L|98:142,1,101.999996887207,10|0,0:0|0:0,0:0:0:0:
402,44,208637,2,0,P|406:121|366:168,1,101.999996887207,2|0,1:2|1:0,0:0:0:0:
37,102,208946,2,0,B|88:83|88:83|150:95,1,101.999996887207,10|0,0:0|0:0,0:0:0:0:
347,311,209255,6,0,P|414:329|496:227,1,203.999993774414,2|8,1:2|0:0,0:0:0:0:
325,84,209719,1,2,0:0:0:0:
205,264,209874,6,0,B|181:282|147:283|147:283|104:250|33:263,1,152.999995330811,2|0,1:2|0:0,0:0:0:0:
136,137,210183,2,0,B|163:148|181:177|181:177|174:231|221:286,1,152.999995330811,10|0,0:0|0:0,0:0:0:0:
332,351,210493,6,0,B|356:369|390:370|390:370|433:337|504:350,1,152.999995330811,2|0,0:0|0:0,0:0:0:0:
401,224,210802,2,0,B|373:235|355:264|355:264|362:318|315:373,1,152.999995330811,10|0,0:0|0:0,0:0:0:0:
192,382,211111,1,2,1:2:0:0:
286,203,211266,1,0,1:0:0:0:
69,103,211420,2,0,L|85:216,1,101.999996887207,10|0,0:0|0:0,0:0:0:0:
290,106,211730,5,2,1:2:0:0:
158,46,211884,1,0,1:0:0:0:
362,32,212039,1,8,0:0:0:0:
236,256,212194,2,0,B|246:191|246:191|233:155|233:155|258:130|258:130|270:67,1,203.999993774414,0|0,0:0|1:0,0:0:0:0:
452,244,212658,6,0,P|401:244|341:165,1,152.999995330811,10|0,0:0|0:0,0:0:0:0:
478,113,212967,2,0,P|503:157|465:248,1,152.999995330811,2|0,0:0|0:0,0:0:0:0:
352,156,213276,2,0,P|377:111|475:99,1,152.999995330811,10|0,0:0|0:0,0:0:0:0:
452,243,213585,5,2,1:2:0:0:
235,156,213740,1,0,1:0:0:0:
174,292,213895,2,0,P|218:249|342:236,1,152.999995330811,10|0,0:0|0:0,0:0:0:0:
366,348,214204,6,0,B|332:296|332:296|354:136,1,203.999993774414,6|8,1:2|0:0,0:0:0:0:
512,35,214668,2,0,B|483:90|403:86|403:86|359:64|326:76,1,203.999993774414,2|0,0:0|1:0,0:0:0:0:
175,158,215132,2,0,P|226:217|248:84,1,280.500008560181,10|0,0:0|1:0,0:0:0:0:
73,92,215750,2,0,L|82:194,1,93.5000028533936,10|0,0:0|0:0,0:0:0:0:
281,272,216060,2,0,B|233:256|233:256|179:263,1,93.5000028533936,2|0,1:2|1:0,0:0:0:0:
303,369,216369,2,0,B|345:374|345:374|393:358,1,93.5000028533936,10|0,0:0|0:0,0:0:0:0:
110,166,216678,6,0,P|110:236|110:373,1,187.000005706787,2|8,1:2|0:0,0:0:0:0:
213,226,217142,1,0,0:0:0:0:
6,187,217297,1,0,1:0:0:0:
213,71,217451,1,0,1:0:0:0:
91,38,217606,2,0,P|24:24|-21:28,1,93.5000028533936,10|0,0:0|0:0,0:0:0:0:
110,166,217915,6,0,P|167:189|247:128,1,140.25000428009,2|0,1:2|0:0,0:0:0:0:
167,107,218225,6,0,P|200:158|301:154,1,140.25000428009,10|0,0:0|0:0,0:0:0:0:
247,91,218534,6,0,P|250:152|339:199,1,140.25000428009,2|0,1:2|0:0,0:0:0:0:
324,119,218843,5,10,3:0:0:0:
269,284,218998,1,4,3:0:0:0:
479,356,219152,6,0,B|473:324|490:290|490:290|487:259|462:227|462:227|452:261|420:294,1,187.000005706787,14|0,0:0|1:0,0:0:0:0:
276,367,219616,2,0,B|249:379|206:349|206:349|180:358|180:358|142:337|99:362,1,187.000005706787,14|0,0:0|1:0,0:0:0:0:
0,228,220080,2,0,P|45:276|116:263,1,140.25000428009,10|0,0:0|0:0,0:0:0:0:
245,177,220390,6,0,P|293:155|406:214,1,187.000005706787,2|0,1:2|0:0,0:0:0:0:
441,324,220853,1,2,1:2:0:0:
490,189,221008,2,0,P|492:132|477:99,1,93.5000028533936,8|0,0:0|1:0,0:0:0:0:
307,25,221317,2,0,P|264:43|234:79,1,93.5000028533936,14|0,0:0|0:0,0:0:0:0:
407,306,221627,5,8,3:0:0:0:
368,280,221704,1,8,3:0:0:0:
322,273,221781,1,8,3:0:0:0:
277,286,221858,1,8,3:0:0:0:
245,319,221936,1,8,3:0:0:0:
206,345,222013,1,8,3:0:0:0:
161,352,222090,1,8,3:0:0:0:
116,339,222167,1,8,3:0:0:0:
81,308,222245,2,0,L|95:252,1,46.7500014266968,8|0,0:0|0:0,0:0:0:0:
178,242,222400,2,0,L|164:186,1,46.7500014266968,8|0,0:0|0:0,0:0:0:0:
85,143,222554,1,8,3:0:0:0:
87,124,222631,1,8,3:0:0:0:
89,107,222708,1,8,0:0:0:0:
92,90,222785,1,4,3:0:0:0:
94,72,222864,6,0,B|140:43|185:63|185:63|238:84|278:64,1,187.000005706787,2|0,1:2|1:0,0:0:0:0:
458,24,223328,1,10,0:0:0:0:
273,159,223482,1,0,1:0:0:0:
488,227,223637,1,8,0:0:0:0:
312,331,223792,1,8,0:0:0:0:
282,344,223869,1,8,0:0:0:0:
249,347,223946,1,8,0:0:0:0:
218,337,224023,1,8,0:0:0:0:
192,318,224101,6,0,B|172:196|172:196|190:143,1,159.375,6|0,1:2|0:0,0:0:0:0:
222,91,224410,2,0,P|205:30|168:-6,1,106.25,8|0,0:0|0:0,0:0:0:0:
88,192,224719,1,0,1:0:0:0:
273,159,224874,1,0,1:0:0:0:
104,375,225029,2,0,P|72:320|72:267,1,106.25,10|0,0:0|1:0,0:0:0:0:
251,125,225338,6,0,B|299:107|340:135|340:135|365:128|365:128|415:165|472:137,1,212.5,0|8,0:0|0:0,0:0:0:0:
426,54,225802,1,0,0:0:0:0:
282,214,225957,1,0,1:0:0:0:
429,303,226111,2,0,L|415:235,1,53.125,2|0,1:2|0:0,0:0:0:0:
264,384,226266,2,0,L|278:316,1,53.125,10|0,0:0|0:0,0:0:0:0:
119,302,226420,2,0,L|109:250,1,53.125,2|0,0:0|0:0,0:0:0:0:
207,67,226575,6,0,B|223:122|223:122|202:277,1,212.5,2|8,1:2|0:0,0:0:0:0:
111,130,227039,1,0,0:0:0:0:
300,218,227194,2,0,L|414:195,1,106.25,0|0,1:0|1:0,0:0:0:0:
326,44,227503,6,0,P|288:96|288:154,1,106.25,10|0,0:0|1:0,0:0:0:0:
177,290,227812,2,0,P|187:226|228:185,1,106.25,2|0,0:0|1:0,0:0:0:0:
132,20,228121,2,0,P|142:83|183:124,1,106.25,10|0,0:0|0:0,0:0:0:0:
3,229,228431,2,0,P|55:191|113:191,1,106.25,2|0,1:2|1:0,0:0:0:0:
273,278,228740,1,10,0:0:0:0:
75,278,228895,1,2,0:0:0:0:
284,162,229049,6,0,B|329:133|376:151|376:151|415:197|467:180,1,159.375,2|0,1:2|0:0,0:0:0:0:
452,90,229359,2,0,B|430:133|430:133|453:289,1,159.375,10|0,0:0|0:0,0:0:0:0:
499,313,229668,6,0,B|454:342|407:324|407:324|368:278|316:295,1,159.375,2|0,1:2|0:0,0:0:0:0:
330,384,229977,2,0,B|352:341|352:341|329:185,1,159.375,10|0,0:0|0:0,0:0:0:0:
272,138,230286,6,0,P|268:74|292:26,1,106.25,2|0,0:0|1:0,0:0:0:0:
251,259,230596,2,0,L|108:245,1,106.25,10|0,0:0|0:0,0:0:0:0:
40,141,230905,2,0,P|94:157|190:100,1,159.375,2|0,1:2|0:0,0:0:0:0:
94,46,231214,6,0,B|79:76|86:102|86:102|105:121|105:121|83:156|83:156|120:203|102:257,1,212.5,10|0,0:0|1:0,0:0:0:0:
11,359,231678,1,0,1:0:0:0:
204,258,231833,1,10,0:0:0:0:
12,255,231987,1,0,0:0:0:0:
275,334,232142,1,0,1:0:0:0:
202,120,232297,1,0,1:0:0:0:
132,369,232451,1,8,0:0:0:0:
103,118,232606,5,0,1:0:0:0:
342,273,232761,1,0,0:0:0:0:
12,255,232915,1,0,1:0:0:0:
301,131,233070,2,0,L|449:114,1,106.25,10|0,0:0|0:0,0:0:0:0:
163,33,233379,2,0,L|15:16,1,106.25,2|0,1:2|1:0,0:0:0:0:
121,258,233688,2,0,P|142:180|79:106,1,159.375,10|0,0:0|0:0,0:0:0:0:
47,197,233998,6,0,B|103:223|150:200|150:200|211:170|267:206,1,212.5,6|8,1:2|0:0,0:0:0:0:
361,273,234462,1,0,0:0:0:0:
418,95,234616,2,0,P|409:155|394:316,1,212.5,2|8,1:2|0:0,0:0:0:0:
501,183,235080,1,2,1:2:0:0:
310,40,235235,6,0,P|251:41|184:49,1,106.25,2|0,0:0|1:0,0:0:0:0:
266,231,235544,2,0,P|276:182|257:119,1,106.25,10|0,0:0|0:0,0:0:0:0:
35,179,235853,2,0,P|21:232|40:289,1,106.25,2|0,1:2|1:0,0:0:0:0:
186,357,236163,2,0,B|303:334|303:334|351:346,1,159.375,10|0,0:0|0:0,0:0:0:0:
409,383,236472,6,0,P|385:325|388:234,1,106.25,2|0,1:2|1:0,0:0:0:0:
500,201,236781,2,0,P|522:118|501:48,1,159.375,10|0,0:0|0:0,0:0:0:0:
419,13,237091,2,0,L|313:3,1,106.25,2|0,1:2|1:0,0:0:0:0:
157,109,237400,2,0,L|262:98,1,106.25,10|0,0:0|0:0,0:0:0:0:
177,266,237709,6,0,B|98:227|32:253|32:253|97:292,1,212.5,2|8,1:2|0:0,0:0:0:0:
272,368,238173,1,0,0:0:0:0:
366,260,238328,2,0,P|385:206|380:144,1,106.25,2|0,1:2|1:0,0:0:0:0:
218,36,238637,2,0,P|206:94|229:158,1,106.25,10|0,0:0|0:0,0:0:0:0:
511,96,238946,6,0,B|374:64|374:64|287:96,1,212.5,2|8,1:2|0:0,0:0:0:0:
258,218,239410,1,0,0:0:0:0:
60,130,239565,2,0,L|192:108,1,106.25,2|0,1:2|1:0,0:0:0:0:
451,285,239874,5,10,0:0:0:0:
155,238,240029,1,0,1:0:0:0:
437,197,240183,5,8,0:0:0:0:
71,216,240338,1,0,1:0:0:0:
365,141,240493,5,10,0:0:0:0:
31,292,240648,1,0,1:0:0:0:
347,55,240802,5,10,0:0:0:0:
91,356,240956,1,0,1:0:0:0:
273,1,241111,5,8,0:0:0:0:
166,322,241266,1,8,3:0:0:0:
24,114,241420,6,0,L|130:123,1,106.25,0|0,1:0|1:0,0:0:0:0:
359,322,241730,2,0,L|253:331,1,106.25,8|0,0:0|1:0,0:0:0:0:
375,94,242039,5,8,0:0:0:0:
438,259,242194,1,0,1:0:0:0:
302,37,242348,5,10,0:0:0:0:
193,191,242503,1,8,0:0:0:0:
505,187,242658,6,0,P|439:165|341:231,1,178.499994552612,2|0,0:0|0:0,0:0:0:0:
130,110,243121,2,0,P|196:88|294:154,1,178.499994552612,2|0,0:0|0:0,0:0:0:0:
384,259,243585,1,2,0:0:0:0:
153,330,243740,1,0,1:0:0:0:
140,334,243817,1,0,1:0:0:0:
123,339,243895,6,0,L|18:350,1,89.2499972763062,6|0,1:2|0:0,0:0:0:0:
195,234,244204,2,0,L|300:245,1,89.2499972763062,8|0,0:0|0:0,0:0:0:0:
370,115,244513,1,0,1:0:0:0:
252,151,244668,1,0,1:0:0:0:
456,173,244823,1,8,0:0:0:0:
278,58,244977,6,0,B|202:67|202:67|175:89|175:89|89:98,1,178.499994552612,0|0,1:0|1:0,0:0:0:0:
361,10,245441,2,0,P|375:62|356:111,1,89.2499972763062,8|0,0:0|0:0,0:0:0:0:
283,243,245750,1,0,1:0:0:0:
456,173,245905,1,0,1:0:0:0:
386,364,246060,2,0,B|376:261|376:261|407:205,1,133.874995914459,8|0,0:0|0:0,0:0:0:0:
456,173,246369,6,0,P|470:111|458:66,1,89.2499972763062,0|0,1:0|1:0,0:0:0:0:
247,145,246678,2,0,L|362:129,1,89.2499972763062,8|0,0:0|0:0,0:0:0:0:
184,63,246987,1,0,1:0:0:0:
191,258,247142,1,0,1:0:0:0:
64,104,247297,1,8,0:0:0:0:
45,335,247451,6,0,P|102:290|229:297,1,178.499994552612,0|0,1:0|1:0,0:0:0:0:
336,370,247915,2,0,P|311:324|304:275,1,89.2499972763062,8|0,0:0|0:0,0:0:0:0:
442,168,248225,1,0,1:0:0:0:
413,290,248379,1,0,1:0:0:0:
313,131,248534,2,0,L|191:116,1,89.2499972763062,8|0,0:0|0:0,0:0:0:0:
84,229,248843,6,0,P|145:227|183:204,1,89.2499972763062,0|0,1:0|0:0,0:0:0:0:
147,33,249152,2,0,P|86:35|48:58,1,89.2499972763062,8|0,0:0|0:0,0:0:0:0:
224,120,249462,1,0,1:0:0:0:
331,11,249616,1,0,1:0:0:0:
236,31,249771,1,8,0:0:0:0:
311,167,249926,6,0,L|303:275,1,89.2499972763062,0|0,1:0|0:0,0:0:0:0:
388,95,250235,1,0,1:0:0:0:
407,187,250390,1,8,0:0:0:0:
478,33,250544,2,0,L|485:123,1,89.2499972763062,0|0,0:0|1:0,0:0:0:0:
468,311,250853,1,0,1:0:0:0:
304,256,251008,2,0,P|247:236|185:242,1,89.2499972763062,8|0,0:0|0:0,0:0:0:0:
91,328,251317,6,0,L|214:308,1,89.2499972763062,0|0,1:0|1:0,0:0:0:0:
10,140,251627,2,0,L|133:160,1,89.2499972763062,8|0,0:0|0:0,0:0:0:0:
231,40,251936,1,0,1:0:0:0:
142,82,252091,1,0,1:0:0:0:
181,230,252245,2,0,P|205:166|202:123,1,89.2499972763062,10|0,0:0|1:0,0:0:0:0:
104,276,252554,6,0,B|175:267|175:267|226:289|226:289|279:281,1,178.499994552612,2|8,0:0|0:0,0:0:0:0:
351,104,253018,2,0,B|314:152|328:204|328:204|366:228|367:289,1,178.499994552612,2|0,0:0|1:0,0:0:0:0:
498,185,253482,2,0,P|438:164|405:167,1,89.2499972763062,10|0,0:0|0:0,0:0:0:0:
239,213,253792,6,0,B|201:230|157:203|157:203|143:215|143:215|93:192|54:208,1,178.499994552612,2|8,1:2|0:0,0:0:0:0:
87,300,254255,1,0,0:0:0:0:
210,131,254410,2,0,P|265:113|324:120,1,89.2499972763062,0|0,1:0|1:0,0:0:0:0:
382,220,254719,1,8,0:0:0:0:
475,89,254874,6,0,B|460:158|460:158|479:188|479:188|469:277,1,178.499994552612,0|0,1:0|1:0,0:0:0:0:
353,349,255338,2,0,P|314:345|267:327,1,89.2499972763062,8|0,0:0|0:0,0:0:0:0:
155,215,255647,1,0,1:0:0:0:
333,251,255802,1,0,1:0:0:0:
97,299,255957,1,8,0:0:0:0:
247,192,256111,1,0,0:0:0:0:
84,82,256266,6,0,B|64:113|64:113|83:180,1,89.2499972763062,0|0,1:0|1:0,0:0:0:0:
218,357,256575,2,0,B|238:326|238:326|219:259,1,89.2499972763062,8|0,0:0|0:0,0:0:0:0:
29,239,256884,1,0,1:0:0:0:
143,303,257039,1,0,1:0:0:0:
247,192,257194,2,0,P|320:166|371:164,1,89.2499972763062,8|0,0:0|1:0,0:0:0:0:
475,259,257503,6,0,P|431:249|390:231,1,89.2499972763062,0|0,0:0|1:0,0:0:0:0:
391,52,257812,1,8,0:0:0:0:
466,150,257967,1,0,0:0:0:0:
207,88,258121,2,0,L|406:72,1,178.499994552612,0|8,1:0|0:0,0:0:0:0:
281,205,258585,1,0,0:0:0:0:
120,148,258740,6,0,P|71:134|11:140,1,89.2499972763062,0|0,1:0|0:0,0:0:0:0:
154,303,259049,2,0,P|198:303|240:289,1,89.2499972763062,8|0,0:0|0:0,0:0:0:0:
388,151,259359,1,0,1:0:0:0:
371,276,259513,1,0,1:0:0:0:
286,101,259668,1,8,0:0:0:0:
490,45,259823,6,0,L|465:239,1,178.499994552612,0|0,1:0|1:0,0:0:0:0:
382,364,260286,2,0,L|367:252,1,89.2499972763062,8|0,0:0|0:0,0:0:0:0:
179,193,260596,1,0,1:0:0:0:
388,151,260750,1,0,1:0:0:0:
199,303,260905,2,0,P|150:304|111:282,1,89.2499972763062,8|0,0:0|0:0,0:0:0:0:
67,85,261214,5,0,1:0:0:0:
179,193,261369,1,0,1:0:0:0:
158,11,261524,5,8,0:0:0:0:
22,203,261678,1,0,1:0:0:0:
312,63,261833,5,8,0:0:0:0:
67,85,261987,1,0,1:0:0:0:
337,220,262142,5,8,0:0:0:0:
102,159,262297,1,0,1:0:0:0:
371,0,262451,6,0,P|399:57|392:93,1,89.2499972763062,12|0,0:0|1:0,0:0:0:0:
236,151,262761,1,8,0:0:0:0:
440,269,262915,2,0,B|367:261|367:261|331:279|331:279|228:270,1,178.499994552612,4|8,1:2|0:0,0:0:0:0:
111,331,263379,1,8,0:0:0:0:
307,192,263534,1,8,0:0:0:0:
107,109,263688,5,4,1:2:0:0:
208,324,263843,1,0,1:0:0:0:
289,92,263998,5,10,0:0:0:0:
111,331,264152,1,2,1:2:0:0:
195,78,264307,5,2,1:2:0:0:
301,287,264462,1,10,3:0:0:0:
382,66,264616,5,10,0:0:0:0:
208,324,264771,1,2,1:2:0:0:
89,142,264926,5,10,0:0:0:0:
330,170,265080,1,2,1:2:0:0:
74,159,265235,5,10,0:0:0:0:
343,150,265390,1,2,1:2:0:0:
24,272,265544,5,2,1:2:0:0:
243,244,265698,1,2,1:2:0:0:
9,255,265853,5,10,0:0:0:0:
256,264,266008,1,10,0:0:0:0:
134,57,266163,6,0,P|110:136|115:174,1,89.2499972763062,4|0,1:2|1:0,0:0:0:0:
224,341,266472,1,10,0:0:0:0:
252,136,266627,1,2,1:2:0:0:
91,238,266781,2,0,L|201:221,1,89.2499972763062,2|10,1:2|3:0,0:0:0:0:
404,348,267091,2,0,L|315:337,1,89.2499972763062,10|2,0:0|1:2,0:0:0:0:
332,62,267400,6,0,P|392:110|406:145,1,89.2499972763062,10|2,0:0|1:2,0:0:0:0:
224,341,267709,2,0,L|208:230,1,89.2499972763062,10|2,0:0|1:2,0:0:0:0:
422,90,268018,6,0,P|430:166|415:201,1,89.2499972763062,2|2,1:2|1:2,0:0:0:0:
198,326,268328,2,0,L|182:215,1,89.2499972763062,10|10,0:0|0:0,0:0:0:0:
117,183,268560,1,8,0:0:0:0:
117,183,268637,6,0,L|126:82,1,89.2499972763062,4|0,1:2|1:0,0:0:0:0:
338,189,268946,5,10,0:0:0:0:
50,271,269101,1,2,1:2:0:0:
388,316,269255,5,2,1:2:0:0:
34,281,269410,1,10,3:0:0:0:
360,171,269565,5,10,0:0:0:0:
16,288,269719,1,2,1:2:0:0:
239,368,269874,5,10,0:0:0:0:
254,208,270029,1,2,1:2:0:0:
259,367,270183,5,10,0:0:0:0:
233,208,270338,1,2,1:2:0:0:
100,381,270493,5,2,1:2:0:0:
85,221,270648,1,2,1:2:0:0:
79,380,270802,5,10,0:0:0:0:
105,221,270957,1,10,0:0:0:0:
324,289,271111,6,0,P|386:287|419:270,1,89.2499972763062,4|0,1:2|1:0,0:0:0:0:
472,80,271420,1,10,0:0:0:0:
353,201,271575,1,2,1:2:0:0:
225,48,271730,2,0,P|163:50|130:67,1,89.2499972763062,2|10,1:2|3:0,0:0:0:0:
105,221,272039,2,0,P|167:219|200:202,1,89.2499972763062,10|2,0:0|1:2,0:0:0:0:
46,22,272348,6,0,L|40:122,1,89.2499972763062,10|2,0:0|1:2,0:0:0:0:
280,245,272658,2,0,L|274:145,1,89.2499972763062,10|2,0:0|1:2,0:0:0:0:
134,292,272967,5,2,1:2:0:0:
362,194,273121,1,2,1:2:0:0:
132,137,273276,1,10,0:0:0:0:
203,352,273431,1,10,0:0:0:0:
211,355,273508,1,8,0:0:0:0:
219,358,273585,6,0,L|328:335,1,89.2499972763062,4|0,1:2|1:0,0:0:0:0:
512,278,273895,5,10,0:0:0:0:
228,253,274049,1,2,1:2:0:0:
453,62,274204,5,2,1:2:0:0:
434,350,274359,1,10,3:0:0:0:
236,114,274513,5,10,0:0:0:0:
512,137,274668,1,2,1:2:0:0:
306,339,274823,6,0,L|190:327,1,89.2499972763062,10|2,0:0|1:2,0:0:0:0:
23,245,275132,2,0,L|139:233,1,89.2499972763062,10|2,0:0|1:2,0:0:0:0:
75,58,275441,6,0,P|53:100|63:150,1,89.2499972763062,2|2,1:2|1:2,0:0:0:0:
190,293,275750,2,0,P|212:251|202:201,1,89.2499972763062,10|10,0:0|0:0,0:0:0:0:
47,353,276060,5,4,1:2:0:0:
299,266,276214,1,2,1:2:0:0:
58,161,276369,6,0,L|187:146,1,89.2499972763062,10|2,0:0|1:2,0:0:0:0:
401,83,276678,2,0,L|272:68,1,89.2499972763062,2|10,1:2|3:0,0:0:0:0:
190,293,276987,2,0,L|319:278,1,89.2499972763062,10|2,0:0|1:2,0:0:0:0:
492,170,277297,5,10,0:0:0:0:
224,145,277451,1,2,1:2:0:0:
402,362,277606,5,10,0:0:0:0:
401,83,277761,1,2,1:2:0:0:
190,293,277915,5,2,1:2:0:0:
460,284,278070,1,2,1:2:0:0:
284,65,278225,5,10,0:0:0:0:
285,367,278379,1,10,0:0:0:0:
401,83,278534,6,0,P|458:69|496:73,1,89.2499972763062,4|0,1:2|1:0,0:0:0:0:
488,373,278843,2,0,P|443:374|401:361,1,89.2499972763062,10|2,0:0|1:2,0:0:0:0:
181,178,279152,5,2,1:2:0:0:
469,240,279307,1,10,3:0:0:0:
80,276,279462,5,10,0:0:0:0:
339,163,279616,1,2,1:2:0:0:
120,22,279771,6,0,P|111:80|113:126,1,89.2499972763062,10|2,0:0|1:2,0:0:0:0:
269,326,280080,2,0,P|278:268|276:222,1,89.2499972763062,10|2,0:0|1:2,0:0:0:0:
29,181,280390,5,2,1:2:0:0:
291,251,280544,1,2,1:2:0:0:
0,341,280699,5,10,0:0:0:0:
305,258,280853,1,10,0:0:0:0:
173,78,281008,6,0,B|154:109|154:109|166:195,1,89.2499972763062,4|0,1:2|1:0,0:0:0:0:
325,27,281317,2,0,P|274:11|229:23,1,89.2499972763062,10|2,0:0|1:2,0:0:0:0:
393,169,281627,2,0,B|400:116|400:116|381:85,1,89.2499972763062,2|10,1:2|3:0,0:0:0:0:
206,261,281936,5,10,0:0:0:0:
470,205,282091,1,2,1:2:0:0:
134,198,282245,5,10,0:0:0:0:
402,298,282400,1,2,1:2:0:0:
187,348,282554,2,0,L|205:260,1,89.2499972763062,10|10,0:0|3:0,0:0:0:0:
192,90,282864,5,2,1:2:0:0:
443,201,283018,1,6,3:0:0:0:
204,260,283173,5,10,0:0:0:0:
406,114,283328,1,0,1:2:0:0:
80,170,283482,6,0,B|12:193|29:273|105:284|130:221|130:221|183:138|287:160|335:247|271:327|271:327|354:279|335:187|335:187|336:110|392:88|485:133|442:201|442:201|368:166|451:38|451:38|465:58|497:80,1,1122.00003424072,6|0,1:2|0:0,0:0:0:0:
256,192,293982,12,0,304053,0:0:0:0:
