osu file format v14

[General]
AudioFilename: Fairytale.mp3
AudioLeadIn: 500
PreviewTime: 202839
Countdown: 0
SampleSet: Soft
StackLeniency: 0.4
Mode: 0
LetterboxInBreaks: 0
EpilepsyWarning: 1
WidescreenStoryboard: 1

[Editor]
Bookmarks: 143767
DistanceSpacing: 2
BeatDivisor: 4
GridSize: 4
TimelineZoom: 2.1

[Metadata]
Title:Fairytale,
TitleUnicode:Fairytale,
Artist:cillia
ArtistUnicode:シリア
Creator:Nevo
Version:Collab Insane
Source:
Tags:kyaami vocaloid vocaloid4 buzzG VY1V4 cover japanese rock nikakis fieryrage
BeatmapID:2164137
BeatmapSetID:1000669

[Difficulty]
HPDrainRate:5
CircleSize:4
OverallDifficulty:8.2
ApproachRate:9
SliderMultiplier:1.5
SliderTickRate:1

[Events]
//Background and Video events
0,0,"bg.jpg",0,0
Video,0,"Videoplayback (2)-1.m4v"
//Break Periods
2,80796,82470
2,121621,127470
//Storyboard Layer 0 (Background)
//Storyboard Layer 1 (Fail)
//Storyboard Layer 2 (Pass)
//Storyboard Layer 3 (Foreground)
//Storyboard Layer 4 (Overlay)
//Storyboard Sound Samples

[TimingPoints]
184,309.278350515464,4,2,1,55,1,0
184,-250,4,2,1,55,0,0
26163,-250,4,2,1,50,0,0
26781,-250,4,2,1,45,0,0
27400,-250,4,2,1,40,0,0
28019,-250,4,2,1,35,0,0
28637,-250,4,2,1,30,0,0
31111,-250,4,2,1,55,0,0
38534,-500,4,2,1,50,0,0
39771,-500,4,2,1,45,0,0
41936,-250,4,2,1,55,0,0
42245,-125,4,2,1,60,0,0
42709,-76.9230769230769,4,2,1,85,0,0
43173,-125,4,2,1,85,0,0
43482,-100,4,2,1,90,0,1
58328,-111.111111111111,4,2,1,90,0,0
62812,-111.111111111111,4,2,1,85,0,0
63276,-100,4,2,1,90,0,1
80596,-125,4,2,1,80,0,0
90029,-125,4,2,1,85,0,0
90338,-125,4,2,1,90,0,0
90493,-100,4,2,1,90,0,1
100390,-200,4,2,1,90,0,0
101627,-111.111111111111,4,2,1,90,0,0
111524,-100,4,2,1,90,0,0
118946,-100,4,2,1,80,0,0
121421,309.278350515464,6,2,1,70,1,0
128070,-142.857142857143,6,2,1,70,0,0
128843,-200,6,2,1,70,0,0
141833,-142.857142857143,6,2,1,70,0,0
143225,-117.647058823529,6,2,1,70,0,0
154823,309.278350515464,4,2,1,80,1,0
159152,-100,4,2,1,85,0,0
179565,-125,4,2,1,75,0,0
185750,-125,4,2,1,70,0,0
189462,-125,4,2,1,80,0,0
198121,-250,4,2,1,50,0,0
198508,-250,4,2,1,5,0,0
198584,-250,4,2,1,45,0,0
198585,-250,4,2,1,45,0,0
198972,-250,4,2,1,5,0,0
199049,-250,4,2,1,40,0,0
199281,-250,4,2,1,5,0,0
199359,-500,4,2,1,35,0,0
200286,-1000,4,2,1,30,0,0
202373,-1000,4,2,1,5,0,0
202374,-1000,4,2,1,5,0,0
202451,-1000,4,2,1,60,0,0
202761,-166.666666666667,4,2,1,60,0,0
203070,-100,4,2,1,75,0,0
203534,-100,4,2,1,75,0,0
203998,-133.333333333333,4,2,1,75,0,0
204307,-100,4,2,1,90,0,1
219152,-100,4,2,1,90,0,0
224101,-90.9090909090909,4,2,1,90,0,1
242658,-125,4,2,1,80,0,0
243895,-100,4,2,1,80,0,0
263688,-90.9090909090909,4,2,1,90,0,0
283482,857.142857142857,4,2,1,80,1,0
283482,-200,4,2,1,80,0,0
285196,-200,4,2,1,75,0,0
286910,-200,4,2,1,70,0,0
288624,-200,4,2,1,65,0,0
290339,-200,4,2,1,60,0,0
292053,-200,4,2,1,55,0,0
293767,-200,4,2,1,30,0,0

[Colours]
Combo1 : 88,157,190
Combo2 : 80,160,160
Combo3 : 139,136,116
Combo4 : 157,145,166

[HitObjects]
132,109,1111,6,0,L|130:148,1,30,2|2,0:0|0:0,0:0:0:0:
151,218,1421,6,0,P|123:220|88:206,1,60,2|2,0:0|0:0,0:0:0:0:
262,192,1885,2,0,P|264:220|250:255,1,60,2|2,0:0|0:0,0:0:0:0:
239,84,2348,2,0,P|295:74|359:88,1,120,2|2,0:0|0:0,0:0:0:0:
417,140,3276,1,2,0:0:0:0:
487,101,3586,1,2,0:0:0:0:
386,217,3895,6,0,P|380:250|385:283,1,60,2|2,0:0|0:0,0:0:0:0:
288,337,4359,2,0,P|294:304|289:271,1,60,2|2,0:0|0:0,0:0:0:0:
198,231,4823,2,0,B|138:236|138:236|74:202,1,120,2|0,0:0|0:0,0:0:0:0:
18,163,5751,1,0,0:0:0:0:
173,57,6060,2,0,L|175:92,1,30,2|2,0:0|0:0,0:0:0:0:
248,121,6369,6,0,P|281:125|312:117,1,60,2|2,0:0|0:0,0:0:0:0:
373,80,6833,2,0,P|402:74|431:78,1,60,2|2,0:0|0:0,0:0:0:0:
501,114,7297,2,0,P|494:175|510:233,1,120,2|2,0:0|0:0,0:0:0:0:
452,288,8225,1,0,0:0:0:0:
374,268,8534,1,2,0:0:0:0:
302,294,8843,6,0,P|253:281|209:290,2,90,2|2|2,0:0|0:0|0:0,0:0:0:0:
140,345,10390,1,0,0:0:0:0:
105,275,10699,1,0,0:0:0:0:
130,199,11008,2,0,P|132:180|130:160,1,30,2|2,0:0|0:0,0:0:0:0:
98,95,11318,6,0,P|130:88|164:94,1,60,2|2,0:0|0:0,0:0:0:0:
225,131,11781,2,0,P|254:134|283:127,1,60,2|2,0:0|0:0,0:0:0:0:
394,43,12245,2,0,L|396:116,1,60,2|0,0:0|0:0,0:0:0:0:
399,219,12864,1,2,0:0:0:0:
323,201,13173,1,2,0:0:0:0:
263,252,13482,1,2,0:0:0:0:
431,347,13792,6,0,P|436:320|430:283,1,60,2|2,0:0|0:0,0:0:0:0:
399,219,14256,2,0,P|394:189|399:159,1,60,2|2,0:0|0:0,0:0:0:0:
463,78,14720,2,0,P|406:59|340:74,1,120,2|2,0:0|0:0,0:0:0:0:
276,101,15647,2,0,P|259:102|241:100,1,30,2|2,0:0|0:0,0:0:0:0:
111,223,16111,5,2,0:0:0:0:
103,216,16266,2,0,P|98:174|106:145,1,60,2|2,0:0|0:0,0:0:0:0:
191,195,16730,2,0,P|196:237|188:266,1,60,2|2,0:0|0:0,0:0:0:0:
154,332,17194,1,2,0:0:0:0:
404,275,17812,1,2,0:0:0:0:
324,234,18122,1,0,0:0:0:0:
398,184,18431,1,2,0:0:0:0:
272,127,18740,6,0,P|240:121|203:131,1,60,2|2,0:0|0:0,0:0:0:0:
144,161,19204,2,0,P|114:166|85:160,1,60,2|2,0:0|0:0,0:0:0:0:
27,109,19668,1,2,0:0:0:0:
211,359,20287,1,0,0:0:0:0:
266,296,20596,1,0,0:0:0:0:
253,213,20905,1,2,0:0:0:0:
57,331,21214,6,0,L|55:235,2,90,2|0|2,0:0|0:0|0:0,0:0:0:0:
58,351,22761,1,2,0:0:0:0:
253,213,23379,1,2,0:0:0:0:
158,184,23689,5,2,0:0:0:0:
230,118,23998,1,2,0:0:0:0:
299,49,24307,1,2,0:0:0:0:
384,97,24616,2,0,P|428:101|478:81,1,90,2|0,0:0|0:0,0:0:0:0:
494,69,25235,1,2,0:0:0:0:
312,244,25854,1,2,0:0:0:0:
367,318,26163,6,0,P|427:328|488:306,2,120,2|2|2,0:0|0:0|0:0,0:0:0:0:
312,244,28019,1,2,0:0:0:0:
240,303,28637,6,0,B|186:320|145:294|145:294|128:294|112:309|112:309|70:273|79:206,1,240,2|2,0:0|0:0,0:0:0:0:
188,73,30957,5,2,0:0:0:0:
197,67,31111,2,0,L|265:63,1,60,2|2,0:0|0:0,0:0:0:0:
333,82,31575,2,0,L|392:78,1,60,2|2,0:0|0:0,0:0:0:0:
467,103,32039,2,0,P|484:159|467:229,1,120,2|2,0:0|0:0,0:0:0:0:
311,300,33276,1,2,0:0:0:0:
232,273,33586,6,0,P|196:271|169:279,1,60,2|2,0:0|0:0,0:0:0:0:
106,320,34049,2,0,P|76:326|47:324,1,60,2|2,0:0|0:0,0:0:0:0:
13,251,34513,2,0,L|10:124,1,120,2|2,0:0|0:0,0:0:0:0:
178,26,35751,1,2,0:0:0:0:
256,57,36060,6,0,P|299:60|372:25,1,120,2|2,0:0|0:0,0:0:0:0:
442,58,36988,2,0,L|447:191,1,120,2|2,0:0|0:0,0:0:0:0:
185,342,38534,6,0,P|127:329|65:343,1,120,2|2,0:0|0:0,0:0:0:0:
68,341,41936,6,0,P|72:316|67:290,1,45,2|0,0:0|0:0,0:0:0:0:
59,265,42245,2,0,P|50:203|75:135,1,120,2|0,0:0|0:0,0:0:0:0:
153,103,42709,6,0,B|174:108|174:108|188:102|188:102|204:107|204:107|224:100|224:100|251:106|251:106|310:71|389:101,1,243.749988842011,2|0,0:0|0:0,0:0:0:0:
419,119,43173,2,0,P|428:149|425:189,1,60,2|0,0:0|0:0,0:0:0:0:
262,285,43482,6,0,L|166:287,1,75,6|0,1:2|0:0,0:0:0:0:
366,346,43792,2,0,L|462:348,1,75,8|0,0:0|0:0,0:0:0:0:
261,175,44101,1,0,1:0:0:0:
359,232,44256,1,0,1:0:0:0:
187,286,44410,1,10,0:0:0:0:
198,91,44565,6,0,P|274:77|351:115,1,150,0|0,1:0|1:0,0:0:0:0:
118,128,45029,2,0,P|110:88|118:49,1,75,8|0,0:0|0:0,0:0:0:0:
261,175,45338,1,0,1:0:0:0:
46,234,45493,1,0,1:0:0:0:
187,286,45647,2,0,P|194:322|189:359,1,75,8|0,0:0|0:0,0:0:0:0:
261,175,45957,5,0,1:0:0:0:
261,175,46111,1,0,1:0:0:0:
357,79,46266,2,0,P|394:70|437:74,1,75,8|0,0:0|0:0,0:0:0:0:
343,259,46575,1,0,1:0:0:0:
462,165,46730,1,0,1:0:0:0:
258,102,46885,2,0,P|252:138|260:174,1,75,10|0,0:0|0:0,0:0:0:0:
345,332,47194,6,0,P|350:295|342:258,1,75,2|0,0:0|0:0,0:0:0:0:
151,284,47503,2,0,P|187:289|224:281,1,75,10|0,0:0|0:0,0:0:0:0:
341,173,47812,1,2,1:2:0:0:
341,173,47967,1,0,0:0:0:0:
176,126,48122,1,10,0:0:0:0:
162,121,48431,6,0,B|126:110|89:121|89:121|51:133|9:119,1,150,2|8,1:2|0:0,0:0:0:0:
124,302,48895,1,2,0:0:0:0:
124,302,49049,2,0,L|122:202,1,75,2|0,1:2|1:0,0:0:0:0:
267,116,49359,2,0,L|268:190,1,75,10|0,0:0|1:0,0:0:0:0:
273,354,49668,5,2,0:0:0:0:
363,231,49823,1,0,1:0:0:0:
196,308,49977,2,0,P|161:312|116:297,1,75,10|0,0:0|0:0,0:0:0:0:
62,157,50287,2,0,P|51:192|56:230,1,75,2|0,1:2|1:0,0:0:0:0:
144,102,50596,2,0,P|181:98|216:108,1,75,10|0,0:0|0:0,0:0:0:0:
363,231,50905,5,2,1:2:0:0:
305,61,51060,1,0,1:0:0:0:
441,188,51214,2,0,B|466:238|440:285|440:285|458:307|459:336,1,150,8|0,0:0|1:0,0:0:0:0:
269,305,51678,1,0,1:0:0:0:
269,305,51833,2,0,P|237:300|195:308,1,75,10|0,0:0|1:0,0:0:0:0:
340,154,52142,6,0,L|342:241,1,75,2|0,0:0|1:0,0:0:0:0:
133,236,52452,2,0,L|131:149,1,75,10|0,0:0|0:0,0:0:0:0:
236,48,52761,1,2,1:2:0:0:
236,48,52915,1,0,1:0:0:0:
239,198,53070,1,10,0:0:0:0:
240,213,53379,6,0,L|245:374,1,150,6|8,1:2|0:0,0:0:0:0:
397,320,53843,2,0,P|413:265|354:302,1,150,2|0,0:0|1:0,0:0:0:0:
470,199,54307,2,0,P|437:174|396:168,1,75,10|0,0:0|0:0,0:0:0:0:
240,213,54616,5,0,0:0:0:0:
240,213,54771,1,0,1:0:0:0:
310,132,54926,2,0,P|313:94|300:51,1,75,8|0,0:0|0:0,0:0:0:0:
152,184,55235,2,0,P|149:222|162:265,1,75,2|0,1:2|1:0,0:0:0:0:
177,76,55544,2,0,P|139:73|96:86,1,75,10|0,0:0|0:0,0:0:0:0:
98,332,55854,6,0,P|147:344|250:306,1,150,2|8,1:2|0:0,0:0:0:0:
340,211,56318,1,0,1:0:0:0:
340,211,56472,2,0,L|343:300,1,75,0|0,1:0|1:0,0:0:0:0:
453,167,56781,2,0,L|450:256,1,75,10|0,0:0|0:0,0:0:0:0:
289,96,57091,6,0,P|332:84|372:90,1,75,2|0,1:2|1:0,0:0:0:0:
227,244,57400,2,0,P|189:246|154:234,1,75,10|0,0:0|0:0,0:0:0:0:
117,72,57709,1,2,1:2:0:0:
0,191,57864,1,8,0:0:0:0:
202,157,58019,1,8,3:0:0:0:
202,157,58173,1,4,3:0:0:0:
154,234,58328,6,0,P|143:291|172:369,1,134.999995880127,6|8,1:2|0:0,0:0:0:0:
368,278,58792,2,0,P|311:267|233:296,1,134.999995880127,2|0,1:2|1:0,0:0:0:0:
154,234,59256,2,0,L|151:162,1,67.4999979400635,10|0,0:0|0:0,0:0:0:0:
145,39,59565,5,2,1:2:0:0:
47,93,59720,1,0,0:0:0:0:
247,139,59874,1,8,0:0:0:0:
247,139,60029,2,0,P|309:145|378:116,1,134.999995880127,2|0,1:2|1:0,0:0:0:0:
470,20,60493,1,10,0:0:0:0:
482,12,60802,6,0,L|486:91,1,67.4999979400635,8|8,3:0|3:0,0:0:0:0:
446,204,61111,2,0,L|442:271,1,67.4999979400635,8|8,3:0|3:0,0:0:0:0:
296,53,61421,1,8,0:0:0:0:
510,153,61575,1,8,0:0:0:0:
240,225,61730,1,10,3:0:0:0:
240,225,61885,6,0,L|77:228,1,134.999995880127,4|0,3:0|0:0,0:0:0:0:
1,232,62348,1,8,0:0:0:0:
140,14,62503,2,0,P|159:54|150:155,1,134.999995880127,2|8,1:2|0:0,0:0:0:0:
140,173,62890,1,8,0:0:0:0:
140,173,62967,2,0,L|137:233,1,33.7499989700318,8|0,0:0|0:0,0:0:0:0:
290,129,63122,1,8,0:0:0:0:
290,129,63199,1,8,0:0:0:0:
290,129,63276,6,0,L|294:220,1,75,6|0,1:2|0:0,0:0:0:0:
154,358,63586,2,0,L|150:283,1,75,8|0,0:0|0:0,0:0:0:0:
302,347,63895,1,0,1:0:0:0:
140,173,64049,1,0,1:0:0:0:
370,264,64204,1,10,0:0:0:0:
176,86,64359,6,0,P|122:83|45:140,1,150,0|0,0:0|1:0,0:0:0:0:
293,203,64823,2,0,L|296:122,1,75,8|0,0:0|0:0,0:0:0:0:
150,283,65132,1,0,1:0:0:0:
302,347,65287,1,0,1:0:0:0:
139,278,65441,1,8,0:0:0:0:
375,249,65596,2,0,L|420:244,1,37.5
487,274,65751,6,0,P|490:231|475:194,1,75,0|0,1:0|1:0,0:0:0:0:
384,115,66060,1,8,0:0:0:0:
384,115,66214,1,0,0:0:0:0:
473,23,66369,1,0,1:0:0:0:
278,97,66524,1,0,1:0:0:0:
479,201,66678,2,0,P|490:236|486:273,1,75,10|0,0:0|1:0,0:0:0:0:
261,235,66988,6,0,P|257:272|268:307,1,75,2|0,0:0|1:0,0:0:0:0:
278,97,67297,2,0,B|199:88|199:88|133:126,1,150,10|2,0:0|1:2,0:0:0:0:
47,189,67761,1,0,1:0:0:0:
261,235,67915,1,10,0:0:0:0:
119,38,68070,1,0,0:0:0:0:
347,179,68225,6,0,P|361:228|323:319,1,150,2|8,1:2|0:0,0:0:0:0:
172,202,68689,1,2,0:0:0:0:
172,202,68843,2,0,P|198:166|239:149,1,75,2|0,1:2|1:0,0:0:0:0:
162,363,69153,2,0,P|118:370|77:353,1,75,10|0,0:0|1:0,0:0:0:0:
261,235,69462,5,2,0:0:0:0:
261,235,69616,1,0,1:0:0:0:
376,348,69771,2,0,P|419:355|460:338,1,75,10|0,0:0|0:0,0:0:0:0:
501,197,70080,2,0,P|510:233|503:270,1,75,2|0,1:2|1:0,0:0:0:0:
357,137,70390,2,0,P|392:128|429:136,1,75,10|0,0:0|0:0,0:0:0:0:
166,323,70699,5,0,1:0:0:0:
139,197,70854,1,0,1:0:0:0:
261,235,71008,2,0,P|297:243|333:234,1,75,10|0,0:0|0:0,0:0:0:0:
230,108,71318,1,0,1:0:0:0:
230,108,71472,1,0,1:0:0:0:
139,197,71627,1,8,0:0:0:0:
42,34,71781,6,0,B|20:103|20:103|43:200,1,150,0|0,1:0|1:0,0:0:0:0:
77,282,72245,2,0,P|84:314|79:360,1,75,10|0,0:0|0:0,0:0:0:0:
139,197,72555,2,0,P|161:221|179:263,1,75,2|0,1:2|1:0,0:0:0:0:
165,92,72864,2,0,P|196:101|233:129,1,75,10|0,0:0|0:0,0:0:0:0:
321,290,73173,6,0,P|384:298|458:251,1,150,6|8,1:2|0:0,0:0:0:0:
490,159,73637,1,2,0:0:0:0:
325,124,73792,2,0,L|324:203,2,75,2|0|8,1:2|0:0|0:0,0:0:0:0:
326,22,74256,1,2,1:2:0:0:
230,125,74410,6,0,P|192:131|150:120,1,75,2|0,0:0|1:0,0:0:0:0:
325,124,74720,2,0,P|363:118|405:129,1,75,10|0,0:0|0:0,0:0:0:0:
274,207,75029,1,2,1:2:0:0:
274,207,75184,1,0,1:0:0:0:
188,280,75338,1,10,0:0:0:0:
344,345,75493,1,8,0:0:0:0:
109,313,75647,6,0,P|104:274|114:234,1,75,6|0,1:2|0:0,0:0:0:0:
147,75,75957,2,0,P|152:114|142:154,1,75,10|0,0:0|0:0,0:0:0:0:
72,301,76266,2,0,P|87:264|115:235,1,75,2|0,1:2|0:0,0:0:0:0:
183,86,76575,2,0,P|167:122|139:151,1,75,10|0,0:0|0:0,0:0:0:0:
281,314,76885,6,0,B|393:319|393:319|347:288,1,150,2|8,1:2|0:0,0:0:0:0:
225,191,77503,1,2,1:2:0:0:
225,191,77658,1,0,1:0:0:0:
280,122,77812,2,0,P|285:85|278:47,1,75,10|0,0:0|0:0,0:0:0:0:
359,224,78122,6,0,P|354:261|361:299,1,75,2|0,1:2|0:0,0:0:0:0:
421,370,78431,1,0,1:0:0:0:
245,311,78586,1,8,0:0:0:0:
438,260,78740,1,2,1:2:0:0:
438,260,78895,1,0,0:0:0:0:
221,315,79049,2,0,L|120:317,1,75,8|0,0:0|0:0,0:0:0:0:
0,330,79359,5,2,1:2:0:0:
0,330,79436,1,0,1:0:0:0:
0,330,79513,1,0,1:0:0:0:
61,180,79668,1,0,1:0:0:0:
146,316,79823,1,0,1:0:0:0:
20,114,79977,1,10,0:0:0:0:
230,176,80132,2,0,P|269:178|310:164,2,75,8|8|8,0:0|0:0|0:0,0:0:0:0:
256,72,80596,5,6,1:2:0:0:
256,72,83070,5,0,1:2:0:0:
256,72,84771,5,0,1:0:0:0:
339,140,84926,2,0,L|342:199,1,60,8|0,0:0|1:0,0:0:0:0:
173,140,85235,2,0,L|169:199,1,60,8|4,3:0|3:0,0:0:0:0:
256,328,85544,5,4,1:2:0:0:
256,328,85699,1,0,1:0:0:0:
162,296,85854,2,0,P|131:293|98:303,1,60,2|2,0:0|1:2,0:0:0:0:
25,358,86163,1,10,0:0:0:0:
168,199,86472,1,2,1:2:0:0:
40,109,86781,6,0,P|34:75|37:46,1,60,2|10,0:0|0:0,0:0:0:0:
168,199,87091,2,0,P|169:228|164:258,1,60,2|2,0:0|1:2,0:0:0:0:
182,51,87400,1,10,0:0:0:0:
348,135,87709,2,0,P|380:137|411:131,1,60,2|2,1:2|0:0,0:0:0:0:
487,88,88019,5,2,1:2:0:0:
487,88,88173,1,8,0:0:0:0:
457,197,88328,2,0,P|451:254|472:322,1,120,2|10,0:0|0:0,0:0:0:0:
467,313,88946,1,2,0:0:0:0:
313,272,89256,6,0,P|285:269|247:276,1,60,2|10,0:0|0:0,0:0:0:0:
166,334,89565,2,0,P|138:337|100:330,1,60,2|0,1:2|1:0,0:0:0:0:
77,322,89797,1,0,0:0:0:0:
77,322,89874,5,2,1:2:0:0:
171,235,90029,1,2,1:2:0:0:
63,188,90184,1,8,0:0:0:0:
253,273,90338,2,0,L|294:290,1,30,8|8,0:0|0:0,0:0:0:0:
359,282,90493,6,0,L|444:278,1,75,4|0,1:2|1:2,0:0:0:0:
368,140,90802,1,10,0:0:0:0:
313,206,90957,1,2,1:2:0:0:
451,155,91111,1,2,1:2:0:0:
284,125,91266,1,2,0:0:0:0:
427,74,91421,2,0,P|460:71|507:89,1,75,10|2,0:0|1:2,0:0:0:0:
400,268,91730,5,10,0:0:0:0:
284,125,91885,1,2,1:2:0:0:
332,323,92039,5,10,0:0:0:0:
451,155,92194,1,2,0:0:0:0:
259,244,92348,6,0,P|219:250|182:241,1,75,2|2,1:2|1:2,0:0:0:0:
95,190,92658,2,0,P|58:182|21:188,1,75,10|10,0:0|0:0,0:0:0:0:
182,145,92967,5,4,1:2:0:0:
182,145,93122,1,0,1:2:0:0:
259,244,93276,2,0,P|265:282|261:321,1,75,10|2,0:0|1:2,0:0:0:0:
306,118,93586,2,0,P|300:80|304:41,1,75,2|2,1:2|0:0,0:0:0:0:
398,224,93895,2,0,P|404:262|400:301,1,75,10|2,0:0|1:2,0:0:0:0:
259,244,94204,5,2,1:2:0:0:
397,133,94359,1,2,1:2:0:0:
193,167,94513,5,10,0:0:0:0:
398,224,94668,1,2,0:0:0:0:
212,84,94823,6,0,P|167:85|135:101,1,75,2|2,1:2|1:2,0:0:0:0:
86,260,95132,2,0,P|71:225|72:188,1,75,10|10,0:0|0:0,0:0:0:0:
183,299,95441,6,0,B|247:297|247:297|264:308|264:308|342:305,1,150,4|10,1:2|0:0,0:0:0:0:
398,224,95905,1,2,1:2:0:0:
444,319,96060,1,2,1:2:0:0:
307,207,96214,1,2,0:0:0:0:
470,136,96369,2,0,P|482:94|479:57,1,75,10|2,0:0|1:2,0:0:0:0:
257,126,96678,5,2,0:0:0:0:
398,224,96833,1,2,1:2:0:0:
204,207,96988,5,10,0:0:0:0:
417,226,97142,1,2,0:0:0:0:
229,298,97297,6,0,P|186:299|153:285,1,75,2|2,1:2|1:2,0:0:0:0:
90,143,97606,1,10,0:0:0:0:
204,207,97761,1,10,0:0:0:0:
57,333,97915,6,0,P|44:291|49:256,1,75,4|0,1:2|1:2,0:0:0:0:
195,134,98225,2,0,P|207:175|202:210,1,75,10|2,0:0|1:2,0:0:0:0:
16,38,98534,2,0,L|113:34,1,75,2|2,1:2|0:0,0:0:0:0:
266,61,98843,1,2,1:2:0:0:
90,143,98998,1,10,0:0:0:0:
286,52,99153,5,2,1:2:0:0:
173,219,99307,1,2,1:2:0:0:
90,34,99462,5,10,0:0:0:0:
299,157,99616,1,2,0:0:0:0:
76,257,99771,6,0,L|71:339,1,75,2|10,1:2|0:0,0:0:0:0:
70,369,100003,1,0,1:0:0:0:
70,369,100080,1,10,0:0:0:0:
174,312,100235,1,10,0:0:0:0:
292,375,100390,6,0,B|302:373|302:373|309:375|309:375|313:374|313:374|319:375|319:375|326:374|326:374|334:375|334:375|339:374|339:374|343:375|343:375|348:373|348:373|353:374|353:374|358:374|358:374|365:375|365:375|369:373|369:373|374:375|374:375|382:374|382:374|388:375|388:375|396:372|396:372|405:374,1,112.5,2|0,0:0|1:0,0:0:0:0:
498,289,101008,2,0,B|470:284|470:284|438:295,2,56.25,8|2|2,0:0|0:0|1:2,0:0:0:0:
412,214,101627,6,0,P|395:152|413:84,1,134.999995880127,6|10,1:2|0:0,0:0:0:0:
308,122,102091,2,0,P|276:128|237:121,1,67.4999979400635,2|0,0:0|1:0,0:0:0:0:
156,75,102400,1,0,1:0:0:0:
242,251,102555,2,0,P|259:189|241:121,1,134.999995880127,10|0,0:0|1:0,0:0:0:0:
29,230,103173,5,10,0:0:0:0:
221,334,103482,1,2,1:2:0:0:
221,334,103637,1,0,1:0:0:0:
242,251,103792,2,0,P|208:248|176:260,1,67.4999979400635,10|0,0:0|0:0,0:0:0:0:
303,310,104101,6,0,P|355:317|446:291,1,134.999995880127,2|8,1:2|0:0,0:0:0:0:
480,192,104565,1,2,0:0:0:0:
480,192,104720,2,0,L|482:109,1,67.4999979400635,0|2,1:0|1:2,0:0:0:0:
359,161,105029,2,0,L|360:228,1,67.4999979400635,10|0,0:0|0:0,0:0:0:0:
412,71,105338,6,0,P|357:59|281:95,1,134.999995880127,0|8,1:0|0:0,0:0:0:0:
208,304,105957,1,0,1:0:0:0:
208,304,106112,1,0,1:0:0:0:
129,265,106266,2,0,P|97:260|59:267,1,67.4999979400635,10|2,0:0|0:0,0:0:0:0:
176,193,106575,6,0,P|185:131|161:54,1,134.999995880127,2|10,1:2|0:0,0:0:0:0:
29,123,107039,2,0,P|20:185|28:214,1,67.4999979400635,2|2,0:0|1:2,0:0:0:0:
73,311,107348,1,0,1:0:0:0:
73,311,107503,2,0,L|230:302,1,134.999995880127,10|0,0:0|1:0,0:0:0:0:
467,118,108122,5,10,0:0:0:0:
299,162,108431,1,2,1:2:0:0:
299,162,108586,1,0,1:0:0:0:
338,236,108740,2,0,P|344:277|341:305,1,67.4999979400635,10|0,0:0|0:0,0:0:0:0:
243,238,109049,6,0,P|181:248|99:223,1,134.999995880127,2|10,1:2|0:0,0:0:0:0:
28,135,109513,1,2,0:0:0:0:
28,135,109668,2,0,L|25:219,1,67.4999979400635,0|2,1:0|1:2,0:0:0:0:
180,157,109977,2,0,L|177:89,1,67.4999979400635,10|0,0:0|0:0,0:0:0:0:
29,300,110287,5,0,1:0:0:0:
133,334,110441,1,0,0:0:0:0:
214,260,110596,1,10,0:0:0:0:
318,294,110750,1,0,0:0:0:0:
239,371,110905,5,2,1:2:0:0:
295,190,111060,1,8,0:0:0:0:
318,294,111214,1,2,1:2:0:0:
444,239,111369,2,0,L|485:222,1,33.7499989700318,10|0,0:0|0:0,0:0:0:0:
331,110,111524,6,0,P|297:102|252:111,1,75,6|0,1:2|0:0,0:0:0:0:
141,229,111833,1,10,0:0:0:0:
141,229,111988,2,0,L|137:67,1,150,2|0,0:0|1:0,0:0:0:0:
292,264,112452,2,0,L|295:163,1,75,10|0,0:0|0:0,0:0:0:0:
201,329,112761,5,0,1:0:0:0:
201,329,112915,1,0,0:0:0:0:
141,229,113070,2,0,P|98:221|59:230,1,75,10|0,0:0|0:0,0:0:0:0:
292,264,113379,2,0,P|328:269|365:261,1,75,2|0,1:2|1:0,0:0:0:0:
468,98,113689,2,0,L|471:191,1,75,10|0,0:0|0:0,0:0:0:0:
292,264,113998,6,0,L|286:114,1,150,2|10,1:2|0:0,0:0:0:0:
199,37,114462,2,0,P|158:31|120:41,1,75,2|0,0:0|0:0,0:0:0:0:
28,102,114771,1,0,1:0:0:0:
204,200,114926,2,0,L|207:293,1,75,10|0,0:0|0:0,0:0:0:0:
113,152,115235,5,0,1:0:0:0:
113,152,115390,1,0,0:0:0:0:
286,114,115544,2,0,L|289:207,1,75,10|0,0:0|0:0,0:0:0:0:
293,309,115854,1,2,1:2:0:0:
387,236,116008,2,0,P|436:226|473:236,1,75,2|8,1:2|0:0,0:0:0:0:
286,114,116318,1,2,0:0:0:0:
286,114,116472,6,0,P|209:97|137:128,1,150,2|10,1:2|0:0,0:0:0:0:
48,263,116936,1,2,0:0:0:0:
48,263,117091,2,0,L|49:188,1,75,0|2,0:0|1:2,0:0:0:0:
219,334,117400,6,0,L|215:164,1,150,10|0,0:0|1:0,0:0:0:0:
210,0,118019,1,10,0:0:0:0:
394,140,118328,1,0,1:0:0:0:
394,140,118482,1,0,1:0:0:0:
474,95,118637,2,0,P|484:136|479:174,1,75,10|0,0:0|1:0,0:0:0:0:
277,289,118946,6,0,P|359:271|430:291,1,150,10|0,0:0|1:0,0:0:0:0:
177,145,119410,1,10,0:0:0:0:
250,199,119565,1,0,0:0:0:0:
256,109,119720,1,2,1:2:0:0:
173,226,119874,6,0,P|162:281|191:379,1,150,10|0,0:0|0:0,0:0:0:0:
277,289,120338,1,2,1:2:0:0:
177,145,120493,1,10,0:0:0:0:
357,192,120647,1,0,1:0:0:0:
101,176,120802,1,8,3:0:0:0:
335,80,120957,1,8,0:0:0:0:
277,289,121111,2,0,L|275:374,1,75,4|0,3:0|1:0,0:0:0:0:
357,192,121421,5,6,1:2:0:0:
357,192,128070,6,0,L|360:231,2,26.2499991989136
348,104,128379,2,0,L|343:51,1,52.4999983978272
174,325,128843,5,2,0:0:0:0:
105,105,129462,5,2,0:0:0:0:
105,105,129771,2,0,P|88:178|111:258,1,150,2|2,0:0|0:0,0:0:0:0:
174,325,130699,2,0,P|247:342|327:319,1,150,2|2,0:0|0:0,0:0:0:0:
390,251,131627,2,0,P|407:177|384:98,1,150,2|2,0:0|0:0,0:0:0:0:
205,8,132555,6,0,B|189:60|189:60|201:124,1,112.5,2|0,0:0|0:0,0:0:0:0:
156,201,133173,2,0,P|207:209|266:188,1,112.5,2|0,0:0|0:0,0:0:0:0:
341,143,133792,2,0,P|366:136|385:136,2,37.5
374,219,134410,1,0,0:0:0:0:
374,219,135029,6,0,P|382:256|377:306,1,75,2|2,0:0|0:0,0:0:0:0:
315,384,135647,1,2,0:0:0:0:
503,295,135957,2,0,L|462:294,1,37.5,2|0,0:0|0:0,0:0:0:0:
296,258,136266,6,0,P|243:250|174:263,1,112.5,2|0,0:0|0:0,0:0:0:0:
122,331,136884,2,0,P|99:289|100:217,1,112.5,2|0,0:0|0:0,0:0:0:0:
126,135,137503,1,0,0:0:0:0:
129,128,137658,1,0,0:0:0:0:
133,122,137812,2,0,L|135:71,1,37.5,2|0,0:0|0:0,0:0:0:0:
258,33,138122,6,0,L|253:186,1,150,2|2,0:0|0:0,0:0:0:0:
302,257,138895,1,0,0:0:0:0:
306,263,139049,2,0,P|333:268|384:255,1,75,2|0,0:0|0:0,0:0:0:0:
446,203,139513,1,0,0:0:0:0:
452,198,139668,1,2,0:0:0:0:
321,92,139977,6,0,P|256:80|171:113,1,150,2|2,0:0|0:0,0:0:0:0:
125,342,140905,2,0,P|98:272|109:199,1,150,2|2,0:0|0:0,0:0:0:0:
108,199,141833,6,0,L|-1:201,1,104.999996795654,2|0,0:0|0:0,0:0:0:0:
309,195,142451,2,0,L|200:197,1,104.999996795654
125,342,143070,5,0,0:0:0:0:
367,292,143225,1,8,0:0:0:0:
309,195,143379,2,0,P|301:163|304:128,1,63.7500012159348,10|0,3:0|0:0,0:0:0:0:
383,23,143689,6,0,P|402:69|397:150,1,127.50000243187,6|0,1:2|0:0,0:0:0:0:
303,132,144152,1,0,1:0:0:0:
215,226,144307,2,0,P|160:219|124:206,1,63.7500012159348,2|0,0:0|1:0,0:0:0:0:
69,147,144616,2,0,P|102:202|93:275,1,127.50000243187,10|0,0:0|0:0,0:0:0:0:
7,70,145235,2,0,L|88:57,1,63.7500012159348,2|0,1:2|0:0,0:0:0:0:
225,12,145544,6,0,L|352:22,1,127.50000243187,2|0,1:2|0:0,0:0:0:0:
431,63,146008,1,0,1:0:0:0:
303,132,146163,1,0,0:0:0:0:
472,313,146472,2,0,P|428:297|396:298,1,63.7500012159348,10|0,0:0|0:0,0:0:0:0:
411,215,146781,2,0,P|364:219|335:233,1,63.7500012159348,2|0,0:0|0:0,0:0:0:0:
234,302,147091,2,0,P|191:282|169:258,1,63.7500012159348,2|0,1:2|1:0,0:0:0:0:
121,328,147400,6,0,P|96:291|180:190,1,191.250003647804,2|0,1:2|1:0,0:0:0:0:
273,127,148018,2,0,P|235:127|209:120,1,63.7500012159348,2|0,0:0|1:0,0:0:0:0:
335,38,148328,6,0,B|373:16|373:16|360:182,1,191.250003647804,10|0,0:0|0:0,0:0:0:0:
454,253,148946,2,0,L|443:163,1,63.7500012159348,2|0,1:2|0:0,0:0:0:0:
237,272,149256,6,0,P|287:252|369:259,1,127.50000243187,2|0,1:2|0:0,0:0:0:0:
286,376,149719,2,0,P|236:356|154:363,1,127.50000243187,0|0,1:0|1:0,0:0:0:0:
48,308,150183,2,0,L|39:246,1,63.7500012159348,10|0,0:0|1:0,0:0:0:0:
146,187,150493,2,0,L|155:124,1,63.7500012159348,10|0,0:0|1:0,0:0:0:0:
62,18,150802,2,0,P|102:45|140:48,1,63.7500012159348,10|8,0:0|3:0,0:0:0:0:
249,98,151111,6,0,L|312:94,1,63.7500012159348,2|0,1:2|0:0,0:0:0:0:
468,194,151421,2,0,P|421:165|302:219,1,191.250003647804,2|0,0:0|1:0,0:0:0:0:
278,362,152039,2,0,P|281:305|275:276,1,63.7500012159348,10|0,0:0|0:0,0:0:0:0:
157,239,152348,2,0,P|155:270|159:302,1,63.7500012159348,2|0,1:2|0:0,0:0:0:0:
305,213,152658,2,0,L|217:202,1,63.7500012159348,2|0,1:2|0:0,0:0:0:0:
123,128,152967,6,0,L|261:111,1,127.50000243187,2|0,1:2|0:0,0:0:0:0:
113,41,153431,1,2,1:2:0:0:
113,41,153585,2,0,P|76:51|46:80,1,63.7500012159348,8|0,0:0|0:0,0:0:0:0:
11,137,153895,2,0,L|22:199,1,63.7500012159348,10|0,0:0|1:0,0:0:0:0:
103,316,154204,2,0,L|112:253,1,63.7500012159348,10|8,0:0|0:0,0:0:0:0:
207,183,154513,2,0,L|197:151,2,31.8750006079674,10|8|4,3:0|3:0|3:0,0:0:0:0:
305,299,154823,6,0,P|359:281|385:188,1,150,6|0,1:2|0:0,0:0:0:0:
300,63,155286,2,0,B|278:116|278:116|302:219,1,150,2|8,1:2|0:0,0:0:0:0:
493,129,155750,2,0,L|403:121,1,75,0|0,1:0|1:0,0:0:0:0:
224,212,156060,6,0,L|314:204,1,75,0|0,1:0|0:0,0:0:0:0:
166,148,156369,1,8,0:0:0:0:
146,249,156524,1,0,1:0:0:0:
106,79,156678,1,8,0:0:0:0:
85,184,156833,1,0,1:0:0:0:
245,101,156987,2,0,P|308:80|337:84,1,75,0|8,1:0|0:0,0:0:0:0:
456,182,157297,6,0,L|279:168,1,150,8|0,0:0|1:0,0:0:0:0:
76,335,157761,2,0,L|253:321,1,150,8|0,0:0|1:0,0:0:0:0:
152,165,158225,2,0,P|134:216|141:243,1,75,8|8,0:0|0:0,0:0:0:0:
307,365,158534,5,2,0:0:0:0:
259,210,158688,1,8,0:0:0:0:
150,341,158843,2,0,L|58:333,1,75,2|0,1:2|0:0,0:0:0:0:
360,165,159152,2,0,P|376:198|374:235,1,75,6|8,3:0|0:0,0:0:0:0:
98,75,159462,2,0,L|190:67,1,75,6|8,3:0|0:0,0:0:0:0:
438,122,159771,6,0,P|396:86|296:98,1,150,6|0,1:2|1:0,0:0:0:0:
378,269,160235,2,0,B|393:225|393:225|360:164|360:164|345:220,1,150,8|0,0:0|0:0,0:0:0:0:
439,342,160699,2,0,L|466:270,1,75,10|8,0:0|3:0,0:0:0:0:
494,196,160931,1,4,3:0:0:0:
494,196,161008,6,0,P|483:131|471:111,1,75,12|0,0:0|1:0,0:0:0:0:
401,33,161317,1,0,1:0:0:0:
276,130,161472,2,0,P|216:143|187:138,1,75,8|8,0:0|3:0,0:0:0:0:
87,19,161781,1,8,3:0:0:0:
87,19,161859,1,8,3:0:0:0:
87,19,161936,2,0,P|107:56|119:96,1,75,4|4,3:0|3:0,0:0:0:0:
45,238,162245,6,0,L|32:142,1,75,4|0,1:2|0:0,0:0:0:0:
162,284,162554,1,0,1:0:0:0:
162,284,162709,2,0,L|149:380,1,75,8|0,0:0|0:0,0:0:0:0:
334,260,163018,1,0,1:0:0:0:
334,260,163096,1,0,1:0:0:0:
334,260,163173,2,0,P|280:250|240:250,1,75,8|8,0:0|3:0,0:0:0:0:
425,306,163482,6,0,B|446:264|429:233|429:233|413:194|436:152,1,150,12|0,0:0|1:0,0:0:0:0:
469,42,163946,2,0,P|430:71|397:77,1,75,8|8,0:0|3:0,0:0:0:0:
241,26,164255,1,8,3:0:0:0:
241,26,164333,1,6,3:0:0:0:
241,26,164410,2,0,L|324:31,1,75,8|0,0:0|0:0,0:0:0:0:
198,150,164719,6,0,B|164:141|148:114|148:114|127:129|127:129|89:113|34:129,1,150,6|0,1:2|1:0,0:0:0:0:
227,237,165183,2,0,B|261:228|277:201|277:201|298:216|298:216|336:200|391:216,1,150,8|2,0:0|1:2,0:0:0:0:
348,337,165647,1,8,0:0:0:0:
348,337,165725,1,8,0:0:0:0:
348,337,165802,2,0,L|332:280,1,37.5,10|8,3:0|3:0,0:0:0:0:
441,175,165957,6,0,L|435:265,2,75,12|2|0,0:0|1:2|1:0,0:0:0:0:
291,107,166420,2,0,L|286:32,2,75,8|8|8,0:0|3:0|3:0,0:0:0:0:
227,237,166884,1,6,3:0:0:0:
192,250,166961,1,4,3:0:0:0:
155,253,167038,1,6,3:0:0:0:
119,242,167115,1,6,3:0:0:0:
88,221,167194,6,0,B|61:170|87:102|87:102|119:132,1,150,6|0,1:2|1:0,0:0:0:0:
323,288,167658,2,0,B|350:237|324:169|324:169|292:199,1,150,8|2,0:0|1:2,0:0:0:0:
264,365,168121,5,8,0:0:0:0:
298,378,168198,1,0,0:0:0:0:
335,380,168275,1,10,3:0:0:0:
371,369,168352,1,8,3:0:0:0:
401,346,168431,6,0,L|493:358,2,75,12|8|0,0:0|0:0|1:0,0:0:0:0:
169,267,168895,2,0,L|77:279,2,75,10|8|0,0:0|3:0|1:0,0:0:0:0:
420,153,169359,1,8,0:0:0:0:
385,139,169436,1,8,0:0:0:0:
347,140,169513,1,8,0:0:0:0:
313,153,169590,1,8,0:0:0:0:
285,179,169668,6,0,L|305:264,1,75,2|0,0:0|0:0,0:0:0:0:
462,263,169977,2,0,L|471:212,1,37.5,2|0,1:2|0:0,0:0:0:0:
252,101,170132,6,0,L|286:261,1,150,14|0,0:0|1:0,0:0:0:0:
349,355,170596,1,10,0:0:0:0:
447,250,170750,2,0,L|456:199,1,37.5,8|4,3:0|3:0,0:0:0:0:
237,88,170905,6,0,L|271:248,1,150,14|2,0:0|1:2,0:0:0:0:
14,234,171369,2,0,P|67:199|153:210,1,150,10|8,0:0|3:0,0:0:0:0:
110,369,171833,2,0,L|91:271,1,75,2|10,1:2|0:0,0:0:0:0:
331,197,172142,6,0,P|288:227|248:238,2,75,6|2|2,1:2|0:0|1:2,0:0:0:0:
127,68,172606,2,0,P|122:105|127:142,2,75,10|2|2,0:0|0:0|1:2,0:0:0:0:
283,324,173070,6,0,P|231:315|195:294,2,75,10|10|14,0:0|3:0|0:0,0:0:0:0:
33,172,173534,2,0,P|55:201|85:223,2,75,2|2|10,1:2|1:2|0:0,0:0:0:0:
331,197,173998,6,0,P|288:227|248:238,1,75,10|6,3:0|3:0,0:0:0:0:
127,142,174307,2,0,P|122:105|127:68,1,75,10|8,0:0|0:0,0:0:0:0:
299,22,174616,5,6,1:2:0:0:
242,119,174771,1,0,0:0:0:0:
445,133,174926,2,0,P|403:119|361:113,2,75,2|10|2,1:2|0:0|0:0,0:0:0:0:
399,289,175390,2,0,L|386:204,1,75,2|10,1:2|0:0,0:0:0:0:
473,336,175699,1,10,3:0:0:0:
302,264,175853,6,0,P|251:258|215:262,1,75,14|2,0:0|1:2,0:0:0:0:
91,311,176163,1,2,1:2:0:0:
202,166,176317,6,0,P|161:197|139:226,1,75,10|8,0:0|3:0,0:0:0:0:
86,348,176627,1,2,1:2:0:0:
86,348,176704,1,10,3:0:0:0:
86,348,176781,2,0,L|94:391,3,37.5,14|0|2|0,3:0|0:0|1:2|0:0,0:0:0:0:
0,268,177091,6,0,L|20:181,1,75,6|2,1:2|0:0,0:0:0:0:
85,22,177400,1,2,1:2:0:0:
143,86,177554,2,0,L|159:159,2,75,10|2|2,0:0|1:2|1:2,0:0:0:0:
277,142,178018,2,0,L|261:216,1,75,10|10,0:0|3:0,0:0:0:0:
442,222,178328,6,0,P|403:206|363:207,1,75,10|2,0:0|1:2,0:0:0:0:
371,360,178637,2,0,P|408:358|442:343,1,75,2|10,1:2|0:0,0:0:0:0:
292,284,178946,2,0,L|182:276,1,75,10|10,3:0|0:0,0:0:0:0:
97,358,179255,2,0,L|207:350,1,75,10|0,3:0|0:0,0:0:0:0:
120,146,179565,6,0,B|96:178|96:178|110:259,1,120,6|8,1:2|0:0,0:0:0:0:
298,178,180183,2,0,P|259:163|216:170,1,60,0|0,1:0|0:0,0:0:0:0:
52,92,180493,6,0,B|107:124|153:89|153:89|175:102|175:102|197:81|240:77,1,180,10|0,0:0|1:0,0:0:0:0:
313,5,181111,2,0,B|294:40|294:40|306:136,1,120,10|0,0:0|1:0,0:0:0:0:
456,245,181730,2,0,L|466:171,1,60,10|0,0:0|0:0,0:0:0:0:
342,204,182039,6,0,P|310:213|272:200,1,60,2|0,1:2|0:0,0:0:0:0:
177,149,182348,2,0,P|90:152|47:226,1,180,10|0,0:0|1:0,0:0:0:0:
126,360,182967,2,0,L|139:234,1,120,10|0,0:0|1:0,0:0:0:0:
386,360,183585,2,0,L|373:234,1,120,10|0,0:0|1:0,0:0:0:0:
226,55,184204,2,0,P|257:46|290:55,1,60,10|0,0:0|0:0,0:0:0:0:
443,175,184513,6,0,P|373:144|282:212,1,180,2|0,1:2|0:0,0:0:0:0:
210,325,185132,2,0,P|138:373|56:343,1,180,2|0,1:2|0:0,0:0:0:0:
46,142,185750,6,0,B|108:129|108:129|157:159|157:159|233:144,1,180,2|0,1:2|0:0,0:0:0:0:
372,48,186369,2,0,B|310:35|310:35|261:65|261:65|202:53,1,180,2|0,1:2|0:0,0:0:0:0:
331,132,186987,6,0,P|334:176|276:228,1,120,2|0,1:2|1:0,0:0:0:0:
345,357,187451,2,0,P|341:312|400:261,1,120,8|0,0:0|1:0,0:0:0:0:
483,348,187915,1,8,0:0:0:0:
483,348,188070,2,0,L|424:339,1,60
334,272,188379,1,8,0:0:0:0:
228,354,188534,1,0,1:0:0:0:
111,266,188688,1,8,0:0:0:0:
99,281,188998,2,0,L|108:330,5,30,8|8|8|0|8|8,0:0|0:0|0:0|0:0|0:0|0:0,0:0:0:0:
40,215,189462,6,0,P|31:159|77:91,1,120,6|10,1:2|0:0,0:0:0:0:
194,126,189926,2,0,P|203:182|157:250,1,120,0|2,0:0|1:2,0:0:0:0:
138,56,190390,2,0,B|191:39|191:39|243:52|243:52|329:26,1,180,10|0,0:0|0:0,0:0:0:0:
140,142,191008,2,0,B|193:125|193:125|245:138|245:138|331:112,1,180,10|0,0:0|1:0,0:0:0:0:
331,227,191627,2,0,L|250:216,1,60,10|0,0:0|0:0,0:0:0:0:
416,191,191936,6,0,B|428:231|428:231|417:278|417:278|428:315,1,120,2|10,1:2|0:0,0:0:0:0:
511,384,192400,2,0,B|502:355|502:355|513:308|513:308|501:268,1,120,2|0,0:0|1:0,0:0:0:0:
328,348,192864,6,0,P|285:368|195:289,1,180,10|0,0:0|0:0,0:0:0:0:
258,149,193482,2,0,P|301:129|391:208,1,180,10|0,0:0|1:0,0:0:0:0:
318,267,194101,2,0,L|258:244,1,60,10|0,0:0|0:0,0:0:0:0:
62,250,194410,6,0,P|111:233|153:173,1,120,2|8,1:2|0:0,0:0:0:0:
42,97,195029,2,0,L|63:166,1,60,2|0,1:2|1:0,0:0:0:0:
150,41,195338,2,0,L|132:98,1,60,10|0,0:0|0:0,0:0:0:0:
228,105,195647,2,0,L|245:162,1,60,0|0,1:0|0:0,0:0:0:0:
335,48,195956,2,0,L|317:105,1,60,10|0,0:0|0:0,0:0:0:0:
467,129,196266,2,0,P|427:107|392:105,1,60,0|8,1:0|0:0,0:0:0:0:
352,223,196575,2,0,P|380:215|405:198,1,60,8|0,3:0|1:0,0:0:0:0:
237,41,196884,5,8,0:0:0:0:
267,190,197039,1,0,1:0:0:0:
124,139,197194,1,0,1:0:0:0:
323,111,197348,5,8,0:0:0:0:
134,53,197503,1,0,1:0:0:0:
180,217,197658,1,0,1:0:0:0:
247,12,197812,5,8,0:0:0:0:
452,367,198121,6,0,P|457:326|438:273,1,90,2|2,0:0|0:0,0:0:0:0:
442,280,199049,2,0,L|401:274,1,30,2|0,0:0|0:0,0:0:0:0:
346,222,199359,6,0,L|261:226,1,82.5,2|0,0:0|0:0,0:0:0:0:
200,280,200286,6,0,B|117:268|117:268|130:283,1,101.25,2|0,0:0|0:0,0:0:0:0:
200,280,202761,6,0,P|201:234|190:210,1,67.4999979400635,2|0,0:0|0:0,0:0:0:0:
108,163,203070,6,0,P|160:177|247:125,1,150,2|0,0:0|0:0,0:0:0:0:
340,20,203534,2,0,P|288:6|201:58,1,150,2|0,0:0|0:0,0:0:0:0:
283,192,203998,2,0,L|291:93,1,84.3750032186509,2|0,0:0|0:0,0:0:0:0:
368,157,204307,6,0,L|384:266,1,75,6|0,1:2|0:0,0:0:0:0:
166,324,204616,2,0,P|197:304|234:298,1,75,8|0,0:0|0:0,0:0:0:0:
455,351,204926,1,0,1:0:0:0:
290,375,205080,1,0,1:0:0:0:
460,180,205235,1,10,0:0:0:0:
214,213,205390,6,0,P|156:213|43:169,1,150,0|0,1:0|1:0,0:0:0:0:
283,149,205853,2,0,P|312:195|324:233,1,75,8|0,0:0|0:0,0:0:0:0:
150,113,206163,2,0,P|164:78|186:47,1,75,0|0,1:0|1:0,0:0:0:0:
387,65,206472,2,0,L|461:76,1,75,8|0,0:0|0:0,0:0:0:0:
382,294,206781,6,0,L|308:307,1,75,0|0,1:0|1:0,0:0:0:0:
153,210,207091,2,0,P|187:224|214:250,1,75,8|0,0:0|0:0,0:0:0:0:
41,325,207400,1,0,1:0:0:0:
60,172,207554,1,0,1:0:0:0:
188,340,207709,2,0,P|225:341|261:331,1,75,10|0,0:0|1:0,0:0:0:0:
381,181,208018,6,0,L|369:269,1,75,2|0,0:0|1:0,0:0:0:0:
468,154,208328,2,0,L|456:242,1,75,10|0,0:0|0:0,0:0:0:0:
273,119,208637,2,0,L|285:207,1,75,2|0,1:2|1:0,0:0:0:0:
186,92,208947,2,0,L|198:180,1,75,10|0,0:0|0:0,0:0:0:0:
467,48,209255,6,0,P|391:87|323:38,1,150,2|8,1:2|0:0,0:0:0:0:
430,129,209719,1,2,0:0:0:0:
430,129,209874,2,0,P|434:184|418:222,1,75,2|0,1:2|0:0,0:0:0:0:
463,291,210183,2,0,P|426:332|388:348,1,75,10|0,0:0|0:0,0:0:0:0:
154,285,210493,2,0,P|190:243|228:227,1,75,2|0,0:0|0:0,0:0:0:0:
245,147,210802,2,0,P|300:143|337:158,1,75,10|0,0:0|0:0,0:0:0:0:
311,333,211111,2,0,L|227:321,1,75,2|0,1:2|1:0,0:0:0:0:
17,233,211420,2,0,L|94:220,1,75,10|0,0:0|0:0,0:0:0:0:
76,26,211730,6,0,B|46:25|25:50|25:50|50:166,1,150,2|8,1:2|0:0,0:0:0:0:
281,120,212194,2,0,B|250:94|213:110|213:110|204:102|204:102|167:124|111:99,1,150,0|0,0:0|1:0,0:0:0:0:
354,62,212658,2,0,P|374:123|368:153,1,75,10|0,0:0|0:0,0:0:0:0:
271,268,212967,6,0,P|313:220|342:210,1,75,2|0,0:0|0:0,0:0:0:0:
429,315,213276,2,0,L|342:301,1,75,10|0,0:0|0:0,0:0:0:0:
148,360,213585,2,0,L|247:348,1,75,2|0,1:2|1:0,0:0:0:0:
183,189,213895,2,0,P|168:231|175:266,1,75,10|0,0:0|0:0,0:0:0:0:
405,220,214204,6,0,L|393:45,1,150,6|8,1:2|0:0,0:0:0:0:
141,116,214668,2,0,B|122:157|122:157|246:138,1,150,2|0,0:0|1:0,0:0:0:0:
332,283,215132,2,0,P|270:241|187:253,1,150,10|0,0:0|0:0,0:0:0:0:
102,313,215596,1,0,1:0:0:0:
42,205,215750,2,0,P|33:156|44:121,1,75,10|0,0:0|0:0,0:0:0:0:
221,77,216060,2,0,P|230:126|219:161,1,75,2|0,1:2|1:0,0:0:0:0:
69,52,216369,2,0,L|148:34,1,75,10|0,0:0|0:0,0:0:0:0:
370,90,216678,6,0,L|205:75,1,150,2|8,1:2|0:0,0:0:0:0:
307,0,217142,1,0,0:0:0:0:
346,179,217297,2,0,L|423:173,1,75,0|0,1:0|1:0,0:0:0:0:
423,368,217606,2,0,P|395:323|412:248,1,112.5,10|0,0:0|0:0,0:0:0:0:
490,222,217915,6,0,L|472:311,1,75,2|0,1:2|0:0,0:0:0:0:
313,267,218225,2,0,L|295:356,1,75,10|0,0:0|0:0,0:0:0:0:
214,130,218534,2,0,L|228:203,1,75,2|0,1:2|0:0,0:0:0:0:
391,175,218844,2,0,L|405:248,1,75,10|4,3:0|3:0,0:0:0:0:
489,110,219152,6,0,P|442:138|366:67,1,150,14|0,0:0|1:0,0:0:0:0:
161,207,219616,2,0,P|237:233|284:167,1,150,14|0,0:0|1:0,0:0:0:0:
188,110,220080,2,0,L|94:121,1,75,10|0,0:0|0:0,0:0:0:0:
41,311,220390,6,0,B|97:303|97:303|135:335|135:335|202:325,1,150,2|0,1:2|0:0,0:0:0:0:
399,349,220853,2,0,B|355:342|355:342|317:374|317:374|261:366,1,150,2|0,1:2|1:0,0:0:0:0:
351,194,221317,2,0,P|384:232|394:262,1,75,14|0,0:0|0:0,0:0:0:0:
253,200,221627,5,8,3:0:0:0:
251,173,221704,1,8,3:0:0:0:
249,147,221781,1,8,3:0:0:0:
247,121,221858,1,8,3:0:0:0:
245,95,221936,2,0,P|302:68|327:69,1,75,8|8,3:0|3:0,0:0:0:0:
151,41,222245,2,0,P|93:14|68:15,1,75,8|8,0:0|0:0,0:0:0:0:
26,141,222554,1,8,3:0:0:0:
26,141,222632,1,8,3:0:0:0:
26,141,222709,2,0,L|32:177,1,37.5,8|4,0:0|3:0,0:0:0:0:
6,302,222864,6,0,P|57:258|159:276,1,150,2|0,1:2|1:0,0:0:0:0:
306,337,223328,2,0,P|370:355|455:295,1,150,10|8,0:0|0:0,0:0:0:0:
369,184,223792,2,0,L|359:282,1,75,8|8,0:0|0:0,0:0:0:0:
126,150,224101,6,0,L|118:53,1,82.5000025177003,6|0,1:2|0:0,0:0:0:0:
277,215,224410,2,0,P|230:245|183:253,1,82.5000025177003,8|0,0:0|0:0,0:0:0:0:
268,57,224719,2,0,P|307:69|340:93,1,82.5000025177003,0|0,1:0|1:0,0:0:0:0:
463,217,225029,2,0,L|451:115,1,82.5000025177003,10|0,0:0|1:0,0:0:0:0:
344,289,225338,6,0,P|403:257|500:283,1,165.000005035401,0|8,0:0|0:0,0:0:0:0:
319,380,225802,1,0,0:0:0:0:
255,224,225957,1,0,1:0:0:0:
109,303,226111,1,2,1:2:0:0:
213,323,226266,1,10,0:0:0:0:
139,186,226420,1,2,0:0:0:0:
36,374,226575,6,0,P|14:277|30:201,1,165.000005035401,2|8,1:2|0:0,0:0:0:0:
129,82,227039,1,0,0:0:0:0:
255,224,227194,2,0,P|304:225|354:205,1,82.5000025177003,0|0,1:0|1:0,0:0:0:0:
380,46,227503,2,0,P|331:45|281:65,1,82.5000025177003,10|0,0:0|1:0,0:0:0:0:
418,261,227812,6,0,L|425:165,1,82.5000025177003,2|0,0:0|1:0,0:0:0:0:
158,188,228121,2,0,L|165:284,1,82.5000025177003,10|0,0:0|0:0,0:0:0:0:
272,123,228431,1,2,1:2:0:0:
173,84,228585,1,0,1:0:0:0:
47,217,228740,1,10,0:0:0:0:
158,188,228895,1,2,0:0:0:0:
57,26,229049,6,0,L|68:121,1,82.5000025177003,2|0,1:2|0:0,0:0:0:0:
262,204,229359,2,0,L|271:122,1,82.5000025177003,10|0,0:0|0:0,0:0:0:0:
421,277,229668,2,0,P|348:275|316:247,1,82.5000025177003,2|0,1:2|0:0,0:0:0:0:
370,84,229977,2,0,P|443:86|475:114,1,82.5000025177003,10|0,0:0|0:0,0:0:0:0:
307,167,230286,6,0,L|202:149,1,82.5000025177003,2|0,0:0|1:0,0:0:0:0:
74,332,230596,2,0,L|179:314,1,82.5000025177003,10|0,0:0|0:0,0:0:0:0:
166,85,230905,2,0,P|136:141|153:205,1,123.75000377655,2|0,1:2|0:0,0:0:0:0:
235,252,231214,6,0,B|205:228|184:241|184:241|161:225|161:225|114:252|60:227,1,165.000005035401,10|0,0:0|1:0,0:0:0:0:
296,166,231678,1,0,1:0:0:0:
308,325,231833,1,10,0:0:0:0:
110,151,231987,1,0,0:0:0:0:
235,252,232142,1,0,1:0:0:0:
74,332,232297,1,0,1:0:0:0:
24,98,232451,1,8,0:0:0:0:
136,249,232606,1,0,1:0:0:0:
273,74,232761,6,0,L|354:84,1,82.5000025177003,0|0,0:0|1:0,0:0:0:0:
181,10,233070,2,0,L|98:16,1,82.5000025177003,10|0,0:0|0:0,0:0:0:0:
139,185,233379,2,0,P|150:126|142:89,1,82.5000025177003,2|0,1:2|1:0,0:0:0:0:
18,232,233688,2,0,P|15:272|25:312,1,82.5000025177003,10|0,0:0|0:0,0:0:0:0:
261,352,233998,6,0,P|201:318|102:342,1,165.000005035401,6|8,1:2|0:0,0:0:0:0:
307,263,234462,1,0,0:0:0:0:
307,263,234616,2,0,P|385:282|457:246,1,165.000005035401,2|8,1:2|0:0,0:0:0:0:
493,169,235080,1,2,1:2:0:0:
362,100,235235,6,0,L|372:213,1,82.5000025177003,2|0,0:0|1:0,0:0:0:0:
275,74,235544,2,0,L|285:187,1,82.5000025177003,10|0,0:0|0:0,0:0:0:0:
193,26,235853,2,0,L|183:139,1,82.5000025177003,2|0,1:2|1:0,0:0:0:0:
106,52,236163,2,0,L|96:165,1,82.5000025177003,10|0,0:0|0:0,0:0:0:0:
22,256,236472,6,0,P|71:226|104:228,1,82.5000025177003,2|0,1:2|1:0,0:0:0:0:
137,340,236781,2,0,P|104:365|64:370,1,82.5000025177003,10|0,0:0|0:0,0:0:0:0:
281,225,237091,2,0,P|321:230|354:256,1,82.5000025177003,2|0,1:2|1:0,0:0:0:0:
312,371,237400,2,0,P|272:366|240:341,1,82.5000025177003,10|0,0:0|0:0,0:0:0:0:
184,171,237709,6,0,L|189:57,1,82.5000025177003,2|0,1:2|0:0,0:0:0:0:
337,14,238018,2,0,L|342:128,1,82.5000025177003,8|0,0:0|0:0,0:0:0:0:
502,87,238328,2,0,P|459:62|395:63,1,82.5000025177003,2|0,1:2|1:0,0:0:0:0:
386,171,238637,2,0,P|429:196|493:195,1,82.5000025177003,10|0,0:0|0:0,0:0:0:0:
340,96,238946,6,0,L|152:113,1,165.000005035401,2|8,1:2|0:0,0:0:0:0:
96,68,239410,1,0,0:0:0:0:
30,196,239565,2,0,L|117:203,1,82.5000025177003,2|0,1:2|1:0,0:0:0:0:
246,291,239874,2,0,L|159:298,1,82.5000025177003,10|0,0:0|1:0,0:0:0:0:
392,85,240183,6,0,P|402:124|398:165,1,82.5000025177003,8|0,0:0|1:0,0:0:0:0:
344,270,240492,2,0,P|323:234|291:208,1,82.5000025177003,10|0,0:0|1:0,0:0:0:0:
134,117,240802,1,10,0:0:0:0:
162,251,240957,1,0,1:0:0:0:
248,118,241111,1,8,0:0:0:0:
248,118,241266,1,8,3:0:0:0:
85,198,241420,6,0,L|-2:188,1,82.5000025177003,0|0,1:0|1:0,0:0:0:0:
108,25,241730,2,0,L|189:34,1,82.5000025177003,8|0,0:0|1:0,0:0:0:0:
427,198,242039,2,0,L|514:188,1,82.5000025177003,8|0,0:0|1:0,0:0:0:0:
404,25,242349,2,0,L|322:34,1,82.5000025177003,10|8,0:0|0:0,0:0:0:0:
289,222,242658,6,0,P|265:155|227:225,2,180,2|2|2,0:0|0:0|0:0,0:0:0:0:
185,313,243740,1,0,1:0:0:0:
185,313,243817,1,0,1:0:0:0:
185,313,243895,6,0,L|95:296,1,75,6|0,1:2|0:0,0:0:0:0:
258,363,244204,2,0,L|348:346,1,75,8|0,0:0|0:0,0:0:0:0:
512,319,244513,1,0,1:0:0:0:
377,272,244668,1,0,1:0:0:0:
420,357,244823,1,8,0:0:0:0:
468,230,244977,6,0,P|483:189|475:139,1,75,0|0,1:0|0:0,0:0:0:0:
401,88,245286,1,0,1:0:0:0:
298,160,245441,2,0,L|197:148,1,75,8|0,0:0|0:0,0:0:0:0:
90,116,245750,1,0,1:0:0:0:
218,46,245905,1,0,1:0:0:0:
32,30,246060,1,8,0:0:0:0:
17,42,246369,6,0,P|50:112|52:205,1,150,0|8,1:0|0:0,0:0:0:0:
32,295,246833,1,0,0:0:0:0:
140,244,246987,2,0,P|182:224|224:217,1,75,0|0,1:0|1:0,0:0:0:0:
324,267,247297,1,8,0:0:0:0:
453,190,247451,6,0,P|394:190|294:130,1,150,0|0,1:0|1:0,0:0:0:0:
229,18,247915,2,0,P|260:65|262:92,1,75,8|0,0:0|0:0,0:0:0:0:
130,200,248225,1,0,1:0:0:0:
174,88,248379,1,0,1:0:0:0:
212,266,248534,1,8,0:0:0:0:
223,287,248843,6,0,L|232:372,1,75,0|0,1:0|0:0,0:0:0:0:
381,299,249152,2,0,L|390:214,1,75,8|0,0:0|0:0,0:0:0:0:
360,94,249462,1,0,1:0:0:0:
490,172,249616,1,0,1:0:0:0:
286,189,249771,1,8,0:0:0:0:
455,44,249926,6,0,P|388:65|287:26,1,150,0|0,1:0|1:0,0:0:0:0:
143,110,250390,2,0,P|219:90|235:94,1,75,8|0,0:0|0:0,0:0:0:0:
372,208,250699,1,0,1:0:0:0:
198,171,250853,1,0,1:0:0:0:
360,94,251008,1,8,0:0:0:0:
370,107,251317,6,0,L|383:194,1,75,0|0,1:0|1:0,0:0:0:0:
456,313,251627,2,0,L|467:238,1,75,8|0,0:0|0:0,0:0:0:0:
288,261,251936,2,0,P|357:267|382:248,1,75,0|0,1:0|1:0,0:0:0:0:
252,155,252245,2,0,L|171:166,1,75,10|0,0:0|1:0,0:0:0:0:
6,48,252554,6,0,P|62:50|100:142,1,150,2|8,0:0|0:0,0:0:0:0:
0,275,253018,2,0,P|24:224|110:227,1,150,2|0,0:0|1:0,0:0:0:0:
212,330,253482,2,0,P|258:342|305:335,1,75,10|0,0:0|0:0,0:0:0:0:
418,255,253792,6,0,L|311:273,1,75,2|0,1:2|0:0,0:0:0:0:
321,111,254101,2,0,P|360:161|362:189,1,75,8|0,0:0|0:0,0:0:0:0:
151,229,254410,1,0,1:0:0:0:
269,174,254565,1,0,1:0:0:0:
129,138,254719,1,8,0:0:0:0:
212,330,254874,6,0,L|226:256,1,75,0|0,1:0|0:0,0:0:0:0:
416,300,255183,1,0,1:0:0:0:
416,300,255338,2,0,L|430:373,1,75,8|0,0:0|0:0,0:0:0:0:
338,248,255647,2,0,P|377:216|411:208,1,75,0|0,1:0|1:0,0:0:0:0:
463,103,255957,1,8,0:0:0:0:
475,91,256266,6,0,L|400:84,1,75,0|0,1:0|1:0,0:0:0:0:
205,147,256575,2,0,L|111:155,1,75,8|0,0:0|0:0,0:0:0:0:
40,47,256884,1,0,1:0:0:0:
139,66,257039,1,0,1:0:0:0:
16,174,257194,1,8,0:0:0:0:
16,174,257348,1,0,1:0:0:0:
122,227,257503,6,0,P|130:168|128:135,1,75,0|0,0:0|1:0,0:0:0:0:
13,288,257812,2,0,P|13:325|20:362,1,75,8|0,0:0|0:0,0:0:0:0:
158,317,258121,2,0,L|232:320,1,75,0|0,1:0|0:0,0:0:0:0:
379,340,258431,1,8,0:0:0:0:
369,355,258740,6,0,P|339:318|341:277,1,75,0|0,1:0|0:0,0:0:0:0:
456,236,259049,2,0,P|486:273|484:314,1,75,8|0,0:0|0:0,0:0:0:0:
362,203,259359,1,0,1:0:0:0:
486,142,259513,1,0,1:0:0:0:
381,96,259668,1,8,0:0:0:0:
264,197,259823,6,0,P|193:202|143:133,1,150,0|0,1:0|1:0,0:0:0:0:
233,45,260286,2,0,P|234:88|226:124,1,75,8|0,0:0|0:0,0:0:0:0:
60,134,260596,1,0,1:0:0:0:
145,62,260750,1,0,1:0:0:0:
21,39,260905,2,0,L|37:134,1,75,8|0,0:0|0:0,0:0:0:0:
178,247,261214,6,0,P|157:208|127:179,1,75,0|0,1:0|1:0,0:0:0:0:
66,346,261524,2,0,P|103:344|138:332,1,75,8|0,0:0|1:0,0:0:0:0:
254,196,261833,1,8,0:0:0:0:
292,344,261987,1,0,1:0:0:0:
355,157,262142,1,8,0:0:0:0:
450,292,262297,6,0,P|414:301|378:294,1,75,0|12,1:0|0:0,0:0:0:0:
254,196,262606,1,0,1:0:0:0:
419,215,262761,1,8,0:0:0:0:
262,84,262915,2,0,L|161:104,1,75,4|0,1:2|0:0,0:0:0:0:
33,152,263225,1,8,0:0:0:0:
151,252,263379,1,8,0:0:0:0:
41,309,263534,2,0,L|52:268,1,37.5,8|0,0:0|0:0,0:0:0:0:
142,169,263688,6,0,L|152:263,1,82.5000025177003,4|0,1:2|1:0,0:0:0:0:
244,358,263998,2,0,L|253:276,1,82.5000025177003,10|2,0:0|1:2,0:0:0:0:
419,324,264307,2,0,P|372:336|332:330,1,82.5000025177003,2|10,1:2|3:0,0:0:0:0:
316,141,264616,2,0,P|356:137|396:149,1,82.5000025177003,10|2,0:0|1:2,0:0:0:0:
233,180,264926,6,0,L|225:65,1,82.5000025177003,10|2,0:0|1:2,0:0:0:0:
77,20,265235,1,10,0:0:0:0:
175,26,265390,1,2,1:2:0:0:
21,95,265544,2,0,L|15:177,1,82.5000025177003,2|2,1:2|1:2,0:0:0:0:
123,277,265853,2,0,L|117:195,1,82.5000025177003,10|10,0:0|0:0,0:0:0:0:
233,284,266163,6,0,L|224:366,1,82.5000025177003,4|0,1:2|1:0,0:0:0:0:
406,324,266472,2,0,P|328:296|300:295,1,82.5000025177003,10|2,0:0|1:2,0:0:0:0:
201,198,266781,2,0,P|284:190|310:179,1,82.5000025177003,2|10,1:2|3:0,0:0:0:0:
400,17,267091,2,0,P|359:26|323:44,1,82.5000025177003,10|2,0:0|1:2,0:0:0:0:
372,234,267400,6,0,P|454:226|480:215,1,82.5000025177003,10|2,0:0|1:2,0:0:0:0:
264,106,267709,1,10,0:0:0:0:
282,190,267864,1,2,1:2:0:0:
184,38,268018,2,0,L|173:127,1,82.5000025177003,2|2,1:2|1:2,0:0:0:0:
12,99,268328,2,0,P|48:80|89:77,1,82.5000025177003,10|10,0:0|0:0,0:0:0:0:
83,248,268637,6,0,L|72:166,1,82.5000025177003,4|0,1:2|1:0,0:0:0:0:
203,235,268946,2,0,L|191:317,1,82.5000025177003,10|2,0:0|1:2,0:0:0:0:
156,145,269255,2,0,P|195:134|236:136,1,82.5000025177003,2|10,1:2|3:0,0:0:0:0:
383,286,269565,2,0,P|341:288|302:277,1,82.5000025177003,10|2,0:0|1:2,0:0:0:0:
341,98,269874,6,0,L|348:181,1,82.5000025177003,10|2,0:0|1:2,0:0:0:0:
494,53,270183,1,10,0:0:0:0:
406,35,270338,1,2,1:2:0:0:
512,140,270493,2,0,L|505:222,1,82.5000025177003,2|2,1:2|1:2,0:0:0:0:
390,368,270802,2,0,L|383:286,1,82.5000025177003,10|10,0:0|0:0,0:0:0:0:
216,218,271111,6,0,P|269:233|295:228,1,82.5000025177003,4|0,1:2|1:0,0:0:0:0:
167,67,271420,2,0,P|128:52|88:56,1,82.5000025177003,10|2,0:0|1:2,0:0:0:0:
23,191,271730,2,0,L|36:287,1,82.5000025177003,2|10,1:2|3:0,0:0:0:0:
216,218,272039,2,0,L|229:122,1,82.5000025177003,10|2,0:0|1:2,0:0:0:0:
108,328,272348,6,0,P|161:328|199:301,1,82.5000025177003,10|2,0:0|1:2,0:0:0:0:
119,150,272658,1,10,0:0:0:0:
131,244,272812,1,2,1:2:0:0:
227,136,272967,2,0,P|267:133|304:150,1,82.5000025177003,2|2,1:2|1:2,0:0:0:0:
327,353,273276,2,0,P|286:355|249:338,1,82.5000025177003,10|10,0:0|0:0,0:0:0:0:
377,242,273585,6,0,L|475:233,1,82.5000025177003,4|0,1:2|1:0,0:0:0:0:
486,75,273895,1,10,0:0:0:0:
408,148,274049,1,2,1:2:0:0:
292,71,274204,2,0,L|209:78,1,82.5000025177003,2|10,1:2|3:0,0:0:0:0:
126,230,274513,2,0,L|208:237,1,82.5000025177003,10|2,0:0|1:2,0:0:0:0:
63,161,274823,6,0,P|35:212|39:262,1,82.5000025177003,10|2,0:0|1:2,0:0:0:0:
155,304,275132,2,0,P|148:263|125:229,1,82.5000025177003,10|2,0:0|1:2,0:0:0:0:
189,109,275441,2,0,P|195:149|218:183,1,82.5000025177003,2|2,1:2|1:2,0:0:0:0:
372,191,275750,2,0,P|400:140|396:90,1,82.5000025177003,10|10,0:0|0:0,0:0:0:0:
292,245,276060,6,0,L|285:337,1,82.5000025177003,4|2,1:2|1:2,0:0:0:0:
460,353,276369,1,10,0:0:0:0:
379,301,276524,1,2,1:2:0:0:
193,356,276678,2,0,P|130:371|94:361,1,82.5000025177003,2|10,1:2|3:0,0:0:0:0:
92,217,276987,2,0,P|155:202|191:212,1,82.5000025177003,10|2,0:0|1:2,0:0:0:0:
379,301,277297,6,0,L|478:279,1,82.5000025177003,10|2,0:0|1:2,0:0:0:0:
388,137,277606,2,0,L|307:154,1,82.5000025177003,10|2,0:0|1:2,0:0:0:0:
133,301,277915,2,0,L|52:283,1,82.5000025177003,2|2,1:2|1:2,0:0:0:0:
124,137,278224,2,0,L|204:154,1,82.5000025177003,10|10,0:0|0:0,0:0:0:0:
241,323,278534,6,0,P|216:265|213:235,1,82.5000025177003,4|0,1:2|1:0,0:0:0:0:
307,154,278843,1,10,0:0:0:0:
311,259,278998,1,2,1:2:0:0:
422,127,279152,2,0,P|413:167|394:203,1,82.5000025177003,2|10,1:2|3:0,0:0:0:0:
234,83,279462,2,0,P|268:60|307:48,1,82.5000025177003,10|2,0:0|1:2,0:0:0:0:
237,209,279771,6,0,L|140:197,1,82.5000025177003,10|2,0:0|1:2,0:0:0:0:
276,332,280080,2,0,L|373:320,1,82.5000025177003,10|2,0:0|1:2,0:0:0:0:
190,377,280390,2,0,P|178:321|188:292,1,82.5000025177003,2|2,1:2|1:2,0:0:0:0:
321,160,280699,2,0,P|333:216|323:245,1,82.5000025177003,10|10,0:0|0:0,0:0:0:0:
83,147,281008,6,0,B|75:102|75:102|96:48,1,82.5000025177003,4|0,1:2|1:0,0:0:0:0:
253,10,281317,2,0,B|261:55|261:55|240:109,1,82.5000025177003,10|2,0:0|1:2,0:0:0:0:
69,242,281627,1,2,1:2:0:0:
263,190,281781,1,10,3:0:0:0:
162,115,281936,1,10,0:0:0:0:
112,337,282091,1,2,1:2:0:0:
253,271,282245,6,0,L|266:163,1,82.5000025177003,10|2,0:0|1:2,0:0:0:0:
439,0,282554,2,0,L|442:82,1,82.5000025177003,10|10,0:0|3:0,0:0:0:0:
417,177,282864,1,2,1:2:0:0:
270,86,283018,1,6,3:0:0:0:
462,101,283173,1,10,0:0:0:0:
214,160,283328,1,0,1:2:0:0:
380,274,283482,6,0,B|345:264|345:264|310:269|310:269|283:260|283:260|245:269|245:269|212:257|212:257|162:269|162:269|124:234|66:237|31:258|11:297|20:334|39:371|65:405|126:400|174:357|184:320|185:292|145:244|85:202|78:159|101:104|157:66|207:42|270:86,1,900,6|0,1:2|0:0,0:0:0:0:
256,192,293874,12,0,304053,0:0:0:0:
