osu file format v14

[General]
AudioFilename: Fairytale.mp3
AudioLeadIn: 0
PreviewTime: 202683
Countdown: 0
SampleSet: Soft
StackLeniency: 0.7
Mode: 2
LetterboxInBreaks: 0
WidescreenStoryboard: 0

[Editor]
Bookmarks: 1498,21292,31188,38611,42013,43559,58405,63353,80673,85621,90571,100468,101705,121499,128921,143767,154901,159849,179643,198199,202839,204385,224179,243973,263766,283560
DistanceSpacing: 1.9
BeatDivisor: 4
GridSize: 4
TimelineZoom: 3.399999

[Metadata]
Title:Fairytale,
TitleUnicode:Fairytale,
Artist:cillia
ArtistUnicode:シリア
Creator:Hareimu
Version:Once Upon a Time
Source:
Tags:VY1V4 vocaloid4 kyaami harumia cover megpoid gumi buzzg hero 大鳥 yuukingdom kei nakamura tomobop utaite
BeatmapID:1328584
BeatmapSetID:629289

[Difficulty]
HPDrainRate:6
CircleSize:4
OverallDifficulty:9.4
ApproachRate:9.4
SliderMultiplier:1.8
SliderTickRate:2

[Events]
//Background and Video events
0,0,"promise.png",0,0
//Break Periods
2,40049,41474
//Storyboard Layer 0 (Background)
//Storyboard Layer 1 (Fail)
//Storyboard Layer 2 (Pass)
//Storyboard Layer 3 (Foreground)
//Storyboard Sound Samples

[TimingPoints]
262,309.278350515464,4,2,1,50,1,0
1189,-133.333333333333,4,2,1,50,0,0
38612,-133.333333333333,4,2,1,25,0,0
39849,-133.333333333333,4,2,1,50,0,0
42014,-100,4,2,1,75,0,0
42787,-67.5675675675676,4,2,1,100,0,0
43560,-100,4,2,1,100,0,1
59566,-100,4,2,1,5,0,1
59643,-100,4,2,1,100,0,1
62117,-100,4,2,1,100,0,0
63354,-100,4,2,1,100,0,1
80674,-100,4,2,1,85,0,0
89334,-100,4,2,1,90,0,0
89952,-100,4,2,1,95,0,0
90571,-100,4,2,1,100,0,1
100468,-100,4,2,1,100,0,0
101241,-100,4,2,1,20,0,0
101318,-100,4,2,1,95,0,0
101473,-100,4,2,1,20,0,0
101550,-100,4,2,1,90,0,0
101705,-100,4,2,1,85,0,0
121499,309.278350515464,6,2,1,75,1,0
121499,-133.333333333333,6,2,1,75,0,0
121653,-133.333333333333,6,2,1,25,0,0
123354,-133.333333333333,6,2,1,50,0,0
123509,-133.333333333333,6,2,1,25,0,0
125210,-133.333333333333,6,2,1,50,0,0
125364,-133.333333333333,6,2,1,25,0,0
127066,-133.333333333333,6,2,1,50,0,0
127220,-133.333333333333,6,2,1,25,0,0
128148,-133.333333333333,6,2,1,35,0,0
128612,-133.333333333333,6,2,1,42,0,0
128921,-111.111111111111,6,2,1,50,0,0
132633,-111.111111111111,6,2,1,50,0,0
142839,-100,6,2,1,60,0,0
143767,-100,6,2,1,70,0,0
154282,-100,6,2,1,85,0,0
154901,309.278350515464,4,2,1,85,1,0
198161,-100,4,2,1,5,0,0
198199,-200,4,2,2,50,0,0
198277,-200,4,2,2,10,0,0
199437,-200,4,2,2,20,0,0
200674,-200,4,2,2,35,0,0
201911,-200,4,2,2,50,0,0
202839,-100,4,2,1,85,0,0
203612,-61.3496932515337,4,2,1,100,0,0
204385,-90.9090909090909,4,2,1,100,0,1
222942,-90.9090909090909,4,2,1,100,0,0
224179,-90.9090909090909,4,2,1,100,0,1
242736,-90.9090909090909,4,2,1,40,0,0
243818,-100,4,2,1,85,0,0
261292,-100,4,2,1,90,0,0
262529,-100,4,2,1,95,0,0
263766,-100,4,2,1,100,0,1
283560,856.162526690392,4,2,1,85,1,0
283560,-66.6666666666667,4,2,1,85,0,0
283667,-100,4,2,1,20,0,0
295546,-100,4,2,1,30,0,0
297258,-100,4,2,1,40,0,0
298970,-100,4,2,1,50,0,0
300683,-100,4,2,1,60,0,0
302395,-100,4,2,1,70,0,0
304107,-100,4,2,1,5,0,0

[Colours]
Combo1 : 181,74,128
Combo2 : 128,181,74
Combo3 : 193,193,104
Combo4 : 192,192,192

[HitObjects]
392,140,1189,6,0,L|461:139,1,67.5000025749208,0|0,0:0|0:0,0:0:0:0:
296,242,1499,6,0,B|229:242|229:242|297:242,1,135.000005149842,2|0,0:0|0:0,0:0:0:0:
371,140,1963,2,0,L|237:142,1,135.000005149842,0|0,0:0|0:0,0:0:0:0:
68,244,2426,2,0,L|345:244,1,270.000010299683,2|2,0:0|0:0,0:0:0:0:
73,141,3354,2,0,L|49:273,1,135.000005149842,2|0,0:0|0:0,0:0:0:0:
320,274,3973,6,0,L|183:272,1,135.000005149842,2|0,0:0|0:0,0:0:0:0:
252,111,4437,2,0,L|386:112,1,135.000005149842,0|0,0:0|0:0,0:0:0:0:
216,276,4901,2,0,P|120:200|195:105,1,270.000010299683,2|2,0:0|0:0,0:0:0:0:
473,106,5829,2,0,L|310:107,1,135.000005149842,2|0,0:0|0:0,0:0:0:0:
405,279,6292,1,0,0:0:0:0:
243,280,6447,6,0,P|222:220|274:185,1,135.000005149842,2|0,0:0|0:0,0:0:0:0:
340,187,6911,2,0,P|361:127|309:92,1,135.000005149842,2|0,0:0|0:0,0:0:0:0:
140,279,7375,2,0,P|72:173|160:84,1,270.000010299683,2|2,0:0|0:0,0:0:0:0:
314,84,8303,2,0,L|448:85,1,135.000005149842,2|0,0:0|0:0,0:0:0:0:
198,84,8921,6,0,P|168:131|224:178,1,135.000005149842,2|0,0:0|0:0,0:0:0:0:
285,214,9385,2,0,L|149:214,1,135.000005149842,0|0,0:0|0:0,0:0:0:0:
320,160,9849,2,0,P|413:279|349:340,1,270.000010299683,2|2,0:0|0:0,0:0:0:0:
90,290,10777,1,2,0:0:0:0:
259,245,11086,2,0,L|190:245,1,67.5000025749208,0|0,0:0|0:0,0:0:0:0:
354,244,11396,6,0,P|394:197|354:147,1,135.000005149842,2|0,0:0|0:0,0:0:0:0:
254,146,11859,2,0,L|119:147,1,135.000005149842,0|0,0:0|0:0,0:0:0:0:
288,241,12323,2,0,P|352:124|265:48,1,270.000010299683,2|2,0:0|0:0,0:0:0:0:
61,337,13251,2,0,L|197:337,1,135.000005149842,2|0,0:0|0:0,0:0:0:0:
399,41,13870,6,0,L|263:42,1,135.000005149842,2|0,0:0|0:0,0:0:0:0:
331,120,14334,2,0,P|347:191|300:222,1,135.000005149842,0|0,0:0|0:0,0:0:0:0:
132,228,14798,2,0,P|107:104|218:45,1,270.000010299683,2|2,0:0|0:0,0:0:0:0:
442,211,15725,2,0,L|373:211,1,67.5000025749208,2|0,0:0|0:0,0:0:0:0:
171,215,16189,5,0,0:0:0:0:
333,213,16344,2,0,P|401:171|421:120,1,135.000005149842,2|0,0:0|0:0,0:0:0:0:
285,119,16808,2,0,L|142:119,1,135.000005149842,0|0,0:0|0:0,0:0:0:0:
320,128,17272,2,0,P|367:246|257:310,1,270.000010299683,2|2,0:0|0:0,0:0:0:0:
60,156,18200,2,0,L|195:157,1,135.000005149842,2|0,0:0|0:0,0:0:0:0:
452,156,18818,6,0,L|317:157,1,135.000005149842,2|0,0:0|0:0,0:0:0:0:
181,157,19282,2,0,P|116:134|91:74,1,135.000005149842,0|0,0:0|0:0,0:0:0:0:
260,76,19746,2,0,P|320:164|208:252,1,270.000010299683,2|2,0:0|0:0,0:0:0:0:
437,126,20674,2,0,L|457:268,1,135.000005149842,2|0,0:0|0:0,0:0:0:0:
186,263,21292,6,0,P|96:185|186:108,1,270.000010299683,2|2,0:0|0:0,0:0:0:0:
457,107,22220,2,0,L|181:108,1,270.000010299683,2|2,0:0|0:0,0:0:0:0:
457,274,23457,1,0,0:0:0:0:
159,268,23767,6,0,L|24:270,1,135.000005149842,2|0,0:0|0:0,0:0:0:0:
159,116,24385,1,2,0:0:0:0:
361,267,24694,2,0,P|439:224|395:140,1,202.500007724762,2|0,0:0|0:0,0:0:0:0:
328,131,25313,1,2,0:0:0:0:
57,134,25932,5,0,0:0:0:0:
326,139,26241,2,0,L|462:139,1,135.000005149842,2|0,0:0|0:0,0:0:0:0:
164,141,26859,2,0,L|59:234,1,135.000005149842,2|0,0:0|0:0,0:0:0:0:
300,177,27478,2,0,L|336:34,1,135.000005149842,2|0,0:0|0:0,0:0:0:0:
130,51,28097,2,0,P|76:120|152:192,1,202.500007724762,2|0,0:0|0:0,0:0:0:0:
312,317,28715,6,0,P|429:173|290:56,1,405.000015449525,2|2,0:0|0:0,0:0:0:0:
88,55,29952,2,0,L|112:195,1,135.000005149842,0|2,0:0|0:0,0:0:0:0:
447,192,31035,5,0,0:0:0:0:
286,196,31189,2,0,L|150:196,1,135.000005149842,2|0,0:0|0:0,0:0:0:0:
320,196,31653,2,0,L|457:195,1,135.000005149842
280,286,32117,2,0,P|258:159|363:87,1,270.000010299683,2|2,0:0|0:0,0:0:0:0:
91,103,33354,5,0,0:0:0:0:
226,196,33664,2,0,L|362:196,1,135.000005149842,2|0,0:0|0:0,0:0:0:0:
192,196,34127,2,0,L|55:195,1,135.000005149842
232,286,34591,2,0,P|253:159|148:87,1,270.000010299683,2|2,0:0|0:0,0:0:0:0:
421,103,35829,5,0,0:0:0:0:
256,50,36138,2,0,P|93:149|79:215,1,270.000010299683,2|0,0:0|0:0,0:0:0:0:
256,334,37066,2,0,P|354:311|431:169,1,270.000010299683,2|0,0:0|0:0,0:0:0:0:
296,170,37993,2,0,L|170:112,1,135.000005149842,2|0,0:0|0:0,0:0:0:0:
444,88,38612,5,0,0:0:0:0:
68,88,39849,1,2,0:0:0:0:
359,86,42014,5,2,0:0:0:0:
179,82,42323,2,0,P|134:172|199:212,1,180,2|0,0:0|0:0,0:0:0:0:
449,296,42787,2,0,L|50:296,1,399.60000975586,2|2,0:0|0:0,0:0:0:0:
454,102,43560,6,0,L|365:104,1,90,6|0,0:2|0:0,0:0:0:0:
210,102,43870,2,0,L|300:103,1,90,8|0,0:0|0:0,0:0:0:0:
145,97,44179,2,0,L|56:97,1,90,2|0,0:2|0:0,0:0:0:0:
371,97,44488,5,8,0:0:0:0:
461,98,44643,2,0,P|481:160|394:219,1,180,0|0,0:0|0:0,0:0:0:0:
245,220,45107,2,0,L|152:220,1,90,10|0,0:0|0:0,0:0:0:0:
308,219,45416,1,2,0:2:0:0:
154,220,45571,1,0,0:0:0:0:
306,222,45725,2,0,L|414:222,1,90,10|0,0:0|0:0,0:0:0:0:
241,221,46035,6,0,L|223:108,1,90,6|0,0:2|0:0,0:0:0:0:
73,132,46344,2,0,L|91:245,1,90,8|0,0:2|0:0,0:0:0:0:
241,221,46653,2,0,L|223:108,1,90,2|0,0:0|0:0,0:0:0:0:
451,138,46963,6,0,L|436:226,1,90,8|0,0:0|0:0,0:0:0:0:
210,225,47272,2,0,L|108:225,1,90,2|0,0:0|0:0,0:0:0:0:
345,223,47581,2,0,L|366:119,1,90,10|0,0:0|0:0,0:0:0:0:
137,136,47890,2,0,L|116:240,1,90,2|0,0:0|0:0,0:0:0:0:
345,233,48200,2,0,L|452:233,1,90,10|0,0:0|0:0,0:0:0:0:
133,107,48509,6,0,P|103:200|175:236,1,180,4|8,0:0|0:0,0:0:0:0:
386,233,48973,1,0,0:0:0:0:
163,239,49127,2,0,L|147:129,1,90,2|0,0:0|0:0,0:0:0:0:
377,145,49437,2,0,L|266:147,1,90,8|0,0:0|0:0,0:0:0:0:
62,146,49746,6,0,L|77:256,1,90,2|0,0:0|0:0,0:0:0:0:
299,233,50055,2,0,L|409:231,1,90,10|0,0:0|0:0,0:0:0:0:
162,231,50365,2,0,L|291:232,1,90,2|0,0:0|0:0,0:0:0:0:
477,235,50674,2,0,L|462:125,1,90,10|0,0:0|0:0,0:0:0:0:
239,148,50983,6,0,L|132:148,1,90,6|0,0:0|0:0,0:0:0:0:
302,148,51292,2,0,L|409:147,1,90,8|0,0:0|0:0,0:0:0:0:
239,236,51602,1,2,0:0:0:0:
391,234,51756,1,0,0:0:0:0:
165,233,51911,6,0,L|67:233,1,90,8|0,0:0|0:0,0:0:0:0:
390,241,52220,2,0,L|412:128,1,90,2|0,0:0|0:0,0:0:0:0:
252,149,52530,2,0,L|230:262,1,90,10|0,0:0|0:0,0:0:0:0:
81,234,52839,2,0,L|94:136,1,90,2|0,0:0|0:0,0:0:0:0:
407,152,53148,1,10,0:0:0:0:
445,177,53225,1,0,0:0:0:0:
438,221,53303,1,0,0:0:0:0:
387,237,53380,1,0,0:0:0:0:
185,237,53457,6,0,P|115:202|77:91,1,180,6|8,0:0|0:0,0:0:0:0:
301,114,53921,2,0,L|405:113,2,90,0|2|0,0:0|0:0|0:0,0:0:0:0:
75,116,54385,5,8,0:0:0:0:
165,115,54540,2,0,L|350:114,1,180,0|0,0:0|0:0,0:0:0:0:
191,114,55004,2,0,L|158:211,1,90,10|0,0:0|0:0,0:0:0:0:
432,209,55313,2,0,L|463:106,1,90,2|0,0:0|0:0,0:0:0:0:
212,261,55622,2,0,L|313:260,1,90,10|0,0:0|0:0,0:0:0:0:
27,204,55932,6,0,L|58:119,1,90,6|0,0:0|0:0,0:0:0:0:
211,115,56241,2,0,L|301:115,1,90,8|0,0:0|0:0,0:0:0:0:
453,119,56550,2,0,L|485:204,1,90,2|0,0:0|0:0,0:0:0:0:
214,208,56859,6,0,L|124:208,1,90,8|0,0:0|0:0,0:0:0:0:
396,209,57169,2,0,L|306:209,1,90,2|0,0:0|0:0,0:0:0:0:
34,208,57478,2,0,L|49:115,1,90,10|0,0:0|0:0,0:0:0:0:
273,125,57787,2,0,L|377:124,1,90,2|0,0:0|0:0,0:0:0:0:
408,124,58019,1,0,0:0:0:0:
226,126,58097,1,10,0:0:0:0:
181,125,58174,1,0,0:0:0:0:
136,125,58251,1,0,0:0:0:0:
361,124,58406,6,0,P|413:151|471:266,1,180,6|8,0:0|0:0,0:0:0:0:
255,251,58870,2,0,P|211:179|279:126,1,180,2|0,0:0|0:0,0:0:0:0:
44,127,59334,2,0,P|26:199|82:232,1,135,10|0,0:0|0:0,0:0:0:0:
271,209,59643,6,0,L|368:207,1,90,6|0,0:0|0:0,0:0:0:0:
113,230,59952,1,8,0:0:0:0:
338,233,60107,2,0,L|431:231,2,90,2|0|0,0:0|0:0|0:0,0:0:0:0:
73,143,60571,2,0,L|174:144,1,90,10|0,0:0|0:0,0:0:0:0:
208,144,60803,1,0,0:0:0:0:
432,144,60880,6,0,L|446:255,1,90,6|0,0:0|0:0,0:0:0:0:
289,231,61189,2,0,L|303:120,1,90,0|0,0:0|0:0,0:0:0:0:
146,146,61499,2,0,L|160:257,1,90,10|0,0:0|0:0,0:0:0:0:
382,235,61808,1,2,0:0:0:0:
228,235,61963,1,2,0:0:0:0:
452,149,62117,6,0,L|361:149,2,90,6|0|8,0:0|0:0|0:0,0:0:0:0:
226,149,62581,2,0,L|43:148,1,180,2|0,0:0|0:0,0:0:0:0:
91,148,62968,1,0,0:0:0:0:
270,149,63045,2,0,L|342:149,1,45,10|0,0:0|0:0,0:0:0:0:
133,147,63200,2,0,L|75:146,1,45,8|8,0:0|0:0,0:0:0:0:
334,149,63354,6,0,L|435:150,1,90,6|0,0:0|0:0,0:0:0:0:
269,237,63664,2,0,L|370:236,1,90,8|0,0:0|0:0,0:0:0:0:
205,147,63973,2,0,L|306:148,1,90,2|0,0:0|0:0,0:0:0:0:
69,238,64282,6,0,L|170:237,1,90,8|0,0:0|0:0,0:0:0:0:
384,239,64591,2,0,L|290:238,1,90,2|0,0:0|0:0,0:0:0:0:
448,146,64901,2,0,L|357:144,1,90,10|0,0:0|0:0,0:0:0:0:
204,141,65210,1,2,0:0:0:0:
357,140,65365,1,0,0:0:0:0:
204,142,65519,2,0,L|110:143,1,90,10|0,0:0|0:0,0:0:0:0:
357,140,65829,6,0,L|357:234,1,90,6|0,0:0|0:0,0:0:0:0:
204,148,66138,2,0,L|21:147,1,180,8|2,0:0|0:0,0:0:0:0:
114,148,66602,1,0,0:0:0:0:
382,149,66756,6,0,L|454:209,1,90,8|0,0:0|0:0,0:0:0:0:
178,214,67066,2,0,L|64:214,1,90,2|0,0:0|0:0,0:0:0:0:
313,212,67375,2,0,L|243:131,1,90,10|0,0:0|0:0,0:0:0:0:
479,144,67684,2,0,L|462:246,1,90,2|0,0:0|0:0,0:0:0:0:
238,236,67993,1,10,0:0:0:0:
463,230,68148,1,0,0:0:0:0:
237,235,68303,6,0,L|145:235,2,90,6|0|8,0:0|0:0|0:0,0:0:0:0:
462,234,68767,1,0,0:0:0:0:
193,231,68921,2,0,L|85:231,1,90,2|0,0:0|0:0,0:0:0:0:
420,231,69231,6,0,L|491:148,1,90,8|0,0:0|0:0,0:0:0:0:
253,145,69540,2,0,L|260:243,1,90,2|0,0:0|0:0,0:0:0:0:
33,236,69849,2,0,L|40:146,1,90,10|0,0:0|0:0,0:0:0:0:
353,236,70158,1,2,0:0:0:0:
479,236,70313,1,0,0:0:0:0:
122,149,70468,2,0,L|33:148,1,90,10|0,0:0|0:0,0:0:0:0:
259,154,70777,6,0,L|163:154,1,90,6|0,0:0|0:0,0:0:0:0:
420,251,71086,2,0,P|481:195|440:122,1,180,8|2,0:0|0:0,0:0:0:0:
348,121,71550,1,0,0:0:0:0:
194,122,71705,1,8,0:0:0:0:
283,119,71859,2,0,P|353:142|397:240,1,180,0|0,0:0|0:0,0:0:0:0:
120,218,72323,6,0,L|28:217,1,90,10|0,0:0|0:0,0:0:0:0:
302,217,72633,2,0,L|401:216,1,90,2|0,0:0|0:0,0:0:0:0:
120,218,72942,1,10,0:0:0:0:
82,195,73019,1,0,0:0:0:0:
89,151,73097,1,0,0:0:0:0:
140,134,73174,1,0,0:0:0:0:
378,159,73251,6,0,P|430:206|370:276,1,180,6|8,0:0|0:0,0:0:0:0:
145,274,73715,1,0,0:0:0:0:
370,282,73870,1,2,0:0:0:0:
280,282,74024,1,0,0:0:0:0:
190,282,74179,1,8,0:0:0:0:
415,286,74334,1,0,0:0:0:0:
146,281,74488,6,0,L|100:181,1,90,2|0,0:0|0:0,0:0:0:0:
335,198,74798,2,0,L|228:198,1,90,10|0,0:0|0:0,0:0:0:0:
470,200,75107,2,0,L|424:100,1,90,2|0,0:0|0:0,0:0:0:0:
206,117,75416,2,0,L|199:191,1,45,10|0,0:0|0:0,0:0:0:0:
380,194,75571,2,0,L|443:194,1,45,8|0,0:0|0:0,0:0:0:0:
155,167,75725,6,0,L|57:167,1,90,6|0,0:0|0:0,0:0:0:0:
369,267,76035,2,0,L|353:154,1,90,8|0,0:0|0:0,0:0:0:0:
85,173,76344,2,0,L|63:290,1,90,2|0,0:0|0:0,0:0:0:0:
293,267,76653,2,0,L|383:267,1,90,8|0,0:0|0:0,0:0:0:0:
156,266,76963,6,0,P|105:204|181:148,1,180,2|10,0:0|0:0,0:0:0:0:
254,147,77426,1,0,0:0:0:0:
28,155,77581,2,0,L|47:258,1,90,2|0,0:0|0:0,0:0:0:0:
269,250,77890,2,0,L|383:250,1,90,10|0,0:0|0:0,0:0:0:0:
132,252,78200,6,0,L|40:252,2,90,2|0|2,0:0|0:0|0:0,0:0:0:0:
285,249,78664,1,8,0:0:0:0:
60,243,78818,2,0,L|170:243,1,90,2|0,0:0|0:0,0:0:0:0:
303,244,79127,1,10,0:0:0:0:
212,244,79282,1,0,0:0:0:0:
438,176,79437,5,2,0:0:0:0:
452,133,79514,1,0,0:0:0:0:
438,176,79591,1,8,0:0:0:0:
293,176,79746,1,2,0:0:0:0:
438,176,79901,1,2,0:0:0:0:
75,214,80055,1,10,0:0:0:0:
184,214,80210,1,2,0:0:0:0:
466,113,80365,1,10,0:0:0:0:
357,113,80519,1,2,0:0:0:0:
41,97,80674,5,6,0:0:0:0:
291,287,80983,2,0,L|304:192,3,90,0|0|0|0,0:0|0:0|0:0|0:0,0:0:0:0:
212,80,81602,2,0,L|199:175,1,90,0|0,0:0|0:0,0:0:0:0:
362,171,81911,6,0,L|375:266,3,90,2|0|0|0,0:0|0:0|0:0|0:0,0:0:0:0:
283,263,82530,2,0,L|270:168,1,90,0|0,0:0|0:0,0:0:0:0:
406,174,82839,2,0,L|419:79,1,90,0|0,0:0|0:0,0:0:0:0:
76,176,83148,5,8,0:0:0:0:
318,209,83457,2,0,L|331:119,3,90,0|0|0|0,0:0|0:0|0:0|0:0,0:0:0:0:
237,119,84076,2,0,L|224:214,1,90,0|0,0:0|0:0,0:0:0:0:
388,64,84385,6,0,L|401:154,2,90,2|0|0,0:0|0:0|0:0,0:0:0:0:
230,176,84849,1,0,0:0:0:0:
442,176,85004,1,8,0:0:0:0:
307,178,85158,1,0,0:0:0:0:
442,176,85313,2,0,L|460:68,1,90,0|0,0:0|0:0,0:0:0:0:
151,84,85622,6,0,L|202:157,1,90,6|0,0:0|0:0,0:0:0:0:
294,161,85932,1,2,0:0:0:0:
160,243,86086,1,0,0:0:0:0:
386,301,86241,2,0,L|372:213,1,90,10|0,0:0|0:0,0:0:0:0:
230,213,86550,2,0,L|141:213,1,90,2|0,0:0|0:0,0:0:0:0:
376,301,86859,6,0,L|465:301,2,90,2|0|2,0:0|0:0|0:0,0:0:0:0:
285,298,87323,1,0,0:0:0:0:
60,108,87478,2,0,L|42:202,1,90,10|0,0:0|0:0,0:0:0:0:
111,197,87710,1,0,0:0:0:0:
178,195,87787,2,0,L|196:289,1,90,2|0,0:0|0:0,0:0:0:0:
422,286,88097,6,0,L|440:192,1,90,2|0,0:0|0:0,0:0:0:0:
303,197,88406,2,0,L|392:194,1,90,2|0,0:0|0:0,0:0:0:0:
158,197,88715,2,0,L|69:197,1,90,10|0,0:0|0:0,0:0:0:0:
54,240,88947,1,0,0:0:0:0:
68,197,89024,2,0,L|158:197,1,90,2|0,0:0|0:0,0:0:0:0:
301,84,89334,5,2,0:0:0:0:
211,84,89488,1,0,0:0:0:0:
364,300,89643,1,2,0:0:0:0:
148,300,89798,1,2,0:0:0:0:
192,298,89875,1,0,0:0:0:0:
435,98,89952,2,0,L|346:97,1,90,8|8,0:0|0:0,0:0:0:0:
77,98,90262,1,8,0:0:0:0:
435,286,90416,1,0,0:0:0:0:
90,286,90571,6,0,L|72:192,1,90,6|0,0:0|0:0,0:0:0:0:
301,129,90880,2,0,L|211:128,1,90,8|0,0:0|0:0,0:0:0:0:
423,286,91189,2,0,L|305:286,1,90,2|0,0:0|0:0,0:0:0:0:
196,285,91499,2,0,L|177:181,1,90,8|0,0:0|0:0,0:0:0:0:
405,200,91808,6,0,L|495:200,1,90,2|0,0:0|0:0,0:0:0:0:
243,204,92117,1,10,0:0:0:0:
153,204,92272,1,0,0:0:0:0:
288,201,92426,2,0,L|302:105,1,90,2|0,0:0|0:0,0:0:0:0:
76,281,92736,2,0,L|184:281,1,90,10|0,0:0|0:0,0:0:0:0:
452,192,93045,5,6,0:0:0:0:
431,279,93200,1,0,0:0:0:0:
204,188,93354,2,0,L|108:189,1,90,8|0,0:0|0:0,0:0:0:0:
342,186,93664,2,0,L|432:186,1,90,2|0,0:0|0:0,0:0:0:0:
296,190,93973,2,0,L|272:78,1,90,8|0,0:0|0:0,0:0:0:0:
51,100,94282,5,2,0:0:0:0:
148,100,94437,1,0,0:0:0:0:
371,106,94591,2,0,L|265:102,1,90,10|0,0:0|0:0,0:0:0:0:
417,104,94901,2,0,L|440:192,1,90,2|0,0:0|0:0,0:0:0:0:
118,217,95210,1,10,0:0:0:0:
85,190,95288,1,0,0:0:0:0:
92,146,95365,1,0,0:0:0:0:
144,128,95442,1,0,0:0:0:0:
368,190,95519,6,0,L|458:186,1,90,6|0,0:0|0:0,0:0:0:0:
144,188,95829,2,0,L|62:137,1,90,8|0,0:0|0:0,0:0:0:0:
293,99,96138,1,2,0:0:0:0:
208,97,96292,1,0,0:0:0:0:
343,133,96447,2,0,L|367:258,1,90,8|0,0:0|0:0,0:0:0:0:
132,219,96756,5,2,0:0:0:0:
222,219,96911,1,0,0:0:0:0:
444,90,97066,2,0,L|336:91,1,90,10|0,0:0|0:0,0:0:0:0:
218,88,97375,2,0,L|208:189,1,90,2|0,0:0|0:0,0:0:0:0:
436,247,97684,2,0,L|346:247,1,90,10|0,0:0|0:0,0:0:0:0:
97,284,97993,6,0,L|71:198,1,90,6|0,0:0|0:0,0:0:0:0:
297,189,98303,2,0,L|397:188,1,90,8|0,0:0|0:0,0:0:0:0:
160,197,98612,2,0,L|64:197,1,90,2|0,0:0|0:0,0:0:0:0:
205,201,98921,2,0,L|218:104,1,90,8|0,0:0|0:0,0:0:0:0:
471,268,99231,5,2,0:0:0:0:
336,270,99385,1,0,0:0:0:0:
41,96,99540,1,10,0:0:0:0:
130,94,99694,1,0,0:0:0:0:
264,207,99849,2,0,L|173:205,1,90,2|0,0:0|0:0,0:0:0:0:
129,207,100081,1,0,0:0:0:0:
387,109,100158,2,0,L|417:75,1,45,10|0,0:0|0:0,0:0:0:0:
102,119,100313,2,0,L|95:75,1,45,0|0,0:0|0:0,0:0:0:0:
417,75,100468,6,0,L|417:346,1,270,6|0,0:0|0:0,0:1:0:0:
95,75,101086,2,0,L|95:164,1,90,10|0,0:0|0:0,0:0:0:0:
256,76,101318,2,0,L|256:165,1,90,0|0,0:0|0:0,0:0:0:0:
417,75,101550,2,0,L|417:119,1,45,0|0,0:0|0:0,0:0:0:0:
190,204,101705,6,0,L|100:204,1,90,6|0,0:0|0:0,0:0:0:0:
325,204,102014,1,8,0:0:0:0:
190,204,102169,2,0,L|174:106,1,90,0|2,0:0|0:0,0:0:0:0:
309,117,102478,1,0,0:0:0:0:
83,124,102633,6,0,L|201:124,1,90,8|0,0:0|0:0,0:0:0:0:
326,128,102942,2,0,L|444:128,1,90,2|0,0:0|0:0,0:0:0:0:
262,129,103251,2,0,L|246:241,1,90,10|0,0:0|0:0,0:0:0:0:
95,220,103560,2,0,L|79:108,1,90,2|0,0:0|0:0,0:0:0:0:
326,128,103870,2,0,L|444:128,1,90,10|0,0:0|0:0,0:0:0:0:
186,256,104179,6,0,L|68:256,2,90,2|0|8,0:0|0:0|0:0,0:0:0:0:
411,269,104643,2,0,L|419:177,1,90,0|2,0:0|0:0,0:0:0:0:
192,184,104952,1,0,0:0:0:0:
417,177,105107,6,0,L|306:178,1,90,8|0,0:0|0:0,0:0:0:0:
173,179,105416,2,0,L|158:289,1,90,2|0,0:0|0:0,0:0:0:0:
314,273,105725,2,0,L|329:163,1,90,10|0,0:0|0:0,0:0:0:0:
173,179,106035,1,2,0:0:0:0:
327,179,106189,1,0,0:0:0:0:
57,115,106344,2,0,L|165:113,1,90,10|0,0:0|0:0,0:0:0:0:
417,126,106653,6,0,L|304:125,1,90,6|0,0:0|0:0,0:0:0:0:
100,127,106963,1,8,0:0:0:0:
324,131,107117,2,0,L|339:248,1,90,0|2,0:0|0:0,0:0:0:0:
109,219,107426,1,0,0:0:0:0:
335,220,107581,6,0,L|433:220,1,90,8|0,0:0|0:0,0:0:0:0:
271,215,107890,2,0,L|341:155,1,90,2|0,0:0|0:0,0:0:0:0:
185,163,108200,2,0,L|201:66,1,90,10|0,0:0|0:0,0:0:0:0:
353,81,108509,1,2,0:0:0:0:
199,73,108664,1,0,0:0:0:0:
428,47,108818,2,0,L|357:115,1,90,10|0,0:0|0:0,0:0:0:0:
137,112,109127,6,0,L|245:112,1,90,2|0,0:0|0:0,0:0:0:0:
72,113,109437,1,8,0:0:0:0:
297,232,109591,2,0,L|310:129,1,90,0|2,0:0|0:0,0:0:0:0:
172,139,109901,1,0,0:0:0:0:
440,271,110055,2,0,L|350:271,1,90,8|0,0:0|0:0,0:0:0:0:
195,271,110365,5,2,0:0:0:0:
330,269,110519,1,0,0:0:0:0:
177,112,110674,1,10,0:0:0:0:
267,113,110829,1,0,0:0:0:0:
114,273,110983,1,2,0:0:0:0:
114,111,111138,1,8,0:0:0:0:
159,111,111215,1,0,0:0:0:0:
374,210,111292,2,0,L|469:210,1,90,2|8,0:0|0:0,0:0:0:0:
419,209,111524,1,0,0:0:0:0:
169,209,111602,6,0,L|76:209,1,90,6|0,0:0|0:0,0:0:0:0:
304,206,111911,1,8,0:0:0:0:
78,208,112066,2,0,P|54:126|121:75,1,180,0|0,0:0|0:0,0:0:0:0:
347,82,112530,6,0,L|449:82,1,90,8|0,0:0|0:0,0:0:0:0:
283,303,112839,2,0,L|177:304,1,90,2|0,0:0|0:0,0:0:0:0:
463,308,113148,2,0,L|479:195,1,90,10|0,0:0|0:0,0:0:0:0:
250,218,113457,2,0,L|234:105,1,90,2|0,0:0|0:0,0:0:0:0:
83,129,113767,2,0,L|99:242,1,90,10|0,0:0|0:0,0:0:0:0:
343,209,114076,6,0,L|436:209,1,90,2|0,0:0|0:0,0:0:0:0:
208,206,114385,1,8,0:0:0:0:
433,208,114540,2,0,P|457:126|390:75,1,180,0|0,0:0|0:0,0:0:0:0:
118,137,115004,5,8,0:0:0:0:
51,196,115158,1,0,0:0:0:0:
69,107,115313,1,2,0:0:0:0:
168,109,115468,1,0,0:0:0:0:
379,248,115622,2,0,L|260:248,1,90,10|0,0:0|0:0,0:0:0:0:
134,247,115932,1,2,0:0:0:0:
289,248,116086,2,0,L|300:144,1,90,0|10,0:0|0:0,0:0:0:0:
71,161,116396,1,0,0:0:0:0:
334,121,116550,6,0,P|418:169|446:260,1,180,6|8,0:0|0:0,0:0:0:0:
234,196,117014,2,0,L|224:96,1,90,0|2,0:0|0:0,0:0:0:0:
71,104,117323,1,0,0:0:0:0:
342,160,117478,5,8,0:0:0:0:
409,219,117632,1,0,0:0:0:0:
391,130,117787,1,2,0:0:0:0:
292,132,117942,1,0,0:0:0:0:
80,246,118097,2,0,L|294:246,1,180,10|2,0:0|0:0,0:0:0:0:
170,246,118560,1,0,0:0:0:0:
382,88,118715,2,0,L|497:88,1,90,10|0,0:0|0:0,0:0:0:0:
178,121,119024,6,0,P|94:169|66:260,1,180,10|0,0:0|0:0,0:0:0:0:
219,243,119488,2,0,L|325:242,1,90,8|2,0:0|0:0,0:0:0:0:
154,241,119798,1,0,0:0:0:0:
382,248,119952,5,12,0:0:0:0:
420,226,120029,1,0,0:0:0:0:
432,185,120106,1,0,0:0:0:0:
421,143,120183,1,0,0:0:0:0:
383,118,120261,1,0,0:0:0:0:
328,117,120339,1,0,0:0:0:0:
250,117,120416,1,0,0:0:0:0:
463,119,120571,2,0,L|472:223,1,90,8|0,0:0|0:0,0:0:0:0:
199,107,120880,1,10,0:0:0:0:
313,107,121035,1,10,0:0:0:0:
44,251,121189,1,10,0:0:0:0:
179,250,121344,1,10,0:0:0:0:
454,144,121499,6,0,L|476:209,3,67.5000025749208,6|0|0|0,0:0|0:0|0:0|0:0,0:0:0:0:
362,221,122117,2,0,L|344:155,1,67.5000025749208,2|0,0:0|0:0,0:0:0:0:
260,159,122426,2,0,L|243:224,3,67.5000025749208,0|0|0|0,0:0|0:0|0:0|0:0,0:0:0:0:
140,225,123045,2,0,L|157:290,1,67.5000025749208,2|0,0:0|0:0,0:0:0:0:
326,290,123354,6,0,L|394:289,3,67.5000025749208,2|0|0|0,0:0|0:0|0:0|0:0,0:0:0:0:
325,290,123973,2,0,L|254:289,1,67.5000025749208,2|0,0:0|0:0,0:0:0:0:
156,294,124282,2,0,L|139:229,3,67.5000025749208,0|0|0|0,0:0|0:0|0:0|0:0,0:0:0:0:
36,226,124901,2,0,L|53:161,1,67.5000025749208,2|0,0:0|0:0,0:0:0:0:
222,162,125210,6,0,L|293:162,1,67.5000025749208,2|0,0:0|0:0,0:0:0:0:
374,228,125519,2,0,L|307:228,1,67.5000025749208,0|0,0:0|0:0,0:0:0:0:
205,228,125828,2,0,L|138:228,1,67.5000025749208,2|0,0:0|0:0,0:0:0:0:
239,228,126138,2,0,L|256:163,1,67.5000025749208,0|0,0:0|0:0,0:0:0:0:
357,162,126447,2,0,L|340:97,1,67.5000025749208,0|0,0:0|0:0,0:0:0:0:
442,89,126756,2,0,L|459:154,1,67.5000025749208,2|0,0:0|0:0,0:0:0:0:
289,163,127066,6,0,L|210:163,1,67.5000025749208,2|0,0:0|0:0,0:0:0:0:
137,228,127375,2,0,L|204:228,1,67.5000025749208,0|0,0:0|0:0,0:0:0:0:
306,228,127684,2,0,L|373:228,1,67.5000025749208,2|0,0:0|0:0,0:0:0:0:
272,226,127993,1,0,0:0:0:0:
407,226,128148,2,0,L|422:194,2,33.7500012874604,2|2|2,0:0|0:0|0:0,0:0:0:0:
272,226,128457,1,2,0:0:0:0:
407,227,128612,2,0,L|475:224,1,67.5000025749208,2|0,0:0|0:0,0:0:0:0:
215,246,128921,6,0,L|168:73,1,161.999995056153,4|0,0:0|0:0,0:0:0:0:
348,69,129540,1,0,0:0:0:0:
78,70,129849,2,0,L|257:69,1,161.999995056153,0|2,0:0|0:0,0:0:0:0:
158,70,130313,1,2,0:0:0:0:
78,70,130468,1,2,0:0:0:0:
323,159,130777,6,0,P|396:179|320:346,1,323.999990112305,2|0,0:0|0:0,0:0:0:0:
201,348,131550,1,2,0:0:0:0:
323,346,131705,2,0,P|397:332|441:258,1,161.999995056153,2|2,0:0|0:0,0:0:0:0:
359,258,132169,1,2,0:0:0:0:
212,155,132323,2,0,L|125:155,1,80.9999975280763,2|0,0:0|0:0,0:0:0:0:
346,251,132633,6,0,P|396:192|347:138,1,161.999995056153,6|0,0:0|0:0,0:0:0:0:
213,137,133096,1,2,0:0:0:0:
348,138,133251,1,0,0:0:0:0:
105,136,133560,2,0,L|285:137,1,161.999995056153,2|0,0:0|0:0,0:0:0:0:
165,148,134024,1,2,0:0:0:0:
63,139,134179,2,0,L|39:225,1,80.9999975280763,2|0,0:0|0:0,0:0:0:0:
190,280,134488,6,0,P|274:155|155:82,1,323.999990112305,2|0,0:0|0:0,0:0:0:0:
277,78,135261,2,0,L|185:77,1,80.9999975280763,2|0,0:0|0:0,0:0:0:0:
439,78,135725,2,0,L|456:165,1,80.9999975280763,2|0,0:0|0:0,0:0:0:0:
315,157,136035,1,2,0:0:0:0:
454,157,136189,1,0,0:0:0:0:
119,94,136344,6,0,L|76:251,2,161.999995056153,6|0|0,0:0|0:0|0:0,0:0:0:0:
337,96,137272,2,0,L|175:96,1,161.999995056153,0|0,0:0|0:0,0:0:0:0:
256,97,137736,2,0,L|173:97,1,80.9999975280763,2|2,0:0|0:0,0:0:0:0:
393,94,138200,6,0,P|420:173|316:272,1,242.999992584229,2|0,0:0|0:0,0:0:0:0:
235,273,138818,1,0,0:0:0:0:
397,274,138973,1,2,0:0:0:0:
235,273,139127,2,0,P|189:218|239:160,1,161.999995056153,2|2,0:0|0:0,0:0:0:0:
402,159,139591,2,0,L|497:159,1,80.9999975280763,2|2,0:0|0:0,0:0:0:0:
200,115,140055,6,0,L|38:115,1,161.999995056153,6|0,0:0|0:0,0:0:0:0:
176,269,140519,1,2,0:0:0:0:
37,269,140674,1,2,0:0:0:0:
312,115,140983,2,0,L|474:115,1,161.999995056153,2|0,0:0|0:0,0:0:0:0:
336,269,141447,1,2,0:0:0:0:
475,269,141602,1,2,0:0:0:0:
189,106,141911,6,0,L|28:105,2,161.999995056153,2|2|2,0:0|0:0|0:0,0:0:0:0:
270,105,142684,1,0,0:0:0:0:
405,280,142839,2,0,L|223:281,1,180,2|0,0:0|0:0,0:0:0:0:
473,104,143303,2,0,L|381:105,1,90,8|2,0:0|0:0,0:0:0:0:
158,110,143612,1,0,0:0:0:0:
113,111,143689,1,0,0:0:0:0:
340,114,143767,6,0,L|429:114,1,90,6|0,0:0|0:0,0:0:0:0:
294,113,144076,2,0,L|196:110,1,90,0|0,0:0|0:0,0:0:0:0:
430,114,144385,2,0,L|442:206,1,90,0|0,0:0|0:0,0:0:0:0:
396,203,144617,1,0,0:0:0:0:
127,273,144694,5,8,0:0:0:0:
64,213,144849,1,0,0:0:0:0:
77,123,145004,1,0,0:0:0:0:
166,94,145158,1,0,0:0:0:0:
435,123,145313,1,0,0:0:0:0:
335,122,145468,1,0,0:0:0:0:
89,222,145622,6,0,L|178:224,2,90,2|0|0,0:0|0:0|0:0,0:0:0:0:
224,225,146086,1,0,0:0:0:0:
89,150,146241,2,0,L|183:149,1,90,0|0,0:0|0:0,0:0:0:0:
449,149,146550,6,0,L|268:149,1,180,8|0,0:0|0:0,0:0:0:0:
178,146,147014,2,0,L|159:190,1,45,0|0,0:0|0:0,0:0:0:0:
385,94,147169,1,0,0:0:0:0:
423,116,147246,1,0,0:0:0:0:
416,160,147323,1,0,0:0:0:0:
364,177,147401,1,0,0:0:0:0:
207,178,147478,6,0,L|27:177,1,180,2|0,0:0|0:0,0:0:0:0:
114,93,147942,1,0,0:0:0:0:
339,290,148096,2,0,L|429:290,1,90,0|0,0:0|0:0,0:0:0:0:
201,235,148406,6,0,L|112:234,1,90,8|0,0:0|0:0,0:0:0:0:
248,148,148715,1,0,0:0:0:0:
113,148,148870,1,0,0:0:0:0:
401,250,149024,2,0,L|413:161,1,90,0|0,0:0|0:0,0:0:0:0:
189,192,149334,6,0,L|316:192,1,90,2|0,0:0|0:0,0:0:0:0:
144,191,149643,1,0,0:0:0:0:
279,192,149797,1,0,0:0:0:0:
144,191,149952,2,0,L|54:191,1,90,0|0,0:0|0:0,0:0:0:0:
369,160,150261,5,10,0:0:0:0:
459,160,150416,1,0,0:0:0:0:
234,67,150571,1,10,0:0:0:0:
369,67,150725,1,0,0:0:0:0:
123,68,150880,1,10,0:0:0:0:
335,68,151035,1,0,0:0:0:0:
65,66,151189,6,0,L|57:175,1,90,6|0,0:0|0:0,0:0:0:0:
194,155,151499,2,0,L|289:154,2,90,0|0|0,0:0|0:0|0:0,0:0:0:0:
58,155,151962,1,0,0:0:0:0:
346,169,152117,6,0,L|166:169,1,180,8|0,0:0|0:0,0:0:0:0:
301,170,152581,1,0,0:0:0:0:
49,75,152736,2,0,L|140:75,1,90,0|0,0:0|0:0,0:0:0:0:
368,84,153045,5,2,0:0:0:0:
458,84,153200,1,0,0:0:0:0:
368,84,153354,1,0,0:0:0:0:
141,86,153509,1,0,0:0:0:0:
51,86,153663,2,0,L|22:136,2,45,8|0|0,0:0|0:0|0:0,0:0:0:0:
368,300,153973,6,0,L|460:300,1,90,8|0,0:0|0:0,0:0:0:0:
368,300,154282,1,8,0:0:0:0:
335,273,154359,1,0,0:0:0:0:
342,229,154437,1,0,0:0:0:0:
394,211,154514,1,0,0:0:0:0:
141,82,154591,1,8,0:0:0:0:
108,109,154669,1,0,0:0:0:0:
115,153,154746,1,0,0:0:0:0:
167,171,154823,1,0,0:0:0:0:
447,98,154901,6,0,L|459:142,5,45,12|0|0|0|2|0,0:0|0:0|0:0|0:0|0:0|0:0,0:0:0:0:
190,98,155364,5,12,0:0:0:0:
152,123,155442,1,0,0:0:0:0:
141,166,155519,1,0,0:0:0:0:
152,209,155596,1,0,0:0:0:0:
190,232,155674,1,2,0:0:0:0:
246,244,155751,1,0,0:0:0:0:
448,158,155828,2,0,L|404:158,1,45,8|0,0:0|0:0,0:0:0:0:
186,166,155983,2,0,L|141:166,1,45,2|0,0:0|0:0,0:0:0:0:
403,158,156138,5,14,0:0:0:0:
441,183,156215,1,0,0:0:0:0:
452,226,156292,1,0,0:0:0:0:
441,269,156370,1,0,0:0:0:0:
403,292,156447,1,2,0:0:0:0:
347,304,156524,1,0,0:0:0:0:
134,189,156602,6,0,L|89:189,1,45,10|0,0:0|0:0,0:0:0:0:
279,181,156756,2,0,L|324:181,1,45,2|0,0:0|0:0,0:0:0:0:
108,97,156911,2,0,L|63:97,1,45,2|0,0:0|0:0,0:0:0:0:
253,89,157065,2,0,L|298:89,1,45,8|0,0:0|0:0,0:0:0:0:
83,194,157220,2,0,L|38:194,1,45,2|0,0:0|0:0,0:0:0:0:
321,193,157375,5,14,0:0:0:0:
426,193,157529,1,0,0:0:0:0:
462,105,157684,1,2,0:0:0:0:
191,193,157839,1,10,0:0:0:0:
86,193,157993,1,0,0:0:0:0:
50,105,158148,1,2,0:0:0:0:
304,108,158303,1,10,0:0:0:0:
208,108,158457,1,0,0:0:0:0:
433,114,158612,5,14,0:0:0:0:
455,200,158766,1,0,0:0:0:0:
211,286,158921,2,0,L|301:286,1,90,2|2,0:0|0:0,0:0:0:0:
345,288,159153,1,0,0:0:0:0:
144,198,159230,1,2,0:0:0:0:
54,199,159384,1,8,0:0:0:0:
326,205,159540,2,0,L|266:204,1,45,2|0,0:0|0:0,0:0:0:0:
101,202,159694,2,0,L|43:202,1,45,0|0,0:0|0:0,0:0:0:0:
326,205,159849,6,0,P|418:158|436:69,1,180,12|0,0:0|0:0,0:0:0:0:
186,205,160313,2,0,P|94:158|76:69,1,180,12|0,0:0|0:0,0:0:0:0:
298,92,160777,2,0,L|309:146,1,45,8|0,0:0|0:0,0:0:0:0:
150,134,160931,2,0,L|139:188,1,45,0|0,0:3|0:3,0:0:0:0:
345,184,161086,6,0,L|452:184,1,90,12|2,0:0|0:0,0:0:0:0:
281,184,161395,1,2,0:0:0:0:
65,99,161550,1,12,0:0:0:0:
101,180,161704,1,2,0:0:0:0:
200,192,161859,1,2,0:0:0:0:
256,192,161936,1,2,0:0:0:0:
435,108,162014,1,8,0:0:0:0:
208,192,162169,2,0,L|163:192,1,45,2|2,0:0|0:0,0:0:0:0:
375,105,162323,6,0,P|424:165|359:229,1,180,12|0,0:0|0:0,0:0:0:0:
137,105,162787,2,0,P|88:165|153:229,1,180,12|0,0:0|0:0,0:0:0:0:
373,227,163251,2,0,L|423:226,1,45,8|0,0:0|0:0,0:0:0:0:
259,227,163406,2,0,L|198:228,1,45,0|0,0:0|0:0,0:0:0:0:
34,224,163560,6,0,L|133:222,1,90,12|2,0:0|0:0,0:0:0:0:
260,216,163870,1,2,0:0:0:0:
34,224,164024,2,0,L|133:222,2,90,12|2|2,0:0|0:0|0:0,0:0:0:0:
344,132,164488,2,0,L|445:132,1,90,8|2,0:0|0:0,0:0:0:0:
449,89,164720,1,2,0:0:0:0:
186,205,164797,6,0,P|105:168|55:94,1,180,12|0,0:0|0:0,0:0:0:0:
325,205,165261,2,0,P|406:168|456:94,1,180,12|0,0:0|0:0,0:0:0:0:
186,89,165725,2,0,L|135:89,1,45,8|0,0:0|0:0,0:0:0:0:
345,94,165880,2,0,L|415:93,1,45,0|0,0:0|0:0,0:0:0:0:
141,295,166035,6,0,L|41:295,1,90,12|2,0:0|0:0,0:0:0:0:
276,292,166344,1,2,0:0:0:0:
51,94,166498,2,0,L|164:92,1,90,12|2,0:0|0:0,0:0:0:0:
413,94,166808,2,0,L|438:131,1,45,2|0,0:0|0:0,0:0:0:0:
303,149,166962,2,0,L|267:190,1,45,8|0,0:0|0:0,0:0:0:0:
91,188,167117,2,0,L|20:189,1,45,2|2,0:0|0:0,0:0:0:0:
273,182,167272,6,0,P|303:226|225:300,1,180,12|0,0:0|0:0,0:0:0:0:
451,83,167736,2,0,L|267:83,1,180,12|0,0:0|0:0,0:0:0:0:
46,88,168199,2,0,L|34:143,1,45,8|0,0:0|0:0,0:0:0:0:
172,133,168354,2,0,L|248:131,1,45,0|0,0:0|0:0,0:0:0:0:
443,136,168509,6,0,L|330:137,1,90,12|2,0:0|0:0,0:0:0:0:
208,253,168818,1,2,0:0:0:0:
424,257,168973,2,0,L|440:211,1,45,12|0,0:0|0:0,0:0:0:0:
282,208,169127,2,0,L|215:211,1,45,2|0,0:0|0:0,0:0:0:0:
55,213,169282,2,0,L|61:157,1,45,2|0,0:0|0:0,0:0:0:0:
286,170,169437,5,8,0:0:0:0:
326,189,169514,1,0,0:0:0:0:
338,232,169591,1,0,0:0:0:0:
326,189,169668,1,0,0:0:0:0:
286,170,169746,2,0,L|193:171,1,90,2|0,0:0|0:0,0:0:0:0:
331,168,170055,1,2,0:0:0:0:
59,164,170210,6,0,P|26:241|88:298,1,180,12|0,0:0|0:0,0:0:0:0:
329,303,170674,2,0,L|272:302,1,45,8|0,0:0|0:0,0:0:0:0:
194,299,170828,2,0,L|183:232,1,45,0|0,0:0|0:0,0:0:0:0:
394,225,170983,6,0,L|483:224,2,90,14|2|2,0:0|0:0|0:0,0:0:0:0:
128,89,171447,1,8,0:0:0:0:
90,114,171524,1,0,0:0:0:0:
79,157,171602,1,2,0:0:0:0:
90,200,171679,1,0,0:0:0:0:
128,223,171756,1,2,0:0:0:0:
186,224,171833,1,0,0:0:0:0:
367,229,171911,2,0,L|470:229,1,90,8|2,0:0|0:0,0:0:0:0:
411,157,172143,1,2,0:0:0:0:
186,154,172220,6,0,L|49:152,1,135,14|0,0:0|0:0,0:0:0:0:
96,152,172529,1,2,0:0:0:0:
326,154,172684,1,8,0:0:0:0:
186,154,172839,2,0,L|168:255,1,90,0|2,0:0|0:0,0:0:0:0:
440,251,173148,6,0,L|448:180,1,45,10|0,0:0|0:0,0:0:0:0:
263,195,173303,2,0,L|199:196,1,45,0|0,0:0|0:0,0:0:0:0:
307,193,173457,2,0,L|315:122,1,45,2|0,0:0|0:0,0:0:0:0:
130,146,173612,1,8,0:0:0:0:
219,146,173766,1,0,0:0:0:0:
92,147,173921,1,10,0:0:0:0:
354,149,174076,5,2,0:0:0:0:
219,152,174230,2,2,L|207:218,1,45,2|2,0:0|0:0,0:0:0:0:
392,199,174385,1,10,0:0:0:0:
482,201,174540,2,2,L|431:200,1,45,2|2,0:0|0:0,0:0:0:0:
212,198,174694,6,0,L|119:198,1,90,12|2,0:0|0:0,0:0:0:0:
348,197,175004,1,2,0:0:0:0:
79,196,175158,1,8,0:0:0:0:
394,198,175313,1,2,0:0:0:0:
33,196,175468,1,2,0:0:0:0:
145,186,175622,2,0,L|173:100,1,90,8|2,0:0|0:0,0:0:0:0:
116,126,175854,1,2,0:0:0:0:
60,107,175931,5,12,0:0:0:0:
443,124,176086,2,2,L|330:124,1,90,2|2,0:0|0:0,0:0:0:0:
488,124,176395,1,8,0:0:0:0:
82,117,176550,2,0,L|183:117,1,90,2|0,0:0|0:0,0:0:0:0:
229,129,176782,1,0,0:0:0:0:
410,144,176859,2,0,L|428:200,1,45,8|0,0:0|0:0,0:0:0:0:
151,186,177014,1,2,0:0:0:0:
83,185,177091,1,2,0:0:0:0:
333,188,177169,6,0,L|441:186,1,90,12|2,0:0|0:0,0:0:0:0:
40,120,177478,1,2,0:0:0:0:
174,120,177632,2,0,L|174:217,1,90,8|2,0:0|0:0,0:0:0:0:
472,120,177942,1,2,0:0:0:0:
338,120,178096,2,0,L|338:217,1,90,8|0,0:0|0:0,0:0:0:0:
88,183,178406,6,0,L|192:183,1,90,12|2,0:0|0:0,0:0:0:0:
178,183,178715,1,2,0:0:0:0:
424,183,178870,2,0,L|320:183,1,90,8|2,0:0|0:0,0:0:0:0:
379,183,179102,1,2,0:0:0:0:
424,183,179179,1,2,0:0:0:0:
178,183,179333,2,0,L|69:183,1,90,8|2,0:0|0:0,0:0:0:0:
133,183,179565,1,2,0:0:0:0:
384,275,179643,6,0,P|443:217|391:153,1,180,4|8,0:0|0:0,0:0:0:0:
166,151,180107,2,0,L|255:151,1,90,0|2,0:0|0:0,0:0:0:0:
346,152,180416,1,0,0:0:0:0:
118,137,180571,5,8,0:0:0:0:
51,196,180725,1,0,0:0:0:0:
69,107,180880,1,2,0:0:0:0:
168,109,181035,1,0,0:0:0:0:
392,110,181189,2,0,L|299:109,1,90,10|0,0:0|0:0,0:0:0:0:
256,108,181421,1,0,0:0:0:0:
211,108,181498,1,2,0:0:0:0:
120,107,181653,1,0,0:0:0:0:
345,273,181808,2,0,L|445:273,1,90,10|0,0:0|0:0,0:0:0:0:
209,270,182117,6,0,L|109:270,1,90,2|0,0:0|0:0,0:0:0:0:
344,272,182426,2,0,P|399:222|328:157,1,180,8|2,0:0|0:0,0:0:0:0:
251,153,182890,1,0,0:0:0:0:
25,158,183045,6,0,L|121:157,1,90,8|0,0:0|0:0,0:0:0:0:
268,227,183354,2,0,L|172:228,1,90,2|0,0:0|0:0,0:0:0:0:
403,227,183663,2,0,L|416:129,1,90,10|0,0:0|0:0,0:0:0:0:
260,136,183973,1,2,0:0:0:0:
412,138,184127,1,0,0:0:0:0:
109,227,184282,2,0,P|67:180|109:135,1,135,10|0,0:0|0:0,0:0:0:0:
291,140,184591,6,0,L|397:139,1,90,2|0,0:0|0:0,0:0:0:0:
226,137,184901,2,0,L|120:136,1,90,8|0,0:0|0:0,0:0:0:0:
406,243,185210,2,0,L|311:243,1,90,2|0,0:0|0:0,0:0:0:0:
451,141,185519,2,0,L|356:141,1,90,8|0,0:0|0:0,0:0:0:0:
135,245,185828,6,0,L|233:245,1,90,2|0,0:0|0:0,0:0:0:0:
361,244,186138,2,0,L|465:245,1,90,10|0,0:0|0:0,0:0:0:0:
225,245,186447,2,0,L|212:144,1,90,2|0,0:0|0:0,0:0:0:0:
78,155,186756,2,0,L|91:256,1,90,10|0,0:0|0:0,0:0:0:0:
314,248,187065,6,0,P|400:186|425:119,1,180,2|0,0:0|0:0,0:0:0:0:
213,117,187529,2,0,L|196:205,1,90,8|2,0:0|0:0,0:0:0:0:
287,207,187839,1,0,0:0:0:0:
76,208,187993,6,0,L|59:119,1,90,8|0,0:0|0:0,0:0:0:0:
150,118,188303,1,2,0:0:0:0:
374,121,188457,2,0,L|472:120,1,90,8|2,0:0|0:0,0:0:0:0:
238,266,188766,2,0,L|221:160,1,90,8|2,0:0|0:0,0:0:0:0:
359,179,189076,1,0,0:0:0:0:
135,183,189230,1,2,0:0:0:0:
98,208,189307,1,0,0:0:0:0:
85,251,189385,1,0,0:0:0:0:
346,74,189540,6,0,L|166:74,1,180,6|8,0:0|0:0,0:0:0:0:
391,74,190004,2,0,L|492:74,1,90,0|2,0:0|0:0,0:0:0:0:
390,73,190313,1,0,0:0:0:0:
166,310,190468,6,0,L|256:310,1,90,8|0,0:0|0:0,0:0:0:0:
409,310,190777,2,0,L|393:207,1,90,2|0,0:0|0:0,0:0:0:0:
169,215,191086,2,0,L|153:112,1,90,10|0,0:0|0:0,0:0:0:0:
290,125,191395,2,0,L|306:228,1,90,2|0,0:0|0:0,0:0:0:0:
90,259,191705,2,0,L|74:156,1,90,10|0,0:0|0:0,0:0:0:0:
390,264,192014,6,0,P|447:200|390:144,1,180,2|8,0:0|0:0,0:0:0:0:
167,148,192478,2,0,L|266:148,1,90,0|2,0:0|0:0,0:0:0:0:
347,148,192787,1,0,0:0:0:0:
122,264,192942,6,0,L|101:163,1,90,8|0,0:0|0:0,0:0:0:0:
238,177,193251,2,0,L|356:177,1,90,2|0,0:0|0:0,0:0:0:0:
115,222,193560,2,0,P|64:157|115:90,1,180,10|2,0:0|0:0,0:0:0:0:
205,89,194024,1,0,0:0:0:0:
430,292,194179,2,0,L|321:292,1,90,10|0,0:0|0:0,0:0:0:0:
114,292,194488,6,0,L|25:292,1,90,2|0,0:0|0:0,0:0:0:0:
177,92,194797,2,0,L|88:92,1,90,8|0,0:0|0:0,0:0:0:0:
300,250,195107,2,0,L|209:251,1,90,2|0,0:0|0:0,0:0:0:0:
422,209,195416,6,0,L|433:102,1,90,8|0,0:0|0:0,0:0:0:0:
340,118,195725,1,2,0:0:0:0:
186,117,195880,1,0,0:0:0:0:
411,262,196035,2,0,L|312:262,2,90,10|0|2,0:0|0:0|0:0,0:0:0:0:
142,262,196498,1,8,0:0:0:0:
104,242,196575,1,0,0:0:0:0:
94,201,196652,1,2,0:0:0:0:
105,160,196729,1,0,0:0:0:0:
143,142,196807,1,0,0:0:0:0:
413,147,196962,6,0,L|305:146,1,90,8|2,0:0|0:0,0:0:0:0:
177,142,197272,1,2,0:0:0:0:
447,220,197426,2,0,L|339:219,1,90,8|2,0:0|0:0,0:0:0:0:
211,219,197736,1,2,0:0:0:0:
480,216,197890,2,0,L|313:216,1,157.5,8|0,0:0|0:0,0:0:0:0:
299,215,198199,6,0,L|435:214,2,135,0|2|0,0:0|0:0|0:0,0:0:0:0:
117,215,199437,2,0,P|66:151|171:30,1,270,2|0,0:0|0:0,0:0:0:0:
352,13,200674,6,0,P|254:88|439:359,1,540,2|2,0:0|0:0,0:0:0:0:
56,88,202839,5,2,0:0:0:0:
325,106,203148,2,0,B|415:106|415:106|325:106,1,180,2|0,0:0|0:0,0:0:0:0:
36,295,203612,2,0,L|476:295,1,440.09999966423,2|2,0:0|0:0,0:0:0:0:
34,89,204385,6,0,L|164:89,1,99.0000030212403,6|0,0:0|0:0,0:0:0:0:
281,89,204694,2,0,L|419:90,1,99.0000030212403,8|0,0:0|0:0,0:0:0:0:
230,292,205004,2,0,L|118:292,1,99.0000030212403,2|0,0:0|0:0,0:0:0:0:
380,88,205313,6,0,L|390:200,1,99.0000030212403,8|0,0:0|0:0,0:0:0:0:
239,189,205622,2,0,L|229:301,1,99.0000030212403,2|0,0:0|0:0,0:0:0:0:
79,286,205931,2,0,L|184:287,1,99.0000030212403,10|0,0:0|0:0,0:0:0:0:
327,99,206241,2,0,L|229:98,1,99.0000030212403,2|0,0:0|0:0,0:0:0:0:
79,286,206550,2,0,L|87:188,1,99.0000030212403,10|0,0:0|0:0,0:0:0:0:
335,186,206859,6,0,L|435:186,1,99.0000030212403,6|0,0:0|0:0,0:0:0:0:
284,186,207169,2,0,L|384:186,1,99.0000030212403,8|0,0:0|0:0,0:0:0:0:
236,186,207478,2,0,L|336:186,1,99.0000030212403,2|0,0:0|0:0,0:0:0:0:
87,188,207787,6,0,L|79:286,1,99.0000030212403,8|0,0:0|0:0,0:0:0:0:
326,285,208096,2,0,L|425:284,1,99.0000030212403,2|0,0:0|0:0,0:0:0:0:
275,285,208406,2,0,L|255:187,1,99.0000030212403,10|0,0:0|0:0,0:0:0:0:
474,208,208715,2,0,L|371:155,1,99.0000030212403,2|0,0:0|0:0,0:0:0:0:
160,127,209024,2,0,L|61:142,1,99.0000030212403,10|0,0:0|0:0,0:0:0:0:
368,320,209333,6,0,P|417:233|341:202,1,198.000006042481,6|8,0:0|0:0,0:0:0:0:
72,321,209797,1,0,0:0:0:0:
344,299,209952,2,0,L|352:201,1,99.0000030212403,2|0,0:0|0:0,0:0:0:0:
104,193,210261,6,0,L|27:260,1,99.0000030212403,8|0,0:0|0:0,0:0:0:0:
243,253,210571,2,0,L|179:164,1,99.0000030212403,2|0,0:0|0:0,0:0:0:0:
432,152,210880,2,0,L|456:252,1,99.0000030212403,10|0,0:0|0:0,0:0:0:0:
157,304,211189,2,0,L|39:304,1,99.0000030212403,2|0,0:0|0:0,0:0:0:0:
355,304,211498,2,0,L|454:304,1,99.0000030212403,10|0,0:0|0:0,0:0:0:0:
56,197,211808,6,0,L|155:197,1,99.0000030212403,4|0,0:0|0:0,0:0:0:0:
303,86,212117,2,0,L|90:87,1,198.000006042481,8|2,0:0|0:0,0:0:0:0:
204,87,212581,1,0,0:0:0:0:
471,202,212736,6,0,L|450:318,1,99.0000030212403,8|0,0:0|0:0,0:0:0:0:
205,294,213045,2,0,L|68:293,1,99.0000030212403,2|0,0:0|0:0,0:0:0:0:
339,206,213354,2,0,L|202:205,1,99.0000030212403,10|0,0:0|0:0,0:0:0:0:
453,134,213663,2,0,L|316:133,1,99.0000030212403,2|0,0:0|0:0,0:0:0:0:
59,134,213973,2,0,L|162:131,1,99.0000030212403,10|0,0:0|0:0,0:0:0:0:
207,131,214205,1,0,0:0:0:0:
395,205,214282,6,0,L|296:205,1,99.0000030212403,6|0,0:0|0:0,0:0:0:0:
395,205,214591,1,8,0:0:0:0:
117,205,214746,2,0,L|216:205,1,99.0000030212403,0|2,0:0|0:0,0:0:0:0:
92,238,215055,1,0,0:0:0:0:
426,202,215210,6,0,L|451:304,1,99.0000030212403,8|0,0:0|0:0,0:0:0:0:
300,302,215519,2,0,L|275:200,1,99.0000030212403,2|0,0:0|0:0,0:0:0:0:
127,208,215828,2,0,L|102:106,1,99.0000030212403,10|0,0:0|0:0,0:0:0:0:
322,101,216138,2,0,L|401:176,1,99.0000030212403,2|0,0:0|0:0,0:0:0:0:
175,178,216447,2,0,L|63:177,1,99.0000030212403,10|0,0:0|0:0,0:0:0:0:
294,178,216756,6,0,L|310:286,1,99.0000030212403,6|0,0:0|0:0,0:0:0:0:
457,273,217065,2,0,L|473:165,1,99.0000030212403,8|0,0:0|0:0,0:0:0:0:
323,178,217375,2,0,L|307:286,1,99.0000030212403,2|0,0:0|0:0,0:0:0:0:
60,277,217684,6,0,L|172:278,1,99.0000030212403,8|0,0:0|0:0,0:0:0:0:
452,277,217993,2,0,L|340:278,1,99.0000030212403,2|0,0:0|0:0,0:0:0:0:
121,280,218303,2,0,L|111:162,1,99.0000030212403,10|0,0:0|0:0,0:0:0:0:
325,179,218612,1,2,0:0:0:0:
187,179,218766,1,8,0:0:0:0:
399,182,218921,1,10,0:0:0:0:
434,215,218998,1,0,0:0:0:0:
428,262,219075,1,0,0:0:0:0:
379,262,219152,1,0,0:0:0:0:
159,268,219230,6,0,P|85:211|129:123,1,198.000006042481,14|0,0:0|0:0,0:0:0:0:
338,117,219694,2,0,P|407:160|450:271,1,198.000006042481,8|0,0:0|0:0,0:0:0:0:
236,221,220158,2,0,L|339:221,1,99.0000030212403,8|0,0:0|0:0,0:0:0:0:
35,220,220468,5,6,0:0:0:0:
173,220,220622,2,0,L|74:219,1,99.0000030212403,8|0,0:0|0:0,0:0:0:0:
356,265,220931,1,2,0:0:0:0:
217,265,221086,2,0,L|203:136,1,99.0000030212403,8|0,0:0|0:0,0:0:0:0:
444,154,221395,2,0,L|458:283,1,99.0000030212403,8|0,0:0|0:0,0:0:0:0:
180,306,221705,6,0,P|89:267|57:179,2,198.000006042481,6|2|8,0:0|0:0|0:0,0:0:0:0:
279,303,222478,1,2,0:0:0:0:
67,221,222632,2,0,L|58:272,1,49.5000015106202,2|0,0:0|0:0,0:0:0:0:
158,275,222787,2,0,L|213:277,1,49.5000015106202,0|0,0:0|0:0,0:0:0:0:
452,272,222942,5,4,0:0:0:0:
313,110,223096,2,0,L|412:110,1,99.0000030212403,2|2,0:0|0:0,0:0:0:0:
60,272,223406,2,0,L|48:164,1,99.0000030212403,0|2,0:0|0:0,0:0:0:0:
188,173,223715,1,2,0:0:0:0:
445,172,223870,2,0,L|390:173,1,49.5000015106202,10|0,0:0|0:0,0:0:0:0:
188,173,224024,2,0,L|113:173,1,49.5000015106202,0|0,0:0|0:0,0:0:0:0:
445,172,224179,6,0,L|456:278,1,99.0000030212403,6|0,0:0|0:0,0:0:0:0:
306,272,224488,2,0,L|295:166,1,99.0000030212403,8|0,0:0|0:0,0:0:0:0:
147,169,224797,2,0,L|136:275,1,99.0000030212403,2|0,0:0|0:0,0:0:0:0:
386,265,225107,6,0,L|491:266,1,99.0000030212403,8|0,0:0|0:0,0:0:0:0:
126,265,225416,2,0,L|27:266,1,99.0000030212403,2|0,0:0|0:0,0:0:0:0:
175,119,225725,2,0,L|72:119,2,99.0000030212403,10|0|2,0:0|0:0|0:0,0:0:0:0:
448,217,226189,1,0,0:0:0:0:
199,216,226344,1,10,0:0:0:0:
471,302,226498,1,0,0:0:0:0:
223,293,226653,6,0,L|115:293,1,99.0000030212403,6|0,0:0|0:0,0:0:0:0:
272,292,226962,2,0,P|304:215|223:151,1,198.000006042481,8|2,0:0|0:0,0:0:0:0:
325,148,227426,1,0,0:0:0:0:
50,150,227581,6,0,L|171:149,1,99.0000030212403,8|0,0:0|0:0,0:0:0:0:
458,142,227890,2,0,L|470:250,1,99.0000030212403,2|0,0:0|0:0,0:0:0:0:
256,284,228199,2,0,L|255:186,1,99.0000030212403,10|0,0:0|0:0,0:0:0:0:
40,142,228509,2,0,L|29:241,1,99.0000030212403,2|0,0:0|0:0,0:0:0:0:
256,263,228818,1,10,0:0:0:0:
29,241,228973,1,0,0:0:0:0:
324,248,229127,6,0,L|450:249,1,99.0000030212403,6|0,0:0|0:0,0:0:0:0:
188,136,229437,2,0,L|83:136,1,99.0000030212403,8|0,0:0|0:0,0:0:0:0:
386,135,229746,2,0,L|460:231,1,99.0000030212403,2|0,0:0|0:0,0:0:0:0:
198,223,230055,6,0,L|303:284,1,99.0000030212403,8|0,0:0|0:0,0:0:0:0:
55,283,230364,2,0,L|37:183,1,99.0000030212403,2|0,0:0|0:0,0:0:0:0:
252,230,230674,2,0,L|241:132,1,99.0000030212403,10|0,0:0|0:0,0:0:0:0:
474,278,230983,2,0,L|376:279,1,99.0000030212403,2|0,0:0|0:0,0:0:0:0:
38,278,231292,2,0,L|136:279,1,99.0000030212403,10|0,0:0|0:0,0:0:0:0:
286,280,231602,6,0,L|187:281,1,99.0000030212403,6|0,0:0|0:0,0:0:0:0:
474,106,231911,2,0,L|268:105,1,198.000006042481,8|2,0:0|0:0,0:0:0:0:
375,106,232375,1,0,0:0:0:0:
227,107,232529,1,8,0:0:0:0:
445,102,232684,1,0,0:0:0:0:
483,236,232839,1,2,0:0:0:0:
384,236,232993,1,0,0:0:0:0:
97,250,233148,6,0,L|37:167,1,99.0000030212403,10|0,0:0|0:0,0:0:0:0:
256,318,233457,2,0,L|256:219,1,99.0000030212403,2|0,0:0|0:0,0:0:0:0:
474,212,233766,2,0,L|375:212,1,99.0000030212403,10|0,0:0|0:0,0:0:0:0:
125,212,234076,6,0,L|224:212,1,99.0000030212403,6|0,0:0|0:0,0:0:0:0:
373,125,234385,1,8,0:0:0:0:
141,125,234540,1,0,0:0:0:0:
387,212,234694,2,0,L|288:212,1,99.0000030212403,2|0,0:0|0:0,0:0:0:0:
139,314,235003,1,8,0:0:0:0:
371,314,235158,1,0,0:0:0:0:
137,212,235313,6,0,L|38:212,1,99.0000030212403,2|0,0:0|0:0,0:0:0:0:
256,219,235622,2,0,L|256:318,1,99.0000030212403,10|0,0:0|0:0,0:0:0:0:
470,198,235931,2,0,L|455:295,1,99.0000030212403,2|0,0:0|0:0,0:0:0:0:
182,243,236241,1,10,0:0:0:0:
330,243,236395,1,0,0:0:0:0:
81,237,236550,6,0,L|194:238,1,99.0000030212403,6|0,0:0|0:0,0:0:0:0:
453,188,236859,2,0,L|350:188,1,99.0000030212403,8|0,0:0|0:0,0:0:0:0:
104,183,237169,2,0,L|90:302,1,99.0000030212403,2|0,0:0|0:0,0:0:0:0:
354,188,237478,2,0,L|453:188,1,99.0000030212403,8|0,0:0|0:0,0:0:0:0:
180,193,237787,6,0,P|113:120|137:24,1,198.000006042481,2|10,0:0|0:0,0:0:0:0:
230,165,238251,1,0,0:0:0:0:
448,162,238406,2,0,L|427:275,1,99.0000030212403,2|0,0:0|0:0,0:0:0:0:
211,260,238715,2,0,L|186:139,1,99.0000030212403,10|0,0:0|0:0,0:0:0:0:
407,171,239024,5,6,0:0:0:0:
474,230,239178,1,0,0:0:0:0:
456,141,239333,1,8,0:0:0:0:
357,143,239488,1,0,0:0:0:0:
59,138,239643,2,0,L|97:250,1,99.0000030212403,2|0,0:0|0:0,0:0:0:0:
371,232,239952,6,0,L|473:235,1,99.0000030212403,8|0,0:0|0:0,0:0:0:0:
321,153,240261,2,0,L|423:150,1,99.0000030212403,10|0,0:0|0:0,0:0:0:0:
200,230,240571,2,0,L|315:230,1,99.0000030212403,10|0,0:0|0:0,0:0:0:0:
80,157,240880,2,0,L|187:157,1,99.0000030212403,10|0,0:0|0:0,0:0:0:0:
30,229,241189,2,0,L|130:229,1,99.0000030212403,10|0,0:0|0:0,0:0:0:0:
277,231,241498,6,0,L|276:128,1,99.0000030212403,10|2,0:0|0:0,0:0:0:0:
425,133,241808,1,8,0:0:0:0:
276,133,241962,1,2,0:0:0:0:
47,127,242117,2,0,L|48:230,1,99.0000030212403,10|2,0:0|0:0,0:0:0:0:
296,223,242426,1,8,0:0:0:0:
47,218,242581,2,0,L|44:165,1,49.5000015106202,0|0,0:0|0:0,0:0:0:0:
293,211,242736,6,0,P|388:185|424:98,1,198.000006042481,2|0,0:0|0:0,0:0:0:0:
276,96,243199,2,0,P|248:202|314:236,1,198.000006042481,2|0,0:0|0:0,0:0:0:0:
57,91,243663,1,2,0:0:0:0:
405,91,243818,1,2,0:0:0:0:
454,91,243895,1,2,0:0:0:0:
147,91,243973,6,0,P|85:143|138:204,1,180,6|10,0:0|0:0,0:0:0:0:
228,206,244437,1,0,0:0:0:0:
380,210,244591,2,0,L|397:104,1,90,2|0,0:0|0:0,0:0:0:0:
239,119,244901,2,0,L|148:117,1,90,10|0,0:0|0:0,0:0:0:0:
304,121,245210,6,0,L|402:121,1,90,2|0,0:0|0:0,0:0:0:0:
168,114,245519,2,0,L|52:111,1,90,10|0,0:0|0:0,0:0:0:0:
304,121,245828,2,0,L|196:121,1,90,2|0,0:0|0:0,0:0:0:0:
440,127,246138,2,0,L|458:228,1,90,10|0,0:0|0:0,0:0:0:0:
230,216,246447,6,0,L|348:215,1,90,2|0,0:0|0:0,0:0:0:0:
94,217,246756,2,0,L|189:217,1,90,8|0,0:0|0:0,0:0:0:0:
409,219,247065,2,0,L|307:218,1,90,2|0,0:0|0:0,0:0:0:0:
92,225,247375,2,0,L|100:122,1,90,8|0,0:0|0:0,0:0:0:0:
252,135,247684,5,2,0:0:0:0:
98,135,247839,2,0,L|201:134,1,90,0|10,0:0|0:0,0:0:0:0:
278,134,248148,1,0,0:0:0:0:
124,250,248303,2,0,L|111:158,1,90,2|0,0:0|0:0,0:0:0:0:
265,161,248612,1,10,0:0:0:0:
112,163,248766,1,0,0:0:0:0:
436,243,248921,6,0,L|235:243,2,180,6|8|2,0:0|0:0|0:0,0:0:0:0:
282,140,249694,1,0,0:0:0:0:
372,142,249849,2,0,L|273:142,1,90,8|0,0:0|0:0,0:0:0:0:
128,140,250158,6,0,L|29:140,1,90,2|0,0:0|0:0,0:0:0:0:
192,139,250468,1,10,0:0:0:0:
39,243,250622,2,0,L|135:242,2,90,0|2|0,0:0|0:0|0:0,0:0:0:0:
192,243,251086,2,0,L|288:242,1,90,10|0,0:0|0:0,0:0:0:0:
372,146,251395,5,2,0:0:0:0:
219,148,251549,1,0,0:0:0:0:
309,148,251705,2,0,L|414:147,1,90,8|0,0:0|0:0,0:0:0:0:
245,236,252014,2,0,L|140:237,1,90,2|0,0:0|0:0,0:0:0:0:
426,231,252323,2,0,L|466:136,1,90,8|0,0:0|0:0,0:0:0:0:
213,96,252632,6,0,L|112:95,2,90,2|0|10,0:0|0:0|0:0,0:0:0:0:
438,97,253096,2,0,L|415:186,1,90,0|2,0:0|0:0,0:0:0:0:
324,186,253406,1,0,0:0:0:0:
55,186,253560,2,0,L|165:186,1,90,10|0,0:0|0:0,0:0:0:0:
395,231,253870,6,0,P|449:169|396:104,1,180,6|8,0:0|0:0,0:0:0:0:
307,103,254333,1,0,0:0:0:0:
153,106,254488,2,0,L|251:106,1,90,2|0,0:0|0:0,0:0:0:0:
396,109,254797,2,0,L|273:108,1,90,8|0,0:0|0:0,0:0:0:0:
79,113,255107,6,0,L|52:206,1,90,2|0,0:0|0:0,0:0:0:0:
279,199,255416,2,0,L|172:194,1,90,10|0,0:0|0:0,0:0:0:0:
414,198,255725,2,0,L|295:198,1,90,2|0,0:0|0:0,0:0:0:0:
99,195,256035,2,0,L|194:194,1,90,10|0,0:0|0:0,0:0:0:0:
414,197,256344,6,0,L|427:105,1,90,2|0,0:0|0:0,0:0:0:0:
273,105,256653,2,0,P|181:155|152:226,1,180,8|2,0:0|0:0,0:0:0:0:
306,221,257117,1,0,0:0:0:0:
215,220,257272,2,0,L|325:220,1,90,8|0,0:0|0:0,0:0:0:0:
458,220,257581,6,0,L|348:220,1,90,2|0,0:0|0:0,0:0:0:0:
214,217,257890,1,10,0:0:0:0:
367,218,258045,2,0,L|380:124,1,90,0|2,0:0|0:0,0:0:0:0:
289,128,258354,1,0,0:0:0:0:
135,129,258509,2,0,L|42:129,1,90,10|0,0:0|0:0,0:0:0:0:
90,129,258741,1,0,0:0:0:0:
269,129,258818,5,6,0:0:0:0:
115,131,258973,2,0,L|213:131,2,90,0|8|0,0:0|0:0|0:0,0:0:0:0:
268,128,259437,2,0,L|389:128,1,90,2|0,0:0|0:0,0:0:0:0:
204,126,259746,1,8,0:0:0:0:
357,123,259901,6,0,L|378:226,1,90,0|2,0:0|0:0,0:0:0:0:
221,217,260210,2,0,L|123:216,2,90,0|10|0,0:0|0:0|0:0,0:0:0:0:
374,217,260674,1,2,0:0:0:0:
221,218,260828,2,0,L|325:217,1,90,0|10,0:0|0:0,0:0:0:0:
401,213,261138,1,0,0:0:0:0:
248,213,261292,6,0,L|136:214,1,90,2|0,0:0|0:0,0:0:0:0:
312,87,261602,2,0,L|200:87,1,90,8|0,0:0|0:0,0:0:0:0:
375,297,261911,2,0,L|263:297,1,90,8|0,0:0|0:0,0:0:0:0:
438,297,262220,1,8,0:0:0:0:
347,87,262375,6,0,L|167:87,1,180,0|0,0:0|0:0,0:0:0:0:
320,85,262839,1,8,0:0:0:0:
167,81,262993,2,0,P|109:146|165:201,1,180,0|0,0:0|0:0,0:0:0:0:
207,201,263380,5,0,0:0:0:0:
382,129,263457,1,8,0:0:0:0:
393,73,263535,1,0,0:0:0:0:
129,181,263612,1,8,0:0:0:0:
73,166,263689,1,0,0:0:0:0:
440,87,263766,6,0,L|463:174,1,90,6|0,0:0|0:0,0:0:0:0:
162,87,264076,2,0,L|72:87,1,90,8|0,0:0|0:0,0:0:0:0:
350,87,264385,2,0,L|440:87,1,90,2|0,0:0|0:0,0:0:0:0:
72,87,264694,2,0,L|49:174,1,90,8|0,0:0|0:0,0:0:0:0:
301,89,265004,5,2,0:0:0:0:
90,167,265158,1,0,0:0:0:0:
340,120,265313,1,10,0:0:0:0:
127,197,265468,1,0,0:0:0:0:
398,185,265622,2,0,L|415:291,1,90,2|0,0:0|0:0,0:0:0:0:
60,107,265931,2,0,L|147:70,1,90,10|0,0:0|0:0,0:0:0:0:
369,71,266241,6,0,L|452:107,1,90,2|0,0:0|0:0,0:0:0:0:
226,120,266550,1,8,0:0:0:0:
361,119,266705,1,0,0:0:0:0:
137,148,266859,1,2,0:0:0:0:
272,147,267014,1,0,0:0:0:0:
60,87,267169,1,8,0:0:0:0:
46,175,267323,1,0,0:0:0:0:
376,198,267478,6,0,L|466:198,1,90,2|0,0:0|0:0,0:0:0:0:
136,198,267787,2,0,L|46:198,1,90,10|0,0:0|0:0,0:0:0:0:
348,331,268096,1,2,0:0:0:0:
213,331,268251,1,0,0:0:0:0:
472,332,268406,2,0,L|457:287,1,45,10|0,0:0|0:0,0:0:0:0:
273,293,268560,2,0,L|229:294,1,45,0|0,0:0|0:0,0:0:0:0:
40,52,268715,6,0,L|130:52,1,90,6|0,0:0|0:0,0:0:0:0:
355,328,269024,2,0,L|445:328,1,90,8|0,0:0|0:0,0:0:0:0:
188,177,269333,1,2,0:0:0:0:
323,177,269488,1,0,0:0:0:0:
111,230,269643,2,0,L|95:323,1,90,8|0,0:0|0:0,0:0:0:0:
445,56,269952,5,2,0:0:0:0:
197,55,270107,1,0,0:0:0:0:
408,328,270261,1,10,0:0:0:0:
160,329,270416,1,0,0:0:0:0:
372,56,270571,2,0,L|472:58,1,90,2|0,0:0|0:0,0:0:0:0:
154,144,270880,2,0,L|140:56,1,90,10|0,0:0|0:0,0:0:0:0:
357,144,271189,6,0,L|372:56,1,90,2|0,0:0|0:0,0:0:0:0:
140,56,271498,2,0,L|37:56,1,90,8|0,0:0|0:0,0:0:0:0:
372,328,271808,2,0,L|462:328,1,90,2|0,0:0|0:0,0:0:0:0:
155,240,272117,2,0,L|140:328,1,90,8|0,0:0|0:0,0:0:0:0:
372,56,272426,5,2,0:0:0:0:
140,56,272581,1,0,0:0:0:0:
372,328,272736,1,10,0:0:0:0:
282,327,272890,1,0,0:0:0:0:
58,53,273045,1,2,0:0:0:0:
192,68,273199,1,2,0:0:0:0:
454,331,273354,1,10,0:0:0:0:
103,324,273509,2,0,L|45:324,1,45,0|0,0:0|0:0,0:0:0:0:
372,328,273663,6,0,L|462:328,1,90,6|0,0:0|0:0,0:0:0:0:
140,328,273973,2,0,L|50:328,1,90,8|0,0:0|0:0,0:0:0:0:
426,79,274282,1,2,0:0:0:0:
86,79,274437,1,0,0:0:0:0:
323,101,274591,1,8,0:0:0:0:
188,102,274746,1,0,0:0:0:0:
462,328,274901,6,0,L|399:262,1,90,2|0,0:0|0:0,0:0:0:0:
50,328,275210,2,0,L|115:260,1,90,10|0,0:0|0:0,0:0:0:0:
324,102,275519,1,2,0:0:0:0:
189,101,275674,1,0,0:0:0:0:
426,79,275828,1,10,0:0:0:0:
86,79,275983,1,0,0:0:0:0:
375,144,276138,6,0,L|390:55,1,90,2|0,0:0|0:0,0:0:0:0:
137,144,276447,2,0,L|33:145,1,90,8|0,0:0|0:0,0:0:0:0:
380,65,276756,1,2,0:0:0:0:
132,64,276911,1,0,0:0:0:0:
432,181,277065,1,8,0:0:0:0:
342,179,277220,1,0,0:0:0:0:
50,328,277375,6,0,L|140:328,1,90,2|0,0:0|0:0,0:0:0:0:
372,56,277684,2,0,L|462:56,1,90,10|0,0:0|0:0,0:0:0:0:
170,179,277993,1,2,0:0:0:0:
80,186,278148,1,0,0:0:0:0:
325,88,278303,1,10,0:0:0:0:
79,62,278457,1,0,0:0:0:0:
393,73,278612,6,0,L|378:162,1,90,6|0,0:0|0:0,0:0:0:0:
119,73,278921,2,0,L|175:142,1,90,8|0,0:0|0:0,0:0:0:0:
448,166,279230,1,2,0:0:0:0:
313,167,279385,1,0,0:0:0:0:
64,166,279540,1,8,0:0:0:0:
199,167,279694,1,0,0:0:0:0:
462,328,279849,6,0,L|372:328,1,90,2|0,0:0|0:0,0:0:0:0:
140,56,280158,2,0,L|50:56,1,90,10|0,0:0|0:0,0:0:0:0:
313,167,280468,1,2,0:0:0:0:
448,166,280622,1,0,0:0:0:0:
199,167,280777,1,10,0:0:0:0:
64,166,280931,1,0,0:0:0:0:
372,56,281086,6,0,L|462:56,1,90,10|0,0:0|0:0,0:0:0:0:
50,56,281395,1,10,0:0:0:0:
289,55,281550,1,0,0:0:0:0:
68,171,281705,1,10,0:0:0:0:
307,170,281859,1,0,0:0:0:0:
87,300,282014,1,10,0:0:0:0:
177,299,282169,1,0,0:0:0:0:
460,99,282323,5,10,0:0:0:0:
206,154,282478,1,0,0:0:0:0:
306,154,282632,1,10,0:0:0:0:
52,99,282787,1,0,0:0:0:0:
306,154,282942,1,10,0:0:0:0:
206,154,283096,1,0,0:0:0:0:
419,108,283251,1,10,0:0:0:0:
93,108,283406,1,0,0:0:0:0:
460,99,283560,6,0,B|460:235|460:235|460:100|460:100|60:100|60:100|196:100|196:100|120:212|120:212|120:76|120:76|120:144|120:144|120:272|228:292|228:292|96:292|96:292|368:292|368:292|228:292|228:292|360:292|360:292|360:156|360:156|360:212|360:212|360:308|216:344|216:344|348:344|348:344|77:348|77:348|211:346|211:346|75:348|75:348|77:209,1,3240.0001235962,6|0,0:0|0:0,0:0:0:0:
256,192,293940,12,0,304107,0:0:0:0:
