osu file format v14

[General]
AudioFilename: FIRSTUTAU.mp3
AudioLeadIn: 710
PreviewTime: 73921
Countdown: 0
SampleSet: Soft
StackLeniency: 0.7
Mode: 3
LetterboxInBreaks: 0
SpecialStyle: 0
WidescreenStoryboard: 1

[Editor]
DistanceSpacing: 0.5
BeatDivisor: 4
GridSize: 4
TimelineZoom: 1.5

[Metadata]
Title:FIRST
TitleUnicode:FIRST
Artist:cillia
ArtistUnicode:cillia
Creator:juankristal
Version:MX
Source:
Tags:jinjin vocaloid utau gothic rock kasane teto niki cover
BeatmapID:1088936
BeatmapSetID:512408

[Difficulty]
HPDrainRate:8.5
CircleSize:4
OverallDifficulty:8
ApproachRate:5
SliderMultiplier:1.4
SliderTickRate:1

[Events]
//Background and Video events
0,0,"firstbg.jpg",0,0
//Break Periods
//Storyboard Layer 0 (Background)
//Storyboard Layer 1 (Fail)
//Storyboard Layer 2 (Pass)
//Storyboard Layer 3 (Foreground)
//Storyboard Sound Samples

[TimingPoints]
1290,315.789473684211,4,2,1,50,1,0
74395,-100,4,2,1,70,0,1
94763,-100,4,2,1,50,0,0
124605,-100,4,2,1,60,0,0
124921,-100,4,2,1,70,0,1
145290,-100,4,2,1,50,0,0
155237,-100,4,2,1,70,0,1
164395,-100,4,2,1,74,0,1
164711,-100,4,2,1,77,0,1
165026,-100,4,2,1,80,0,1
165658,-100,4,2,1,70,0,1
175605,-100,4,2,1,60,0,0

[HitObjects]
448,192,6342,128,0,8868:0:0:0:70:long kick.wav
64,192,8868,128,0,9026:0:0:0:0:
192,192,9026,128,0,9184:0:0:0:0:
192,192,9342,128,0,9500:0:0:0:0:
192,192,10132,128,0,10290:0:0:0:0:
320,192,10290,128,0,10447:0:0:0:0:
320,192,10605,128,0,10763:0:0:0:0:
64,192,11079,128,0,11395:0:0:0:0:
320,192,11395,128,0,11553:0:0:0:0:
192,192,11553,128,0,11711:0:0:0:0:
192,192,11868,128,0,12026:0:0:0:0:
64,192,12342,128,0,12658:0:0:0:0:
448,192,12658,128,0,12816:0:0:0:0:
320,192,12816,128,0,12974:0:0:0:0:
320,192,13132,128,0,13290:0:0:0:0:
192,192,13605,128,0,13921:0:0:0:0:
320,192,13921,128,0,14079:0:0:0:0:
64,192,14079,128,0,14237:0:0:0:0:
64,192,14395,128,0,14553:0:0:0:0:
448,192,15184,128,0,15342:0:0:0:0:
320,192,15342,128,0,15500:0:0:0:0:
320,192,15658,128,0,15816:0:0:0:0:
192,192,16132,128,0,16447:0:0:0:0:
320,192,16447,128,0,16605:0:0:0:0:
64,192,16605,128,0,16763:0:0:0:0:
64,192,16921,128,0,17079:0:0:0:0:
448,192,17395,128,0,17711:0:0:0:0:
192,192,17711,128,0,17868:0:0:0:0:
320,192,17868,128,0,18026:0:0:0:0:
320,192,18184,128,0,18342:0:0:0:0:
64,192,18342,128,0,18974:0:0:0:0:
448,192,18658,128,0,18974:0:0:0:0:
192,192,18974,1,8,0:3:0:0:
320,192,18974,128,0,19132:0:0:0:70:fizzy cymbal.wav
448,192,19132,128,0,19290:0:0:0:0:
64,192,19132,128,8,19290:0:3:0:0:
192,192,19290,128,0,19447:0:0:0:0:
64,192,19447,128,8,19605:0:3:0:0:
448,192,19447,128,0,19605:0:0:0:0:
320,192,19763,128,0,19921:0:0:0:0:
192,192,19921,1,0,0:0:0:0:
448,192,20079,128,0,20237:0:0:0:0:
64,192,20237,128,8,20395:0:3:0:0:
320,192,20395,128,8,20553:0:3:0:0:
448,192,20395,128,0,20553:0:0:0:0:
192,192,20553,1,0,0:0:0:0:
320,192,20711,128,0,20868:0:0:0:0:
64,192,20711,128,8,20868:0:3:0:0:
448,192,21026,128,0,21184:0:0:0:0:
192,192,21184,128,8,21500:0:3:0:0:
320,192,21342,128,0,21500:0:0:0:0:
64,192,21500,128,0,21658:0:0:0:0:
448,192,21500,128,8,21658:0:3:0:0:
320,192,21658,128,8,21816:0:3:0:0:
192,192,21658,128,0,21816:0:0:0:0:
448,192,21816,128,0,21974:0:0:0:0:
64,192,21974,128,0,22132:0:0:0:0:
320,192,21974,128,8,22132:0:3:0:0:
64,192,22290,128,0,22447:0:0:0:0:
320,192,22447,1,0,0:0:0:0:
448,192,22447,128,8,22763:0:3:0:0:
192,192,22605,128,0,22763:0:0:0:0:
64,192,22763,128,8,22921:0:3:0:0:
192,192,22921,128,8,23079:0:3:0:0:
448,192,22921,128,0,23079:0:0:0:0:
320,192,23079,1,0,0:3:0:0:
448,192,23237,128,0,23711:0:0:0:0:
64,192,23237,128,8,23395:0:3:0:0:
192,192,23711,1,0,0:0:0:0:
320,192,23711,128,8,24026:0:3:0:0:
64,192,24026,128,8,24184:0:3:0:0:
448,192,24026,1,0,0:0:0:0:
192,192,24026,128,0,24184:0:0:0:70:fizzy cymbal.wav
320,192,24184,128,8,24342:0:3:0:0:
448,192,24184,128,0,24342:0:0:0:0:
64,192,24342,128,0,24500:0:0:0:0:
192,192,24500,128,8,24658:0:3:0:0:
448,192,24500,128,0,24658:0:0:0:0:
320,192,24816,128,0,24974:0:0:0:0:
192,192,24974,1,0,0:0:0:0:
320,192,25132,128,0,25290:0:0:0:0:
64,192,25290,128,8,25447:0:3:0:0:
192,192,25447,128,8,25605:0:3:0:0:
448,192,25447,128,0,25605:0:0:0:0:
320,192,25605,1,0,0:0:0:0:
320,192,25763,128,8,25921:0:3:0:0:
64,192,25763,128,0,25921:0:0:0:0:
448,192,26079,128,0,26237:0:0:0:0:
192,192,26237,128,8,26553:0:3:0:0:
320,192,26395,128,0,26553:0:0:0:0:
64,192,26553,128,0,26711:0:0:0:0:
448,192,26553,128,8,26711:0:3:0:0:
320,192,26711,128,8,26868:0:3:0:0:
192,192,26711,128,0,26868:0:0:0:0:
64,192,26868,128,0,27026:0:0:0:0:
448,192,27026,128,8,27184:0:3:0:0:
320,192,27026,128,0,27184:0:0:0:0:
192,192,27342,128,0,27500:0:0:0:0:
448,192,27500,128,8,27816:0:3:0:0:
64,192,27658,128,0,27974:0:0:0:0:
320,192,27816,128,8,27974:0:3:0:0:
192,192,27974,128,8,28290:0:3:0:0:
448,192,27974,128,0,28132:0:0:0:0:
320,192,28290,128,8,28763:0:3:0:0:
64,192,28290,128,0,28447:0:0:0:0:
448,192,28763,128,8,29079:0:3:0:0:
64,192,28763,1,0,0:0:0:0:
64,192,29079,1,0,0:0:0:0:
192,192,29079,128,8,29237:0:3:0:0:
320,192,29079,128,0,29237:0:0:0:70:fizzy cymbal.wav
448,192,29237,128,8,29395:0:3:0:0:
64,192,29237,128,0,29395:0:0:0:0:
320,192,29395,128,8,29553:0:3:0:0:
192,192,29553,128,8,29711:0:3:0:0:
448,192,29553,128,0,29868:0:0:0:0:
320,192,29868,128,8,30026:0:3:0:0:
192,192,30026,128,8,30184:0:3:0:0:
64,192,30184,128,8,30658:0:3:0:0:
448,192,30184,128,0,30342:0:0:0:0:
192,192,30342,128,0,30500:0:0:0:0:
320,192,30500,128,8,30658:0:3:0:0:
448,192,30500,128,0,30658:0:0:0:0:
192,192,30658,128,8,30816:0:3:0:0:
64,192,30816,128,8,30974:0:3:0:0:
448,192,30816,128,0,30974:0:0:0:0:
320,192,30974,128,8,31132:0:3:0:0:
192,192,31132,128,8,31290:0:3:0:0:
64,192,31132,128,0,31290:0:0:0:0:
448,192,31290,128,8,31447:0:3:0:0:
320,192,31290,128,0,31605:0:0:0:0:
192,192,31447,128,8,31605:0:3:0:0:
64,192,31605,128,8,31763:0:3:0:0:
448,192,31605,128,0,31763:0:0:0:0:
192,192,31763,128,0,31921:0:0:0:0:
320,192,31763,128,8,31921:0:3:0:0:
64,192,31921,128,8,32079:0:3:0:0:
448,192,32079,128,8,32395:0:3:0:0:
192,192,32079,128,0,32237:0:0:0:0:
192,192,32395,128,8,32553:0:3:0:0:
320,192,32553,128,8,32711:0:3:0:0:
64,192,32553,128,0,32868:0:0:0:0:
448,192,32711,128,8,33026:0:3:0:0:
320,192,32868,128,0,33026:0:0:0:0:
192,192,33026,128,8,33184:0:3:0:0:
64,192,33026,128,0,33184:0:0:0:0:
320,192,33184,128,8,33342:0:3:0:0:
192,192,33342,128,8,33500:0:3:0:0:
448,192,33342,128,0,33500:0:0:0:0:
320,192,33500,128,8,33658:0:3:0:0:
192,192,33658,128,8,33816:0:3:0:0:
448,192,33816,128,0,33974:0:0:0:0:
320,192,33816,128,8,33974:0:3:0:0:
64,192,33974,128,8,34132:0:3:0:0:
448,192,34132,128,0,34290:0:0:0:70:fizzy cymbal.wav
192,192,34132,128,8,34290:0:3:0:0:
320,192,34132,1,0,0:0:0:0:
320,192,34290,128,8,34447:0:3:0:0:
64,192,34290,128,0,34447:0:0:0:0:
192,192,34447,128,8,34605:0:3:0:0:
448,192,34605,128,0,34921:0:0:0:0:
320,192,34605,128,8,34763:0:3:0:0:
192,192,34921,128,8,35079:0:3:0:0:
320,192,35079,128,8,35237:0:3:0:0:
64,192,35237,128,8,35553:0:3:0:0:
192,192,35237,128,0,35395:0:0:0:0:
448,192,35395,128,0,35553:0:3:0:0:
192,192,35553,128,0,35711:0:0:0:0:
320,192,35553,128,8,35711:0:3:0:0:
448,192,35711,128,8,35868:0:3:0:0:
192,192,35868,128,0,36026:0:0:0:0:
64,192,35868,128,8,36026:0:3:0:0:
448,192,36026,128,8,36184:0:3:0:0:
192,192,36184,128,8,36342:0:3:0:0:
64,192,36342,128,0,36500:0:0:0:0:
448,192,36342,128,8,36658:0:3:0:0:
320,192,36500,128,8,36658:0:3:0:0:
192,192,36658,128,0,37763:0:0:0:0:
64,192,36658,128,8,36974:0:3:0:0:
448,192,36816,128,8,36974:0:3:0:0:
320,192,36974,128,8,37132:0:3:0:0:
448,192,37132,128,0,37447:0:0:0:0:
64,192,37132,128,8,37290:0:3:0:0:
320,192,37447,128,0,37763:0:0:0:0:
64,192,37447,128,8,37605:0:3:0:0:
448,192,37605,128,0,37763:0:0:0:0:
64,192,37763,128,8,37921:0:3:0:0:
192,192,37921,128,8,38079:0:3:0:0:
320,192,37921,128,0,38079:0:0:0:0:
64,192,38079,128,0,38237:0:0:0:0:
448,192,38079,128,8,38237:0:3:0:0:
320,192,38237,128,0,38395:0:0:0:0:
192,192,38237,128,8,38395:0:3:0:0:
448,192,38395,128,8,38553:0:3:0:0:
192,192,38553,128,8,38711:0:3:0:0:
64,192,38553,128,0,38711:0:0:0:0:
320,192,38711,128,8,38868:0:3:0:0:
448,192,38711,128,0,38868:0:0:0:0:
64,192,38868,128,0,39026:0:0:0:0:
192,192,38868,128,8,39184:0:3:0:0:
320,192,39026,128,0,39184:0:0:0:0:
64,192,39184,1,0,0:0:0:70:fizzy cymbal.wav
448,192,39184,128,0,39500:0:0:0:70:long kick.wav
64,192,39500,128,0,39816:0:0:0:0:
192,192,39500,1,0,0:0:0:0:
320,192,39816,128,0,40132:0:0:0:0:
448,192,39816,1,0,0:0:0:0:
192,192,40132,128,0,41711:0:0:0:0:
64,192,40132,1,0,0:0:0:0:
448,192,40447,1,0,0:0:0:0:
448,192,40763,1,0,0:0:0:0:
448,192,41079,1,0,0:0:0:0:
448,192,41395,1,0,0:0:0:0:
448,192,41711,128,0,42026:0:0:0:0:
64,192,41711,1,0,0:0:0:0:
320,192,42026,128,0,42342:0:0:0:0:
192,192,42026,1,0,0:0:0:0:
64,192,42342,128,0,42658:0:0:0:0:
448,192,42342,1,0,0:0:0:0:
192,192,42658,128,0,44237:0:0:0:0:
320,192,42658,1,0,0:0:0:0:
448,192,42974,1,8,0:1:0:0:
448,192,43290,1,8,0:1:0:0:
448,192,43605,1,8,0:1:0:0:
64,192,43684,1,8,0:3:0:0:
448,192,43763,1,8,0:3:0:0:
64,192,43842,1,8,0:3:0:0:
320,192,43921,1,8,0:1:0:0:
64,192,44000,1,8,0:3:0:0:
320,192,44079,1,8,0:3:0:0:
448,192,44158,1,8,0:3:0:0:
64,192,44237,128,4,44711:0:0:0:0:
320,192,44237,128,8,44395:0:3:0:0:
448,192,44395,128,8,44553:0:3:0:0:
192,192,44553,128,0,44711:0:0:0:0:
320,192,44553,1,8,0:1:0:0:
320,192,44711,128,8,44868:0:3:0:0:
448,192,44711,128,0,45184:0:0:0:0:
64,192,45026,128,8,45184:0:3:0:0:
320,192,45184,1,8,0:1:0:0:
192,192,45184,128,0,45658:0:0:0:0:
320,192,45342,128,8,45500:0:3:0:0:
448,192,45658,128,8,45816:0:3:0:0:
64,192,45658,128,0,45974:0:0:0:0:
320,192,45816,1,8,0:1:0:0:
192,192,45816,1,0,0:0:0:0:
192,192,45974,128,0,46290:0:0:0:0:
448,192,45974,128,8,46132:0:3:0:0:
64,192,46132,128,8,46290:0:3:0:0:
448,192,46290,128,0,49290:0:0:0:0:
320,192,46290,128,8,46605:0:3:0:0:
64,192,46447,1,0,0:0:0:0:
192,192,46447,1,8,0:1:0:0:
64,192,46605,128,8,46763:0:3:0:0:
320,192,46763,128,8,46921:0:3:0:0:
64,192,46921,128,8,47079:0:3:0:0:
192,192,47079,128,8,47237:0:1:0:0:
320,192,47079,1,0,0:0:0:0:
64,192,47237,128,8,47553:0:3:0:0:
320,192,47553,128,8,47711:0:3:0:0:
192,192,47711,128,8,47868:0:1:0:0:
64,192,47711,1,0,0:0:0:0:
64,192,47868,128,8,48026:0:3:0:0:
192,192,48184,128,8,48342:0:3:0:0:
64,192,48342,1,8,0:1:0:0:
320,192,48342,1,0,0:0:0:0:
320,192,48500,128,8,48974:0:3:0:0:
64,192,48658,128,2,48737:0:0:0:0:
64,192,48816,128,2,48895:0:0:0:0:
64,192,48974,128,2,49053:0:0:0:0:
192,192,48974,1,8,0:1:0:0:
64,192,49132,128,2,49211:0:0:0:0:
320,192,49290,128,4,49763:0:0:0:0:
192,192,49290,128,8,49447:0:3:0:0:
64,192,49447,128,8,49605:0:3:0:0:
448,192,49605,128,8,49763:0:1:0:0:
192,192,49605,1,0,0:0:0:0:
192,192,49763,128,0,50237:0:0:0:0:
64,192,49763,128,8,50079:0:3:0:0:
448,192,50079,128,8,50237:0:3:0:0:
64,192,50237,1,8,0:1:0:0:
320,192,50237,128,0,50711:0:0:0:0:
448,192,50395,128,8,50553:0:3:0:0:
192,192,50553,1,0,0:0:0:0:
64,192,50711,128,8,50868:0:3:0:0:
448,192,50711,128,0,54342:0:0:0:0:
192,192,50868,1,8,0:1:0:0:
320,192,50868,1,0,0:0:0:0:
64,192,51026,128,8,51184:0:3:0:0:
192,192,51184,128,2,51263:0:0:0:0:
320,192,51342,128,8,51658:0:3:0:0:
192,192,51342,128,2,51421:0:0:0:0:
192,192,51500,128,2,51579:0:0:0:0:
64,192,51500,1,8,0:1:0:0:
192,192,51658,128,2,51737:0:0:0:0:
64,192,51658,128,8,51816:0:3:0:0:
320,192,51816,128,8,51974:0:3:0:0:
192,192,51974,128,8,52132:0:3:0:0:
64,192,52132,128,0,52290:0:0:0:0:
320,192,52132,1,8,0:1:0:0:
320,192,52290,128,8,52605:0:3:0:0:
192,192,52605,128,8,52763:0:3:0:0:
320,192,52763,1,8,0:1:0:0:
64,192,52763,1,0,0:0:0:0:
64,192,52921,128,8,53079:0:3:0:0:
192,192,53079,1,0,0:0:0:0:
192,192,53237,128,8,53395:0:3:0:0:
320,192,53395,1,8,0:1:0:0:
64,192,53395,1,0,0:0:0:0:
64,192,53553,128,0,54026:0:0:0:0:
192,192,53711,1,8,0:3:0:0:
192,192,53868,1,8,0:3:0:0:
192,192,54026,1,8,0:1:0:0:
320,192,54026,128,0,54342:0:0:0:0:
64,192,54342,128,4,54816:0:0:0:0:
192,192,54342,128,8,54500:0:3:0:0:
320,192,54500,128,8,54658:0:3:0:0:
448,192,54658,128,8,54816:0:1:0:0:
192,192,54658,1,0,0:0:0:0:
192,192,54816,128,0,55290:0:0:0:0:
320,192,54816,128,8,54974:0:3:0:0:
64,192,55132,128,8,55290:0:3:0:0:
320,192,55132,1,0,0:0:0:0:
448,192,55290,128,0,55763:0:0:0:0:
320,192,55290,1,8,0:1:0:0:
64,192,55447,128,8,55605:0:3:0:0:
192,192,55605,128,0,55763:0:0:0:0:
64,192,55763,128,0,56079:0:0:0:0:
320,192,55763,128,8,55921:0:3:0:0:
192,192,55921,1,8,0:1:0:0:
448,192,55921,1,0,0:0:0:0:
448,192,56079,128,0,56395:0:0:0:0:
320,192,56079,128,8,56237:0:3:0:0:
64,192,56237,128,2,56395:0:0:0:0:
192,192,56395,128,8,59395:0:3:0:0:
320,192,56395,128,2,56553:0:0:0:0:
448,192,56553,1,2,0:0:0:0:
64,192,56553,1,8,0:1:0:0:
448,192,56711,128,2,56868:0:0:0:0:
64,192,56868,128,8,57026:0:3:0:0:
448,192,57026,128,8,57184:0:3:0:0:
320,192,57184,1,8,0:1:0:0:
64,192,57184,1,0,0:0:0:0:
320,192,57342,128,8,57500:0:3:0:0:
320,192,57658,128,8,57816:0:3:0:0:
448,192,57816,1,8,0:1:0:0:
64,192,57816,1,0,0:0:0:0:
448,192,57974,128,8,58132:0:3:0:0:
64,192,58290,128,8,58447:0:3:0:0:
320,192,58447,1,8,0:1:0:0:
448,192,58447,1,0,0:0:0:0:
64,192,58605,128,8,59079:0:3:0:0:
448,192,58763,128,2,58842:0:0:0:0:
448,192,58921,128,2,59000:0:0:0:0:
448,192,59079,128,2,59158:0:0:0:0:
320,192,59079,1,8,0:1:0:0:
448,192,59237,128,2,59316:0:0:0:0:
64,192,59395,128,4,59868:0:0:0:0:
320,192,59395,128,8,59553:0:3:0:0:
448,192,59553,128,8,59711:0:3:0:0:
192,192,59711,128,0,59868:0:0:0:0:
320,192,59711,1,8,0:1:0:0:
320,192,59868,128,0,60342:0:0:0:0:
448,192,59868,128,8,60026:0:3:0:0:
64,192,60026,1,0,0:0:0:0:
448,192,60184,128,8,60342:0:3:0:0:
192,192,60342,1,8,0:1:0:0:
64,192,60342,128,0,60816:0:0:0:0:
192,192,60500,128,8,60658:0:3:0:0:
192,192,60816,128,0,63816:0:0:0:0:
320,192,60816,128,8,60974:0:3:0:0:
448,192,60974,1,8,0:1:0:0:
64,192,60974,1,0,0:0:0:0:
448,192,61132,128,8,61290:0:3:0:0:
64,192,61290,128,2,61368:0:0:0:0:
64,192,61447,128,2,61526:0:0:0:0:
320,192,61605,128,2,61921:0:0:0:0:
448,192,61605,1,8,0:1:0:0:
448,192,61921,128,0,62553:0:0:0:0:
64,192,61921,1,8,0:3:0:0:
64,192,62079,1,8,0:3:0:0:
320,192,62237,1,8,0:1:0:0:
64,192,62237,1,0,0:0:0:0:
320,192,62553,128,8,63184:0:3:0:0:
64,192,62868,1,0,0:0:0:0:
448,192,62868,1,8,0:1:0:0:
64,192,63184,128,8,63816:0:3:0:0:
448,192,63342,1,8,0:3:0:0:
320,192,63500,1,8,0:1:0:0:
448,192,63500,1,0,0:0:0:0:
448,192,63816,128,0,63974:0:0:0:0:
320,192,63816,1,8,0:3:0:0:
192,192,63974,1,8,0:3:0:0:
320,192,64053,1,8,0:3:0:0:
64,192,64132,1,8,0:3:0:0:
448,192,64211,1,8,0:3:0:0:
192,192,64290,1,8,0:3:0:0:
320,192,64368,1,8,0:3:0:0:
64,192,64447,128,0,64526:0:0:0:0:
448,192,64447,128,0,64566:0:0:0:45:crashL.wav
192,192,64447,128,4,64605:0:0:0:45:crashL.wav
448,192,64684,128,0,64763:0:0:0:0:
320,192,64684,128,0,64803:0:0:0:45:crashR.wav
64,192,64684,128,4,64842:0:0:0:45:crashR.wav
192,192,64921,128,8,65079:0:3:0:0:
448,192,64921,1,0,0:0:0:0:
64,192,65079,1,0,0:0:0:0:
320,192,65079,1,0,0:0:0:0:
448,192,65079,128,8,65237:0:1:0:0:
320,192,65237,1,0,0:0:0:0:
192,192,65237,128,8,65395:0:3:0:0:
64,192,65395,1,0,0:0:0:0:
320,192,65395,1,0,0:0:0:0:
448,192,65395,128,8,65553:0:1:0:0:
192,192,65553,128,8,66184:0:3:0:0:
64,192,65553,128,0,65868:0:0:0:0:
320,192,65868,128,0,66184:0:0:0:0:
448,192,65868,1,8,0:3:0:0:
64,192,66026,1,8,0:1:0:0:
448,192,66026,1,0,0:0:0:0:
448,192,66184,128,0,66500:0:0:0:0:
64,192,66184,128,0,66263:0:0:0:0:
64,192,66342,128,0,66421:0:0:0:0:
192,192,66342,1,8,0:1:0:0:
320,192,66342,1,0,0:0:0:0:
64,192,66500,128,0,66579:0:0:0:0:
320,192,66500,1,8,0:3:0:0:
64,192,66658,128,0,66737:0:0:0:0:
192,192,66658,1,0,0:0:0:0:
448,192,66658,1,8,0:1:0:0:
64,192,66816,128,8,66895:0:3:0:0:
192,192,66974,128,0,67053:0:0:0:0:
448,192,66974,128,4,67132:0:0:0:45:crashL.wav
320,192,66974,128,4,67092:0:0:0:45:crashL.wav
64,192,67211,128,4,67368:0:0:0:45:crashR.wav
192,192,67211,128,4,67329:0:0:0:45:crashR.wav
320,192,67211,128,0,67290:0:0:0:0:
192,192,67447,1,0,0:0:0:0:
448,192,67447,128,8,67605:0:3:0:0:
192,192,67605,1,8,0:1:0:0:
64,192,67605,128,0,67763:0:3:0:0:
320,192,67605,1,0,0:0:0:0:
448,192,67763,128,8,67921:0:3:0:0:
320,192,67763,1,0,0:0:0:0:
64,192,67921,128,0,68079:0:0:0:0:
320,192,67921,1,8,0:1:0:0:
192,192,67921,1,0,0:0:0:0:
192,192,68079,128,0,68237:0:0:0:0:
448,192,68079,128,8,68711:0:3:0:0:
320,192,68237,128,0,68395:0:0:0:0:
192,192,68395,128,0,68711:0:0:0:0:
64,192,68395,1,8,0:3:0:0:
64,192,68553,1,8,0:1:0:0:
320,192,68553,1,0,0:0:0:0:
64,192,68711,128,0,69026:0:0:0:0:
320,192,68711,128,8,68790:0:3:0:0:
320,192,68868,128,0,68947:0:0:0:0:
192,192,68868,1,0,0:0:0:0:
448,192,68868,1,8,0:1:0:0:
320,192,69026,128,8,69105:0:3:0:0:
192,192,69026,1,0,0:0:0:0:
320,192,69184,128,0,69263:0:0:0:0:
64,192,69184,1,0,0:0:0:0:
448,192,69184,1,8,0:1:0:0:
320,192,69342,128,8,69421:0:3:0:0:
192,192,69500,128,0,69658:0:0:0:45:crashL.wav
64,192,69500,128,0,69579:0:0:0:0:
448,192,69500,128,0,69618:0:0:0:45:crashL.wav
448,192,69737,128,0,69895:0:0:0:45:crashR.wav
64,192,69737,128,0,69816:0:0:0:0:
320,192,69737,128,0,69855:0:0:0:45:crashR.wav
320,192,69974,128,0,70132:0:0:0:0:
192,192,69974,1,8,0:3:0:0:
192,192,70132,1,0,0:0:0:0:
448,192,70132,1,8,0:1:0:0:
64,192,70132,128,0,70290:0:0:0:0:
448,192,70290,128,0,70447:0:0:0:0:
320,192,70290,1,8,0:3:0:0:
64,192,70447,1,8,0:1:0:0:
320,192,70447,1,0,0:0:0:0:
192,192,70447,128,0,70605:0:0:0:0:
64,192,70605,128,0,71079:0:0:0:0:
448,192,70605,1,8,0:3:0:0:
320,192,70921,1,8,0:3:0:0:
192,192,71079,128,8,71237:0:1:0:0:
448,192,71079,128,0,71395:0:0:0:0:
320,192,71079,1,0,0:0:0:0:
64,192,71237,1,8,0:3:0:0:
64,192,71395,128,0,71553:0:0:0:0:
320,192,71395,128,0,72026:0:0:0:0:
192,192,71395,1,8,0:1:0:0:
448,192,71553,1,8,0:3:0:0:
448,192,71711,128,0,71868:0:0:0:0:
64,192,71711,1,8,0:1:0:0:
192,192,72026,128,4,73290:0:0:0:0:
64,192,72026,128,0,72263:0:0:0:0:
448,192,72026,1,0,0:0:0:0:
320,192,72263,128,0,72500:0:0:0:0:
448,192,72500,128,0,72658:0:0:0:0:
64,192,72658,128,0,72974:0:0:0:0:
320,192,72658,1,8,0:1:0:0:
448,192,72974,128,0,73290:0:0:0:0:
320,192,73290,128,8,73447:0:3:0:0:
64,192,73290,128,0,73447:0:0:0:70:crashR.wav
320,192,73526,128,8,73684:0:3:0:0:
448,192,73526,1,0,0:0:0:0:
64,192,73605,128,0,73921:0:0:0:70:crashL.wav
320,192,73763,128,8,73921:0:3:0:0:
448,192,73763,1,0,0:0:0:70:crashR.wav
448,192,73921,1,0,0:0:0:70:crashR.wav
192,192,73921,128,0,74395:0:0:0:0:
64,192,74079,128,8,74237:0:3:0:0:
320,192,74237,128,8,74395:0:3:0:0:
64,192,74395,128,4,75658:0:0:0:70:crashL.wav
448,192,74395,1,8,0:3:0:0:
320,192,74711,1,8,0:3:0:0:
448,192,74711,1,0,0:0:0:0:
192,192,74868,1,0,0:0:0:0:
448,192,74868,1,8,0:1:0:0:
320,192,75184,1,8,0:3:0:0:
448,192,75184,1,0,0:0:0:0:
320,192,75342,1,8,0:3:0:0:
192,192,75342,1,0,0:0:0:0:
192,192,75500,1,8,0:1:0:0:
448,192,75500,1,0,0:0:0:0:
448,192,75658,128,0,76921:0:0:0:70:crashR.wav
320,192,75658,1,8,0:3:0:0:
192,192,75974,128,8,76290:0:3:0:0:
64,192,76132,1,8,0:1:0:0:
320,192,76132,1,0,0:0:0:0:
320,192,76290,128,0,76605:0:0:0:0:
192,192,76447,1,8,0:3:0:0:
64,192,76605,128,8,76921:0:3:0:0:
192,192,76763,1,8,0:1:0:0:
320,192,76763,1,0,0:0:0:0:
192,192,76921,1,4,0:0:0:70:crashL.wav
320,192,76921,128,8,77553:0:3:0:0:
64,192,77237,1,0,0:0:0:0:
192,192,77237,1,8,0:3:0:0:
192,192,77395,1,0,0:0:0:0:
448,192,77395,1,8,0:1:0:0:
448,192,77553,1,8,0:3:0:0:
64,192,77553,128,4,78184:0:0:0:70:crashL.wav
192,192,77711,128,0,77868:0:0:0:0:
448,192,77868,128,8,78184:0:3:0:0:
320,192,78026,1,8,0:1:0:0:
192,192,78026,1,0,0:0:0:0:
192,192,78184,128,8,78500:0:3:0:0:
320,192,78184,128,0,79447:0:0:0:70:crashR.wav
64,192,78500,128,8,78974:0:3:0:0:
192,192,78658,1,8,0:1:0:0:
448,192,78658,1,0,0:0:0:0:
192,192,78974,1,8,0:3:0:0:
192,192,79132,1,8,0:3:0:0:
448,192,79290,1,8,0:1:0:0:
64,192,79290,1,0,0:0:0:0:
64,192,79447,128,0,80711:0:0:0:70:crashL.wav
192,192,79447,1,8,0:3:0:0:
448,192,79763,1,8,0:3:0:0:
192,192,79763,1,0,0:0:0:0:
320,192,79921,1,0,0:0:0:0:
448,192,79921,1,8,0:1:0:0:
192,192,80237,1,8,0:3:0:0:
320,192,80237,1,0,0:0:0:0:
448,192,80395,1,8,0:3:0:0:
192,192,80395,1,0,0:0:0:0:
448,192,80553,1,8,0:1:0:0:
320,192,80553,1,0,0:0:0:0:
320,192,80711,128,0,81974:0:0:0:70:crashR.wav
192,192,80711,128,8,81026:0:3:0:0:
448,192,81026,128,8,81342:0:3:0:0:
64,192,81184,1,8,0:1:0:0:
192,192,81184,1,0,0:0:0:0:
64,192,81342,128,0,81658:0:0:0:0:
192,192,81500,1,8,0:3:0:0:
448,192,81658,128,8,81974:0:3:0:0:
192,192,81816,1,8,0:1:0:0:
64,192,81816,1,0,0:0:0:0:
64,192,81974,128,4,83632:0:0:0:0:
192,192,82290,128,8,83158:0:3:0:0:
448,192,82447,1,8,0:1:0:0:
320,192,82447,1,0,0:0:0:0:
320,192,82605,128,0,83000:0:0:0:0:
448,192,82763,1,8,0:3:0:0:
448,192,82921,128,8,83158:0:3:0:0:
320,192,83079,128,8,83474:0:1:0:0:
192,192,83237,128,0,83790:0:0:0:0:
448,192,83237,128,0,84421:0:0:0:70:crashR.wav
320,192,83553,128,8,83790:0:3:0:0:
64,192,83711,128,8,84105:0:1:0:0:
192,192,83868,128,0,84263:0:0:0:70:crashR.wav
320,192,83868,128,8,84737:0:3:0:0:
64,192,84184,128,8,84421:0:3:0:0:
192,192,84342,128,8,85053:0:1:0:0:
448,192,84500,128,8,84895:0:3:0:0:
64,192,84500,128,4,84895:0:0:0:70:crashL.wav
320,192,84816,128,8,85526:0:3:0:0:
448,192,84974,128,8,85684:0:1:0:0:
64,192,84974,128,0,85368:0:0:0:0:
192,192,85132,128,8,85526:0:3:0:0:
64,192,85447,128,8,86158:0:3:0:0:
320,192,85605,128,8,86000:0:1:0:0:
192,192,85605,128,0,86316:0:0:0:0:
448,192,85763,128,0,86158:0:0:0:70:crashR.wav
320,192,86079,128,8,86790:0:3:0:0:
448,192,86237,128,8,86947:0:1:0:0:
64,192,86237,128,0,86632:0:0:0:0:
192,192,86395,128,8,86790:0:3:0:0:
64,192,86711,128,8,87263:0:3:0:0:
320,192,86868,128,8,87895:0:3:0:0:
192,192,86868,128,8,87579:0:1:0:0:
448,192,87026,128,0,88211:0:0:0:70:crashL.wav
64,192,87342,1,8,0:3:0:0:
64,192,87500,1,8,0:1:0:0:
192,192,87658,1,8,0:3:0:0:
64,192,87658,1,0,0:0:0:70:crashR.wav
320,192,87974,1,8,0:3:0:0:
320,192,88132,1,0,0:0:0:0:
192,192,88132,1,8,0:1:0:0:
64,192,88290,128,4,89553:0:0:0:70:crashR.wav
448,192,88290,128,8,88763:0:3:0:0:
192,192,88605,1,8,0:3:0:0:
320,192,88763,1,8,0:1:0:0:
192,192,88763,1,0,0:0:0:0:
320,192,89079,128,8,89158:0:3:0:0:
320,192,89237,128,8,89395:0:3:0:0:
448,192,89395,128,8,89553:0:1:0:0:
192,192,89395,1,0,0:0:0:0:
192,192,89553,128,0,92079:0:0:0:70:crashL.wav
320,192,89553,128,8,89868:0:3:0:0:
448,192,89868,128,8,90026:0:3:0:0:
64,192,90026,128,0,90184:0:0:0:0:
320,192,90026,1,8,0:1:0:0:
320,192,90342,128,8,90500:0:3:0:0:
64,192,90500,128,8,90658:0:3:0:0:
320,192,90658,128,0,90816:0:0:0:0:
448,192,90658,1,8,0:1:0:0:
448,192,90816,128,8,91132:0:3:0:0:
64,192,90974,1,0,0:0:0:0:
64,192,91132,128,8,91447:0:3:0:0:
320,192,91290,1,0,0:0:0:0:
448,192,91290,1,8,0:1:0:0:
448,192,91447,128,0,91763:0:0:0:0:
64,192,91605,1,8,0:3:0:0:
64,192,91763,128,8,92079:0:3:0:0:
448,192,91921,1,0,0:0:0:0:
320,192,91921,1,8,0:1:0:0:
448,192,92079,128,0,94763:0:0:0:70:crashL.wav
320,192,92079,128,0,92868:0:0:0:0:
64,192,92395,1,8,0:3:0:0:
64,192,92553,1,0,0:0:0:0:
192,192,92553,1,8,0:1:0:0:
64,192,92868,128,8,93500:0:3:0:0:
192,192,93026,1,8,0:3:0:0:
320,192,93184,1,8,0:1:0:0:
192,192,93184,1,0,0:0:0:0:
320,192,93500,128,8,94763:0:3:0:0:
192,192,93658,1,8,0:3:0:0:
192,192,93816,1,0,0:0:0:0:
64,192,93816,1,8,0:1:0:0:
64,192,94132,1,8,0:3:0:0:
192,192,94290,1,2,0:0:0:0:
64,192,94368,1,2,0:0:0:0:
192,192,94447,1,2,0:0:0:0:
64,192,94526,1,2,0:0:0:0:
192,192,94605,1,2,0:0:0:0:
64,192,94684,1,2,0:0:0:0:
192,192,94763,128,4,95237:0:0:0:0:
320,192,94921,128,8,95079:0:3:0:0:
448,192,95079,128,8,95237:0:1:0:0:
64,192,95079,1,0,0:0:0:0:
64,192,95237,128,8,95395:0:3:0:0:
320,192,95237,128,0,95868:0:0:0:0:
448,192,95316,1,8,0:3:0:0:
192,192,95395,1,8,0:3:0:0:
64,192,95474,1,8,0:3:0:0:
448,192,95553,128,8,95711:0:3:0:0:
192,192,95711,1,8,0:1:0:0:
192,192,95868,128,0,97290:0:0:0:0:
64,192,95868,128,8,96026:0:3:0:0:
448,192,96184,128,8,96342:0:3:0:0:
64,192,96342,1,0,0:0:0:0:
320,192,96342,1,8,0:1:0:0:
320,192,96500,128,8,96658:0:3:0:0:
64,192,96816,128,8,97132:0:3:0:0:
320,192,96974,1,0,0:0:0:0:
448,192,96974,1,8,0:1:0:0:
320,192,97132,128,0,97290:0:0:0:0:
448,192,97290,128,8,97447:0:3:0:0:
64,192,97290,128,0,99816:0:0:0:0:
192,192,97447,128,8,97605:0:3:0:0:
320,192,97605,128,0,97763:0:0:0:0:
448,192,97605,1,8,0:1:0:0:
448,192,97763,128,8,98079:0:3:0:0:
320,192,98079,128,8,98237:0:3:0:0:
192,192,98237,1,8,0:1:0:0:
448,192,98237,1,0,0:0:0:0:
448,192,98395,128,8,98553:0:3:0:0:
320,192,98711,128,8,98868:0:3:0:0:
192,192,98868,1,0,0:0:0:0:
448,192,98868,1,8,0:1:0:0:
192,192,99026,128,8,99500:0:3:0:0:
448,192,99184,128,8,99816:0:3:0:0:
320,192,99500,1,8,0:1:0:0:
320,192,99816,128,0,100290:0:0:0:70:crashL.wav
192,192,99816,128,8,99974:0:3:0:0:
64,192,99974,128,8,100132:0:3:0:0:
192,192,100132,128,0,100290:0:0:0:0:
448,192,100132,1,8,0:1:0:0:
448,192,100290,128,0,100921:0:0:0:0:
64,192,100290,128,8,100447:0:3:0:0:
192,192,100447,1,0,0:0:0:0:
320,192,100605,128,8,100763:0:3:0:0:
192,192,100763,1,8,0:1:0:0:
64,192,100921,128,0,102342:0:0:0:0:
320,192,100921,128,8,101079:0:3:0:0:
192,192,101237,128,8,101395:0:3:0:0:
320,192,101395,1,8,0:1:0:0:
448,192,101395,1,0,0:0:0:0:
320,192,101553,128,8,101711:0:3:0:0:
448,192,101868,128,8,102184:0:3:0:0:
192,192,102026,1,8,0:1:0:0:
320,192,102026,1,0,0:0:0:0:
320,192,102184,128,8,102342:0:3:0:0:
192,192,102342,128,0,102816:0:0:0:0:
448,192,102342,128,8,102500:0:3:0:0:
64,192,102500,128,8,102658:0:3:0:0:
448,192,102658,128,0,102816:0:0:0:0:
320,192,102658,1,8,0:1:0:0:
320,192,102816,128,0,103447:0:0:0:0:
64,192,102816,128,8,102974:0:3:0:0:
64,192,103132,128,8,103290:0:3:0:0:
192,192,103290,1,0,0:0:0:0:
448,192,103290,1,8,0:1:0:0:
448,192,103447,128,0,104868:0:0:0:0:
192,192,103447,128,8,103605:0:3:0:0:
64,192,103605,1,0,0:0:0:0:
320,192,103763,128,8,103921:0:3:0:0:
192,192,103921,1,8,0:1:0:0:
64,192,103921,1,0,0:0:0:0:
64,192,104079,128,0,104553:0:0:0:0:
320,192,104237,1,8,0:3:0:0:
320,192,104395,1,8,0:3:0:0:
192,192,104553,1,0,0:0:0:0:
320,192,104553,1,8,0:1:0:0:
64,192,104711,1,8,0:3:0:0:
320,192,104868,128,0,105342:0:0:0:70:crashL.wav
192,192,104868,128,8,105026:0:3:0:0:
64,192,105026,128,8,105184:0:3:0:0:
192,192,105184,128,0,105342:0:0:0:0:
448,192,105184,1,8,0:1:0:0:
448,192,105342,128,0,105974:0:0:0:0:
64,192,105342,128,8,105500:0:3:0:0:
192,192,105658,128,8,105816:0:3:0:0:
64,192,105816,1,0,0:0:0:0:
320,192,105816,1,8,0:1:0:0:
64,192,105974,128,0,107395:0:0:0:0:
320,192,105974,128,8,106132:0:3:0:0:
448,192,106290,128,8,106447:0:3:0:0:
320,192,106447,1,8,0:1:0:0:
192,192,106447,1,0,0:0:0:0:
320,192,106605,128,8,106763:0:3:0:0:
192,192,106921,128,8,107237:0:3:0:0:
320,192,107079,1,8,0:1:0:0:
448,192,107079,1,0,0:0:0:0:
448,192,107237,128,8,107395:0:3:0:0:
320,192,107395,128,8,107553:0:3:0:0:
192,192,107395,128,0,107868:0:0:0:0:
64,192,107553,128,8,107711:0:3:0:0:
448,192,107711,128,8,107868:0:1:0:0:
320,192,107711,1,0,0:0:0:0:
64,192,107868,128,8,108500:0:3:0:0:
320,192,107947,1,8,0:3:0:0:
448,192,108026,1,8,0:3:0:0:
320,192,108105,1,8,0:3:0:0:
192,192,108184,128,8,108342:0:3:0:0:
448,192,108342,1,8,0:1:0:0:
320,192,108342,1,0,0:0:0:0:
320,192,108500,128,8,108658:0:3:0:0:
192,192,108500,128,0,109921:0:0:0:0:
448,192,108816,128,8,108974:0:3:0:0:
320,192,108974,1,8,0:1:0:0:
64,192,108974,1,0,0:0:0:0:
64,192,109132,128,8,109605:0:3:0:0:
448,192,109290,128,8,109921:0:3:0:0:
320,192,109605,1,8,0:1:0:0:
320,192,109921,128,4,110395:0:0:0:0:
64,192,109921,128,8,110079:0:3:0:0:
192,192,110079,128,8,110237:0:3:0:0:
448,192,110237,128,0,110395:0:0:0:0:
64,192,110237,1,8,0:1:0:0:
192,192,110395,128,0,111026:0:0:0:0:
64,192,110395,128,8,110553:0:3:0:0:
320,192,110711,128,8,110868:0:3:0:0:
64,192,110868,1,0,0:0:0:0:
448,192,110868,1,8,0:1:0:0:
448,192,111026,128,0,112132:0:0:0:0:
64,192,111026,128,8,111184:0:3:0:0:
192,192,111184,128,0,111342:0:0:0:0:
320,192,111342,128,8,111500:0:3:0:0:
64,192,111500,1,0,0:0:0:0:
192,192,111500,1,8,0:1:0:0:
192,192,111658,128,8,111816:0:3:0:0:
64,192,111816,1,8,0:3:0:0:
320,192,111895,1,0,0:0:0:0:
192,192,111974,1,8,0:3:0:0:
64,192,112132,128,0,112447:0:0:0:0:
320,192,112132,1,8,0:1:0:0:
448,192,112447,128,0,113079:0:0:0:0:
192,192,112447,1,8,0:3:0:0:
192,192,112605,1,8,0:3:0:0:
320,192,112763,1,8,0:1:0:0:
64,192,112763,1,0,0:0:0:0:
192,192,113079,128,8,113711:0:3:0:0:
448,192,113395,1,8,0:1:0:0:
64,192,113395,1,0,0:0:0:0:
320,192,113711,128,0,114342:0:0:0:0:
64,192,113711,1,8,0:3:0:0:
64,192,113868,1,8,0:3:0:0:
192,192,114026,1,8,0:1:0:0:
448,192,114026,1,0,0:0:0:0:
448,192,114184,1,8,0:3:0:0:
64,192,114342,128,0,114658:0:0:0:0:
192,192,114342,1,8,0:3:0:0:
192,192,114500,1,8,0:3:0:0:
448,192,114658,1,8,0:1:0:0:
320,192,114737,1,8,0:1:0:0:
64,192,114816,1,8,0:1:0:0:
192,192,114895,1,8,0:1:0:0:
320,192,114974,128,0,115132:0:0:0:45:crashL.wav
448,192,114974,128,0,115053:0:0:0:0:
64,192,114974,128,0,115092:0:0:0:45:crashL.wav
448,192,115211,128,0,115368:0:0:0:45:crashR.wav
64,192,115211,128,0,115290:0:0:0:0:
192,192,115211,128,0,115329:0:0:0:45:crashR.wav
192,192,115447,128,0,115605:0:0:0:0:
320,192,115447,1,8,0:3:0:0:
64,192,115605,1,0,0:0:0:0:
320,192,115605,1,8,0:1:0:0:
448,192,115605,128,0,115763:0:0:0:0:
64,192,115763,1,0,0:0:0:0:
192,192,115763,128,8,115921:0:3:0:0:
64,192,115921,1,0,0:0:0:0:
448,192,115921,1,8,0:1:0:0:
320,192,115921,128,0,116079:0:0:0:0:
448,192,116079,128,8,116395:0:3:0:0:
192,192,116079,128,0,116711:0:0:0:0:
64,192,116395,1,8,0:3:0:0:
320,192,116395,128,0,116711:0:0:0:0:
64,192,116553,1,0,0:0:0:0:
448,192,116553,1,8,0:1:0:0:
64,192,116711,128,8,117026:0:3:0:0:
448,192,116711,128,0,116790:0:0:0:0:
448,192,116868,128,0,116947:0:0:0:0:
192,192,116868,1,8,0:1:0:0:
320,192,116868,1,0,0:0:0:0:
448,192,117026,128,8,117105:0:3:0:0:
320,192,117026,1,0,0:0:0:0:
448,192,117184,128,0,117263:0:0:0:0:
192,192,117184,1,8,0:1:0:0:
64,192,117184,1,0,0:0:0:0:
448,192,117342,128,8,117421:0:3:0:0:
64,192,117500,128,0,117579:0:0:0:0:
320,192,117500,128,0,117658:0:0:0:45:crashL.wav
192,192,117500,128,0,117618:0:0:0:45:crashL.wav
64,192,117737,128,0,117895:0:0:0:45:crashR.wav
448,192,117737,128,0,117855:0:0:0:45:crashR.wav
192,192,117737,128,0,117816:0:0:0:0:
448,192,117974,1,8,0:3:0:0:
320,192,117974,128,0,118132:0:0:0:0:
448,192,118132,1,0,0:0:0:0:
192,192,118132,128,0,118290:0:0:0:0:
64,192,118132,1,8,0:1:0:0:
448,192,118290,128,0,118447:0:0:0:0:
64,192,118290,1,8,0:3:0:0:
64,192,118447,128,0,118605:0:0:0:0:
320,192,118447,1,8,0:1:0:0:
192,192,118447,1,0,0:0:0:0:
448,192,118605,128,8,118763:0:3:0:0:
320,192,118605,128,0,119237:0:0:0:0:
192,192,118763,128,0,118921:0:0:0:0:
64,192,118921,128,0,119237:0:0:0:0:
448,192,118921,1,8,0:3:0:0:
192,192,119079,1,0,0:0:0:0:
448,192,119079,1,8,0:1:0:0:
448,192,119237,128,0,119553:0:0:0:0:
192,192,119237,128,8,119316:0:3:0:0:
192,192,119395,128,0,119474:0:0:0:0:
64,192,119395,1,0,0:0:0:0:
320,192,119395,1,8,0:1:0:0:
64,192,119553,1,0,0:0:0:0:
192,192,119553,128,8,119632:0:3:0:0:
192,192,119711,128,0,119790:0:0:0:0:
448,192,119711,1,8,0:1:0:0:
320,192,119711,1,0,0:0:0:0:
192,192,119868,128,8,119947:0:3:0:0:
64,192,120026,128,0,120184:0:0:0:45:crashL.wav
320,192,120026,128,0,120145:0:0:0:45:crashL.wav
448,192,120026,128,0,120105:0:0:0:0:
448,192,120263,128,0,120421:0:0:0:45:crashR.wav
192,192,120263,128,0,120342:0:0:0:0:
64,192,120263,128,0,120382:0:0:0:45:crashR.wav
448,192,120500,128,0,120658:0:0:0:0:
192,192,120500,1,8,0:3:0:0:
192,192,120658,1,0,0:0:0:0:
320,192,120658,1,8,0:1:0:0:
64,192,120658,128,0,120816:0:0:0:0:
320,192,120816,128,0,120974:0:0:0:0:
448,192,120816,1,8,0:3:0:0:
64,192,120974,1,8,0:1:0:0:
448,192,120974,1,0,0:0:0:0:
192,192,120974,128,0,121132:0:0:0:0:
64,192,121132,128,0,121605:0:0:0:0:
320,192,121132,1,8,0:3:0:0:
320,192,121447,1,8,0:3:0:0:
192,192,121605,128,0,121763:0:0:0:0:
448,192,121605,128,0,121921:0:0:0:0:
320,192,121605,1,8,0:1:0:0:
64,192,121763,1,8,0:3:0:0:
64,192,121921,128,0,122079:0:0:0:0:
320,192,121921,128,0,122553:0:0:0:0:
192,192,121921,1,8,0:1:0:0:
448,192,122079,1,8,0:3:0:0:
448,192,122237,128,0,122395:0:0:0:0:
192,192,122237,1,8,0:3:0:0:
64,192,122395,1,8,0:1:0:0:
192,192,122395,1,0,0:0:0:0:
192,192,122553,128,4,123816:0:0:0:70:crashL.wav
64,192,122553,128,0,122790:0:0:0:0:
448,192,122553,1,8,0:3:0:0:
320,192,122790,128,0,123026:0:0:0:0:
448,192,123026,128,0,123184:0:0:0:0:
64,192,123184,128,0,123500:0:0:0:0:
320,192,123184,1,8,0:1:0:0:
448,192,123500,128,0,123816:0:0:0:0:
64,192,123816,128,0,123974:0:0:0:70:crashR.wav
320,192,123816,128,8,123974:0:3:0:0:
192,192,124053,5,0,0:0:0:0:
64,192,124053,128,8,124211:0:3:0:0:
320,192,124132,128,0,124447:0:0:0:70:crashR.wav
192,192,124290,5,0,0:0:0:70:crashL.wav
64,192,124290,128,8,124447:0:3:0:0:
448,192,124447,128,0,124921:0:0:0:70:crashL.wav
320,192,124605,128,8,124763:0:3:0:0:
192,192,124763,128,8,124921:0:3:0:0:
64,192,124921,128,4,126184:0:0:0:0:
320,192,124921,128,8,125237:0:3:0:0:
192,192,125237,128,8,125395:0:3:0:0:
448,192,125395,128,8,125711:0:1:0:0:
320,192,125395,1,0,0:0:0:0:
192,192,125711,1,8,0:3:0:0:
320,192,125868,1,8,0:3:0:0:
448,192,125868,1,0,0:0:0:0:
192,192,126026,1,8,0:1:0:0:
320,192,126026,1,0,0:0:0:0:
448,192,126184,128,0,127447:0:0:0:70:crashR.wav
192,192,126184,1,8,0:3:0:0:
320,192,126500,128,8,126816:0:3:0:0:
192,192,126658,1,8,0:1:0:0:
64,192,126658,1,0,0:0:0:0:
64,192,126816,128,8,127132:0:3:0:0:
320,192,126974,1,0,0:0:0:0:
192,192,127132,128,8,127447:0:3:0:0:
320,192,127290,1,8,0:1:0:0:
64,192,127290,1,0,0:0:0:0:
320,192,127447,128,8,128079:0:3:0:0:
64,192,127447,128,0,127763:0:0:0:70:crashL.wav
192,192,127763,1,0,0:0:0:0:
448,192,127763,1,8,0:3:0:0:
64,192,127921,1,0,0:0:0:0:
448,192,127921,1,8,0:1:0:0:
192,192,128079,128,0,128711:0:0:0:70:crashR.wav
448,192,128237,128,8,128395:0:3:0:0:
320,192,128395,128,0,128711:0:0:0:0:
64,192,128395,1,8,0:3:0:0:
448,192,128553,1,0,0:0:0:0:
64,192,128553,1,8,0:1:0:0:
64,192,128711,128,0,129974:0:0:0:70:crashR.wav
448,192,128711,128,8,129026:0:3:0:0:
320,192,129026,128,8,129500:0:3:0:0:
192,192,129184,1,0,0:0:0:0:
448,192,129184,1,8,0:1:0:0:
192,192,129500,1,8,0:3:0:0:
320,192,129658,128,8,129816:0:3:0:0:
448,192,129816,1,8,0:1:0:0:
192,192,129816,128,0,129974:0:0:0:0:
448,192,129974,128,0,131237:0:0:0:70:crashL.wav
320,192,129974,128,8,130290:0:3:0:0:
192,192,130290,128,8,130447:0:3:0:0:
320,192,130447,128,0,130605:0:0:0:0:
64,192,130447,1,8,0:1:0:0:
192,192,130763,128,8,130921:0:3:0:0:
64,192,130921,128,8,131079:0:3:0:0:
320,192,131079,128,0,131237:0:0:0:0:
192,192,131079,1,8,0:1:0:0:
192,192,131237,128,0,132500:0:0:0:70:crashR.wav
64,192,131237,128,8,131553:0:3:0:0:
320,192,131553,128,8,131868:0:3:0:0:
448,192,131711,128,8,131868:0:1:0:0:
64,192,131711,1,0,0:0:0:0:
64,192,131868,128,0,132184:0:0:0:0:
320,192,132026,1,8,0:3:0:0:
320,192,132184,128,8,132500:0:3:0:0:
448,192,132342,1,8,0:1:0:0:
64,192,132342,1,0,0:0:0:0:
448,192,132500,128,0,133526:0:0:0:70:crashL.wav
320,192,132816,128,8,133684:0:3:0:0:
64,192,132974,1,8,0:1:0:0:
192,192,132974,1,0,0:0:0:0:
192,192,133132,128,8,134000:0:3:0:0:
64,192,133447,128,8,133684:0:3:0:0:
448,192,133605,128,8,134632:0:1:0:0:
64,192,133763,128,0,134158:0:0:0:70:crashR.wav
320,192,133763,128,8,134316:0:3:0:0:
192,192,134079,128,8,134316:0:3:0:0:
64,192,134237,128,8,134947:0:1:0:0:
320,192,134395,128,0,134790:0:0:0:70:crashR.wav
192,192,134395,128,8,135263:0:3:0:0:
448,192,134711,128,8,134947:0:3:0:0:
320,192,134868,128,8,135579:0:1:0:0:
64,192,135026,128,0,135421:0:0:0:70:crashL.wav
448,192,135026,128,8,135421:0:3:0:0:
192,192,135342,128,8,136053:0:3:0:0:
448,192,135500,128,0,135895:0:0:0:0:
64,192,135500,128,8,136211:0:1:0:0:
320,192,135658,128,8,136053:0:3:0:0:
448,192,135974,128,8,136684:0:3:0:0:
192,192,136132,128,0,136526:0:0:0:0:
320,192,136132,128,8,136842:0:1:0:0:
64,192,136290,128,0,136684:0:0:0:70:crashR.wav
192,192,136605,128,8,137316:0:3:0:0:
448,192,136763,128,8,137158:0:1:0:0:
64,192,136763,128,0,137474:0:0:0:0:
320,192,136921,128,8,137316:0:3:0:0:
448,192,137237,128,8,137790:0:3:0:0:
192,192,137395,128,0,138421:0:0:0:0:
320,192,137395,128,8,138105:0:1:0:0:
64,192,137553,128,0,138737:0:0:0:70:crashL.wav
448,192,137868,1,8,0:3:0:0:
448,192,138026,1,8,0:1:0:0:
320,192,138184,1,8,0:3:0:0:
448,192,138184,1,0,0:0:0:70:crashR.wav
192,192,138500,1,8,0:3:0:0:
320,192,138658,1,8,0:1:0:0:
448,192,138658,1,0,0:0:0:0:
64,192,138816,128,8,139290:0:3:0:0:
448,192,138816,128,4,140079:0:0:0:70:crashR.wav
192,192,139132,1,8,0:3:0:0:
320,192,139290,1,8,0:1:0:0:
192,192,139290,1,0,0:0:0:0:
192,192,139605,128,8,139684:0:3:0:0:
192,192,139763,128,8,139921:0:3:0:0:
64,192,139921,128,0,140079:0:0:0:0:
320,192,139921,1,8,0:1:0:0:
192,192,140079,128,8,140395:0:3:0:0:
320,192,140079,128,0,142605:0:0:0:70:crashL.wav
448,192,140395,128,8,140553:0:3:0:0:
64,192,140553,128,8,140711:0:1:0:0:
192,192,140553,1,0,0:0:0:0:
192,192,140868,128,8,141026:0:3:0:0:
448,192,141026,128,8,141184:0:3:0:0:
192,192,141184,128,8,141342:0:1:0:0:
64,192,141184,1,0,0:0:0:0:
64,192,141342,128,8,141500:0:3:0:0:
448,192,141500,1,0,0:0:0:0:
448,192,141658,128,8,141816:0:3:0:0:
192,192,141816,1,8,0:1:0:0:
64,192,141816,1,0,0:0:0:0:
64,192,141974,128,0,142132:0:0:0:0:
192,192,142132,1,8,0:3:0:0:
64,192,142290,128,8,142447:0:3:0:0:
448,192,142447,1,8,0:1:0:0:
192,192,142447,1,0,0:0:0:0:
192,192,142605,128,0,143395:0:0:0:70:crashL.wav
64,192,142605,128,8,144658:0:3:0:0:
320,192,142921,1,8,0:3:0:0:
320,192,143079,1,0,0:0:0:0:
448,192,143079,1,8,0:1:0:0:
320,192,143395,128,0,144026:0:0:0:0:
448,192,143395,1,8,0:3:0:0:
448,192,143553,1,8,0:3:0:0:
192,192,143711,1,0,0:0:0:0:
448,192,143711,1,8,0:1:0:0:
448,192,144026,128,0,145290:0:0:0:0:
192,192,144026,1,8,0:3:0:0:
192,192,144184,1,8,0:3:0:0:
320,192,144342,1,0,0:0:0:0:
192,192,144342,1,8,0:1:0:0:
320,192,144658,1,2,0:0:0:0:
64,192,144737,1,2,0:0:0:0:
320,192,144816,1,2,0:0:0:0:
192,192,144895,1,2,0:0:0:0:
320,192,144974,1,2,0:0:0:0:
64,192,145053,1,2,0:0:0:0:
320,192,145132,1,2,0:0:0:0:
192,192,145211,1,2,0:0:0:0:
64,192,145290,128,0,147737:0:0:0:70:long kick.wav
320,192,145290,1,2,0:0:0:0:
192,192,145605,128,0,148211:0:3:0:0:
320,192,145921,128,0,148053:0:3:0:0:
448,192,146237,128,0,148684:0:3:0:0:
64,192,147816,128,0,148368:0:0:0:0:
320,192,148132,128,0,150579:0:0:0:0:
192,192,148290,128,0,150737:0:0:0:0:
64,192,148447,128,0,150895:0:0:0:0:
448,192,148763,128,0,150263:0:0:0:0:
448,192,150342,128,8,150895:0:3:0:0:
320,192,150658,128,0,151211:0:0:0:0:
192,192,150816,128,0,153421:0:0:0:0:
448,192,150974,128,8,151526:0:3:0:0:
64,192,150974,128,0,152790:0:0:0:0:
320,192,151290,128,0,153105:0:0:0:0:
448,192,151605,128,8,152158:0:3:0:0:
448,192,152237,128,8,152790:0:3:0:0:
448,192,152868,128,8,153184:0:3:0:0:
64,192,152868,128,0,153737:0:0:0:0:
320,192,153184,128,8,153500:0:3:0:0:
448,192,153342,128,8,154053:0:3:0:0:
192,192,153500,128,8,153816:0:3:0:0:
320,192,153658,128,8,153974:0:3:0:0:
64,192,153816,128,8,154132:0:3:0:0:
192,192,153974,128,8,154132:0:3:0:0:
448,192,154132,128,8,154211:0:3:0:0:
320,192,154211,1,8,0:3:0:0:
448,192,154290,128,8,154368:0:3:0:0:
192,192,154368,1,8,0:3:0:0:
320,192,154447,128,8,154526:0:3:0:0:
64,192,154526,1,8,0:3:0:0:
192,192,154605,128,8,154684:0:3:0:0:
320,192,154684,1,8,0:3:0:0:
448,192,154763,128,2,154842:0:0:0:0:
64,192,154763,1,8,0:3:0:0:
192,192,154763,1,8,0:3:0:0:
192,192,155237,128,8,155553:0:3:0:0:
64,192,155237,128,0,156105:0:0:0:0:
448,192,155237,128,0,156421:0:0:0:70:crashL.wav
320,192,155553,128,8,158000:0:3:0:0:
192,192,155711,1,8,0:1:0:0:
192,192,155868,128,8,157684:0:3:0:0:
64,192,156184,128,8,156263:0:3:0:0:
64,192,156342,128,8,156500:0:1:0:0:
448,192,156500,128,0,156816:0:0:0:70:crashR.wav
64,192,156816,128,8,157132:0:3:0:0:
448,192,156974,1,8,0:1:0:0:
448,192,157132,128,8,158947:0:3:0:0:
64,192,157447,128,8,157526:0:3:0:0:
64,192,157605,128,8,160290:0:1:0:0:
192,192,157763,128,0,158079:0:0:0:70:crashL.wav
320,192,158079,128,8,158395:0:3:0:0:
192,192,158237,1,8,0:1:0:0:
192,192,158395,128,0,158711:0:0:0:70:crashL.wav
320,192,158711,128,8,159026:0:3:0:0:
192,192,158868,1,8,0:1:0:0:
448,192,159026,128,4,159658:0:0:0:70:crashR.wav
192,192,159026,1,8,0:3:0:0:
192,192,159342,1,8,0:3:0:0:
192,192,159500,1,0,0:0:0:0:
320,192,159500,1,8,0:1:0:0:
320,192,159816,1,8,0:3:0:0:
448,192,159974,128,8,160132:0:3:0:0:
320,192,160132,1,8,0:1:0:0:
192,192,160132,128,0,160290:0:0:0:0:
448,192,160290,128,0,161553:0:0:0:70:crashL.wav
320,192,160290,128,8,160605:0:3:0:0:
192,192,160605,128,8,160763:0:3:0:0:
320,192,160763,128,8,160921:0:1:0:0:
64,192,160763,1,0,0:0:0:0:
64,192,161079,128,8,161237:0:3:0:0:
320,192,161237,128,8,161395:0:3:0:0:
192,192,161395,128,0,161553:0:0:0:0:
64,192,161395,1,8,0:1:0:0:
320,192,161553,128,0,162816:0:0:0:70:crashR.wav
64,192,161553,128,8,161868:0:3:0:0:
192,192,161868,128,8,162184:0:3:0:0:
448,192,162026,1,8,0:1:0:0:
64,192,162026,1,0,0:0:0:0:
448,192,162184,128,0,162500:0:0:0:0:
64,192,162342,1,8,0:3:0:0:
64,192,162500,128,8,162816:0:3:0:0:
192,192,162658,1,8,0:1:0:0:
448,192,162658,1,0,0:0:0:0:
448,192,162816,128,0,165263:0:0:0:70:soft-hitfinish.wav
320,192,163132,128,8,163842:0:3:0:0:
64,192,163290,1,8,0:1:0:0:
192,192,163290,1,0,0:0:0:0:
192,192,163447,128,8,164000:0:3:0:0:
64,192,163763,128,8,164474:0:3:0:0:
320,192,163921,128,8,164316:0:1:0:0:
192,192,164079,128,8,164474:0:3:0:70:soft-hitfinish.wav
320,192,164395,128,8,164632:0:3:0:0:
64,192,164553,128,0,164790:0:0:0:70:soft-hitfinish.wav
192,192,164553,128,8,164790:0:1:0:0:
320,192,164711,128,8,164947:0:3:0:0:
64,192,164868,128,0,165105:0:0:0:70:soft-hitfinish.wav
192,192,164868,128,8,165105:0:1:0:0:
320,192,165026,128,8,165263:0:3:0:0:
64,192,165184,128,0,166211:0:0:0:70:soft-hitfinish.wav
192,192,165184,128,8,165895:0:1:0:0:
320,192,165342,128,4,166526:0:0:0:70:crashL.wav
448,192,165342,128,0,165579:0:0:0:0:
448,192,165658,128,0,166526:0:0:0:0:
192,192,165974,128,0,167158:0:0:0:0:
64,192,166290,128,0,166842:0:0:0:0:
448,192,166605,128,0,168105:0:0:0:70:crashR.wav
320,192,166605,128,0,167474:0:0:0:0:
64,192,166921,128,0,167790:0:0:0:0:
192,192,167237,128,0,168421:0:0:0:0:
320,192,167553,128,0,167790:0:0:0:0:
64,192,167868,128,0,168421:0:0:0:0:
320,192,167868,128,0,169053:0:0:0:70:crashL.wav
448,192,168184,128,0,168737:0:0:0:0:
192,192,168500,128,0,169368:0:0:0:0:
64,192,168500,128,0,169842:0:0:0:70:crashR.wav
448,192,168816,128,0,169053:0:0:0:0:
320,192,169132,128,4,170395:0:0:0:0:
448,192,169132,128,0,170000:0:0:0:0:
192,192,169447,1,8,0:3:0:0:
192,192,169605,1,8,0:1:0:0:
64,192,169921,128,8,170079:0:3:0:0:
448,192,170079,128,8,170237:0:3:0:0:
192,192,170237,128,8,170395:0:1:0:0:
64,192,170237,1,0,0:0:0:0:
64,192,170395,128,8,170553:0:3:0:0:
448,192,170395,128,0,172921:0:0:0:70:crashL.wav
320,192,170711,128,8,170868:0:3:0:0:
192,192,170868,128,8,171026:0:1:0:0:
64,192,170868,1,0,0:0:0:0:
64,192,171184,128,8,171263:0:3:0:0:
64,192,171342,128,8,171500:0:3:0:0:
192,192,171500,128,0,171658:0:0:0:0:
320,192,171500,1,8,0:1:0:0:
320,192,171658,128,8,171816:0:3:0:0:
64,192,171816,1,0,0:0:0:0:
192,192,171974,128,8,172132:0:3:0:0:
320,192,172132,1,8,0:1:0:0:
64,192,172132,1,0,0:0:0:0:
64,192,172290,128,0,172447:0:0:0:0:
320,192,172447,1,8,0:3:0:0:
64,192,172605,128,8,172763:0:3:0:0:
192,192,172763,1,8,0:1:0:0:
320,192,172763,1,0,0:0:0:0:
192,192,172921,128,8,173632:0:3:0:0:
320,192,172921,128,0,175132:0:0:0:70:crashL.wav
64,192,173237,1,8,0:3:0:0:
448,192,173395,1,8,0:1:0:0:
64,192,173395,1,0,0:0:0:0:
192,192,173711,128,0,174342:0:0:0:0:
448,192,173711,1,8,0:3:0:0:
448,192,173868,1,8,0:3:0:0:
64,192,174026,1,8,0:1:0:0:
448,192,174026,1,0,0:0:0:0:
448,192,174342,128,8,175447:0:3:0:0:
64,192,174500,1,8,0:3:0:0:
192,192,174658,1,0,0:0:0:0:
64,192,174658,1,8,0:1:0:0:
64,192,174974,1,8,0:3:0:0:
192,192,175132,1,8,0:3:0:0:
320,192,175211,1,8,0:3:0:0:
64,192,175290,128,0,178132:0:0:0:0:
192,192,175290,1,8,0:3:0:0:
320,192,175368,1,8,0:3:0:0:
192,192,175447,1,8,0:3:0:0:
320,192,175526,1,8,0:3:0:0:
448,192,175605,1,4,0:0:0:70:crashL.wav
192,192,175605,1,8,0:1:0:0:
192,192,175763,1,8,0:1:0:0:
448,192,175763,128,0,176553:0:0:0:45:soft-hitfinish.wav
192,192,176079,1,8,0:3:0:0:
192,192,176395,1,8,0:3:0:0:
320,192,176553,128,0,178132:0:0:0:0:
192,192,176553,1,8,0:1:0:0:
448,192,176711,1,8,0:3:0:0:
192,192,177026,1,8,0:3:0:0:
192,192,177184,1,0,0:0:0:0:
448,192,177184,1,8,0:1:0:0:
448,192,177342,1,8,0:3:0:0:
192,192,177500,1,8,0:1:0:0:
448,192,177500,1,0,0:0:0:0:
192,192,177658,1,8,0:3:0:0:
448,192,177816,1,8,0:3:0:0:
448,192,177974,1,8,0:1:0:0:
192,192,177974,1,0,0:0:0:0:
192,192,178132,128,8,178605:0:3:0:0:
448,192,178290,1,8,0:3:0:0:
320,192,178447,1,8,0:3:0:0:
448,192,178605,128,0,179079:0:0:0:0:
64,192,178605,1,8,0:1:0:0:
320,192,178763,1,8,0:3:0:0:
192,192,178921,1,8,0:3:0:0:
320,192,179079,128,4,189500:0:0:0:70:soft-hitfinish.wav
64,192,179079,1,8,0:1:0:0:
