osu file format v14

[General]
AudioFilename: FIRSTUTAU.mp3
AudioLeadIn: 710
PreviewTime: 73921
Countdown: 0
SampleSet: Soft
StackLeniency: 0.7
Mode: 3
LetterboxInBreaks: 0
SpecialStyle: 0
WidescreenStoryboard: 1

[Editor]
DistanceSpacing: 0.5
BeatDivisor: 4
GridSize: 4
TimelineZoom: 1.7

[Metadata]
Title:FIRST
TitleUnicode:FIRST
Artist:cillia
ArtistUnicode:cillia
Creator:juankristal
Version:HD
Source:
Tags:jinjin vocaloid utau gothic rock kasane teto niki cover
BeatmapID:1124740
BeatmapSetID:512408

[Difficulty]
HPDrainRate:8
CircleSize:4
OverallDifficulty:7.5
ApproachRate:5
SliderMultiplier:1.4
SliderTickRate:1

[Events]
//Background and Video events
0,0,"firstbg.jpg",0,0
//Break Periods
//Storyboard Layer 0 (Background)
//Storyboard Layer 1 (Fail)
//Storyboard Layer 2 (Pass)
//Storyboard Layer 3 (Foreground)
//Storyboard Sound Samples

[TimingPoints]
1290,315.789473684211,4,2,1,50,1,0
74395,-100,4,2,1,70,0,1
94763,-100,4,2,1,50,0,0
124605,-100,4,2,1,60,0,0
124921,-100,4,2,1,70,0,1
145290,-100,4,2,1,50,0,0
155237,-100,4,2,1,70,0,1
164395,-100,4,2,1,74,0,1
164711,-100,4,2,1,77,0,1
165026,-100,4,2,1,80,0,1
165658,-100,4,2,1,70,0,1
175605,-100,4,2,1,60,0,0

[HitObjects]
320,192,6342,5,0,0:0:0:70:long kick.wav
320,192,8868,128,0,9026:0:0:0:0:
192,192,9026,128,0,9184:0:0:0:0:
192,192,9342,128,0,9500:0:0:0:0:
64,192,10132,128,0,10290:0:0:0:0:
448,192,10290,128,0,10447:0:0:0:0:
448,192,10605,128,0,10763:0:0:0:0:
192,192,11079,128,0,11395:0:0:0:0:
320,192,11395,128,0,11553:0:0:0:0:
64,192,11553,128,0,11711:0:0:0:0:
64,192,11868,128,0,12026:0:0:0:0:
192,192,12342,128,0,12658:0:0:0:0:
320,192,12658,128,0,12816:0:0:0:0:
64,192,12816,128,0,12974:0:0:0:0:
64,192,13132,128,0,13290:0:0:0:0:
448,192,13605,128,0,13921:0:0:0:0:
192,192,13921,128,0,14079:0:0:0:0:
320,192,14079,128,0,14237:0:0:0:0:
320,192,14395,128,0,14553:0:0:0:0:
192,192,15184,128,0,15342:0:0:0:0:
448,192,15342,128,0,15500:0:0:0:0:
448,192,15658,128,0,15816:0:0:0:0:
320,192,16132,128,0,16447:0:0:0:0:
64,192,16447,128,0,16605:0:0:0:0:
192,192,16605,128,0,16763:0:0:0:0:
192,192,16921,128,0,17079:0:0:0:0:
64,192,17395,128,0,17711:0:0:0:0:
320,192,17711,128,0,17868:0:0:0:0:
448,192,17868,128,0,18026:0:0:0:0:
448,192,18184,128,0,18342:0:0:0:0:
192,192,18342,128,0,18974:0:0:0:0:
320,192,18658,128,0,18974:0:0:0:0:
64,192,18974,128,0,19132:0:0:0:70:fizzy cymbal.wav
448,192,18974,1,0,0:0:0:0:
320,192,19132,128,0,19290:0:0:0:0:
192,192,19290,128,2,19447:0:0:0:0:
448,192,19447,128,0,19605:0:0:0:0:
448,192,19763,128,0,19921:0:0:0:0:
64,192,19921,1,2,0:0:0:0:
192,192,20079,128,0,20395:0:0:0:0:
320,192,20395,128,0,20711:0:0:0:0:
448,192,20553,1,2,0:0:0:0:
64,192,20711,128,0,21026:0:0:0:0:
448,192,21026,128,0,21342:0:0:0:0:
320,192,21184,1,2,0:0:0:0:
192,192,21342,128,0,21500:0:0:0:0:
64,192,21500,128,0,21658:0:0:0:0:
320,192,21658,128,0,21816:0:0:0:0:
448,192,21816,128,2,21974:0:0:0:0:
192,192,21974,128,0,22290:0:0:0:0:
320,192,22290,128,0,22605:0:0:0:0:
448,192,22447,1,2,0:0:0:0:
64,192,22605,128,0,22921:0:0:0:0:
448,192,22921,128,0,23237:0:0:0:0:
320,192,23079,1,2,0:0:0:0:
192,192,23237,128,0,23711:0:0:0:0:
64,192,23711,1,2,0:0:0:0:
192,192,24026,1,0,0:0:0:70:fizzy cymbal.wav
320,192,24026,128,0,24184:0:0:0:0:
448,192,24184,128,0,24342:0:0:0:0:
64,192,24342,128,2,24500:0:0:0:0:
192,192,24500,128,0,24816:0:0:0:0:
320,192,24816,128,0,25132:0:0:0:0:
448,192,24974,1,2,0:0:0:0:
64,192,25132,128,0,25447:0:0:0:0:
192,192,25447,128,0,25763:0:0:0:0:
320,192,25605,1,2,0:0:0:0:
448,192,25763,128,0,26079:0:0:0:0:
320,192,26079,128,0,26395:0:0:0:0:
192,192,26237,1,2,0:0:0:0:
64,192,26395,128,0,26553:0:0:0:0:
448,192,26553,128,0,26711:0:0:0:0:
192,192,26711,128,0,26868:0:0:0:0:
320,192,26868,128,2,27026:0:0:0:0:
64,192,27026,128,0,27342:0:0:0:0:
192,192,27342,128,0,27658:0:0:0:0:
320,192,27500,1,2,0:0:0:0:
448,192,27658,128,0,27974:0:0:0:0:
320,192,27974,128,0,28290:0:0:0:0:
192,192,28132,1,2,0:0:0:0:
64,192,28290,128,0,28763:0:0:0:0:
320,192,28763,1,2,0:0:0:0:
192,192,29079,128,0,29237:0:0:0:70:fizzy cymbal.wav
64,192,29079,1,0,0:0:0:0:
320,192,29237,128,0,29395:0:0:0:0:
448,192,29395,128,2,29553:0:0:0:0:
64,192,29553,128,0,29868:0:0:0:0:
192,192,29868,128,0,30026:0:0:0:0:
448,192,30026,128,2,30184:0:0:0:0:
320,192,30184,128,0,30500:0:0:0:0:
64,192,30500,128,0,30658:0:0:0:0:
448,192,30658,128,2,30816:0:0:0:0:
192,192,30816,128,0,30974:0:0:0:0:
320,192,30974,128,0,31132:0:0:0:0:
64,192,31132,128,0,31290:0:0:0:0:
448,192,31290,128,2,31447:0:0:0:0:
192,192,31447,128,0,31605:0:0:0:0:
320,192,31605,128,0,31763:0:0:0:0:
448,192,31763,128,0,31921:0:0:0:0:
64,192,31921,128,2,32079:0:0:0:0:
320,192,32079,128,0,32395:0:0:0:0:
192,192,32395,128,0,32553:0:0:0:0:
64,192,32553,128,2,32711:0:0:0:0:
448,192,32711,128,0,33026:0:0:0:0:
320,192,33026,128,0,33184:0:0:0:0:
64,192,33184,128,2,33342:0:0:0:0:
448,192,33342,128,0,33500:0:0:0:0:
192,192,33500,128,0,33658:0:0:0:0:
64,192,33658,128,0,33816:0:0:0:0:
448,192,33816,128,2,33974:0:0:0:0:
192,192,33974,128,0,34132:0:0:0:0:
320,192,34132,128,0,34290:0:0:0:70:fizzy cymbal.wav
64,192,34132,1,0,0:0:0:0:
448,192,34290,128,0,34447:0:0:0:0:
64,192,34447,128,2,34605:0:0:0:0:
192,192,34605,128,0,34921:0:0:0:0:
320,192,34921,128,0,35079:0:0:0:0:
64,192,35079,128,2,35237:0:0:0:0:
448,192,35237,128,0,35553:0:0:0:0:
320,192,35553,128,0,35711:0:0:0:0:
64,192,35711,128,2,35868:0:0:0:0:
448,192,35868,128,0,36026:0:0:0:0:
192,192,36026,128,0,36184:0:0:0:0:
320,192,36184,128,0,36342:0:0:0:0:
64,192,36342,128,2,36500:0:0:0:0:
320,192,36500,128,0,36658:0:0:0:0:
448,192,36658,128,0,37763:0:0:0:0:
192,192,36658,128,0,36816:0:0:0:0:
64,192,36816,128,0,36974:0:0:0:0:
320,192,36974,128,2,37132:0:0:0:0:
192,192,37132,128,0,37447:0:0:0:0:
64,192,37447,128,0,37605:0:0:0:0:
320,192,37605,128,2,37763:0:0:0:0:
192,192,37763,128,0,38079:0:0:0:0:
64,192,38079,128,0,38237:0:0:0:0:
320,192,38237,128,0,38395:0:0:0:0:
448,192,38395,128,0,38553:0:0:0:0:
192,192,38553,128,0,38711:0:0:0:0:
64,192,38711,128,0,38868:0:0:0:0:
320,192,38868,128,0,39184:0:0:0:0:
448,192,38868,1,0,0:0:0:0:
192,192,39026,128,0,39184:0:0:0:0:
448,192,39184,128,0,39500:0:0:0:70:fizzy cymbal.wav
64,192,39184,1,0,0:0:0:70:long kick.wav
320,192,39500,128,0,39816:0:0:0:0:
64,192,39500,1,0,0:0:0:0:
192,192,39816,128,0,40132:0:0:0:0:
448,192,39816,1,0,0:0:0:0:
64,192,40132,128,0,41711:0:0:0:0:
448,192,40132,1,0,0:0:0:0:
320,192,40447,1,0,0:0:0:0:
320,192,40763,1,0,0:0:0:0:
320,192,41079,1,0,0:0:0:0:
320,192,41395,1,0,0:0:0:0:
448,192,41711,128,0,42026:0:0:0:0:
320,192,41711,1,0,0:0:0:0:
192,192,42026,128,0,42342:0:0:0:0:
64,192,42026,1,0,0:0:0:0:
320,192,42342,128,0,42658:0:0:0:0:
64,192,42342,1,0,0:0:0:0:
64,192,42658,128,0,44237:0:0:0:0:
448,192,42658,1,0,0:0:0:0:
448,192,42974,1,8,0:1:0:0:
448,192,43290,1,8,0:1:0:0:
448,192,43605,1,8,0:1:0:0:
192,192,43605,128,0,44237:0:0:0:0:
448,192,43921,1,8,0:1:0:0:
448,192,44237,1,0,0:0:0:70:fizzy cymbal.wav
320,192,44237,128,8,44711:0:3:0:0:
192,192,44395,1,8,0:3:0:0:
64,192,44553,1,8,0:1:0:0:
448,192,44711,128,0,45184:0:0:0:0:
192,192,44711,128,8,45026:0:3:0:0:
64,192,45026,128,8,45342:0:3:0:0:
320,192,45184,128,8,45658:0:1:0:0:
192,192,45342,128,8,45658:0:3:0:0:
64,192,45658,128,8,45974:0:3:0:0:
448,192,45658,128,0,45974:0:0:0:0:
192,192,45974,128,8,46290:0:3:0:0:
320,192,45974,128,0,46290:0:0:0:0:
64,192,46290,128,8,49290:0:3:0:0:
448,192,46290,128,0,46605:0:0:0:0:
320,192,46605,1,8,0:3:0:0:
192,192,46763,1,8,0:3:0:0:
448,192,46921,1,8,0:3:0:0:
320,192,47079,1,8,0:1:0:0:
192,192,47237,128,8,47553:0:3:0:0:
320,192,47553,1,8,0:3:0:0:
448,192,47711,1,8,0:1:0:0:
320,192,47868,128,8,48184:0:3:0:0:
192,192,48184,128,8,48500:0:3:0:0:
448,192,48500,128,0,49290:0:0:0:0:
320,192,48658,1,2,0:0:0:0:
192,192,48974,1,8,0:1:0:0:
320,192,49290,128,8,49763:0:3:0:0:
192,192,49290,1,4,0:0:0:0:
64,192,49447,1,8,0:3:0:0:
448,192,49605,1,8,0:1:0:0:
64,192,49763,128,8,50395:0:3:0:0:
192,192,49763,128,0,50079:0:0:0:0:
448,192,50079,128,8,50395:0:3:0:0:
192,192,50395,128,0,51026:0:0:0:0:
320,192,50395,128,8,50711:0:3:0:0:
64,192,50711,128,8,51026:0:3:0:0:
448,192,51026,128,8,54342:0:3:0:0:
320,192,51026,128,0,51342:0:0:0:0:
64,192,51342,128,8,51658:0:3:0:0:
192,192,51658,1,8,0:3:0:0:
320,192,51816,1,8,0:3:0:0:
64,192,51974,1,8,0:3:0:0:
192,192,52132,1,8,0:1:0:0:
320,192,52290,128,8,52605:0:3:0:0:
192,192,52605,128,8,52921:0:3:0:0:
64,192,52921,128,8,53237:0:3:0:0:
320,192,53237,128,8,53553:0:3:0:0:
64,192,53553,128,8,54342:0:3:0:0:
192,192,53711,1,8,0:3:0:0:
192,192,53868,1,8,0:3:0:0:
320,192,54026,1,8,0:1:0:0:
320,192,54342,128,4,54816:0:0:0:0:
192,192,54342,1,8,0:3:0:0:
192,192,54500,1,8,0:3:0:0:
64,192,54658,1,8,0:1:0:0:
192,192,54816,128,0,55132:0:0:0:0:
448,192,54816,128,8,55132:0:3:0:0:
320,192,55132,128,8,55447:0:3:0:0:
64,192,55132,128,0,55447:0:0:0:0:
448,192,55447,1,8,0:3:0:0:
192,192,55447,128,0,55763:0:0:0:0:
448,192,55605,1,8,0:3:0:0:
320,192,55763,128,8,56395:0:3:0:0:
64,192,55763,128,0,56079:0:0:0:0:
448,192,56079,128,8,56395:0:3:0:0:
192,192,56237,1,0,0:0:0:0:
192,192,56395,128,0,56711:0:0:0:0:
64,192,56395,128,8,59395:0:3:0:0:
448,192,56711,1,0,0:0:0:0:
192,192,56868,1,8,0:3:0:0:
320,192,57026,128,8,57342:0:3:0:0:
448,192,57342,128,8,57658:0:3:0:0:
192,192,57658,128,8,57974:0:3:0:0:
320,192,57974,128,8,58290:0:3:0:0:
448,192,58290,128,8,58605:0:3:0:0:
192,192,58605,128,8,58921:0:3:0:0:
320,192,58763,1,8,0:3:0:0:
448,192,58921,1,8,0:3:0:0:
448,192,59079,1,8,0:1:0:0:
320,192,59395,128,4,59868:0:0:0:0:
448,192,59395,1,8,0:3:0:0:
192,192,59553,1,8,0:3:0:0:
448,192,59711,1,8,0:1:0:0:
192,192,59868,128,8,60500:0:3:0:0:
64,192,59868,128,0,60184:0:0:0:0:
320,192,60184,128,8,60500:0:3:0:0:
448,192,60500,128,8,60816:0:3:0:0:
64,192,60500,128,0,60816:0:0:0:0:
320,192,60816,128,8,63816:0:3:0:0:
192,192,60816,128,0,61132:0:0:0:0:
448,192,61132,128,8,61290:0:3:0:0:
64,192,61290,1,2,0:0:0:0:
192,192,61447,1,2,0:0:0:0:
64,192,61605,128,8,61921:0:1:0:0:
192,192,61921,128,8,62553:0:3:0:0:
448,192,62079,1,8,0:3:0:0:
64,192,62237,1,8,0:1:0:0:
448,192,62553,128,8,63184:0:3:0:0:
64,192,62868,1,8,0:1:0:0:
192,192,63184,128,8,63816:0:3:0:0:
64,192,63342,1,8,0:3:0:0:
448,192,63500,1,8,0:1:0:0:
64,192,63816,128,8,64132:0:3:0:0:
448,192,63816,1,0,0:0:0:0:
192,192,63974,1,8,0:3:0:0:
448,192,64132,128,0,64447:0:0:0:0:
320,192,64132,1,8,0:3:0:0:
64,192,64290,1,8,0:3:0:0:
192,192,64447,128,0,64763:0:0:0:70:crashL.wav
320,192,64447,1,0,0:0:0:0:
320,192,64763,128,0,64921:0:0:0:0:
448,192,64763,1,8,0:3:0:0:
64,192,64921,128,0,65237:0:0:0:0:
192,192,64921,1,8,0:3:0:0:
320,192,65079,1,8,1:0:0:0:
448,192,65237,128,0,65553:0:0:0:0:
192,192,65237,1,8,0:3:0:0:
64,192,65395,1,8,0:1:0:0:
192,192,65553,1,8,0:3:0:0:
320,192,65553,128,0,65868:0:0:0:0:
192,192,65868,128,0,66184:0:0:0:0:
64,192,65868,1,8,0:3:0:0:
448,192,66026,1,8,0:1:0:0:
64,192,66184,128,0,66658:0:0:0:0:
320,192,66184,1,8,0:3:0:0:
448,192,66342,1,8,0:1:0:0:
192,192,66500,1,8,0:3:0:0:
448,192,66658,1,8,0:1:0:0:
320,192,66658,128,0,66974:0:0:0:0:
192,192,66816,1,8,0:3:0:0:
448,192,66974,128,0,67290:0:0:0:70:crashL.wav
64,192,66974,1,0,0:0:0:0:
64,192,67290,128,0,67447:0:0:0:0:
320,192,67290,1,8,0:3:0:0:
192,192,67447,128,0,67763:0:0:0:0:
448,192,67447,1,8,0:3:0:0:
64,192,67605,1,8,0:1:0:0:
320,192,67763,128,0,68079:0:0:0:0:
448,192,67763,1,8,0:3:0:0:
64,192,67921,1,8,0:1:0:0:
448,192,68079,1,8,0:3:0:0:
64,192,68079,128,0,68395:0:0:0:0:
192,192,68395,128,0,68711:0:0:0:0:
448,192,68395,1,8,0:3:0:0:
64,192,68553,1,8,0:1:0:0:
448,192,68711,128,0,69184:0:0:0:0:
320,192,68711,1,8,0:3:0:0:
64,192,68868,1,8,0:1:0:0:
192,192,69026,1,8,0:3:0:0:
64,192,69184,1,8,0:1:0:0:
320,192,69184,128,0,69500:0:0:0:0:
192,192,69342,1,8,0:3:0:0:
64,192,69500,128,0,69816:0:0:0:70:crashL.wav
448,192,69500,1,0,0:0:0:0:
192,192,69816,128,0,69974:0:0:0:0:
320,192,69816,1,8,0:3:0:0:
448,192,69974,128,0,70290:0:0:0:0:
64,192,69974,1,8,0:3:0:0:
192,192,70132,1,8,0:1:0:0:
320,192,70290,128,0,70605:0:0:0:0:
64,192,70290,1,8,0:3:0:0:
192,192,70447,1,8,0:1:0:0:
448,192,70605,1,8,0:3:0:0:
64,192,70605,128,0,71079:0:0:0:0:
320,192,70921,1,8,0:3:0:0:
448,192,71079,128,0,71395:0:0:0:0:
192,192,71079,1,8,0:1:0:0:
64,192,71237,1,8,0:3:0:0:
320,192,71395,128,8,71711:0:1:0:0:
192,192,71395,1,0,0:0:0:0:
448,192,71553,1,8,0:3:0:0:
192,192,71711,128,8,72026:0:1:0:0:
64,192,71711,1,0,0:0:0:0:
64,192,72026,128,4,72263:0:0:0:0:
448,192,72026,1,8,0:3:0:0:
320,192,72263,128,8,72500:0:3:0:0:
192,192,72263,1,0,0:0:0:0:
448,192,72500,128,0,72658:0:0:0:0:
64,192,72500,1,8,0:3:0:0:
192,192,72658,128,0,72974:0:0:0:0:
320,192,72658,1,8,0:1:0:0:
320,192,72974,128,0,73290:0:0:0:0:
448,192,72974,1,8,0:3:0:0:
64,192,73290,128,8,73605:0:3:0:0:
192,192,73290,1,0,0:0:0:70:crashR.wav
448,192,73605,128,0,73921:0:0:0:70:crashL.wav
192,192,73605,1,8,0:3:0:0:
64,192,73763,1,8,0:3:0:0:
192,192,73921,128,8,74395:0:3:0:0:
320,192,73921,1,0,0:0:0:70:crashR.wav
448,192,74395,128,4,75658:0:0:0:70:crashL.wav
320,192,74395,1,8,0:3:0:0:
64,192,74711,1,8,0:3:0:0:
192,192,74868,128,8,75184:0:1:0:0:
64,192,75184,1,8,0:3:0:0:
192,192,75342,1,8,0:3:0:0:
320,192,75500,1,8,0:1:0:0:
64,192,75658,128,0,76921:0:0:0:70:crashR.wav
192,192,75658,1,8,0:3:0:0:
320,192,75974,128,8,76290:0:3:0:0:
192,192,76290,128,0,76605:0:0:0:0:
448,192,76605,128,8,76921:0:3:0:0:
192,192,76921,128,0,77553:0:0:0:70:crashL.wav
320,192,76921,128,8,77237:0:3:0:0:
64,192,77237,1,8,0:3:0:0:
448,192,77395,1,8,0:1:0:0:
320,192,77553,128,0,78184:0:0:0:70:crashL.wav
64,192,77553,128,8,77868:0:3:0:0:
448,192,77711,128,0,77868:0:0:0:0:
192,192,77868,128,8,78184:0:3:0:0:
448,192,78184,128,0,79447:0:0:0:70:crashR.wav
64,192,78184,128,8,78500:0:3:0:0:
192,192,78500,128,8,79132:0:3:0:0:
64,192,79132,1,8,0:3:0:0:
192,192,79290,1,8,0:1:0:0:
64,192,79447,128,0,80711:0:0:0:70:crashL.wav
320,192,79447,128,8,79763:0:3:0:0:
192,192,79763,1,8,0:3:0:0:
448,192,79921,128,8,80237:0:1:0:0:
192,192,80237,1,8,0:3:0:0:
320,192,80395,1,8,0:3:0:0:
448,192,80553,1,8,0:1:0:0:
320,192,80711,128,0,81974:0:0:0:70:crashR.wav
192,192,80711,128,8,81026:0:3:0:0:
64,192,81026,128,8,81342:0:3:0:0:
448,192,81342,128,8,81658:0:3:0:0:
192,192,81658,128,8,81974:0:3:0:0:
64,192,81974,128,0,83237:0:0:0:70:soft-hitfinish.wav
192,192,82290,128,8,82921:0:3:0:0:
320,192,82605,128,8,83237:0:3:0:0:
448,192,82921,128,8,83553:0:3:0:0:
192,192,83237,128,0,83868:0:0:0:70:crashR.wav
320,192,83553,128,8,84184:0:3:0:0:
64,192,83868,128,0,84500:0:0:0:70:crashR.wav
192,192,84184,128,8,84816:0:3:0:0:
448,192,84500,128,0,85763:0:0:0:70:crashL.wav
64,192,84816,128,8,85447:0:3:0:0:
192,192,85132,128,8,85763:0:3:0:0:
320,192,85447,128,8,86079:0:3:0:0:
64,192,85763,128,0,87026:0:0:0:70:crashR.wav
192,192,86079,128,8,86711:0:3:0:0:
448,192,86395,128,8,87026:0:3:0:0:
320,192,86711,128,8,87342:0:3:0:0:
192,192,87026,128,0,87658:0:0:0:70:crashL.wav
448,192,87342,128,8,87974:0:3:0:0:
64,192,87658,128,0,88290:0:0:0:70:crashR.wav
320,192,87974,128,8,88290:0:3:0:0:
448,192,88290,128,0,89553:0:0:0:70:crashR.wav
192,192,88290,128,8,89079:0:3:0:0:
64,192,89079,1,8,0:3:0:0:
64,192,89237,1,8,0:3:0:0:
192,192,89395,1,8,0:1:0:0:
320,192,89553,128,0,92079:0:0:0:70:crashL.wav
64,192,89553,128,8,89868:0:3:0:0:
448,192,89868,1,8,0:3:0:0:
192,192,90026,1,8,0:1:0:0:
64,192,90342,1,8,0:3:0:0:
448,192,90500,1,8,0:3:0:0:
64,192,90658,1,8,0:1:0:0:
448,192,90816,128,8,91132:0:3:0:0:
192,192,91132,128,8,91447:0:3:0:0:
64,192,91447,128,8,91763:0:3:0:0:
192,192,91763,128,8,92079:0:3:0:0:
64,192,92079,128,0,94290:0:0:0:70:crashL.wav
448,192,92079,128,8,92868:0:3:0:0:
192,192,92553,1,8,0:1:0:0:
320,192,92868,128,8,93500:0:3:0:0:
448,192,93184,1,8,0:1:0:0:
192,192,93500,128,8,94290:0:3:0:0:
448,192,93816,1,8,0:1:0:0:
320,192,94132,1,8,0:3:0:0:
448,192,94290,1,2,0:0:0:0:
64,192,94447,1,2,0:0:0:0:
192,192,94605,1,2,0:0:0:0:
448,192,94763,128,8,95237:0:3:0:0:
320,192,94763,1,4,0:0:0:0:
64,192,94921,1,8,0:3:0:0:
64,192,95079,1,8,0:1:0:0:
192,192,95237,128,0,95868:0:0:0:0:
320,192,95237,128,8,95553:0:3:0:0:
64,192,95553,128,8,95868:0:3:0:0:
448,192,95868,128,0,97290:0:0:0:0:
320,192,95868,128,8,96184:0:3:0:0:
64,192,96184,128,8,96500:0:3:0:0:
192,192,96500,128,8,96816:0:3:0:0:
320,192,96816,128,8,97132:0:3:0:0:
192,192,97132,1,8,0:3:0:0:
64,192,97290,128,8,99816:0:3:0:0:
320,192,97290,1,0,0:0:0:0:
320,192,97447,1,8,0:3:0:0:
192,192,97605,1,8,0:1:0:0:
448,192,97763,128,8,98079:0:3:0:0:
192,192,98079,128,8,98395:0:3:0:0:
448,192,98395,128,8,98711:0:3:0:0:
320,192,98711,128,8,99026:0:3:0:0:
448,192,99026,128,8,99500:0:3:0:0:
192,192,99184,128,8,99816:0:3:0:0:
320,192,99816,128,4,100290:0:0:0:70:crashL.wav
448,192,99816,1,8,0:3:0:0:
192,192,99974,1,8,0:3:0:0:
64,192,100132,1,8,0:1:0:0:
448,192,100290,128,8,100921:0:3:0:0:
192,192,100290,128,0,100605:0:0:0:0:
320,192,100605,128,8,100921:0:3:0:0:
64,192,100921,128,0,102342:0:0:0:0:
192,192,100921,128,8,101237:0:3:0:0:
448,192,101237,128,8,101553:0:3:0:0:
320,192,101553,128,8,101868:0:3:0:0:
448,192,101868,128,8,102184:0:3:0:0:
320,192,102184,1,8,0:3:0:0:
448,192,102342,128,8,102816:0:3:0:0:
192,192,102342,1,0,0:0:0:0:
192,192,102500,1,8,0:3:0:0:
64,192,102658,1,8,0:1:0:0:
320,192,102816,128,8,103447:0:3:0:0:
192,192,102816,128,0,103132:0:0:0:0:
448,192,103132,128,8,103447:0:3:0:0:
64,192,103447,128,0,104868:0:0:0:0:
192,192,103447,128,8,103763:0:3:0:0:
448,192,103763,128,8,104079:0:3:0:0:
192,192,104079,128,0,104553:0:0:0:0:
320,192,104237,1,8,0:3:0:0:
320,192,104395,1,8,0:3:0:0:
448,192,104553,1,8,0:1:0:0:
192,192,104711,1,8,0:3:0:0:
320,192,104868,128,0,105342:0:0:0:70:crashL.wav
448,192,104868,1,8,0:3:0:0:
192,192,105026,1,8,0:3:0:0:
64,192,105184,1,8,0:1:0:0:
192,192,105342,128,8,105974:0:3:0:0:
448,192,105342,128,0,105658:0:0:0:0:
320,192,105658,128,8,105974:0:3:0:0:
448,192,105974,128,0,107395:0:0:0:0:
64,192,105974,128,8,106290:0:3:0:0:
192,192,106290,128,8,106605:0:3:0:0:
320,192,106605,128,8,106921:0:3:0:0:
192,192,106921,128,8,107237:0:3:0:0:
320,192,107237,1,8,0:3:0:0:
64,192,107395,128,8,107868:0:3:0:0:
192,192,107395,1,0,0:0:0:0:
320,192,107553,1,8,0:3:0:0:
448,192,107711,1,8,0:1:0:0:
320,192,107868,128,8,108500:0:3:0:0:
192,192,107868,128,0,108184:0:0:0:0:
448,192,108184,128,8,108500:0:3:0:0:
64,192,108500,128,8,109921:0:3:0:0:
192,192,108500,128,0,108816:0:3:0:0:
320,192,108816,128,8,109132:0:3:0:0:
448,192,109132,128,8,109605:0:3:0:0:
192,192,109290,128,8,109921:0:3:0:0:
448,192,109921,128,0,110395:0:0:0:70:soft-hitfinish.wav
320,192,109921,1,8,0:3:0:0:
192,192,110079,1,8,0:3:0:0:
64,192,110237,1,8,0:1:0:0:
192,192,110395,128,8,111026:0:3:0:0:
320,192,110395,128,0,110711:0:0:0:0:
64,192,110711,128,8,111026:0:3:0:0:
448,192,111026,128,8,112447:0:3:0:0:
320,192,111026,1,0,0:0:0:0:
192,192,111184,1,8,0:3:0:0:
64,192,111342,128,8,111658:0:3:0:0:
192,192,111658,128,8,111816:0:3:0:0:
64,192,112132,1,8,0:1:0:0:
320,192,112132,128,0,112447:0:0:0:0:
64,192,112447,128,8,113711:0:3:0:0:
192,192,112447,128,0,113079:0:0:0:0:
320,192,112605,1,8,0:3:0:0:
448,192,112763,1,8,0:1:0:0:
320,192,113079,128,8,113711:0:3:0:0:
448,192,113395,1,8,0:1:0:0:
448,192,113711,128,8,114658:0:3:0:0:
192,192,113711,128,0,114342:0:0:0:0:
64,192,113868,1,8,0:3:0:0:
320,192,114026,1,8,0:1:0:0:
64,192,114342,128,8,114658:0:3:0:0:
192,192,114500,1,8,0:3:0:0:
320,192,114658,128,8,114974:0:3:0:0:
192,192,114974,128,0,115290:0:0:0:70:crashL.wav
64,192,114974,1,0,0:0:0:0:
320,192,115290,128,0,115447:0:0:0:0:
448,192,115290,1,8,0:3:0:0:
192,192,115447,128,0,115763:0:0:0:0:
64,192,115447,1,8,0:3:0:0:
448,192,115605,1,8,0:1:0:0:
64,192,115763,128,0,116079:0:0:0:0:
320,192,115763,1,8,0:3:0:0:
448,192,115921,1,8,0:1:0:0:
192,192,116079,1,8,0:3:0:0:
320,192,116079,128,0,116395:0:0:0:0:
192,192,116395,128,0,116711:0:0:0:0:
64,192,116395,1,8,0:3:0:0:
448,192,116553,1,8,0:1:0:0:
320,192,116711,128,0,117184:0:0:0:0:
64,192,116711,1,8,0:3:0:0:
448,192,116868,1,8,0:1:0:0:
64,192,117026,1,8,0:3:0:0:
448,192,117184,128,8,117500:0:1:0:0:
192,192,117184,1,0,0:0:0:0:
192,192,117500,128,0,117816:0:0:0:70:crashL.wav
64,192,117500,1,8,0:3:0:0:
320,192,117816,128,0,117974:0:0:0:0:
448,192,117816,1,8,0:3:0:0:
192,192,117974,128,0,118290:0:0:0:0:
64,192,117974,1,8,0:3:0:0:
448,192,118132,1,8,0:1:0:0:
320,192,118290,128,0,118605:0:0:0:0:
64,192,118290,1,8,0:3:0:0:
448,192,118447,1,8,0:1:0:0:
192,192,118605,1,8,0:3:0:0:
64,192,118605,128,0,118921:0:0:0:0:
448,192,118921,128,0,119237:0:0:0:0:
320,192,118921,1,8,0:3:0:0:
64,192,119079,1,8,0:1:0:0:
192,192,119237,128,0,119711:0:0:0:0:
320,192,119237,1,8,0:3:0:0:
64,192,119395,1,8,0:1:0:0:
320,192,119553,1,8,0:3:0:0:
448,192,119711,128,8,120026:0:1:0:0:
64,192,119711,1,0,0:0:0:0:
64,192,120026,128,0,120342:0:0:0:70:crashL.wav
320,192,120026,1,8,0:3:0:0:
192,192,120342,128,0,120500:0:0:0:0:
320,192,120342,1,8,0:3:0:0:
448,192,120500,128,0,120816:0:0:0:0:
64,192,120500,1,8,0:3:0:0:
320,192,120658,1,8,0:1:0:0:
192,192,120816,128,0,121132:0:0:0:0:
64,192,120816,1,8,0:3:0:0:
448,192,120974,1,8,0:1:0:0:
64,192,121132,1,8,0:3:0:0:
320,192,121132,128,0,121605:0:0:0:0:
448,192,121447,1,8,0:3:0:0:
64,192,121605,128,0,121921:0:3:0:0:
192,192,121605,1,8,0:1:0:0:
320,192,121921,1,8,0:1:0:0:
448,192,121921,128,0,122237:0:3:0:0:
192,192,122237,128,0,122553:0:3:0:0:
64,192,122237,1,8,0:1:0:0:
320,192,122553,128,0,122790:0:0:0:70:crashL.wav
448,192,122553,1,8,0:3:0:0:
64,192,122790,128,8,123026:0:3:0:0:
192,192,122790,1,0,0:0:0:0:
448,192,123026,128,8,123184:0:3:0:0:
320,192,123026,1,0,0:0:0:0:
192,192,123184,128,8,123500:0:1:0:0:
64,192,123184,1,0,0:0:0:0:
320,192,123500,128,0,123816:0:0:0:0:
448,192,123500,1,8,0:3:0:0:
64,192,123816,128,4,124132:0:0:0:70:crashR.wav
192,192,123816,1,8,0:3:0:0:
448,192,124132,128,0,124447:0:0:0:70:crashR.wav
320,192,124132,1,8,0:3:0:0:
64,192,124290,1,8,0:3:0:0:
192,192,124447,128,8,124921:0:3:0:0:
320,192,124447,1,0,0:0:0:70:crashL.wav
64,192,124605,1,8,0:3:0:0:
448,192,124763,1,8,0:3:0:0:
320,192,124921,128,4,126184:0:0:0:0:
64,192,124921,128,8,125237:0:3:0:0:
192,192,125237,1,8,0:3:0:0:
448,192,125395,128,8,125711:0:1:0:0:
64,192,125711,1,8,0:3:0:0:
192,192,125868,1,8,0:3:0:0:
448,192,126026,1,8,0:1:0:0:
192,192,126184,1,0,0:0:0:70:crashR.wav
64,192,126184,128,8,127447:0:3:0:0:
448,192,126500,128,8,126816:0:3:0:0:
192,192,126816,128,8,127132:0:3:0:0:
448,192,127132,128,8,127447:0:3:0:0:
320,192,127447,128,0,128079:0:0:0:70:crashL.wav
192,192,127447,128,8,127763:0:3:0:0:
64,192,127763,1,8,0:3:0:0:
448,192,127921,1,8,0:1:0:0:
192,192,128079,128,0,128711:0:0:0:70:crashR.wav
64,192,128079,1,8,0:3:0:0:
448,192,128237,128,8,128395:0:3:0:0:
320,192,128395,128,8,128711:0:3:0:0:
448,192,128711,128,0,129974:0:0:0:70:crashR.wav
64,192,128711,128,8,129026:0:3:0:0:
192,192,129026,128,8,129500:0:3:0:0:
64,192,129658,1,8,0:3:0:0:
192,192,129816,1,8,0:1:0:0:
64,192,129974,128,0,131237:0:0:0:70:crashL.wav
320,192,129974,128,8,130290:0:3:0:0:
192,192,130290,1,8,0:3:0:0:
448,192,130447,1,8,0:1:0:0:
192,192,130763,1,8,0:3:0:0:
448,192,130921,1,8,0:3:0:0:
192,192,131079,1,8,0:1:0:0:
320,192,131237,128,0,132500:0:0:0:70:crashR.wav
448,192,131237,128,8,131553:0:3:0:0:
64,192,131553,128,8,131868:0:3:0:0:
192,192,131868,128,8,132184:0:3:0:0:
448,192,132184,128,8,132500:0:3:0:0:
64,192,132500,128,0,133763:0:0:0:70:crashL.wav
448,192,132816,128,8,133447:0:3:0:0:
320,192,133132,128,8,133763:0:3:0:0:
192,192,133447,128,8,134079:0:3:0:0:
448,192,133763,128,0,134395:0:0:0:70:crashR.wav
64,192,134079,128,8,134711:0:3:0:0:
192,192,134395,128,0,135026:0:0:0:70:crashR.wav
320,192,134711,128,8,135342:0:3:0:0:
448,192,135026,128,0,136290:0:0:0:70:crashL.wav
64,192,135342,128,8,135974:0:3:0:0:
192,192,135658,128,8,136290:0:3:0:0:
320,192,135974,128,8,136605:0:3:0:0:
64,192,136290,128,0,137553:0:0:0:70:crashR.wav
192,192,136605,128,8,137237:0:3:0:0:
448,192,136921,128,8,137553:0:3:0:0:
320,192,137237,128,8,137868:0:3:0:0:
192,192,137553,128,0,138184:0:0:0:70:crashL.wav
448,192,137868,128,8,138500:0:3:0:0:
64,192,138184,128,0,138816:0:0:0:70:crashR.wav
192,192,138500,128,8,138816:0:3:0:0:
448,192,138816,128,0,140079:0:0:0:70:crashR.wav
320,192,138816,128,8,139605:0:3:0:0:
192,192,139605,1,8,0:3:0:0:
192,192,139763,1,8,0:3:0:0:
64,192,139921,1,8,0:1:0:0:
192,192,140079,128,0,140395:0:0:0:70:crashL.wav
320,192,140079,128,8,142605:0:3:0:0:
448,192,140395,1,8,0:3:0:0:
64,192,140553,1,8,0:1:0:0:
192,192,140868,1,8,0:3:0:0:
192,192,141026,1,8,0:3:0:0:
448,192,141184,1,8,0:1:0:0:
64,192,141342,128,8,141658:0:3:0:0:
192,192,141658,128,8,141974:0:3:0:0:
448,192,141974,128,8,142290:0:3:0:0:
64,192,142290,128,8,142605:0:3:0:0:
448,192,142605,128,0,144658:0:0:0:70:crashL.wav
192,192,142605,128,8,143395:0:3:0:0:
320,192,143079,1,8,0:1:0:0:
64,192,143395,128,8,144026:0:3:0:0:
192,192,143711,1,8,0:1:0:0:
320,192,144026,128,8,144658:0:3:0:0:
192,192,144342,1,8,0:1:0:0:
64,192,144658,1,2,0:0:0:0:
192,192,144816,1,2,0:0:0:0:
448,192,144974,1,2,0:0:0:0:
320,192,145132,1,2,0:0:0:0:
64,192,145290,1,0,0:0:0:70:long kick.wav
448,192,145290,128,0,146237:0:0:0:0:
320,192,145605,128,0,146237:0:0:0:0:
192,192,145921,128,0,146237:0:0:0:0:
64,192,146237,128,0,147816:0:0:0:0:
192,192,147816,128,0,148763:0:0:0:0:
320,192,148132,128,0,148763:0:0:0:0:
64,192,148447,128,0,148763:0:0:0:0:
448,192,148763,128,0,150342:0:0:0:0:
192,192,150342,128,8,151290:0:3:0:0:
448,192,150658,128,0,151290:0:0:0:0:
64,192,150974,128,8,151290:0:3:0:0:
320,192,151290,128,0,152868:0:0:0:0:
448,192,151605,1,8,0:3:0:0:
448,192,152237,1,8,0:3:0:0:
64,192,152868,128,8,153816:0:3:0:0:
448,192,153184,128,8,153816:0:3:0:0:
320,192,153500,128,8,153816:0:3:0:0:
192,192,153816,128,8,154763:0:3:0:0:
448,192,154132,1,8,0:3:0:0:
448,192,154447,1,8,0:3:0:0:
448,192,154763,1,8,0:3:0:0:
448,192,155237,128,4,156500:0:0:0:70:crashL.wav
192,192,155237,128,8,156184:0:3:0:0:
320,192,155553,128,8,155868:0:3:0:0:
64,192,155868,128,8,156184:0:3:0:0:
320,192,156184,128,8,156500:0:3:0:0:
64,192,156500,128,0,157763:0:0:0:70:crashR.wav
192,192,156500,128,8,157447:0:3:0:0:
448,192,156816,128,8,157132:0:3:0:0:
320,192,157132,128,8,157447:0:3:0:0:
448,192,157447,128,8,157763:0:3:0:0:
320,192,157763,128,0,158395:0:0:0:70:crashL.wav
192,192,157763,128,8,158079:0:3:0:0:
448,192,158079,128,8,158395:0:3:0:0:
64,192,158395,128,0,159026:0:0:0:70:crashL.wav
192,192,158395,128,8,158711:0:3:0:0:
320,192,158711,128,8,159026:0:3:0:0:
448,192,159026,128,0,160290:0:0:0:70:crashR.wav
192,192,159026,128,8,159500:0:3:0:0:
64,192,159500,1,8,0:1:0:0:
320,192,159974,1,8,0:3:0:0:
64,192,160132,1,8,0:1:0:0:
192,192,160290,128,0,161553:0:0:0:70:crashL.wav
320,192,160290,128,8,160605:0:3:0:0:
448,192,160605,1,8,0:3:0:0:
64,192,160763,1,8,0:1:0:0:
448,192,161079,1,8,0:3:0:0:
320,192,161237,1,8,0:3:0:0:
64,192,161395,1,8,0:1:0:0:
448,192,161553,128,0,162816:0:0:0:70:crashR.wav
320,192,161553,128,8,161868:0:3:0:0:
64,192,161868,128,8,162184:0:3:0:0:
192,192,162184,128,8,162500:0:3:0:0:
320,192,162500,128,8,162816:0:3:0:0:
64,192,162816,128,0,164079:0:0:0:70:soft-hitfinish.wav
448,192,163132,128,8,163763:0:3:0:0:
320,192,163447,128,8,164079:0:3:0:0:
192,192,163763,128,8,164079:0:3:0:0:
448,192,164079,128,0,165184:0:0:0:70:soft-hitfinish.wav
320,192,164395,1,8,0:3:0:0:
192,192,164553,1,8,0:1:0:0:
64,192,164553,1,0,0:0:0:70:soft-hitfinish.wav
320,192,164711,1,8,0:3:0:0:
64,192,164868,1,0,0:0:0:70:soft-hitfinish.wav
192,192,164868,1,8,0:1:0:0:
320,192,165026,1,8,0:3:0:0:
192,192,165184,1,8,0:1:0:0:
64,192,165184,1,0,0:0:0:70:soft-hitfinish.wav
448,192,165342,128,8,165579:0:3:0:0:
320,192,165342,128,0,166290:0:0:0:70:crashL.wav
448,192,165658,128,8,166290:0:3:0:0:
64,192,165974,128,8,166290:0:3:0:0:
192,192,166290,128,8,166605:0:3:0:0:
64,192,166605,128,0,167553:0:0:0:70:crashR.wav
320,192,166605,128,8,166842:0:3:0:0:
320,192,166921,128,8,167553:0:3:0:0:
192,192,167237,128,8,167553:0:3:0:0:
448,192,167553,128,8,167868:0:3:0:0:
320,192,167868,128,0,168500:0:0:0:70:crashL.wav
64,192,167868,128,8,168184:0:3:0:0:
192,192,168184,128,8,168816:0:3:0:0:
64,192,168500,128,0,168816:0:0:0:70:crashR.wav
448,192,168500,128,8,169132:0:3:0:0:
320,192,168816,128,8,169132:0:3:0:0:
64,192,169132,128,0,170395:0:0:0:70:soft-hitfinish.wav
192,192,169132,128,8,169605:0:3:0:0:
448,192,169447,1,8,0:3:0:0:
320,192,169605,1,8,0:1:0:0:
192,192,169921,1,8,0:3:0:0:
448,192,170079,1,8,0:3:0:0:
320,192,170237,1,8,0:1:0:0:
192,192,170395,128,0,170711:0:0:0:70:crashL.wav
448,192,170395,128,8,172921:0:3:0:0:
320,192,170711,1,8,0:3:0:0:
64,192,170868,1,8,0:1:0:0:
192,192,171184,1,8,0:3:0:0:
192,192,171342,1,8,0:3:0:0:
64,192,171500,1,8,0:1:0:0:
320,192,171658,128,8,171974:0:3:0:0:
192,192,171974,128,8,172290:0:3:0:0:
64,192,172290,128,8,172605:0:3:0:0:
320,192,172605,128,8,172921:0:3:0:0:
192,192,172921,128,0,175132:0:0:0:70:crashL.wav
64,192,172921,128,8,173711:0:3:0:0:
320,192,173395,1,8,0:1:0:0:
448,192,173711,128,8,174342:0:3:0:0:
320,192,174026,1,8,0:1:0:0:
64,192,174342,128,8,175132:0:3:0:0:
448,192,174658,1,8,0:1:0:0:
320,192,174974,1,2,0:0:0:0:
448,192,175132,1,2,0:0:0:0:
320,192,175290,1,2,0:0:0:0:
192,192,175447,1,2,0:0:0:0:
64,192,175605,128,8,176553:0:3:0:0:
448,192,175605,128,4,178132:0:0:0:70:crashL.wav
320,192,175763,1,4,0:0:0:0:
320,192,176079,1,8,0:3:0:0:
192,192,176395,1,8,0:3:0:0:
320,192,176553,128,8,178132:0:1:0:0:
64,192,177026,1,8,0:3:0:0:
192,192,177184,1,8,0:1:0:0:
64,192,177342,1,8,0:3:0:0:
192,192,177500,1,8,0:1:0:0:
64,192,177658,1,8,0:3:0:0:
64,192,177816,1,8,0:3:0:0:
192,192,177974,1,8,0:1:0:0:
64,192,178132,128,8,178605:0:1:0:0:
192,192,178290,1,8,0:3:0:0:
320,192,178447,1,8,0:3:0:0:
192,192,178605,128,8,179079:0:1:0:0:
448,192,178763,1,8,0:3:0:0:
64,192,178921,1,8,0:3:0:0:
448,192,179079,128,8,189500:0:1:0:0:
320,192,179079,1,4,0:0:0:0:
