osu file format v14

[General]
AudioFilename: FIRSTUTAU.mp3
AudioLeadIn: 710
PreviewTime: 73921
Countdown: 0
SampleSet: Soft
StackLeniency: 0.7
Mode: 3
LetterboxInBreaks: 0
SpecialStyle: 0
WidescreenStoryboard: 1

[Editor]
DistanceSpacing: 0.5
BeatDivisor: 4
GridSize: 4
TimelineZoom: 1.5

[Metadata]
Title:FIRST
TitleUnicode:FIRST
Artist:cillia
ArtistUnicode:cillia
Creator:juankristal
Version:EZ
Source:
Tags:jinjin vocaloid utau gothic rock kasane teto niki cover
BeatmapID:1124739
BeatmapSetID:512408

[Difficulty]
HPDrainRate:7
CircleSize:4
OverallDifficulty:6.5
ApproachRate:5
SliderMultiplier:1.4
SliderTickRate:1

[Events]
//Background and Video events
0,0,"firstbg.jpg",0,0
//Break Periods
//Storyboard Layer 0 (Background)
//Storyboard Layer 1 (Fail)
//Storyboard Layer 2 (Pass)
//Storyboard Layer 3 (Foreground)
//Storyboard Sound Samples

[TimingPoints]
1290,315.789473684211,4,2,1,50,1,0
74395,-100,4,2,1,70,0,1
94763,-100,4,2,1,50,0,0
124921,-100,4,2,1,70,0,1
145290,-100,4,2,1,50,0,0
155237,-100,4,2,1,70,0,1
175605,-100,4,2,1,60,0,0

[HitObjects]
320,192,6342,5,0,0:0:0:70:long kick.wav
64,192,8868,128,0,9500:0:0:0:0:
320,192,10132,128,0,10763:0:0:0:0:
192,192,11079,128,0,11395:0:0:0:0:
448,192,11395,128,0,12026:0:0:0:0:
320,192,12342,128,0,12658:0:0:0:0:
64,192,12658,128,0,13290:0:0:0:0:
448,192,13605,128,0,13921:0:0:0:0:
64,192,13921,128,0,14553:0:0:0:0:
320,192,15184,128,0,15816:0:0:0:0:
192,192,16132,128,0,16447:0:0:0:0:
448,192,16447,128,0,17079:0:0:0:0:
320,192,17395,128,0,17711:0:0:0:0:
64,192,17711,128,0,18342:0:0:0:0:
448,192,18974,128,0,19605:0:0:0:70:fizzy cymbal.wav
64,192,19290,1,2,0:0:0:0:
320,192,19921,1,2,0:0:0:0:
192,192,20237,128,0,20868:0:0:0:0:
448,192,20553,1,2,0:0:0:0:
64,192,21184,128,2,21500:0:0:0:0:
448,192,21500,128,0,22132:0:0:0:0:
192,192,21816,1,2,0:0:0:0:
64,192,22447,128,2,22763:0:0:0:0:
320,192,22763,128,0,23395:0:0:0:0:
192,192,23079,1,2,0:0:0:0:
192,192,23711,1,2,0:0:0:0:
448,192,24026,128,0,24658:0:0:0:0:
320,192,24026,1,0,0:0:0:70:fizzy cymbal.wav
192,192,24342,1,2,0:0:0:0:
192,192,24974,1,2,0:0:0:0:
320,192,25290,128,0,25921:0:0:0:0:
64,192,25605,1,2,0:0:0:0:
192,192,26237,128,2,26553:0:0:0:0:
448,192,26553,128,0,27184:0:0:0:0:
64,192,26868,1,2,0:0:0:0:
192,192,27500,128,2,27816:0:0:0:0:
320,192,27816,128,0,28447:0:0:0:0:
64,192,28132,1,2,0:0:0:0:
192,192,28763,128,2,29079:0:0:0:0:
320,192,29079,1,0,0:0:0:70:fizzy cymbal.wav
448,192,29079,128,0,29711:0:0:0:0:
64,192,29395,1,2,0:0:0:0:
192,192,30026,1,2,0:0:0:0:
320,192,30342,128,0,30974:0:0:0:0:
64,192,30658,1,2,0:0:0:0:
64,192,31290,128,2,31605:0:0:0:0:
448,192,31605,128,0,32237:0:0:0:0:
192,192,31921,1,2,0:0:0:0:
64,192,32553,128,2,32868:0:0:0:0:
320,192,32868,128,0,33500:0:0:0:0:
192,192,33184,1,2,0:0:0:0:
64,192,33816,128,2,34132:0:0:0:0:
320,192,34132,1,0,0:0:0:70:fizzy cymbal.wav
448,192,34132,128,0,34763:0:0:0:0:
192,192,34447,1,2,0:0:0:0:
192,192,35079,1,2,0:0:0:0:
320,192,35395,128,0,36026:0:0:0:0:
64,192,35711,1,2,0:0:0:0:
192,192,36342,128,2,36658:0:0:0:0:
448,192,36658,128,0,37921:0:0:0:0:
64,192,36974,1,2,0:0:0:0:
192,192,37605,1,2,0:0:0:0:
64,192,37921,128,0,39184:0:0:0:0:
320,192,39184,128,0,41711:0:0:0:70:fizzy cymbal.wav
448,192,39184,1,0,0:0:0:0:
64,192,39500,1,0,0:0:0:0:
192,192,39816,1,0,0:0:0:0:
64,192,40132,1,0,0:0:0:0:
192,192,41711,128,0,44237:0:0:0:0:
64,192,41711,1,0,0:0:0:0:
320,192,42026,1,0,0:0:0:0:
448,192,42342,1,0,0:0:0:0:
64,192,42658,1,0,0:0:0:0:
448,192,44237,128,4,44711:0:0:0:0:
64,192,44237,1,8,0:3:0:0:
320,192,44711,128,8,45184:0:3:0:0:
192,192,45184,128,8,45658:0:1:0:0:
448,192,45658,128,8,45974:0:3:0:0:
64,192,45974,128,8,46290:0:3:0:0:
320,192,46290,128,8,49290:0:3:0:0:
64,192,49290,128,8,49763:0:3:0:0:
448,192,49290,1,4,0:0:0:0:
192,192,49763,128,8,50237:0:3:0:0:
320,192,50237,128,8,50711:0:1:0:0:
448,192,50711,128,8,54342:0:3:0:0:
320,192,54342,128,4,54816:0:0:0:0:
192,192,54342,1,8,0:3:0:0:
64,192,54816,128,8,55290:0:3:0:0:
192,192,55290,128,8,55763:0:1:0:0:
448,192,55763,128,8,56079:0:3:0:0:
320,192,56079,128,8,56395:0:3:0:0:
64,192,56395,128,8,59395:0:3:0:0:
320,192,59395,128,4,59868:0:0:0:0:
448,192,59395,1,8,0:3:0:0:
64,192,59868,128,8,60342:0:3:0:0:
448,192,60342,128,8,60816:0:1:0:0:
192,192,60816,128,8,63816:0:3:0:0:
320,192,63816,128,8,64447:0:3:0:0:
64,192,64447,128,0,65237:0:0:0:70:crashL.wav
448,192,64447,1,0,0:0:0:0:
448,192,65553,128,0,66342:0:0:0:70:crashR.wav
64,192,65553,1,0,0:0:0:0:
192,192,66342,1,8,0:1:0:0:
320,192,66658,1,8,0:1:0:0:
64,192,66974,128,0,67763:0:0:0:70:crashL.wav
448,192,66974,1,0,0:0:0:0:
448,192,68079,128,0,68868:0:0:0:70:crashR.wav
64,192,68079,1,0,0:0:0:0:
64,192,68868,1,8,0:1:0:0:
320,192,69184,1,8,0:1:0:0:
192,192,69500,128,0,70290:0:0:0:70:crashL.wav
64,192,69500,1,0,0:0:0:0:
448,192,70605,128,0,71395:0:0:0:70:crashR.wav
64,192,70605,1,0,0:0:0:0:
64,192,71395,128,8,72026:0:1:0:0:
320,192,72026,128,4,73290:0:0:0:0:
448,192,72026,1,0,0:0:0:0:
192,192,73290,128,4,73921:0:0:0:0:
448,192,73921,128,8,74395:0:3:0:0:
320,192,74395,128,4,75658:0:0:0:0:
64,192,74395,1,0,0:0:0:0:
192,192,75658,128,0,76921:0:0:0:70:crashR.wav
448,192,75658,1,0,0:0:0:0:
64,192,76921,128,0,77553:0:0:0:70:crashL.wav
320,192,77553,128,0,78184:0:0:0:70:crashL.wav
448,192,78184,128,0,79447:0:0:0:70:crashR.wav
192,192,78184,1,0,0:0:0:0:
192,192,79447,128,0,80711:0:0:0:70:crashL.wav
320,192,79447,1,0,0:0:0:0:
448,192,80711,128,0,81974:0:0:0:70:crashR.wav
320,192,80711,1,0,0:0:0:0:
64,192,81974,128,0,83237:0:0:0:70:soft-hitfinish.wav
192,192,81974,1,0,0:0:0:0:
192,192,83237,128,0,83868:0:0:0:70:crashR.wav
320,192,83868,128,0,84500:0:0:0:70:crashR.wav
448,192,84500,128,0,85763:0:0:0:70:crashL.wav
64,192,84500,1,0,0:0:0:0:
192,192,85763,128,0,87026:0:0:0:70:crashR.wav
320,192,85763,1,0,0:0:0:0:
64,192,87026,128,0,87658:0:0:0:70:crashL.wav
320,192,87658,128,0,88290:0:0:0:70:crashR.wav
448,192,88290,128,0,89553:0:0:0:70:crashR.wav
64,192,88290,1,0,0:0:0:0:
64,192,89553,128,0,92079:0:0:0:70:crashL.wav
192,192,89553,1,0,0:0:0:0:
448,192,92079,1,0,0:0:0:0:
320,192,92079,128,0,94763:0:0:0:70:crashL.wav
448,192,94763,128,4,95237:0:0:0:0:
64,192,94763,1,8,0:3:0:0:
192,192,95237,128,8,95868:0:3:0:0:
320,192,95868,128,8,97290:0:3:0:0:
448,192,97290,128,8,99816:0:3:0:0:
64,192,99816,128,4,100290:0:0:0:70:crashL.wav
192,192,99816,1,8,0:3:0:0:
320,192,100290,128,8,100921:0:3:0:0:
192,192,100921,128,8,102342:0:3:0:0:
448,192,102342,128,8,102816:0:3:0:0:
320,192,102342,1,0,0:0:0:0:
64,192,102816,128,8,104868:0:3:0:0:
320,192,104868,128,0,105342:0:0:0:70:crashL.wav
448,192,104868,1,0,0:0:0:0:
192,192,105342,128,8,105974:0:3:0:0:
448,192,105974,128,8,107395:0:3:0:0:
64,192,107395,128,8,107868:0:3:0:0:
192,192,107395,1,0,0:0:0:0:
320,192,107868,128,8,108500:0:3:0:0:
192,192,108500,128,8,109921:0:3:0:0:
448,192,109921,128,0,110395:0:0:0:70:soft-hitfinish.wav
320,192,109921,1,8,0:3:0:0:
64,192,110395,128,8,111026:0:3:0:0:
320,192,111026,128,8,112447:0:3:0:0:
64,192,112447,128,8,113711:0:3:0:0:
448,192,113711,128,8,114974:0:3:0:0:
64,192,114974,128,0,115763:0:0:0:70:crashL.wav
192,192,114974,1,0,0:0:0:0:
448,192,116079,128,0,116868:0:0:0:70:crashR.wav
192,192,116079,1,0,0:0:0:0:
192,192,116868,1,8,0:1:0:0:
320,192,117184,1,8,0:1:0:0:
64,192,117500,128,0,118290:0:0:0:70:crashL.wav
192,192,117500,1,0,0:0:0:0:
448,192,118605,128,0,119395:0:0:0:70:crashR.wav
192,192,118605,1,0,0:0:0:0:
64,192,119395,1,8,0:1:0:0:
320,192,119711,1,8,0:1:0:0:
448,192,120026,128,0,120816:0:0:0:70:crashL.wav
192,192,120026,1,0,0:0:0:0:
192,192,121132,128,0,121921:0:0:0:70:crashR.wav
64,192,121132,1,0,0:0:0:0:
320,192,121921,128,0,122553:0:0:0:70:crashL.wav
64,192,122553,128,0,123816:0:0:0:70:crashL.wav
192,192,122553,1,0,0:0:0:0:
320,192,123816,128,4,124447:0:0:0:70:crashR.wav
448,192,124447,128,8,124921:0:3:0:0:
192,192,124921,128,4,126184:0:0:0:0:
64,192,124921,1,0,0:0:0:0:
320,192,126184,128,0,127447:0:0:0:70:crashR.wav
448,192,126184,1,0,0:0:0:0:
64,192,127447,128,0,128079:0:0:0:70:crashL.wav
192,192,128079,128,0,128711:0:0:0:70:crashR.wav
448,192,128711,128,0,129974:0:0:0:70:crashR.wav
320,192,128711,1,0,0:0:0:0:
64,192,129974,128,0,131237:0:0:0:70:crashL.wav
192,192,129974,1,0,0:0:0:0:
448,192,131237,128,0,132500:0:0:0:70:crashR.wav
320,192,131237,1,0,0:0:0:0:
192,192,132500,128,0,133763:0:0:0:70:crashL.wav
64,192,132500,1,0,0:0:0:0:
320,192,133763,128,0,134395:0:0:0:70:crashR.wav
64,192,134395,128,0,135026:0:0:0:70:crashR.wav
448,192,135026,128,0,136290:0:0:0:70:crashL.wav
320,192,135026,1,0,0:0:0:0:
192,192,136290,128,0,137553:0:0:0:70:crashR.wav
64,192,136290,1,0,0:0:0:0:
64,192,137553,128,0,138184:0:0:0:70:crashL.wav
320,192,138184,128,0,138816:0:0:0:70:crashR.wav
448,192,138816,128,0,140079:0:0:0:70:crashR.wav
64,192,138816,1,0,0:0:0:0:
192,192,140079,128,0,142605:0:0:0:70:crashL.wav
320,192,140079,1,0,0:0:0:0:
320,192,142605,128,0,145290:0:0:0:70:crashL.wav
64,192,142605,1,0,0:0:0:0:
192,192,145290,1,0,0:0:0:70:long kick.wav
64,192,145605,128,0,145921:0:0:0:0:
448,192,145921,128,0,146237:0:0:0:0:
192,192,146237,128,0,147816:0:0:0:0:
320,192,147816,128,0,148132:0:0:0:0:
64,192,148132,128,0,148447:0:0:0:0:
448,192,148447,128,0,148763:0:0:0:0:
192,192,148763,128,0,150342:0:0:0:0:
448,192,150342,128,8,150658:0:3:0:0:
320,192,150658,128,0,150974:0:0:0:0:
192,192,150974,128,8,151290:0:3:0:0:
64,192,151290,128,0,152868:0:0:0:0:
320,192,152868,128,8,153184:0:3:0:0:
192,192,153184,128,8,153500:0:3:0:0:
448,192,153500,128,8,153816:0:3:0:0:
64,192,153816,128,8,154763:0:3:0:0:
320,192,155237,128,4,156500:0:0:0:70:crashL.wav
448,192,155237,1,0,0:0:0:0:
192,192,156500,128,0,157763:0:0:0:70:crashR.wav
64,192,156500,1,0,0:0:0:0:
64,192,157763,128,0,158395:0:0:0:70:crashL.wav
320,192,158395,128,0,159026:0:0:0:70:crashL.wav
448,192,159026,128,0,160290:0:0:0:70:crashR.wav
64,192,159026,1,0,0:0:0:0:
64,192,160290,128,0,161553:0:0:0:70:crashL.wav
192,192,160290,1,0,0:0:0:0:
448,192,161553,128,0,162816:0:0:0:70:crashR.wav
320,192,161553,1,0,0:0:0:0:
64,192,162816,128,0,164079:0:0:0:70:soft-hitfinish.wav
192,192,162816,1,0,0:0:0:0:
192,192,164079,128,0,164711:0:0:0:70:soft-hitfinish.wav
448,192,164079,1,0,0:0:0:0:
320,192,164711,128,0,165342:0:0:0:70:soft-hitfinish.wav
64,192,164711,1,0,0:1:0:0:
448,192,165342,128,0,166605:0:0:0:70:crashL.wav
64,192,165342,1,0,0:0:0:0:
192,192,166605,128,0,167868:0:0:0:70:crashR.wav
320,192,166605,1,0,0:0:0:0:
64,192,167868,128,0,168500:0:0:0:70:crashL.wav
320,192,168500,128,0,169132:0:0:0:70:crashR.wav
448,192,169132,128,0,170395:0:0:0:70:soft-hitfinish.wav
64,192,169132,1,0,0:0:0:0:
64,192,170395,128,0,172921:0:0:0:70:crashL.wav
192,192,170395,1,0,0:0:0:0:
320,192,172921,128,0,175605:0:0:0:70:crashL.wav
448,192,172921,1,0,0:0:0:0:
192,192,175605,128,8,176553:0:3:0:0:
64,192,175605,1,0,0:0:0:70:crashL.wav
448,192,176553,128,8,178132:0:1:0:0:
320,192,176553,1,0,0:0:0:0:
192,192,177184,1,8,0:1:0:0:
192,192,177500,1,8,0:1:0:0:
64,192,178132,128,8,178605:0:1:0:0:
192,192,178605,128,8,179079:0:1:0:0:
448,192,179079,128,8,189500:0:1:0:0:
320,192,179079,1,4,0:0:0:0:
