osu file format v14

[General]
AudioFilename: audio.mp3
AudioLeadIn: 0
PreviewTime: 73921
Countdown: 0
SampleSet: Normal
StackLeniency: 0.3
Mode: 0
LetterboxInBreaks: 0
EpilepsyWarning: 1
WidescreenStoryboard: 1

[Editor]
Bookmarks: 78184,79447,80711,81974,139447,140079,160921,162184
DistanceSpacing: 0.8
BeatDivisor: 4
GridSize: 8
TimelineZoom: 2.2

[Metadata]
Title:FIRST
TitleUnicode:FIRST
Artist:cillia
ArtistUnicode:cillia
Creator:DominiGG
Version:LAST TRY
Source:
Tags:
BeatmapID:1558299
BeatmapSetID:738367

[Difficulty]
HPDrainRate:6
CircleSize:4
OverallDifficulty:9
ApproachRate:9.7
SliderMultiplier:1.8
SliderTickRate:1

[Events]
//Background and Video events
0,0,"1447977898085.jpg",0,0
//Break Periods
2,6542,8373
2,145489,149847
//Storyboard Layer 0 (Background)
//Storyboard Layer 1 (Fail)
//Storyboard Layer 2 (Pass)
//Storyboard Layer 3 (Foreground)
//Storyboard Sound Samples

[TimingPoints]
1290,315.789473684211,4,1,0,50,1,0
8868,-166.666666666667,4,1,0,30,0,0
13605,-166.666666666667,4,1,0,40,0,0
18974,-111.111111111111,4,1,0,50,0,0
23711,-142.857142857143,4,1,0,50,0,0
24026,-111.111111111111,4,1,0,50,0,0
28447,-142.857142857143,4,1,0,50,0,0
29079,-111.111111111111,4,1,0,50,0,0
42974,-111.111111111111,4,3,0,50,0,0
44237,-100,4,1,0,50,0,0
54342,-90.9090909090909,4,1,0,50,0,0
62237,-125,4,1,0,50,0,0
64447,-90.9090909090909,4,1,0,50,0,0
74395,-71.4285714285714,4,1,0,70,0,1
81974,-66.6666666666667,4,1,0,75,0,1
89079,-66.6666666666667,4,1,0,70,0,1
93816,-83.3333333333333,4,1,0,70,0,1
94763,-100,4,1,0,50,0,0
104868,-90.9090909090909,4,1,0,50,0,0
112132,-125,4,1,0,50,0,0
114974,-90.9090909090909,4,1,0,50,0,0
124921,-71.4285714285714,4,1,0,70,0,1
145290,-71.4285714285714,4,1,0,50,0,0
150342,-71.4285714285714,4,3,0,30,0,0
150974,-71.4285714285714,4,3,0,40,0,0
151605,-71.4285714285714,4,3,0,50,0,0
152868,-71.4285714285714,4,3,0,60,0,0
153500,-71.4285714285714,4,3,0,70,0,0
154763,-200,4,1,0,50,0,0
155237,-62.5,4,1,0,80,0,1
173553,-71.4285714285714,4,1,0,80,0,1
174184,-83.3333333333333,4,1,0,80,0,1
175605,-62.5,4,1,0,50,0,0
189500,-62.5,4,1,0,5,0,0

[Colours]
Combo1 : 243,159,255
Combo2 : 122,122,122
Combo3 : 255,225,108
Combo4 : 251,247,253

[HitObjects]
256,192,1290,12,8,6342,0:0:0:0:
94,103,8868,5,2,0:0:0:0:
133,173,9026,2,0,L|136:305,1,107.999996704102,0|2,0:0|0:0,0:0:0:0:
418,103,10132,1,2,0:0:0:0:
379,173,10290,2,0,L|376:305,1,107.999996704102,0|2,0:0|0:0,0:0:0:0:
256,336,11079,6,0,L|256:280,2,53.9999983520508,2|0|0,0:0|0:0|0:0,0:0:0:0:
256,192,11553,2,0,B|280:136|232:136|256:80,1,107.999996704102,2|2,0:0|0:0,0:0:0:0:
364,336,12342,2,0,L|252:336,1,107.999996704102,2|0,0:0|0:0,0:0:0:0:
135,280,12816,1,2,0:0:0:0:
256,336,13132,1,2,0:0:0:0:
256,48,13605,6,0,L|256:104,2,53.9999983520508,2|0|0,0:0|0:0|0:0,0:0:0:0:
256,192,14079,2,0,B|280:248|232:248|256:304,1,107.999996704102,2|2,0:0|0:0,0:0:0:0:
144,208,15184,1,2,0:0:0:0:
368,224,15342,1,0,0:0:0:0:
368,224,15658,1,2,0:0:0:0:
256,296,16132,6,0,L|256:168,1,107.999996704102,2|0,0:0|0:0,0:0:0:0:
256,32,16605,1,2,0:0:0:0:
256,188,16921,1,2,0:0:0:0:
120,120,17395,2,0,P|104:176|120:232,1,107.999996704102,2|0,0:0|0:0,0:0:0:0:
256,296,17868,1,2,0:0:0:0:
115,223,18184,1,2,0:0:0:0:
256,188,18974,6,0,P|301:207|350:186,1,80.9999975280763,4|0,0:1|0:0,0:0:0:0:
413,89,19290,1,2,0:0:0:0:
474,208,19447,2,0,L|479:316,1,80.9999975280763,0|0,0:0|0:0,0:0:0:0:
327,281,19763,2,0,L|332:173,1,80.9999975280763,0|2,0:0|0:0,0:0:0:0:
413,89,20079,6,0,P|377:98|309:72,1,80.9999975280763,0|0,0:0|0:0,0:0:0:0:
218,34,20395,2,0,P|182:25|114:51,1,80.9999975280763,0|2,0:0|0:0,0:0:0:0:
173,194,20711,2,0,B|187:146|187:146|174:93,1,80.9999975280763,0|0,0:0|0:0,0:0:0:0:
44,144,21026,2,0,B|30:192|30:192|43:245,1,80.9999975280763,0|2,0:0|0:0,0:0:0:0:
210,303,21342,5,0,0:0:0:0:
19,308,21500,1,0,0:0:0:0:
118,375,21658,1,0,0:0:0:0:
135,197,21816,1,2,0:0:0:0:
220,324,21974,2,0,L|312:321,1,80.9999975280763,0|0,0:0|0:0,0:0:0:0:
454,244,22290,2,0,L|362:241,1,80.9999975280763,0|2,0:0|0:0,0:0:0:0:
249,221,22605,6,0,P|222:143|269:65,2,161.999995056153
440,152,23395,1,0,0:0:0:0:
320,152,23553,1,0,0:0:0:0:
344,256,23711,2,0,L|336:328,1,62.9999980773926,2|0,0:0|0:0,0:0:0:0:
152,360,24026,5,4,0:1:0:0:
304,288,24184,1,0,0:0:0:0:
72,248,24342,1,2,0:0:0:0:
136,344,24500,2,0,L|224:344,1,80.9999975280763,0|0,0:0|0:0,0:0:0:0:
144,224,24816,2,0,L|56:224,1,80.9999975280763,0|2,0:0|0:0,0:0:0:0:
216,264,25132,6,0,P|224:208|208:168,1,80.9999975280763,0|0,0:0|0:0,0:0:0:0:
64,145,25447,2,0,P|56:201|72:241,1,80.9999975280763,0|2,0:0|0:0,0:0:0:0:
208,160,25763,2,0,P|253:152|288:160,1,80.9999975280763,0|0,0:0|0:0,0:0:0:0:
382,288,26079,2,0,P|342:295|303:287,1,80.9999975280763,0|2,0:0|0:0,0:0:0:0:
309,166,26395,5,0,0:0:0:0:
487,242,26553,1,0,0:0:0:0:
318,190,26711,1,2,0:0:0:0:
381,320,26868,1,0,0:0:0:0:
440,152,27026,2,0,P|443:100|414:55,1,80.9999975280763,0|0,0:0|0:0,0:0:0:0:
278,82,27342,2,0,P|275:134|304:179,1,80.9999975280763,0|2,0:0|0:0,0:0:0:0:
487,242,27658,6,0,P|409:277|395:362,2,161.999995056153,0|0|0,0:0|0:0|0:0,0:0:0:0:
485,340,28447,1,0,0:0:0:0:
370,347,28605,1,0,0:0:0:0:
303,248,28763,2,0,L|375:246,1,62.9999980773926,2|0,0:0|0:0,0:0:0:0:
370,347,29079,5,4,0:1:0:0:
296,159,29237,1,0,0:0:0:0:
264,344,29395,1,2,0:0:0:0:
376,200,29553,2,0,P|373:114|345:85,1,80.9999975280763,0|0,0:0|0:0,0:0:0:0:
216,119,29868,2,0,P|219:205|247:234,1,80.9999975280763,0|2,0:0|0:0,0:0:0:0:
377,121,30184,6,0,L|483:118,1,80.9999975280763,0|0,0:0|0:0,0:0:0:0:
295,199,30500,2,0,L|189:196,1,80.9999975280763,0|2,0:0|0:0,0:0:0:0:
44,90,30816,2,0,B|90:80|90:80|157:96,1,80.9999975280763,0|0,0:0|0:0,0:0:0:0:
214,197,31132,2,0,B|168:207|168:207|101:191,1,80.9999975280763,0|2,0:0|0:0,0:0:0:0:
49,73,31447,5,0,0:0:0:0:
120,283,31605,1,0,0:0:0:0:
48,87,31763,1,0,0:0:0:0:
14,233,31921,1,2,0:0:0:0:
150,88,32079,2,0,L|258:88,1,80.9999975280763,0|0,0:0|0:0,0:0:0:0:
376,200,32395,2,0,L|268:200,1,80.9999975280763,0|2,0:0|0:0,0:0:0:0:
437,143,32711,6,0,P|459:190|436:257,1,80.9999975280763,0|0,0:0|0:0,0:0:0:0:
315,275,33026,2,0,P|293:228|316:161,1,80.9999975280763,0|2,0:0|0:0,0:0:0:0:
390,328,33342,2,0,P|314:360|232:306,1,161.999995056153,0|0,0:0|0:0,0:0:0:0:
144,241,33816,2,0,B|134:286|134:286|149:334,1,80.9999975280763,2|0,0:0|0:0,0:0:0:0:
314,219,34132,5,4,0:1:0:0:
154,157,34290,2,0,P|89:173|66:216,1,80.9999975280763,0|2,0:0|0:0,0:0:0:0:
294,199,34605,2,0,L|390:198,1,80.9999975280763,0|0,0:0|0:0,0:0:0:0:
470,328,34921,2,0,L|374:327,1,80.9999975280763,0|2,0:0|0:0,0:0:0:0:
225,242,35237,6,0,P|211:191|236:139,1,80.9999975280763,0|0,0:0|0:0,0:0:0:0:
442,152,35553,2,0,P|456:203|431:255,1,80.9999975280763,0|2,0:0|0:0,0:0:0:0:
246,327,35868,2,0,L|145:316,1,80.9999975280763,0|0,0:0|0:0,0:0:0:0:
73,165,36184,2,0,L|174:154,1,80.9999975280763,0|2,0:0|0:0,0:0:0:0:
346,187,36500,5,0,0:0:0:0:
155,134,36658,1,0,0:0:0:0:
309,274,36816,1,0,0:0:0:0:
153,109,36974,1,2,0:0:0:0:
357,97,37132,2,0,L|445:93,1,80.9999975280763,0|0,0:0|0:0,0:0:0:0:
389,277,37447,2,0,L|301:273,1,80.9999975280763,0|2,0:0|0:0,0:0:0:0:
124,277,37763,5,0,0:0:0:0:
46,173,38079,1,0,0:0:0:0:
149,95,38395,1,0,0:0:0:0:
227,199,38711,5,0,0:0:0:0:
46,173,38868,1,0,0:0:0:0:
119,279,39026,1,0,0:0:0:0:
149,95,39184,5,4,1:0:0:0:
220,57,39500,1,0,0:0:0:0:
299,70,39816,1,0,0:0:0:0:
352,130,40132,1,0,0:0:0:0:
358,210,40447,1,0,0:0:0:0:
397,280,40763,1,0,0:0:0:0:
474,304,41079,1,0,0:0:0:0:
460,224,41395,1,0,0:0:0:0:
397,280,41711,5,0,0:0:0:0:
303,305,42026,1,0,0:0:0:0:
203,250,42342,1,0,0:0:0:0:
184,121,42658,1,0,0:0:0:0:
272,26,42974,5,2,0:2:0:0:
307,44,43052,1,0,0:0:0:0:
334,75,43131,1,0,0:0:0:0:
348,112,43210,1,0,0:0:0:0:
348,153,43289,1,2,0:2:0:0:
334,190,43368,1,0,0:0:0:0:
308,221,43447,1,0,0:0:0:0:
272,240,43526,1,0,0:0:0:0:
232,246,43605,5,2,0:2:0:0:
273,284,43683,1,0,0:0:0:0:
327,295,43762,1,0,0:0:0:0:
381,278,43841,1,0,0:0:0:0:
417,235,43920,1,2,0:2:0:0:
427,180,43999,1,0,0:0:0:0:
407,128,44078,1,0,0:0:0:0:
364,92,44157,1,0,0:0:0:0:
308,84,44237,6,0,L|215:89,1,90,4|0,1:0|1:0,0:0:0:0:
44,130,44553,1,8,0:0:0:0:
225,217,44711,2,0,P|313:248|418:191,1,180,0|0,0:0|0:0,0:0:0:0:
308,84,45184,1,8,0:0:0:0:
317,256,45342,6,0,L|326:377,1,90,0|0,0:0|0:0,0:0:0:0:
409,203,45658,1,0,1:0:0:0:
349,365,45816,1,8,0:0:0:0:
212,271,45974,2,0,B|122:258|122:258|18:282,1,180,0|0,0:0|0:0,0:0:0:0:
263,337,46447,2,0,P|294:284|273:223,1,90,8|0,0:0|0:0,0:0:0:0:
80,144,46763,5,0,1:0:0:0:
212,271,46921,1,0,1:0:0:0:
34,299,47079,1,8,0:0:0:0:
168,173,47237,2,0,P|171:112|130:65,1,90,0|0,0:0|0:0,0:0:0:0:
11,212,47553,1,0,0:0:0:0:
212,271,47711,1,8,0:0:0:0:
34,299,47868,6,0,L|217:270,1,180,0|0,0:0|1:0,0:0:0:0:
293,354,48342,1,8,0:0:0:0:
218,240,48500,1,0,0:0:0:0:
159,367,48658,2,0,L|331:351,1,135,0|0,0:0|0:0,0:0:0:0:
320,352,48974,2,0,P|311:291|341:242,1,90,8|0,0:0|0:0,0:0:0:0:
466,163,49290,5,4,1:0:0:0:
303,244,49447,1,0,1:0:0:0:
487,318,49605,1,8,0:0:0:0:
351,174,49763,2,0,P|282:162|219:251,1,180,0|0,0:0|0:0,0:0:0:0:
414,217,50237,2,0,P|426:157|387:109,1,90,8|0,0:0|0:0,0:0:0:0:
234,77,50553,5,0,0:0:0:0:
351,174,50711,1,0,1:0:0:0:
386,31,50868,1,8,0:0:0:0:
243,158,51026,2,0,P|178:136|176:17,1,180,0|0,0:0|0:0,0:0:0:0:
351,174,51500,2,0,L|345:278,1,90,8|0,0:0|0:0,0:0:0:0:
186,342,51816,5,0,1:0:0:0:
328,275,51974,1,0,1:0:0:0:
129,249,52132,1,8,0:0:0:0:
301,354,52290,2,0,P|390:330|401:237,1,180,0|0,0:0|0:0,0:0:0:0:
328,185,52763,2,0,L|328:276,1,90,8|0,0:0|0:0,0:0:0:0:
186,366,53079,5,0,0:0:0:0:
295,247,53237,1,0,1:0:0:0:
154,236,53395,2,0,B|140:188|140:188|153:140,1,90,8|0,0:0|0:0,0:0:0:0:
304,32,53711,1,0,1:0:0:0:
230,185,53868,1,0,1:0:0:0:
119,59,54026,1,8,1:0:0:0:
119,59,54105,1,0,1:0:0:0:
119,59,54184,1,0,1:0:0:0:
119,59,54263,1,0,1:0:0:0:
119,59,54342,6,0,P|130:113|110:170,1,99.0000030212403,4|0,1:0|1:0,0:0:0:0:
25,273,54658,1,8,0:0:0:0:
160,345,54816,2,0,B|266:364|266:364|368:334,1,198.000006042481,0|0,0:0|0:0,0:0:0:0:
314,150,55290,2,0,L|292:257,1,99.0000030212403,8|0,0:0|0:0,0:0:0:0:
434,335,55605,5,0,0:0:0:0:
268,257,55763,1,0,1:0:0:0:
465,197,55921,1,8,0:0:0:0:
261,276,56079,2,0,P|159:251|127:154,1,198.000006042481,0|0,0:0|0:0,0:0:0:0:
151,76,56553,2,0,L|123:179,1,99.0000030212403,8|0,0:0|0:0,0:0:0:0:
34,274,56868,5,0,1:0:0:0:
231,172,57026,1,0,1:0:0:0:
23,140,57184,1,8,0:0:0:0:
237,254,57342,2,0,P|307:198|267:98,1,198.000006042481,0|0,0:0|0:0,0:0:0:0:
162,286,57816,2,0,P|208:333|267:329,1,99.0000030212403,8|0,0:0|0:0,0:0:0:0:
400,253,58132,5,0,0:0:0:0:
327,363,58290,1,0,1:0:0:0:
237,254,58447,2,0,P|210:209|251:166,1,99.0000030212403,8|0,0:0|0:0,0:0:0:0:
443,163,58763,1,0,0:0:0:0:
400,253,58921,1,0,1:0:0:0:
352,170,59079,2,0,L|379:65,1,99.0000030212403,8|0,0:0|0:0,0:0:0:0:
487,241,59395,5,4,1:0:0:0:
385,360,59553,1,0,1:0:0:0:
334,162,59711,1,8,0:0:0:0:
237,254,59868,2,0,P|162:284|192:197,1,198.000006042481,0|0,0:0|0:0,0:0:0:0:
68,238,60342,2,0,P|79:304|115:340,1,99.0000030212403,8|0,0:0|0:0,0:0:0:0:
272,257,60658,5,0,0:0:0:0:
92,350,60816,1,0,1:0:0:0:
300,353,60974,2,0,P|356:328|365:263,1,99.0000030212403,8|0,0:0|0:0,0:0:0:0:
290,159,61290,2,0,B|267:277,1,99.0000030212403,0|0,0:0|0:0,0:0:0:0:
472,344,61605,2,0,B|453:246,1,99.0000030212403,8|0,0:0|0:0,0:0:0:0:
389,98,61921,5,0,1:0:0:0:
360,274,62079,1,0,1:0:0:0:
290,159,62237,2,0,P|242:144|195:153,1,72,8|0,0:0|0:0,0:0:0:0:
167,239,62553,2,0,P|215:254|262:245,1,72
220,145,62868,2,0,P|172:130|125:139,1,72,8|0,0:0|0:0,0:0:0:0:
40,229,63184,5,0,0:0:0:0:
125,345,63342,1,0,1:0:0:0:
264,318,63500,2,0,L|259:224,1,72,8|0,0:0|0:0,0:0:0:0:
165,93,63816,1,0,0:0:0:0:
161,128,63894,1,0,0:0:0:0:
158,164,63973,1,0,0:0:0:0:
155,200,64052,1,0,0:0:0:0:
152,236,64131,1,0,0:0:0:0:
193,223,64210,1,0,1:0:0:0:
228,197,64289,1,0,1:0:0:0:
252,162,64368,1,0,1:0:0:0:
263,120,64447,6,0,L|304:327,1,198.000006042481,6|0,0:0|0:0,0:0:0:0:
416,182,64921,1,2,0:0:0:0:
309,340,65079,1,8,0:0:0:0:
416,164,65237,1,2,0:0:0:0:
483,348,65395,1,8,0:0:0:0:
341,215,65553,6,0,P|325:153|366:93,1,99.0000030212403,2|0,0:0|0:0,0:0:0:0:
495,217,65868,1,0,0:0:0:0:
337,315,66026,2,0,L|226:307,1,99.0000030212403,8|2,0:0|0:0,0:0:0:0:
67,282,66342,1,8,0:0:0:0:
67,282,66421,1,0,0:0:0:0:
67,282,66500,1,0,0:0:0:0:
248,217,66658,1,10,0:0:0:0:
248,217,66737,1,0,0:0:0:0:
248,217,66816,1,0,0:0:0:0:
48,144,66974,6,0,L|246:103,1,198.000006042481,2|0,0:0|0:0,0:0:0:0:
375,251,67447,1,2,0:0:0:0:
239,83,67605,1,8,0:0:0:0:
217,305,67763,1,2,0:0:0:0:
233,61,67921,1,8,0:0:0:0:
387,267,68079,6,0,L|489:315,1,99.0000030212403,2|0,0:0|0:0,0:0:0:0:
426,147,68395,1,0,0:0:0:0:
307,222,68553,2,0,P|295:278|323:337,1,99.0000030212403,8|2,0:0|0:0,0:0:0:0:
476,348,68868,1,8,0:0:0:0:
476,348,68947,1,0,0:0:0:0:
476,348,69026,1,0,0:0:0:0:
426,147,69184,1,10,0:0:0:0:
426,147,69263,1,0,0:0:0:0:
426,147,69342,1,0,0:0:0:0:
322,334,69500,6,0,P|227:308|201:197,1,198.000006042481,2|0,0:0|0:0,0:0:0:0:
299,64,69974,1,2,0:0:0:0:
293,231,70132,1,8,0:0:0:0:
153,95,70290,1,2,0:0:0:0:
298,246,70447,1,8,0:0:0:0:
302,42,70605,2,0,L|361:126,1,99.0000030212403,2|0,0:0|0:0,0:0:0:0:
307,262,70921,1,0,0:0:0:0:
130,87,71079,6,0,P|84:116|112:191,1,99.0000030212403,10|0,0:0|0:0,0:0:0:0:
92,182,71316,1,0,0:0:0:0:
118,209,71395,2,0,P|164:180|136:105,1,99.0000030212403,10|0,0:0|0:0,0:0:0:0:
151,109,71632,1,0,0:0:0:0:
130,87,71711,2,0,P|84:116|112:191,1,99.0000030212403,10|0,0:0|0:0,0:0:0:0:
236,273,72026,6,0,B|184:308|184:308|37:291,1,198.000006042481,2|0,0:0|0:0,0:0:0:0:
254,165,72500,1,0,0:0:0:0:
335,235,72658,2,0,L|340:347,1,99.0000030212403,2|0,0:0|0:0,0:0:0:0:
240,371,72974,2,0,L|235:259,1,99.0000030212403,2|0,0:0|0:0,0:0:0:0:
272,94,73290,5,4,0:2:0:0:
346,260,73501,5,0,0:0:0:0:
189,169,73711,5,0,0:0:0:0:
369,150,73922,5,0,0:0:0:0:
346,260,74079,1,0,0:0:0:0:
454,231,74237,1,0,0:0:0:0:
369,150,74395,6,0,B|349:118|301:108|301:108|228:162|125:111,1,251.999992309571,6|0,0:0|0:0,0:0:0:0:
41,28,74868,2,0,B|21:96|21:96|35:190,1,125.999996154785,8|0,0:0|0:0,0:0:0:0:
228,326,75184,1,2,0:0:0:0:
117,107,75342,1,0,0:0:0:0:
56,245,75500,1,8,0:0:0:0:
221,178,75658,6,0,P|245:94|205:29,1,125.999996154785,4|0,0:0|0:0,0:0:0:0:
90,236,75974,2,0,P|66:320|106:385,1,125.999996154785,2|8,0:0|0:0,0:0:0:0:
358,323,76290,1,2,0:0:0:0:
198,167,76447,1,0,0:0:0:0:
197,310,76605,1,0,0:0:0:0:
368,164,76763,1,8,0:0:0:0:
121,226,76921,6,0,P|101:157|136:86,1,125.999996154785,6|0,0:0|0:0,0:0:0:0:
255,41,77237,1,0,0:0:0:0:
368,164,77395,2,0,L|376:316,1,125.999996154785,8|0,0:0|0:0,0:0:0:0:
199,336,77711,1,2,0:0:0:0:
344,230,77868,1,0,0:0:0:0:
112,248,78026,1,8,0:0:0:0:
377,324,78184,6,0,P|436:268|426:187,1,125.999996154785,6|0,0:0|0:0,0:0:0:0:
356,62,78500,1,2,0:0:0:0:
218,225,78658,2,0,L|348:230,1,125.999996154785,8|0,0:0|0:0,0:0:0:0:
430,130,78974,1,0,0:0:0:0:
308,197,79132,1,2,0:0:0:0:
217,40,79290,1,8,0:0:0:0:
136,191,79447,6,0,P|132:265|192:314,1,125.999996154785,6|0,0:0|0:0,0:0:0:0:
336,334,79763,1,0,0:0:0:0:
202,136,79921,2,0,P|131:105|67:144,1,125.999996154785,8|0,0:0|0:0,0:0:0:0:
47,358,80237,1,0,0:0:0:0:
218,225,80395,1,0,0:0:0:0:
37,191,80553,1,10,0:0:0:0:
210,337,80711,6,0,L|350:333,1,125.999996154785,2|0,0:0|0:0,0:0:0:0:
470,213,81026,2,0,L|330:209,1,125.999996154785,2|8,0:0|0:0,0:0:0:0:
218,225,81342,1,2,0:0:0:0:
342,364,81500,1,0,0:0:0:0:
384,188,81658,2,0,L|381:43,1,125.999996154785,2|8,0:0|0:0,0:0:0:0:
176,40,81974,5,4,0:0:0:0:
344,112,82132,1,0,0:0:0:0:
176,232,82290,1,0,0:0:0:0:
376,112,82447,1,8,0:0:0:0:
136,40,82605,1,2,0:0:0:0:
408,112,82763,1,0,0:0:0:0:
144,232,82921,1,0,0:0:0:0:
275,13,83079,1,8,0:0:0:0:
357,215,83237,6,0,B|380:285|380:285|367:359,1,135.000005149842,4|0,0:0|0:0,0:0:0:0:
216,382,83553,1,0,0:0:0:0:
69,316,83711,2,0,B|46:246|46:246|56:185,1,135.000005149842,8|6,0:0|0:0,0:0:0:0:
201,20,84026,1,0,0:0:0:0:
256,288,84184,1,0,0:0:0:0:
25,171,84342,1,8,0:0:0:0:
352,192,84500,5,6,0:0:0:0:
256,288,84658,1,0,0:0:0:0:
160,192,84816,1,0,0:0:0:0:
256,96,84974,1,8,0:0:0:0:
384,192,85132,1,2,0:0:0:0:
256,320,85290,1,0,0:0:0:0:
128,192,85447,1,0,0:0:0:0:
256,64,85605,1,8,0:0:0:0:
386,219,85763,6,0,L|388:363,1,135.000005149842,6|0,0:0|0:0,0:0:0:0:
126,165,86079,2,0,L|124:21,1,135.000005149842,0|8,0:0|0:0,0:0:0:0:
383,58,86395,1,2,0:0:0:0:
148,92,86553,1,0,0:0:0:0:
418,216,86711,1,0,0:0:0:0:
150,342,86868,1,8,0:0:0:0:
235,111,87026,5,6,0:0:0:0:
306,317,87184,1,0,0:0:0:0:
128,192,87342,1,0,0:0:0:0:
346,188,87500,1,8,0:0:0:0:
172,320,87658,2,0,B|105:335|105:335|35:318,1,135.000005149842,6|0,0:0|0:0,0:0:0:0:
346,161,87974,2,0,B|413:146|413:146|483:163,1,135.000005149842,0|8,0:0|0:0,0:0:0:0:
257,235,88290,6,0,P|224:163|252:86,1,135.000005149842,6|0,0:0|0:0,0:0:0:0:
477,161,88605,1,0,0:0:0:0:
323,325,88763,2,0,L|171:334,1,135.000005149842,8|0,0:0|0:0,0:0:0:0:
8,166,89079,1,2,0:0:0:0:
226,91,89237,1,0,0:0:0:0:
172,320,89395,1,8,0:0:0:0:
38,173,89553,6,0,L|41:29,1,135.000005149842,6|0,0:0|0:0,0:0:0:0:
208,63,89868,1,0,0:0:0:0:
174,185,90026,2,0,L|171:329,1,135.000005149842,8|0,0:0|0:0,0:0:0:0:
35,361,90342,5,0,0:0:0:0:
283,235,90500,1,0,0:0:0:0:
21,192,90658,1,8,0:0:0:0:
298,327,90816,2,0,P|361:281|370:207,1,135.000005149842,2|0,0:0|0:0,0:0:0:0:
327,56,91132,1,0,0:0:0:0:
194,147,91290,2,0,P|221:206|330:225,1,135.000005149842,8|2,0:0|0:0,0:0:0:0:
440,69,91605,1,0,0:0:0:0:
395,303,91763,1,0,0:0:0:0:
291,146,91921,1,8,0:0:0:0:
495,237,92079,6,0,B|421:160|439:69|439:69|390:83|324:57,1,270.000010299683,6|0,0:0|0:0,0:0:0:0:
111,170,92553,2,0,B|64:214|77:284|77:284|136:265,1,135.000005149842,8|0,0:0|0:0,0:0:0:0:
234,162,92868,1,0,0:0:0:0:
178,251,93026,1,0,0:0:0:0:
282,256,93184,1,8,0:0:0:0:
127,166,93342,1,0,0:0:0:0:
338,176,93500,1,0,0:0:0:0:
230,334,93658,1,0,0:0:0:0:
145,167,93816,2,0,B|125:110|125:110|145:42,1,107.999996704102,8|0,0:0|0:0,0:0:0:0:
301,85,94132,5,0,0:0:0:0:
282,256,94290,1,8,0:0:0:0:
315,272,94368,1,8,0:0:0:0:
353,274,94447,1,0,0:0:0:0:
388,262,94526,1,0,0:0:0:0:
416,236,94605,1,8,0:0:0:0:
431,202,94684,1,8,0:0:0:0:
432,165,94763,6,0,L|466:285,1,90,4|0,1:0|0:0,0:0:0:0:
372,360,95079,1,8,0:0:0:0:
282,256,95237,2,0,P|266:203|353:93,1,180,0|0,0:0|0:0,0:0:0:0:
254,147,95711,2,0,L|156:154,1,90,8|0,0:0|0:0,0:0:0:0:
0,140,96026,1,0,0:0:0:0:
226,125,96184,1,0,1:0:0:0:
117,34,96342,1,8,0:0:0:0:
129,172,96500,2,0,L|148:359,1,180,0|0,0:0|0:0,0:0:0:0:
357,306,96974,6,0,L|363:216,1,90,8|0,0:0|0:0,0:0:0:0:
208,112,97290,1,0,1:0:0:0:
346,211,97447,1,0,1:0:0:0:
198,223,97605,1,8,0:0:0:0:
318,120,97763,2,0,P|384:124|439:230,1,180,0|0,0:0|0:0,0:0:0:0:
326,298,98237,2,0,L|347:201,1,90,8|0,0:0|0:0,0:0:0:0:
433,313,98553,5,0,0:0:0:0:
310,224,98711,1,0,1:0:0:0:
464,219,98868,2,0,B|481:165|481:165|463:103,1,90,8|0,0:0|0:0,0:0:0:0:
299,15,99184,2,0,P|278:78|305:148,1,135,0|0,0:0|0:0,0:0:0:0:
299,140,99500,2,0,L|195:150,1,90,8|0,0:0|0:0,0:0:0:0:
32,145,99816,5,4,1:0:0:0:
193,126,99974,1,0,1:0:0:0:
27,264,100132,1,8,0:0:0:0:
171,129,100290,2,0,L|184:19,1,90,0|0,0:0|0:0,0:0:0:0:
32,55,100605,2,0,L|45:165,1,90,0|8,0:0|0:0,0:0:0:0:
103,234,100921,2,0,P|104:301|6:346,1,180,0|0,0:0|1:0,0:0:0:0:
121,237,101395,2,0,L|231:244,1,90,8|0,0:0|0:0,0:0:0:0:
266,344,101711,2,0,L|376:337,1,90,0|0,0:0|0:0,0:0:0:0:
328,229,102026,6,0,P|317:181|333:130,1,90,8|0,0:0|0:0,0:0:0:0:
473,113,102342,1,0,1:0:0:0:
299,140,102500,1,0,1:0:0:0:
501,143,102658,1,8,0:0:0:0:
301,237,102816,2,0,P|218:198|215:95,1,180,0|0,0:0|0:0,0:0:0:0:
335,57,103290,2,0,L|293:153,1,90,8|0,0:0|0:0,0:0:0:0:
115,172,103605,5,0,0:0:0:0:
209,91,103763,1,0,1:0:0:0:
222,205,103921,2,0,L|227:311,1,90,8|0,0:0|0:0,0:0:0:0:
51,359,104237,1,0,1:0:0:0:
55,269,104395,1,0,1:0:0:0:
209,323,104553,2,0,L|312:333,1,90,8|0,0:0|1:0,0:0:0:0:
446,226,104868,6,0,P|391:231|349:215,1,99.0000030212403,4|0,1:0|1:0,0:0:0:0:
207,119,105184,1,8,0:0:0:0:
375,64,105342,2,0,P|443:124|442:233,1,198.000006042481,0|0,0:0|0:0,0:0:0:0:
312,304,105816,2,0,L|321:197,1,99.0000030212403,8|0,0:0|0:0,0:0:0:0:
369,42,106132,1,0,0:0:0:0:
341,211,106290,1,0,1:0:0:0:
477,52,106447,1,8,0:0:0:0:
349,230,106605,2,0,L|234:234,1,99.0000030212403,0|0,0:0|0:0,0:0:0:0:
75,157,106921,1,0,0:0:0:0:
188,105,107079,2,0,L|303:109,1,99.0000030212403,8|0,0:0|0:0,0:0:0:0:
233,240,107395,5,0,1:0:0:0:
98,157,107553,1,0,1:0:0:0:
96,308,107711,1,8,0:0:0:0:
195,132,107868,2,0,P|114:56|27:84,1,198.000006042481,0|0,0:0|0:0,0:0:0:0:
11,181,108342,2,0,L|125:190,1,99.0000030212403,8|0,0:0|0:0,0:0:0:0:
273,218,108658,5,0,0:0:0:0:
234,352,108816,1,0,1:0:0:0:
96,308,108974,2,0,L|101:200,1,99.0000030212403,8|0,0:0|0:0,0:0:0:0:
286,105,109290,2,0,L|291:213,1,99.0000030212403,0|0,0:0|0:0,0:0:0:0:
195,227,109605,1,8,0:0:0:0:
195,227,109921,6,0,B|167:175|202:118,1,99.0000030212403,4|0,1:0|1:0,0:0:0:0:
405,186,110237,1,8,0:0:0:0:
348,330,110395,2,0,L|236:327,1,99.0000030212403,0|0,0:0|0:0,0:0:0:0:
194,131,110711,2,0,L|306:128,1,99.0000030212403,0|8,0:0|0:0,0:0:0:0:
448,267,111026,1,0,0:0:0:0:
332,360,111184,1,0,0:0:0:0:
288,229,111342,1,0,1:0:0:0:
401,158,111500,2,0,L|403:45,1,99.0000030212403,8|0,0:0|0:0,0:0:0:0:
192,32,111816,2,0,L|194:145,1,99.0000030212403,0|0,0:0|0:0,0:0:0:0:
288,229,112132,6,0,P|271:296|218:321,1,108,8|0,0:0|0:0,0:0:0:0:
210,325,112447,1,0,1:0:0:0:
358,351,112605,1,0,1:0:0:0:
191,233,112763,2,0,L|91:221,1,72,8|0,0:0|0:0,0:0:0:0:
60,337,113079,2,0,P|105:293|99:229,1,108,0|0,0:0|0:0,0:0:0:0:
91,226,113395,2,0,P|66:183|76:134,1,72,8|0,0:0|0:0,0:0:0:0:
185,74,113711,5,0,0:0:0:0:
156,160,113868,1,0,1:0:0:0:
246,144,114026,2,0,P|278:108|272:53,1,72,8|0,0:0|0:0,0:0:0:0:
156,160,114342,1,0,1:0:0:0:
243,300,114500,1,0,1:0:0:0:
342,172,114658,1,8,1:0:0:0:
342,172,114737,1,8,1:0:0:0:
342,172,114816,1,8,1:0:0:0:
342,172,114895,1,8,1:0:0:0:
342,172,114974,6,0,L|364:376,1,198.000006042481,6|0,0:0|0:0,0:0:0:0:
495,198,115447,1,2,0:0:0:0:
335,333,115605,1,8,0:0:0:0:
510,199,115763,1,2,0:0:0:0:
245,147,115921,1,8,0:0:0:0:
361,313,116079,6,0,L|469:312,1,99.0000030212403,2|0,0:0|0:0,0:0:0:0:
431,146,116395,1,0,0:0:0:0:
247,178,116553,2,0,L|140:179,1,99.0000030212403,8|2,0:0|0:0,0:0:0:0:
42,281,116868,1,8,0:0:0:0:
42,281,116947,1,0,0:0:0:0:
42,281,117026,1,0,0:0:0:0:
240,325,117184,1,10,0:0:0:0:
240,325,117263,1,0,0:0:0:0:
240,325,117342,1,0,0:0:0:0:
148,178,117500,6,0,P|133:80|206:10,1,198.000006042481,2|0,0:0|0:0,0:0:0:0:
366,68,117974,1,2,0:0:0:0:
139,30,118132,1,8,0:0:0:0:
252,209,118290,1,2,0:0:0:0:
121,19,118447,1,8,0:0:0:0:
373,90,118605,6,0,P|424:85|472:67,1,99.0000030212403,2|0,0:0|0:0,0:0:0:0:
493,208,118921,1,0,0:0:0:0:
346,226,119079,2,0,P|292:228|247:205,1,99.0000030212403,8|2,0:0|0:0,0:0:0:0:
164,302,119395,1,8,0:0:0:0:
164,302,119474,1,0,0:0:0:0:
164,302,119553,1,0,0:0:0:0:
236,133,119711,1,10,0:0:0:0:
236,133,119790,1,0,0:0:0:0:
236,133,119869,1,0,0:0:0:0:
265,274,120026,6,0,P|363:324|446:279,1,198.000006042481,2|0,0:0|0:0,0:0:0:0:
427,106,120500,1,2,0:0:0:0:
442,311,120658,1,8,0:0:0:0:
292,148,120816,1,2,0:0:0:0:
451,331,120974,1,8,0:0:0:0:
456,203,121132,6,0,L|453:102,1,99.0000030212403,2|0,0:0|0:0,0:0:0:0:
346,57,121447,1,0,0:0:0:0:
232,125,121605,6,0,P|209:174|273:222,1,99.0000030212403,10|0,0:0|0:0,0:0:0:0:
251,225,121842,1,0,0:0:0:0:
288,233,121921,2,0,P|310:183|246:135,1,99.0000030212403,10|0,0:0|0:0,0:0:0:0:
261,132,122158,1,0,0:0:0:0:
232,125,122237,2,0,P|209:174|273:222,1,99.0000030212403,2|8,0:0|0:0,0:0:0:0:
336,311,122553,6,0,B|295:344|295:344|129:342,1,198.000006042481,2|0,0:0|0:0,0:0:0:0:
110,123,123026,1,0,0:0:0:0:
29,193,123184,2,0,L|24:305,1,99.0000030212403,2|0,0:0|0:0,0:0:0:0:
124,329,123500,2,0,L|129:217,1,99.0000030212403,2|0,0:0|0:0,0:0:0:0:
163,48,123816,5,4,0:2:0:0:
39,109,124026,5,0,0:0:0:0:
100,234,124237,5,0,0:0:0:0:
224,173,124447,5,0,0:0:0:0:
163,48,124605,1,0,2:0:0:0:
134,142,124763,1,0,2:0:0:0:
223,197,124921,6,0,B|262:206|296:180|296:180|381:250|481:183,1,251.999992309571,6|0,0:0|0:0,0:0:0:0:
274,5,125395,2,0,P|234:65|249:137,1,125.999996154785,8|0,0:0|0:0,0:0:0:0:
422,298,125711,1,2,0:0:0:0:
380,105,125868,1,0,0:0:0:0:
243,309,126026,1,8,0:0:0:0:
453,293,126184,6,0,B|472:232|472:232|458:158,1,125.999996154785,4|0,0:0|0:0,0:0:0:0:
224,173,126500,2,0,B|205:234|205:234|219:308,1,125.999996154785,2|8,0:0|0:0,0:0:0:0:
468,323,126816,1,2,0:0:0:0:
203,319,126974,1,0,0:0:0:0:
347,92,127132,1,0,0:0:0:0:
379,292,127290,1,8,0:0:0:0:
161,241,127447,6,0,P|129:176|153:111,1,125.999996154785,6|0,0:0|0:0,0:0:0:0:
255,15,127763,1,0,0:0:0:0:
367,130,127921,2,0,L|364:264,1,125.999996154785,8|0,0:0|0:0,0:0:0:0:
170,328,128237,1,2,0:0:0:0:
328,206,128395,1,0,0:0:0:0:
117,140,128553,1,8,0:0:0:0:
185,341,128711,6,0,B|251:353|251:353|319:341,1,125.999996154785,6|0,0:0|0:0,0:0:0:0:
417,214,129026,1,2,0:0:0:0:
240,119,129184,2,0,B|174:107|174:107|106:119,1,125.999996154785,8|0,0:0|0:0,0:0:0:0:
41,248,129500,1,0,0:0:0:0:
137,147,129658,1,2,0:0:0:0:
169,354,129816,1,8,0:0:0:0:
22,234,129974,6,0,B|9:167|9:167|39:78,1,125.999996154785,6|0,0:0|0:0,0:0:0:0:
157,33,130290,1,0,0:0:0:0:
256,135,130447,2,0,B|269:202|269:202|239:291,1,125.999996154785,8|0,0:0|0:0,0:0:0:0:
65,345,130763,1,0,0:0:0:0:
357,269,130921,1,0,0:0:0:0:
138,178,131079,1,10,0:0:0:0:
272,354,131237,6,0,P|353:329|385:278,1,125.999996154785,2|0,0:0|0:0,0:0:0:0:
360,79,131553,2,0,P|279:104|247:155,1,125.999996154785,2|8,0:0|0:0,0:0:0:0:
392,337,131868,1,2,0:0:0:0:
346,180,132026,1,0,0:0:0:0:
192,247,132184,2,0,P|129:265|65:241,1,125.999996154785,2|8,0:0|0:0,0:0:0:0:
43,47,132500,5,4,0:0:0:0:
202,161,132658,1,0,0:0:0:0:
69,41,132816,1,0,0:0:0:0:
185,277,132974,1,8,0:0:0:0:
101,36,133132,1,2,0:0:0:0:
100,349,133290,1,0,0:0:0:0:
136,34,133447,1,0,0:0:0:0:
50,235,133605,1,8,0:0:0:0:
281,111,133763,5,4,0:0:0:0:
56,145,133921,1,0,0:0:0:0:
302,292,134079,1,0,0:0:0:0:
33,240,134237,1,8,0:0:0:0:
316,203,134395,1,6,0:0:0:0:
166,363,134553,1,0,0:0:0:0:
268,53,134711,1,0,0:0:0:0:
361,355,134868,1,8,0:0:0:0:
108,165,135026,5,6,0:0:0:0:
266,375,135184,1,0,0:0:0:0:
418,162,135342,1,0,0:0:0:0:
361,355,135500,1,8,0:0:0:0:
268,53,135658,1,2,0:0:0:0:
166,352,135816,1,0,0:0:0:0:
108,165,135974,1,0,0:0:0:0:
437,162,136132,1,8,0:0:0:0:
95,271,136290,5,6,0:0:0:0:
448,278,136447,1,0,0:0:0:0:
83,61,136605,1,0,0:0:0:0:
453,51,136763,1,8,0:0:0:0:
88,167,136921,1,2,0:0:0:0:
432,272,137079,1,0,0:0:0:0:
68,275,137237,1,2,0:0:0:0:
421,62,137395,1,8,0:0:0:0:
257,361,137553,5,6,0:0:0:0:
264,125,137711,1,0,0:0:0:0:
228,350,137868,5,0,0:0:0:0:
292,112,138026,1,8,0:0:0:0:
200,337,138184,5,6,0:0:0:0:
322,98,138342,1,0,0:0:0:0:
171,326,138500,5,0,0:0:0:0:
353,86,138658,1,8,0:0:0:0:
317,269,138816,2,0,L|189:246,1,125.999996154785,6|0,0:0|0:0,0:0:0:0:
62,140,139132,1,0,0:0:0:0:
254,68,139290,2,0,B|324:60|324:60|403:78,1,125.999996154785,8|0,0:0|0:0,0:0:0:0:
404,340,139605,5,2,0:0:0:0:
314,159,139763,1,0,0:0:0:0:
200,337,139921,1,8,0:0:0:0:
390,219,140079,2,0,P|409:147|380:87,1,125.999996154785,6|0,0:0|0:0,0:0:0:0:
197,105,140395,1,0,0:0:0:0:
312,277,140553,2,0,P|375:314|446:301,1,125.999996154785,8|0,0:0|0:0,0:0:0:0:
489,84,140868,5,0,0:0:0:0:
221,215,141026,1,0,0:0:0:0:
484,239,141184,1,8,0:0:0:0:
229,83,141342,2,0,L|93:92,1,125.999996154785,2|0,0:0|0:0,0:0:0:0:
187,305,141658,2,0,L|323:314,1,125.999996154785,0|8,0:0|0:0,0:0:0:0:
370,116,141974,5,2,0:0:0:0:
316,344,142132,1,0,0:0:0:0:
99,226,142290,1,0,0:0:0:0:
418,233,142447,1,8,0:0:0:0:
160,304,142605,6,0,B|97:332|52:304|52:304|86:222|50:149,1,251.999992309571,6|0,0:0|0:0,0:0:0:0:
37,37,143079,2,0,P|97:68|169:61,1,125.999996154785,8|0,0:0|0:0,0:0:0:0:
347,87,143395,1,0,0:0:0:0:
285,153,143553,1,0,0:0:0:0:
259,70,143711,1,8,0:0:0:0:
372,174,143868,1,0,0:0:0:0:
320,9,144026,1,0,0:0:0:0:
201,135,144184,1,0,0:0:0:0:
429,111,144342,1,8,0:0:0:0:
175,58,144500,1,0,0:0:0:0:
285,153,144658,5,0,0:0:0:0:
271,181,144736,1,0,0:0:0:0:
249,203,144815,1,8,0:0:0:0:
221,216,144894,1,8,0:0:0:0:
190,218,144973,1,0,0:0:0:0:
160,209,145052,1,0,0:0:0:0:
135,190,145131,1,8,0:0:0:0:
118,164,145210,1,8,0:0:0:0:
112,133,145289,5,4,1:0:0:0:
333,68,150342,5,8,0:0:0:0:
316,86,150420,1,0,0:0:0:0:
303,108,150499,1,0,0:0:0:0:
295,132,150578,1,0,0:0:0:0:
291,157,150657,1,0,0:0:0:0:
293,182,150736,1,0,0:0:0:0:
299,206,150815,1,0,0:0:0:0:
310,229,150894,1,0,0:0:0:0:
327,250,150974,5,8,0:0:0:0:
304,271,151052,1,0,0:0:0:0:
276,286,151131,1,0,0:0:0:0:
245,293,151210,1,0,0:0:0:0:
214,291,151289,1,0,0:0:0:0:
184,280,151368,1,0,0:0:0:0:
159,262,151447,1,0,0:0:0:0:
139,238,151526,1,0,0:0:0:0:
126,209,151605,5,8,0:0:0:0:
82,214,151683,1,0,0:0:0:0:
49,242,151762,1,0,0:0:0:0:
35,283,151841,1,0,0:0:0:0:
44,326,151920,1,0,0:0:0:0:
75,357,151999,1,0,0:0:0:0:
117,367,152078,1,0,0:0:0:0:
158,354,152157,1,0,0:0:0:0:
187,321,152237,5,8,0:0:0:0:
218,326,152315,1,0,0:0:0:0:
249,330,152394,1,0,0:0:0:0:
280,335,152473,1,0,0:0:0:0:
311,339,152552,1,0,0:0:0:0:
343,344,152631,1,0,0:0:0:0:
374,349,152710,1,0,0:0:0:0:
405,353,152789,1,0,0:0:0:0:
436,358,152868,5,8,0:0:0:0:
386,359,152946,1,0,0:0:0:0:
342,336,153025,1,0,0:0:0:0:
315,294,153104,1,0,0:0:0:0:
311,245,153183,1,8,0:0:0:0:
332,199,153262,1,0,0:0:0:0:
372,170,153341,1,0,0:0:0:0:
421,164,153420,1,0,0:0:0:0:
468,182,153500,5,8,0:0:0:0:
436,221,153578,1,0,0:0:0:0:
391,243,153657,1,0,0:0:0:0:
341,242,153736,1,0,0:0:0:0:
296,220,153815,1,8,0:0:0:0:
265,181,153894,1,0,0:0:0:0:
255,132,153973,1,0,0:0:0:0:
266,83,154052,1,0,0:0:0:0:
298,45,154131,1,8,0:0:0:0:
343,23,154210,1,8,0:0:0:0:
393,24,154289,1,8,0:0:0:0:
438,46,154368,1,8,0:0:0:0:
478,104,154447,5,0,0:0:0:0:
415,111,154525,1,0,0:0:0:0:
352,118,154604,1,0,0:0:0:0:
290,125,154683,1,0,0:0:0:0:
232,101,154763,2,0,P|189:111|235:134,1,112.5,8|0,0:0|2:0,0:0:0:0:
290,125,155237,6,0,B|319:164|319:164|323:289,1,144,6|0,0:0|0:0,0:0:0:0:
104,355,155553,2,0,B|75:316|75:316|71:191,1,144,0|8,0:0|0:0,0:0:0:0:
131,53,155868,1,2,0:0:0:0:
325,283,156026,1,0,0:0:0:0:
49,201,156184,1,0,0:0:0:0:
341,48,156342,1,8,0:0:0:0:
357,265,156500,6,0,L|204:263,1,144,2|0,0:0|0:0,0:0:0:0:
32,171,156816,1,0,0:0:0:0:
287,309,156974,1,8,0:0:0:0:
255,35,157132,1,2,0:0:0:0:
86,341,157290,1,0,0:0:0:0:
44,37,157447,1,0,0:0:0:0:
115,360,157605,1,8,0:0:0:0:
264,65,157763,6,0,L|448:64,1,144,6|0,0:0|0:0,0:0:0:0:
289,343,158079,2,0,L|105:342,1,144,0|8,0:0|0:0,0:0:0:0:
237,70,158395,1,6,0:0:0:0:
173,322,158553,1,0,0:0:0:0:
75,51,158711,1,0,0:0:0:0:
142,324,158868,1,8,0:0:0:0:
246,47,159026,6,0,B|320:31|320:31|443:60,1,144,6|0,0:0|0:0,0:0:0:0:
497,178,159342,1,0,0:0:0:0:
429,342,159500,2,0,B|355:358|355:358|232:329,1,144,8|0,0:0|0:0,0:0:0:0:
178,212,159816,1,0,0:0:0:0:
356,329,159974,1,0,0:0:0:0:
425,65,160132,1,8,0:0:0:0:
458,332,160290,6,0,L|456:155,1,144,6|0,0:0|0:0,0:0:0:0:
259,37,160605,1,0,0:0:0:0:
308,240,160763,2,0,P|395:239|452:182,1,144,8|0,0:0|0:0,0:0:0:0:
163,45,161079,1,2,0:0:0:0:
350,154,161237,1,0,0:0:0:0:
195,330,161395,1,8,0:0:0:0:
291,60,161553,6,0,P|378:43|448:89,1,144,6|0,0:0|0:0,0:0:0:0:
203,301,161868,2,0,P|116:318|46:272,1,144,2|8,0:0|0:0,0:0:0:0:
182,44,162184,1,2,0:0:0:0:
312,351,162342,1,0,0:0:0:0:
108,229,162500,1,2,0:0:0:0:
378,155,162658,1,8,0:0:0:0:
286,367,162816,5,6,0:0:0:0:
288,47,162974,1,0,0:0:0:0:
257,357,163132,1,0,0:0:0:0:
379,61,163290,1,8,0:0:0:0:
226,347,163447,1,2,0:0:0:0:
455,107,163605,1,0,0:0:0:0:
193,335,163763,1,0,0:0:0:0:
506,182,163921,1,8,0:0:0:0:
226,367,164079,5,6,0:0:0:0:
224,47,164237,1,0,0:0:0:0:
255,357,164395,1,0,0:0:0:0:
133,61,164553,1,8,0:0:0:0:
286,347,164710,1,0,0:0:0:0:
57,107,164868,1,8,0:0:0:0:
319,335,165026,1,0,0:0:0:0:
6,182,165184,1,8,0:0:0:0:
255,357,165342,5,6,0:0:0:0:
348,34,165500,1,0,0:0:0:0:
348,356,165658,1,0,0:0:0:0:
159,34,165816,1,8,0:0:0:0:
255,357,165974,1,2,0:0:0:0:
254,25,166132,1,0,0:0:0:0:
163,354,166290,1,0,0:0:0:0:
348,34,166447,1,8,0:0:0:0:
255,357,166605,5,6,0:0:0:0:
159,34,166763,1,0,0:0:0:0:
439,355,166921,1,0,0:0:0:0:
348,34,167079,1,8,0:0:0:0:
255,357,167237,1,2,0:0:0:0:
159,34,167395,1,0,0:0:0:0:
77,356,167553,1,0,0:0:0:0:
432,33,167711,1,8,0:0:0:0:
255,357,167868,5,6,0:0:0:0:
76,36,168026,1,0,0:0:0:0:
498,192,168184,1,0,0:0:0:0:
15,189,168342,1,8,0:0:0:0:
505,278,168500,5,6,0:0:0:0:
12,105,168658,1,0,0:0:0:0:
501,108,168816,1,0,0:0:0:0:
8,275,168974,1,8,0:0:0:0:
470,193,169132,6,0,P|502:113|395:172,1,288,6|0,0:0|0:0,0:0:0:0:
369,302,169605,2,0,B|391:138,1,144,8|0,0:0|0:0,0:0:0:0:
266,36,169921,1,0,0:0:0:0:
470,193,170079,1,0,0:0:0:0:
180,211,170237,1,8,0:0:0:0:
342,320,170395,6,0,L|500:339,1,144,6|0,0:0|0:0,0:0:0:0:
256,48,170711,1,0,0:0:0:0:
180,237,170868,2,0,L|37:262,1,144,8|0,0:0|0:0,0:0:0:0:
98,63,171184,1,0,0:0:0:0:
245,328,171342,1,0,0:0:0:0:
23,246,171500,1,8,0:0:0:0:
244,152,171658,6,0,L|399:159,1,144,2|0,0:0|0:0,0:0:0:0:
195,225,171974,2,0,P|156:162|185:84,1,144,0|8,0:0|0:0,0:0:0:0:
408,160,172290,2,0,P|447:223|418:301,1,144,2|0,0:0|0:0,0:0:0:0:
216,345,172605,1,0,0:0:0:0:
348,238,172763,1,8,0:0:0:0:
186,69,172921,6,0,L|9:69,1,144,6|0,0:0|0:0,0:0:0:0:
23,246,173237,2,0,L|200:246,1,144,0|8,0:0|0:0,0:0:0:0:
311,69,173553,2,0,L|147:68,1,125.999996154785
167,246,173869,2,0,L|319:246,1,125.999996154785,0|8,0:0|0:0,0:0:0:0:
419,69,174184,2,0,L|270:69,1,107.999996704102
293,246,174500,2,0,L|429:246,1,107.999996704102,0|8,0:0|0:0,0:0:0:0:
390,35,174816,5,0,0:0:0:0:
216,160,174974,1,0,0:0:0:0:
484,243,175132,1,8,0:0:0:0:
374,145,175290,1,0,0:0:0:0:
340,171,175368,1,0,0:0:0:0:
319,209,175447,1,8,0:0:0:0:
313,251,175526,1,8,0:0:0:0:
323,293,175605,5,4,0:0:0:0:
126,267,175763,1,0,0:0:0:0:
226,361,175921,1,0,0:0:0:0:
230,176,176079,1,0,0:0:0:0:
29,364,176237,1,0,0:0:0:0:
24,177,176395,1,0,0:0:0:0:
126,267,176553,5,8,0:0:0:0:
234,10,176711,1,0,0:0:0:0:
127,86,176868,1,0,0:0:0:0:
13,15,177026,1,0,0:0:0:0:
230,176,177184,1,8,0:0:0:0:
24,177,177342,1,0,0:0:0:0:
226,361,177500,1,8,0:0:0:0:
29,364,177658,1,0,0:0:0:0:
126,267,177816,1,8,0:0:0:0:
127,86,177974,1,0,0:0:0:0:
423,260,178132,5,12,0:0:0:0:
467,169,178290,1,0,0:0:0:0:
431,75,178447,1,0,0:0:0:0:
333,260,178605,5,12,0:0:0:0:
289,169,178763,1,0,0:0:0:0:
325,75,178920,1,0,0:0:0:0:
381,345,179079,5,4,0:0:0:0:
256,192,179158,12,0,189500,0:0:0:0:
