osu file format v14

[General]
AudioFilename: audio.mp3
AudioLeadIn: 0
PreviewTime: 74128
Countdown: 1
SampleSet: Normal
StackLeniency: 0.7
Mode: 0
LetterboxInBreaks: 0
WidescreenStoryboard: 0

[Editor]
Bookmarks: 115023,145338,150391,154812,164128,179128,189549
DistanceSpacing: 1.4
BeatDivisor: 4
GridSize: 4
TimelineZoom: 2.799999

[Metadata]
Title:FIRST
TitleUnicode:FIRST
Artist:cillia
ArtistUnicode:シリア
Creator:-Brites-
Version:Fantasy
Source:
Tags:
BeatmapID:1303864
BeatmapSetID:618562

[Difficulty]
HPDrainRate:6.5
CircleSize:4.3
OverallDifficulty:8.8
ApproachRate:9.4
SliderMultiplier:1.8
SliderTickRate:1

[Events]
//Background and Video events
0,0,"First.jpg",0,0
//Break Periods
2,145538,149851
//Storyboard Layer 0 (Background)
//Storyboard Layer 1 (Fail)
//Storyboard Layer 2 (Pass)
//Storyboard Layer 3 (Foreground)
//Storyboard Sound Samples

[TimingPoints]
19022,-121.951219512195,4,1,1,100,0,0
19023,315.789473684211,4,1,1,100,1,0
44286,-111.111111111111,4,1,1,100,0,0
64496,-100,4,1,1,100,0,0
74444,-100,4,1,1,100,0,1
94812,-100,4,1,1,100,0,0
124496,-166.666666666667,4,1,1,100,0,0
124970,-100,4,1,1,100,0,1
145338,-100,4,1,1,100,0,0
155286,-100,4,1,1,100,0,1
179128,-333.333333333333,4,1,1,30,0,0
179207,-333.333333333333,4,1,1,15,0,0
179286,-333.333333333333,4,1,1,5,0,0

[HitObjects]
432,69,19023,6,0,L|429:176,1,90,6|0,0:0|0:0,0:0:0:0:
433,46,19338,1,2,0:0:0:0:
356,225,19496,2,0,B|358:149|358:149|304:41,1,180,2|2,0:0|0:0,0:0:0:0:
299,37,19970,1,0,0:0:0:0:
357,251,20128,6,0,B|405:239|454:267|454:267|431:318|385:337,1,180,2|2,0:0|0:0,0:0:0:0:
404,327,20601,1,0,0:0:0:0:
262,286,20759,2,0,P|262:235|277:183,1,90,2|0,0:0|0:0,0:0:0:0:
357,251,21075,1,2,0:0:0:0:
262,304,21233,2,0,L|169:299,1,90
46,159,21549,6,0,L|140:150,1,90,2|2,0:0|0:0,0:0:0:0:
25,160,21865,1,2,0:0:0:0:
193,49,22023,2,0,P|244:89|269:202,1,180,2|2,0:0|0:0,0:0:0:0:
135,150,22496,1,0,0:0:0:0:
331,104,22654,6,0,B|403:94|403:94|441:109|441:109|519:100,1,180,2|2,0:0|0:0,0:0:0:0:
383,13,23128,1,0,0:0:0:0:
358,229,23286,2,0,L|353:326,1,90,2|0,0:0|0:0,0:0:0:0:
463,272,23601,1,0,0:0:0:0:
270,197,23759,2,0,L|278:299,1,90
81,342,24075,5,4,0:0:0:0:
94,209,24233,1,2,0:0:0:0:
190,339,24391,1,2,0:0:0:0:
182,183,24549,2,0,B|166:136|106:126|106:126|51:114|45:67,1,180,2|2,0:0|0:0,0:0:0:0:
94,209,25023,1,0,0:0:0:0:
129,57,25180,6,0,B|195:75|223:108|223:108|244:69|306:63,1,180,2|2,0:0|0:0,0:0:0:0:
413,201,25654,2,0,P|366:203|312:192,1,90,0|2,0:0|0:0,0:0:0:0:
426,86,25970,1,0,0:0:0:0:
471,321,26128,1,2,0:0:0:0:
471,321,26286,2,0,L|364:326,1,90,0|2,0:0|0:0,0:0:0:0:
233,191,26601,6,0,L|340:196,1,90,2|2,0:0|0:0,0:0:0:0:
174,350,26917,1,2,0:0:0:0:
174,350,27075,2,0,P|136:284|157:180,1,180,2|2,0:0|0:0,0:0:0:0:
244,258,27549,1,0,0:0:0:0:
88,313,27707,6,0,P|98:248|12:292,1,180,2|2,0:0|0:0,0:0:0:0:
76,337,28180,1,2,0:0:0:0:
244,258,28338,2,0,B|232:185|232:185|241:145|241:145|226:58,1,180,2|0,0:0|0:0,0:0:0:0:
372,165,28812,2,0,P|379:116|397:76,1,90
338,285,29128,6,0,P|328:243|301:194,1,90,0|2,0:0|0:0,0:0:0:0:
178,294,29444,1,2,0:0:0:0:
311,368,29601,2,0,L|414:348,1,90,2|0,0:0|0:0,0:0:0:0:
178,294,29917,2,0,L|82:282,1,90,2|0,0:0|0:0,0:0:0:0:
255,136,30233,6,0,B|312:99|368:124|368:124|344:155|315:139,1,180,2|2,0:0|0:0,0:0:0:0:
163,112,30707,2,0,P|193:84|243:57,1,90,0|2,0:0|0:0,0:0:0:0:
289,263,31023,1,0,0:0:0:0:
289,263,31180,2,0,P|248:260|194:242,1,90,2|2,0:0|0:0,0:0:0:0:
292,131,31496,5,2,0:0:0:0:
318,338,31654,1,2,0:0:0:0:
193,142,31812,1,2,0:0:0:0:
148,332,31970,1,2,0:0:0:0:
289,263,32128,2,0,P|205:251|103:179,1,180,2|2,0:0|0:0,0:0:0:0:
148,332,32601,1,0,0:0:0:0:
254,182,32759,6,0,P|334:198|382:244,1,135,2|0,0:0|0:0,0:0:0:0:
382,251,33075,2,0,L|376:350,1,90,2|0,0:0|0:0,0:0:0:0:
461,155,33391,2,0,B|455:290|455:290|488:324,1,180,2|0,0:0|0:0,0:0:0:0:
509,90,33865,2,0,P|446:84|383:127,1,135
378,140,34180,6,0,P|339:158|261:161,1,90,2|2,0:0|0:0,0:0:0:0:
143,55,34496,1,0,0:0:0:0:
143,55,34654,2,0,P|228:44|313:95,1,180,2|2,0:0|0:0,0:0:0:0:
92,221,35128,1,0,0:0:0:0:
92,221,35286,6,0,L|98:127,1,90,2|0,0:0|0:0,0:0:0:0:
175,301,35601,2,0,L|84:327,1,90,2|0,0:0|0:0,0:0:0:0:
188,200,35917,2,0,B|264:204|264:204|305:184|305:184|383:190,1,180,2|2,0:0|0:0,0:0:0:0:
175,301,36391,1,0,0:0:0:0:
241,120,36549,1,2,0:0:0:0:
393,290,36707,6,0,P|441:223|431:113,1,180,2|2,0:0|0:0,0:0:0:0:
243,45,37180,2,0,B|190:46|167:96|167:96|142:147|77:151,1,180,2|2,0:0|0:0,0:0:0:0:
86,42,37654,1,0,0:0:0:0:
245,119,37812,6,0,B|239:186|239:186|260:228|260:228|257:310,1,180,2|2,0:0|0:0,0:0:0:0:
349,158,38286,1,0,0:0:0:0:
175,245,38444,2,0,L|75:240,1,90,2|0,0:0|0:0,0:0:0:0:
261,320,38759,2,0,L|361:315,1,90,2|2,0:0|0:0,0:0:0:0:
238,323,39075,1,0,0:0:0:0:
441,337,39233,6,0,P|423:273|346:217,1,135,4|0,0:0|0:0,0:0:0:0:
356,222,39549,1,2,0:0:0:0:
308,371,39707,1,2,0:0:0:0:
498,249,39865,2,0,P|456:192|345:140,1,180,2|2,0:0|0:0,0:0:0:0:
350,315,40338,1,0,0:0:0:0:
456,156,40496,6,0,L|446:62,1,90,2|0,0:0|0:0,0:0:0:0:
360,142,40812,2,0,L|370:48,1,90,2|0,0:0|0:0,0:0:0:0:
277,161,41128,6,0,L|252:69,1,90,2|0,0:0|0:0,0:0:0:0:
179,162,41444,2,0,L|174:67,1,90,2|0,0:0|0:0,0:0:0:0:
89,145,41759,6,0,B|86:211|86:211|110:254|110:254|105:353,1,180,4|2,0:0|0:0,0:0:0:0:
0,232,42233,1,2,0:0:0:0:
179,162,42391,1,2,0:0:0:0:
19,340,42549,1,0,0:0:0:0:
212,303,42707,2,0,P|258:303|313:317,1,90,2|0,0:0|0:0,0:0:0:0:
425,196,43023,5,8,0:0:0:0:
393,227,43101,1,0,0:0:0:0:
350,235,43180,1,0,0:0:0:0:
309,217,43259,1,0,0:0:0:0:
286,180,43338,1,8,0:0:0:0:
288,135,43417,1,0,0:0:0:0:
315,100,43496,1,0,0:0:0:0:
357,86,43575,5,0,0:0:0:0:
363,135,43654,1,8,0:0:0:0:
347,182,43733,1,0,0:0:0:0:
309,217,43812,1,0,0:0:0:0:
260,225,43891,1,0,0:0:0:0:
213,242,43970,1,8,0:0:0:0:
182,280,44049,1,0,0:0:0:0:
177,329,44128,1,0,0:0:0:0:
193,365,44207,1,0,0:0:0:0:
240,380,44286,6,0,L|349:369,1,80.9999975280763,4|2,0:0|0:0,0:0:0:0:
467,247,44601,1,8,0:0:0:0:
280,185,44759,2,0,P|272:227|273:290,1,80.9999975280763,0|2,0:0|0:0,0:0:0:0:
391,236,45075,1,0,0:0:0:0:
227,131,45233,2,0,P|206:168|187:228,1,80.9999975280763,8|0,0:0|0:0,0:0:0:0:
351,170,45549,5,2,0:0:0:0:
131,139,45707,1,2,0:0:0:0:
297,315,45865,1,8,0:0:0:0:
99,323,46023,2,0,P|91:278|66:231,1,80.9999975280763,0|2,0:0|0:0,0:0:0:0:
0,319,46338,1,0,0:0:0:0:
165,250,46496,2,0,P|148:213|108:172,1,80.9999975280763,8|0,0:0|0:0,0:0:0:0:
99,323,46812,5,2,0:0:0:0:
317,292,46970,1,2,0:0:0:0:
201,169,47128,2,0,L|87:188,1,80.9999975280763,8|0,0:0|0:0,0:0:0:0:
197,344,47444,1,0,0:0:0:0:
250,95,47601,1,0,0:0:0:0:
432,260,47759,6,0,B|404:233|347:236|347:236|388:257|391:304,1,161.999995056153,8|0,0:0|0:0,0:0:0:0:
410,140,48233,1,2,0:0:0:0:
477,343,48391,1,8,0:0:0:0:
302,304,48549,2,0,L|193:312,1,80.9999975280763
267,192,48865,1,0,0:0:0:0:
83,181,49023,2,0,L|192:186,1,80.9999975280763,8|0,0:0|0:0,0:0:0:0:
66,323,49338,5,6,0:0:0:0:
20,93,49496,1,2,0:0:0:0:
251,113,49654,2,0,P|265:157|265:200,1,80.9999975280763,8|0,0:0|0:0,0:0:0:0:
397,313,49970,2,0,P|393:266|402:225,1,80.9999975280763
506,284,50286,1,8,0:0:0:0:
289,309,50444,1,0,0:0:0:0:
492,179,50601,5,0,0:0:0:0:
243,218,50759,1,2,0:0:0:0:
243,218,50917,2,8,L|137:230,1,80.9999975280763,8|0,0:0|0:0,0:0:0:0:
132,62,51233,2,0,L|229:70,1,80.9999975280763
84,250,51549,2,0,P|95:208|94:166,1,80.9999975280763,12|0,0:0|0:0,0:0:0:0:
0,214,51865,5,2,0:0:0:0:
210,316,52023,1,2,0:0:0:0:
24,342,52180,1,8,0:0:0:0:
162,227,52338,1,0,0:0:0:0:
162,227,52496,2,0,B|224:219|224:219|260:236|260:236|337:225,1,161.999995056153,0|8,0:0|0:0,0:0:0:0:
199,134,52970,1,0,0:0:0:0:
183,333,53128,5,0,0:0:0:0:
304,146,53286,1,2,0:0:0:0:
340,333,53444,2,0,B|421:326|421:326|428:268,1,121.499996292114,8|0,0:0|0:0,0:0:0:0:
429,268,53759,1,2,0:0:0:0:
341,52,53917,1,2,0:0:0:0:
184,205,54075,1,8,0:0:0:0:
208,207,54154,1,0,0:0:0:0:
232,208,54233,1,0,0:0:0:0:
256,209,54312,1,0,0:0:0:0:
280,211,54391,5,6,0:0:0:0:
183,333,54549,1,2,0:0:0:0:
75,164,54707,2,0,P|78:113|85:73,1,80.9999975280763,8|0,0:0|0:0,0:0:0:0:
287,130,55023,2,0,P|284:181|277:221,1,80.9999975280763
198,69,55338,2,0,P|248:43|336:41,1,121.499996292114,8|0,0:0|0:0,0:0:0:0:
335,45,55654,5,0,0:0:0:0:
458,218,55812,1,2,0:0:0:0:
279,210,55970,2,0,L|376:193,1,80.9999975280763,8|0,0:0|0:0,0:0:0:0:
370,358,56286,2,0,L|281:347,1,80.9999975280763
155,206,56601,2,0,P|189:253|182:333,1,121.499996292114,8|0,0:0|0:0,0:0:0:0:
176,337,56917,5,2,0:0:0:0:
41,244,57075,2,8,L|51:151,1,80.9999975280763,2|8,0:0|0:0,0:0:0:0:
206,63,57391,2,0,L|214:181,1,80.9999975280763
258,202,57628,1,0,0:0:0:0:
269,207,57707,1,0,0:0:0:0:
456,144,57865,2,0,P|397:144|347:188,1,121.499996292114,8|0,0:0|0:0,0:0:0:0:
423,214,58180,5,0,0:0:0:0:
361,74,58338,1,2,0:0:0:0:
283,289,58496,2,0,B|219:284|219:284|190:303|190:303|112:299,1,161.999995056153,8|0,0:0|0:0,0:0:0:0:
254,374,58970,1,2,0:0:0:0:
245,187,59128,2,0,P|207:200|166:205,1,80.9999975280763,8|0,0:0|0:0,0:0:0:0:
183,90,59444,5,6,0:0:0:0:
221,286,59601,1,2,0:0:0:0:
401,210,59759,2,0,P|397:183|388:160,1,40.4999987640381,8|0,0:0|0:0,0:0:0:0:
441,221,59917,2,0,L|413:114,1,80.9999975280763
264,66,60233,1,0,0:0:0:0:
221,286,60391,2,0,P|264:280|335:256,1,80.9999975280763,8|0,0:0|0:0,0:0:0:0:
245,187,60707,5,0,0:0:0:0:
106,265,60865,1,2,0:0:0:0:
374,307,61023,1,8,0:0:0:0:
196,357,61180,1,0,0:0:0:0:
170,159,61338,2,0,P|219:119|274:112,1,80.9999975280763,2|0,0:0|0:0,0:0:0:0:
391,202,61654,1,8,0:0:0:0:
389,226,61733,1,0,0:0:0:0:
387,250,61812,1,0,0:0:0:0:
248,190,61970,5,2,0:0:0:0:
486,153,62128,1,2,0:0:0:0:
324,341,62286,2,0,B|288:326|242:345|242:345|200:363|144:346,1,161.999995056153,8|0,0:0|0:0,0:0:0:0:
55,234,62759,1,0,0:0:0:0:
282,235,62917,2,0,P|239:224|181:219,1,80.9999975280763,8|0,0:0|0:0,0:0:0:0:
304,242,63233,5,0,0:0:0:0:
165,351,63391,1,2,0:0:0:0:
109,168,63549,2,0,P|112:92|157:54,1,121.499996292114,8|0,0:0|0:0,0:0:0:0:
179,130,63865,1,8,0:0:0:0:
179,130,64023,5,0,0:0:0:0:
211,106,64101,1,0,0:0:0:0:
251,100,64180,1,2,0:0:0:0:
289,113,64259,1,0,0:0:0:0:
319,139,64338,1,0,0:0:0:0:
357,151,64417,1,0,0:0:0:0:
400,141,64496,6,0,B|385:208|385:208|407:290,1,135,6|2,0:0|0:0,0:0:0:0:
342,324,64812,2,0,L|314:220,1,90
209,308,65128,1,8,0:0:0:0:
428,338,65286,1,2,0:0:0:0:
219,204,65444,1,8,0:0:0:0:
219,204,65601,6,0,L|99:222,1,90
209,308,65917,1,2,0:0:0:0:
229,111,66075,1,8,0:0:0:0:
229,111,66233,2,0,L|217:56,2,45,2|2|2,0:0|0:0|0:0,0:0:0:0:
368,111,66549,2,0,L|376:66,1,45,2|0,0:0|0:0,0:0:0:0:
448,37,66707,2,0,B|454:90|454:90|445:117|445:117|453:192,1,135,8|0,0:0|0:0,0:0:0:0:
336,316,67023,6,0,P|300:270|224:274,1,135,12|2,0:0|0:0,0:0:0:0:
212,284,67338,2,0,L|108:276,1,90,0|2,0:0|0:0,0:0:0:0:
200,380,67654,1,8,0:0:0:0:
168,184,67812,1,0,0:0:0:0:
84,356,67970,1,8,0:0:0:0:
76,220,68128,6,0,P|64:160|68:100,1,90,2|4,0:0|0:0,0:0:0:0:
168,184,68444,1,2,0:0:0:0:
12,288,68601,1,8,0:0:0:0:
63,131,68759,2,0,L|50:83,2,45,2|2|2,0:0|0:0|0:0,0:0:0:0:
168,152,69075,2,0,L|200:108,1,45,2|0,0:0|0:0,0:0:0:0:
272,68,69233,2,0,B|222:107|222:107|196:208,1,135,8|0,0:0|0:0,0:0:0:0:
200,212,69549,6,0,P|252:192|348:216,1,135,12|2,0:0|0:0,0:0:0:0:
348,220,69865,1,0,0:0:0:0:
256,316,70023,1,2,0:0:0:0:
336,108,70180,1,8,0:0:0:0:
424,308,70338,1,2,0:0:0:0:
460,120,70496,1,8,0:0:0:0:
460,120,70575,1,0,0:0:0:0:
420,96,70654,1,2,0:0:0:0:
376,92,70733,1,0,0:0:0:0:
336,108,70812,6,0,L|220:112,1,90,0|2,0:0|0:0,0:0:0:0:
276,236,71128,1,8,0:0:0:0:
276,236,71286,2,0,P|300:236|336:244,2,45,2|2|8,0:0|0:0|0:0,0:0:0:0:
92,248,71601,2,0,P|112:256|140:256,1,45,2|2,0:0|0:0,0:0:0:0:
184,312,71759,2,0,B|168:280|183:246|183:246|200:216|184:177,1,135,8|0,0:0|0:0,0:0:0:0:
236,116,72075,6,0,P|260:160|268:208,1,90,6|0,0:0|0:0,0:0:0:0:
252,276,72312,2,0,P|284:236|328:288,1,135,0|2,0:0|0:0,0:0:0:0:
320,356,72628,1,0,0:0:0:0:
328,360,72707,2,0,B|424:348|424:348|440:216|304:144,1,315,8|0,0:0|0:0,0:0:0:0:
312,160,73338,6,0,B|244:176|244:176|160:164,1,135,6|2,0:0|0:0,0:0:0:0:
244,96,73654,2,0,L|256:232,1,135
144,236,73970,2,0,B|152:160|152:160|144:128|144:128|152:32,1,180,8|0,0:0|0:0,0:0:0:0:
80,312,74444,6,0,P|124:332|188:332,1,90,6|0,0:0|0:0,0:0:0:0:
324,244,74759,1,2,0:0:0:0:
188,96,74917,2,0,L|180:200,1,90,8|0,0:0|0:0,0:0:0:0:
316,124,75233,1,2,0:0:0:0:
88,84,75391,1,2,0:0:0:0:
240,276,75549,1,8,0:0:0:0:
240,276,75707,6,0,B|284:256|328:284|328:284|380:320|448:292,1,180,2|2,0:0|0:0,0:0:0:0:
312,100,76180,2,0,P|298:138|283:200,1,90,8|0,0:0|0:0,0:0:0:0:
424,136,76496,1,2,0:0:0:0:
232,80,76654,1,2,0:0:0:0:
380,220,76812,1,8,0:0:0:0:
200,200,76970,6,0,L|88:208,1,90,6|0,0:0|0:0,0:0:0:0:
224,200,77286,1,2,0:0:0:0:
104,364,77444,1,8,0:0:0:0:
4,128,77601,2,0,L|104:132,1,90,2|0,0:0|0:0,0:0:0:0:
236,56,77917,1,2,0:0:0:0:
256,276,78075,1,8,0:0:0:0:
256,276,78233,6,0,P|352:256|452:256,1,180,6|2,0:0|0:0,0:0:0:0:
260,156,78707,1,8,0:0:0:0:
368,368,78865,1,0,0:0:0:0:
388,124,79023,1,2,0:0:0:0:
224,348,79180,1,2,0:0:0:0:
468,184,79338,1,8,0:0:0:0:
468,184,79417,1,0,0:0:0:0:
468,184,79496,6,0,P|463:105|423:40,1,135,6|0,0:0|0:0,0:0:0:0:
416,48,79812,1,0,0:0:0:0:
200,224,79970,2,0,L|308:228,1,90,8|0,0:0|0:0,0:0:0:0:
212,344,80286,1,2,0:0:0:0:
240,116,80444,1,2,0:0:0:0:
360,328,80601,1,8,0:0:0:0:
176,224,80759,6,0,P|124:236|64:236,1,90,6|0,0:0|0:0,0:0:0:0:
100,40,81075,2,0,P|153:43|210:61,1,90,2|8,0:0|0:0,0:0:0:0:
128,148,81391,1,0,0:0:0:0:
296,104,81549,1,2,0:0:0:0:
116,136,81707,1,2,0:0:0:0:
304,88,81865,1,8,0:0:0:0:
172,313,82023,6,0,L|176:217,1,90,6|0,0:0|0:0,0:0:0:0:
320,140,82338,1,2,0:0:0:0:
264,352,82496,1,8,0:0:0:0:
212,144,82654,1,0,0:0:0:0:
384,292,82812,1,2,0:0:0:0:
108,260,82970,1,2,0:0:0:0:
388,268,83128,1,8,0:0:0:0:
92,236,83286,6,0,B|96:168|96:168|80:120|80:120|84:52,1,180,6|2,0:0|0:0,0:0:0:0:
8,212,83759,1,8,0:0:0:0:
220,112,83917,2,0,B|273:83|331:125|331:125|288:163|256:113,1,180,6|2,0:0|0:0,0:0:0:0:
132,28,84391,1,8,0:0:0:0:
352,36,84549,6,0,B|399:74|399:74|436:144|372:204,1,180,6|2,0:0|0:0,0:0:0:0:
186,145,85023,2,0,L|282:133,1,90,8|0,0:0|0:0,0:0:0:0:
180,256,85338,1,2,0:0:0:0:
244,48,85496,1,2,0:0:0:0:
354,257,85654,1,8,0:0:0:0:
354,257,85812,6,0,B|307:239|263:259|263:259|215:279|158:245,1,180,6|2,0:0|0:0,0:0:0:0:
332,336,86286,2,0,P|379:330|420:302,1,90,8|0,0:0|0:0,0:0:0:0:
476,144,86601,1,2,0:0:0:0:
268,100,86759,1,2,0:0:0:0:
356,256,86917,1,8,0:0:0:0:
376,88,87075,6,0,B|320:52|320:52|188:68,1,180,6|2,0:0|0:0,0:0:0:0:
268,192,87549,1,8,0:0:0:0:
152,12,87707,1,2,0:0:0:0:
96,240,87865,1,6,0:0:0:0:
296,124,88023,5,2,0:0:0:0:
40,144,88180,1,8,0:0:0:0:
256,312,88338,6,0,P|307:304|373:268,1,90,6|0,0:0|0:0,0:0:0:0:
376,120,88654,1,2,0:0:0:0:
200,164,88812,2,0,L|72:160,1,90,8|0,0:0|0:0,0:0:0:0:
280,240,89128,1,2,0:0:0:0:
180,64,89286,1,2,0:0:0:0:
144,292,89444,1,8,0:0:0:0:
268,100,89601,6,0,P|328:76|376:80,1,90,6|0,0:0|0:0,0:0:0:0:
352,75,89917,1,2,0:0:0:0:
372,288,90075,2,0,P|332:288|282:273,1,90,8|0,0:0|0:0,0:0:0:0:
328,156,90391,1,2,0:0:0:0:
320,384,90549,1,2,0:0:0:0:
184,128,90707,1,8,0:0:0:0:
136,332,90865,6,0,L|28:340,1,90,0|2,0:0|0:0,0:0:0:0:
46,338,91180,1,2,0:0:0:0:
49,124,91338,2,0,L|209:128,1,135,8|0,0:0|0:0,0:0:0:0:
208,128,91654,1,2,0:0:0:0:
60,36,91812,1,2,0:0:0:0:
96,252,91970,1,8,0:0:0:0:
280,152,92128,6,0,P|312:100|424:128,1,180,6|2,0:0|0:0,0:0:0:0:
340,244,92601,2,0,P|271:198|209:202,1,135,8|0,0:0|0:0,0:0:0:0:
204,208,92917,1,2,0:0:0:0:
256,360,93075,1,2,0:0:0:0:
308,104,93233,2,0,B|256:88|256:88|144:112,1,135,8|0,0:0|0:0,0:0:0:0:
156,112,93549,5,2,0:0:0:0:
304,192,93707,1,2,0:0:0:0:
168,20,93865,2,0,P|96:68|72:176,1,180,8|2,0:0|0:0,0:0:0:0:
184,296,94338,1,0,0:0:0:0:
224,312,94417,1,0,0:0:0:0:
268,308,94496,1,2,0:0:0:0:
308,284,94575,1,0,0:0:0:0:
352,272,94654,1,2,0:0:0:0:
396,284,94733,1,0,0:0:0:0:
436,304,94812,5,6,0:0:0:0:
344,384,94970,1,2,0:0:0:0:
260,104,95128,1,8,0:0:0:0:
384,204,95286,1,0,0:0:0:0:
348,200,95365,1,0,0:0:0:0:
312,196,95444,1,0,0:0:0:0:
276,192,95523,1,0,0:0:0:0:
240,188,95601,1,2,0:0:0:0:
356,28,95759,2,0,L|380:124,1,90,8|0,0:0|0:0,0:0:0:0:
240,52,96075,5,0,0:0:0:0:
460,32,96233,1,2,0:0:0:0:
304,288,96391,1,8,0:0:0:0:
456,212,96549,1,0,0:0:0:0:
420,208,96628,1,0,0:0:0:0:
384,204,96707,1,2,0:0:0:0:
348,200,96786,1,0,0:0:0:0:
312,196,96865,1,2,0:0:0:0:
408,360,97023,2,0,P|404:308|388:256,1,90,8|0,0:0|0:0,0:0:0:0:
296,348,97338,5,2,0:0:0:0:
504,296,97496,1,2,0:0:0:0:
312,196,97654,2,0,B|280:172|223:179|223:179|192:224|212:272,1,180,8|2,0:0|0:0,0:0:0:0:
404,316,98128,1,0,0:0:0:0:
356,136,98286,2,0,P|316:116|248:104,1,90,8|0,0:0|0:0,0:0:0:0:
112,196,98601,5,2,0:0:0:0:
280,264,98759,1,2,0:0:0:0:
296,28,98917,2,0,P|248:32|180:68,1,90,8|0,0:0|0:0,0:0:0:0:
103,269,99233,2,0,B|183:261|183:261|210:272|210:272|299:261,1,180,2|8,0:0|0:0,0:0:0:0:
279,263,99865,5,6,0:0:0:0:
144,344,100023,1,2,0:0:0:0:
188,160,100180,1,8,0:0:0:0:
264,356,100338,2,0,L|380:344,1,90,0|2,0:0|0:0,0:0:0:0:
468,232,100654,1,0,0:0:0:0:
288,96,100812,2,0,P|272:136|276:200,1,90,8|0,0:0|0:0,0:0:0:0:
380,156,101128,5,2,0:0:0:0:
176,112,101286,1,2,0:0:0:0:
352,248,101444,1,8,0:0:0:0:
180,264,101601,2,0,P|136:264|84:276,1,90,0|2,0:0|0:0,0:0:0:0:
156,368,101917,1,0,0:0:0:0:
232,192,102075,2,0,P|189:179|136:175,1,90,8|0,0:0|0:0,0:0:0:0:
180,264,102391,5,2,0:0:0:0:
352,144,102549,1,2,0:0:0:0:
196,104,102707,1,8,0:0:0:0:
344,228,102865,2,0,P|388:212|432:180,1,90,0|2,0:0|0:0,0:0:0:0:
288,48,103180,1,0,0:0:0:0:
272,260,103338,1,8,0:0:0:0:
424,104,103496,1,0,0:0:0:0:
328,336,103654,5,2,0:0:0:0:
232,192,103812,1,2,0:0:0:0:
112,292,103970,2,0,P|116:340|136:388,1,90,8|0,0:0|0:0,0:0:0:0:
208,316,104286,1,2,0:0:0:0:
24,328,104444,1,2,0:0:0:0:
208,296,104601,1,8,0:0:0:0:
208,296,104917,5,6,0:0:0:0:
160,148,105075,1,2,0:0:0:0:
288,228,105233,1,8,0:0:0:0:
76,196,105391,2,0,P|72:152|84:84,1,90,0|2,0:0|0:0,0:0:0:0:
316,96,105707,1,0,0:0:0:0:
160,148,105865,1,8,0:0:0:0:
244,32,106023,1,0,0:0:0:0:
288,228,106180,6,0,P|300:276|304:340,1,90,0|2,0:0|0:0,0:0:0:0:
416,116,106496,2,0,P|401:211|409:315,1,180,8|2,0:0|0:0,0:0:0:0:
508,192,106970,1,0,0:0:0:0:
292,224,107128,2,0,L|176:220,1,90,8|0,0:0|0:0,0:0:0:0:
304,316,107444,5,2,0:0:0:0:
248,104,107601,1,2,0:0:0:0:
140,316,107759,1,8,0:0:0:0:
104,124,107917,1,0,0:0:0:0:
140,120,107996,1,0,0:0:0:0:
176,112,108075,1,0,0:0:0:0:
212,108,108154,1,0,0:0:0:0:
248,104,108233,1,2,0:0:0:0:
140,316,108391,2,0,P|127:265|130:204,1,90,8|0,0:0|0:0,0:0:0:0:
232,256,108707,5,0,0:0:0:0:
24,200,108865,1,2,0:0:0:0:
152,60,109023,2,0,L|264:68,1,90,8|0,0:0|0:0,0:0:0:0:
404,232,109338,2,0,B|361:215|312:244|312:244|269:271|200:248,1,180,2|8,0:0|0:0,0:0:0:0:
376,316,109970,5,6,0:0:0:0:
256,164,110128,1,2,0:0:0:0:
244,348,110286,1,8,0:0:0:0:
340,148,110444,2,0,P|308:104|252:68,1,90
141,263,110759,1,2,0:0:0:0:
141,263,110917,2,0,L|241:255,1,90,8|0,0:0|0:0,0:0:0:0:
136,88,111233,5,2,0:0:0:0:
220,348,111391,1,2,0:0:0:0:
232,120,111549,1,8,0:0:0:0:
104,344,111707,1,0,0:0:0:0:
328,248,111865,1,0,0:0:0:0:
324,212,111944,1,0,0:0:0:0:
316,176,112023,1,2,0:0:0:0:
312,140,112101,1,0,0:0:0:0:
308,104,112180,1,8,0:0:0:0:
460,232,112338,1,0,0:0:0:0:
204,192,112496,5,2,0:0:0:0:
432,88,112654,1,2,0:0:0:0:
376,288,112812,2,0,B|304:284|304:284|272:300|272:300|184:296,1,180,8|2,0:0|0:0,0:0:0:0:
340,376,113286,1,0,0:0:0:0:
152,216,113444,2,0,B|144:312|144:312|196:296,1,135,8|0,0:0|0:0,0:0:0:0:
199,296,113759,5,0,0:0:0:0:
32,184,113917,1,2,0:0:0:0:
32,184,114075,2,0,L|48:296,1,90,8|0,0:0|0:0,0:0:0:0:
220,112,114391,2,0,L|96:96,1,90,2|2,0:0|0:0,0:0:0:0:
224,236,114707,1,8,0:0:0:0:
245,231,114786,1,8,0:0:0:0:
266,227,114865,1,8,0:0:0:0:
287,223,114944,1,8,0:0:0:0:
308,216,115023,6,0,L|432:208,1,90,6|0,0:0|0:0,0:0:0:0:
468,240,115259,1,2,0:0:0:0:
464,260,115338,1,0,0:0:0:0:
308,124,115496,1,2,0:0:0:0:
288,336,115654,1,8,0:0:0:0:
460,112,115812,1,2,0:0:0:0:
452,348,115970,1,8,0:0:0:0:
308,124,116128,6,0,L|108:112,1,180,6|2,0:0|0:0,0:0:0:0:
216,256,116601,1,8,0:0:0:0:
268,36,116759,1,2,0:0:0:0:
268,36,116838,1,2,0:0:0:0:
268,36,116917,1,8,0:0:0:0:
96,200,117075,1,2,0:0:0:0:
96,200,117154,1,2,0:0:0:0:
96,200,117233,2,0,B|112:264|112:264|92:360,1,135,8|0,0:0|0:0,0:0:0:0:
40,264,117549,6,0,L|208:256,1,135,6|2,0:0|0:0,0:0:0:0:
240,296,117865,1,0,0:0:0:0:
132,104,118023,1,2,0:0:0:0:
96,352,118180,1,8,0:0:0:0:
280,168,118338,1,2,0:0:0:0:
48,200,118496,1,8,0:0:0:0:
240,296,118654,6,0,L|356:292,1,90,2|0,0:0|0:0,0:0:0:0:
280,168,118970,1,2,0:0:0:0:
232,380,119128,1,8,0:0:0:0:
440,284,119286,1,2,0:0:0:0:
440,284,119365,1,2,0:0:0:0:
440,284,119444,1,8,0:0:0:0:
280,168,119601,1,2,0:0:0:0:
280,168,119680,1,2,0:0:0:0:
280,168,119759,2,0,L|136:180,1,135,8|0,0:0|0:0,0:0:0:0:
176,108,120075,6,0,P|220:164|228:252,1,135,6|2,0:0|0:0,0:0:0:0:
228,252,120391,2,0,L|220:348,1,90,2|8,0:0|0:0,0:0:0:0:
112,288,120707,1,2,0:0:0:0:
348,244,120865,1,2,0:0:0:0:
145,179,121023,1,8,0:0:0:0:
304,152,121180,6,0,B|384:144|384:144|424:160|424:160|496:152,1,180,6|2,0:0|0:0,0:0:0:0:
348,244,121654,1,8,0:0:0:0:
380,40,121812,1,2,0:0:0:0:
484,244,121970,1,8,0:0:0:0:
232,96,122128,1,2,0:0:0:0:
324,324,122286,1,2,0:0:0:0:
396,148,122444,1,8,0:0:0:0:
208,232,122601,6,0,L|56:240,1,135,6|0,0:0|0:0,0:0:0:0:
56,244,122917,1,0,0:0:0:0:
176,120,123075,1,2,0:0:0:0:
168,312,123233,2,0,B|200:292|260:308|260:308|224:328|208:360,1,135,8|0,0:0|0:0,0:0:0:0:
296,372,123549,2,0,P|332:308|288:244,1,135,2|0,0:0|0:0,0:0:0:0:
384,224,123865,6,0,P|364:276|416:352,1,135,6|2,0:0|0:0,0:0:0:0:
440,280,124180,2,0,L|492:272,1,45
476,176,124338,2,0,L|424:172,1,45,2|0,0:0|0:0,0:0:0:0:
372,120,124496,2,0,B|328:96|328:96|264:108,1,107.999996704102
271,106,124970,6,0,B|231:122|179:93|179:93|127:62|79:90,1,180,6|2,0:0|0:0,0:0:0:0:
240,32,125444,1,8,0:0:0:0:
120,172,125601,2,0,P|108:216|112:300,1,90,0|2,0:0|0:0,0:0:0:0:
232,200,125917,1,2,0:0:0:0:
8,164,126075,1,8,0:0:0:0:
144,336,126233,6,0,B|216:324|216:324|256:336|256:336|348:320,1,180,6|2,0:0|0:0,0:0:0:0:
238,110,126707,2,0,L|230:218,1,90,8|0,0:0|0:0,0:0:0:0:
368,80,127023,1,2,0:0:0:0:
140,60,127180,1,2,0:0:0:0:
332,240,127338,1,8,0:0:0:0:
332,240,127496,6,0,P|428:200|464:112,1,180,6|2,0:0|0:0,0:0:0:0:
460,312,127970,1,8,0:0:0:0:
280,148,128128,2,0,L|152:140,1,90,2|0,0:0|0:0,0:0:0:0:
332,240,128444,1,2,0:0:0:0:
252,32,128601,1,8,0:0:0:0:
84,220,128759,6,0,B|60:268|60:268|140:292|196:248,1,180,6|2,0:0|0:0,0:0:0:0:
32,336,129233,2,0,P|96:352|192:340,1,135,8|0,0:0|0:0,0:0:0:0:
184,340,129549,1,2,0:0:0:0:
340,156,129707,1,2,0:0:0:0:
136,160,129865,1,8,0:0:0:0:
452,256,130023,6,0,B|413:226|423:171|423:171|431:107|359:75,1,180,6|2,0:0|0:0,0:0:0:0:
182,257,130496,2,0,P|232:256|296:228,1,90,8|0,0:0|0:0,0:0:0:0:
160,80,130812,1,2,0:0:0:0:
132,340,130970,1,2,0:0:0:0:
344,176,131128,1,8,0:0:0:0:
100,176,131286,6,0,B|56:152|-4:180|-4:180|4:240|68:236,1,180,6|2,0:0|0:0,0:0:0:0:
260,152,131759,2,0,L|248:52,1,90,8|0,0:0|0:0,0:0:0:0:
136,120,132075,1,2,0:0:0:0:
392,168,132233,1,2,0:0:0:0:
176,276,132391,1,8,0:0:0:0:
404,280,132549,6,0,P|468:246|476:116,1,180,6|2,0:0|0:0,0:0:0:0:
260,152,133023,2,0,L|272:280,1,90,8|0,0:0|0:0,0:0:0:0:
384,136,133338,1,2,0:0:0:0:
140,196,133496,1,2,0:0:0:0:
312,332,133654,1,8,0:0:0:0:
252,80,133812,6,0,B|184:64|184:64|64:88,1,180,6|2,0:0|0:0,0:0:0:0:
242,277,134286,1,8,0:0:0:0:
242,277,134444,2,0,P|237:210|133:201,1,180,6|2,0:0|0:0,0:0:0:0:
104,368,134917,1,8,0:0:0:0:
324,304,135075,6,0,P|328:196|276:132,1,180,6|2,0:0|0:0,0:0:0:0:
72,268,135549,2,0,L|176:272,1,90,8|0,0:0|0:0,0:0:0:0:
24,144,135865,1,2,0:0:0:0:
40,348,136023,1,2,0:0:0:0:
204,156,136180,1,8,0:0:0:0:
204,156,136338,6,0,B|276:140|276:140|320:156|320:156|416:140,1,180,6|2,0:0|0:0,0:0:0:0:
240,240,136812,2,0,L|236:348,1,90,8|0,0:0|0:0,0:0:0:0:
364,224,137128,1,2,0:0:0:0:
200,64,137286,1,2,0:0:0:0:
65,229,137444,1,8,0:0:0:0:
65,229,137601,6,0,B|165:257|165:257|249:237,1,180,6|2,0:0|0:0,0:0:0:0:
404,128,138075,1,8,0:0:0:0:
200,64,138233,2,0,P|135:62|139:163,1,180,2|2,0:0|0:0,0:0:0:0:
300,100,138707,1,8,0:0:0:0:
43,54,138865,6,0,P|35:122|72:241,1,180,6|2,0:0|0:0,0:0:0:0:
344,177,139338,2,0,B|327:135|327:135|280:75,1,90,8|0,0:0|0:0,0:0:0:0:
224,280,139654,1,2,0:0:0:0:
436,192,139812,1,2,0:0:0:0:
200,136,139970,1,8,0:0:0:0:
304,336,140128,6,0,B|389:364|389:364|407:251,1,180,6|2,0:0|0:0,0:0:0:0:
200,136,140601,2,0,L|68:144,1,90,8|0,0:0|0:0,0:0:0:0:
248,256,140917,1,2,0:0:0:0:
224,40,141075,1,2,0:0:0:0:
68,212,141233,2,0,B|52:280|52:280|80:360,1,135,8|0,0:0|0:0,0:0:0:0:
84,360,141549,5,2,0:0:0:0:
276,220,141707,1,2,0:0:0:0:
276,220,141865,2,0,P|196:236|145:282,1,135,8|0,0:0|0:0,0:0:0:0:
156,296,142180,1,2,0:0:0:0:
196,128,142338,1,2,0:0:0:0:
280,360,142496,1,8,0:0:0:0:
96,148,142654,6,0,P|120:84|256:52,1,180,6|2,0:0|0:0,0:0:0:0:
365,229,143128,2,0,L|253:217,1,90,8|0,0:0|0:0,0:0:0:0:
396,120,143444,1,2,0:0:0:0:
424,344,143601,1,2,0:0:0:0:
208,268,143759,2,0,P|200:212|272:128,1,135,8|0,0:0|0:0,0:0:0:0:
275,219,144075,5,6,0:0:0:0:
104,24,144233,1,2,0:0:0:0:
72,320,144391,5,8,0:0:0:0:
328,136,144549,1,0,0:0:0:0:
8,112,144707,1,2,0:0:0:0:
260,344,144865,5,2,0:0:0:0:
304,344,144944,5,2,0:0:0:0:
352,320,145023,5,2,0:0:0:0:
388,268,145101,5,2,0:0:0:0:
396,196,145180,5,2,0:0:0:0:
368,120,145259,5,2,0:0:0:0:
292,72,145338,5,6,0:0:0:0:
360,40,150391,5,8,0:0:0:0:
320,48,150470,1,0,0:0:0:0:
296,80,150549,1,0,0:0:0:0:
288,120,150628,1,0,0:0:0:0:
300,160,150707,1,0,0:0:0:0:
324,192,150786,1,0,0:0:0:0:
328,232,150865,1,0,0:0:0:0:
304,264,150944,1,0,0:0:0:0:
264,272,151023,6,0,P|240:266|204:263,1,45,8|0,0:0|0:0,0:0:0:0:
224,176,151180,2,0,P|200:181|164:184,1,45
204,340,151338,6,0,P|176:351|144:368,1,45
184,112,151496,2,0,P|156:100|124:84,1,45
300,44,151654,5,8,0:0:0:0:
340,52,151733,1,0,0:0:0:0:
372,76,151812,1,0,0:0:0:0:
392,112,151891,1,0,0:0:0:0:
400,152,151970,1,0,0:0:0:0:
396,192,152049,1,0,0:0:0:0:
380,228,152128,1,0,0:0:0:0:
348,256,152207,1,0,0:0:0:0:
308,264,152286,1,8,0:0:0:0:
268,256,152365,5,0,0:0:0:0:
308,240,152444,1,0,0:0:0:0:
348,248,152523,1,0,0:0:0:0:
384,264,152601,1,0,0:0:0:0:
424,272,152680,1,0,0:0:0:0:
464,260,152759,1,0,0:0:0:0:
488,228,152838,1,0,0:0:0:0:
492,188,152917,1,8,0:0:0:0:
476,152,152996,1,0,0:0:0:0:
448,124,153075,1,0,0:0:0:0:
408,112,153154,5,0,0:0:0:0:
368,112,153233,1,8,0:0:0:0:
332,128,153312,1,0,0:0:0:0:
300,152,153391,1,0,0:0:0:0:
264,168,153470,1,0,0:0:0:0:
224,168,153549,1,8,0:0:0:0:
188,152,153628,1,0,0:0:0:0:
164,120,153707,1,0,0:0:0:0:
164,80,153786,1,0,0:0:0:0:
184,44,153865,1,8,0:0:0:0:
208,24,153944,5,0,0:0:0:0:
232,58,154023,1,0,0:0:0:0:
240,97,154101,1,0,0:0:0:0:
227,135,154180,1,8,0:0:0:0:
199,165,154259,1,0,0:0:0:0:
183,202,154338,1,0,0:0:0:0:
174,241,154417,5,0,0:0:0:0:
181,280,154496,1,8,0:0:0:0:
207,311,154575,1,0,0:0:0:0:
244,328,154654,1,0,0:0:0:0:
284,333,154733,1,0,0:0:0:0:
323,325,154812,1,12,0:0:0:0:
323,325,155286,6,0,L|331:201,1,90,6|0,0:0|0:0,0:0:0:0:
308,48,155601,1,2,0:0:0:0:
160,220,155759,2,0,P|204:240|260:248,1,90,8|0,0:0|0:0,0:0:0:0:
104,104,156075,1,2,0:0:0:0:
120,328,156233,1,2,0:0:0:0:
232,144,156391,1,8,0:0:0:0:
232,144,156549,6,0,B|308:136|308:136|336:152|336:152|444:140,1,180,6|2,0:0|0:0,0:0:0:0:
263,334,157023,2,0,B|247:290|247:290|243:218,1,90,8|0,0:0|0:0,0:0:0:0:
388,280,157338,1,2,0:0:0:0:
156,328,157496,1,2,0:0:0:0:
332,156,157654,1,8,0:0:0:0:
144,188,157812,6,0,B|88:220|16:208|16:208|36:244|92:236,1,180,6|2,0:0|0:0,0:0:0:0:
148,328,158286,1,8,0:0:0:0:
84,48,158444,2,0,L|68:152,1,90,2|0,0:0|0:0,0:0:0:0:
216,72,158759,1,2,0:0:0:0:
4,24,158917,1,8,0:0:0:0:
148,328,159075,6,0,P|220:296|300:328,1,135,6|0,0:0|0:0,0:0:0:0:
344,332,159391,2,0,L|348:272,1,45,2|0,0:0|0:0,0:0:0:0:
424,116,159549,2,0,B|372:100|372:100|256:124,1,135,8|0,0:0|0:0,0:0:0:0:
268,124,159865,1,2,0:0:0:0:
440,224,160023,1,2,0:0:0:0:
384,4,160180,1,8,0:0:0:0:
200,144,160338,6,0,P|196:232|208:336,1,180,6|2,0:0|0:0,0:0:0:0:
84,184,160812,2,0,P|96:224|100:296,1,90,8|0,0:0|0:0,0:0:0:0:
128,104,161128,1,2,0:0:0:0:
8,272,161286,1,2,0:0:0:0:
205,323,161444,1,8,0:0:0:0:
205,323,161601,6,0,B|300:336|300:336|344:300|332:240,1,180,6|2,0:0|0:0,0:0:0:0:
216,104,162075,2,0,B|180:116|152:108|152:108|172:128|176:160,1,90,8|0,0:0|0:0,0:0:0:0:
64,304,162391,1,2,0:0:0:0:
64,72,162549,1,2,0:0:0:0:
236,264,162707,1,8,0:0:0:0:
216,104,162865,6,0,B|280:120|331:98|331:98|296:120|292:164,1,180,6|2,0:0|0:0,0:0:0:0:
352,352,163338,1,8,0:0:0:0:
480,164,163496,2,0,L|356:144,1,90,0|2,0:0|0:0,0:0:0:0:
456,296,163812,1,2,0:0:0:0:
464,68,163970,1,8,0:0:0:0:
308,256,164128,6,0,L|116:264,1,180,6|2,0:0|0:0,0:0:0:0:
240,100,164601,1,8,0:0:0:0:
208,348,164759,1,0,0:0:0:0:
384,120,164917,1,2,0:0:0:0:
240,360,165075,1,2,0:0:0:0:
476,288,165233,1,8,0:0:0:0:
308,180,165391,6,0,B|236:171|236:171|204:192|204:192|116:184,1,180,6|2,0:0|0:0,0:0:0:0:
134,185,165865,1,8,0:0:0:0:
264,336,166023,1,0,0:0:0:0:
320,64,166180,1,2,0:0:0:0:
48,180,166338,1,2,0:0:0:0:
384,200,166496,1,8,0:0:0:0:
48,180,166654,6,0,B|12:136|19:70|19:70|67:88|76:149,1,180,6|2,0:0|0:0,0:0:0:0:
164,320,167128,1,8,0:0:0:0:
8,264,167286,1,0,0:0:0:0:
252,216,167444,1,2,0:0:0:0:
52,344,167601,1,2,0:0:0:0:
308,284,167759,1,8,0:0:0:0:
155,147,167917,6,0,B|130:200|158:242|158:242|182:287|154:338,1,180,6|2,0:0|0:0,0:0:0:0:
8,264,168391,1,8,0:0:0:0:
224,188,168549,2,0,L|352:208,1,90,2|0,0:0|0:0,0:0:0:0:
248,348,168865,1,2,0:0:0:0:
164,104,169023,1,8,0:0:0:0:
164,104,169180,6,0,B|228:84|228:84|360:120,1,180,6|2,0:0|0:0,0:0:0:0:
162,319,169654,2,0,L|154:207,1,90,8|0,0:0|0:0,0:0:0:0:
304,304,169970,1,2,0:0:0:0:
72,336,170128,1,2,0:0:0:0:
228,192,170286,1,8,0:0:0:0:
64,216,170444,6,0,B|68:136|68:136|56:108|56:108|60:32,1,180,6|2,0:0|0:0,0:0:0:0:
228,192,170917,2,0,P|184:208|104:220,1,90,8|0,0:0|0:0,0:0:0:0:
204,60,171233,1,2,0:0:0:0:
304,324,171391,1,2,0:0:0:0:
64,216,171549,1,8,0:0:0:0:
304,144,171707,6,0,B|348:164|396:152|396:152|448:140|488:160,1,180,6|2,0:0|0:0,0:0:0:0:
320,348,172180,1,8,0:0:0:0:
268,44,172338,1,0,0:0:0:0:
432,232,172496,1,2,0:0:0:0:
172,252,172654,1,2,0:0:0:0:
372,84,172812,1,8,0:0:0:0:
108,112,172970,6,0,B|72:164|72:164|84:292,1,180,6|2,0:0|0:0,0:0:0:0:
280,196,173444,2,0,B|244:176|244:176|176:164,1,90,8|0,0:0|0:0,0:0:0:0:
224,356,173759,2,0,L|332:340,1,90,2|2,0:0|0:0,0:0:0:0:
300,108,174075,2,0,P|289:135|278:229,1,90,8|0,0:0|0:0,0:0:0:0:
372,184,174391,5,2,0:0:0:0:
192,88,174549,1,2,0:0:0:0:
392,176,174707,2,0,B|388:252|388:252|404:276|404:276|400:364,1,180,8|2,0:0|0:0,0:0:0:0:
465,174,175180,6,0,L|460:258,1,45,2|2,0:0|0:0,0:0:0:0:
470,79,175338,2,0,L|474:-4,1,45,2|2,0:0|0:0,0:0:0:0:
316,168,175496,2,0,L|312:248,1,45,2|2,0:0|0:0,0:0:0:0:
320,56,175654,5,12,0:0:0:0:
316,168,175812,2,0,L|312:264,1,90,2|0,0:0|0:0,0:0:0:0:
120,172,176128,2,0,L|224:148,1,90,2|0,0:0|0:0,0:0:0:0:
64,312,176444,1,2,0:0:0:0:
80,84,176601,1,8,0:0:0:0:
223,274,176759,6,0,L|331:254,1,90,2|0,0:0|0:0,0:0:0:0:
311,257,177075,1,2,0:0:0:0:
160,372,177233,1,8,0:0:0:0:
207,151,177391,1,2,0:0:0:0:
380,316,177549,2,0,P|392:272|388:220,1,90,8|2,0:0|0:0,0:0:0:0:
484,288,177865,1,2,0:0:0:0:
311,257,178023,1,8,0:0:0:0:
480,268,178180,5,4,0:0:0:0:
452,120,178338,1,2,0:0:0:0:
389,228,178496,1,2,0:0:0:0:
495,190,178654,1,8,0:0:0:0:
352,108,178812,1,2,0:0:0:0:
440,360,178970,1,2,0:0:0:0:
328,104,179128,6,0,B|329:80|350:60|350:60|322:39|323:7|323:7|286:22|255:-3|255:-3|259:40|225:61|225:61|250:75|251:111|251:111|297:114|297:114|364:184|364:184|264:172|224:184|224:184|185:167|177:117|177:117|120:119|99:193|99:193|162:210|231:310|231:310|167:432|25:329|121:218|232:260|232:260|280:240|352:256|352:256|423:257|439:207|439:207|437:160|437:160|430:137|396:114|396:114|424:135|465:127|465:127|455:169|477:194,1,1781.99994561768,4|0,0:0|0:0,0:0:0:0:
