osu file format v14

[General]
AudioFilename: audio.mp3
AudioLeadIn: 0
PreviewTime: 54650
Countdown: 0
SampleSet: Soft
StackLeniency: 0.7
Mode: 0
LetterboxInBreaks: 0
WidescreenStoryboard: 1

[Editor]
Bookmarks: 11504,15549,20942,31729,43864,54650,57347,65437,69482,72178,76223,83302,89032,93077
DistanceSpacing: 0.3
BeatDivisor: 4
GridSize: 8
TimelineZoom: 0.7999998

[Metadata]
Title:Chikatto Chika Chika
TitleUnicode:チカっとチカ千花っ♡
Artist:cillia
ArtistUnicode:cillia
Creator:Noffy
Version:Trynna's Insane
Source:Kaguya-sama: Love Is War
Tags:FrenZ396 Trynna Ataraxia Cynplytholowazy -GN Jr. -Keitaro VOCALOID kyaami cover ハイカラちゃん 音街ウナ Otomachi Una Unatto Una-UNA シリア かぐや様は告らせたい~天才たちの恋愛頭脳戦~ Japanese Anime Ending ED
BeatmapID:2345541
BeatmapSetID:959603

[Difficulty]
HPDrainRate:6
CircleSize:4
OverallDifficulty:8
ApproachRate:9
SliderMultiplier:1.6
SliderTickRate:1

[Events]
//Background and Video events
0,0,"una una.jpg",0,0
Video,0,"una test one.mp4"
//Break Periods
//Storyboard Layer 0 (Background)
//Storyboard Layer 1 (Fail)
//Storyboard Layer 2 (Pass)
//Storyboard Layer 3 (Foreground)
//Storyboard Layer 4 (Overlay)
//Storyboard Sound Samples

[TimingPoints]
718,337.078651685393,4,2,0,100,1,0
1055,-200,4,2,0,40,0,0
11504,-100,4,2,0,70,0,0
15549,-100,4,2,2,70,0,0
25746,-100,4,2,2,5,0,0
25830,-100,4,2,2,70,0,0
28611,-100,4,2,2,5,0,0
28695,-100,4,2,2,70,0,0
31392,-100,4,2,2,5,0,0
31729,-100,4,2,2,70,0,0
36532,-100,4,2,2,5,0,0
36616,-100,4,2,2,70,0,0
41167,-100,4,2,2,90,0,0
41251,-100,4,2,2,30,0,0
41841,-100,4,2,2,90,0,0
41925,-100,4,2,2,30,0,0
42515,-588.235294117647,4,2,2,80,0,0
43864,-133.333333333333,4,2,1,70,0,0
51953,-66.6666666666667,4,2,2,70,0,0
52459,-100,4,2,2,70,0,0
54650,-100,4,2,2,80,0,0
55324,-100,4,2,2,90,0,0
55998,-133.333333333333,4,2,2,90,0,0
57178,-80,4,2,2,90,0,1
57347,-80,4,2,5,90,0,1
59622,-80,4,2,5,5,0,1
59706,-80,4,2,5,90,0,1
62319,-80,4,2,5,5,0,1
62403,-80,4,2,5,90,0,1
62487,-80,4,2,5,5,0,1
62571,-80,4,2,5,90,0,1
69482,-80,4,2,5,90,0,0
72178,-80,4,2,5,90,0,1
75886,-80,4,2,5,100,0,1
76055,-80,4,2,5,5,0,1
76223,-100,4,2,5,70,0,0
78920,-100,4,2,5,75,0,0
81616,-100,4,2,5,80,0,0
84313,-100,4,2,5,85,0,0
85661,-100,4,2,5,90,0,0
89032,-133.333333333333,4,2,5,90,0,0
89706,-111.111111111111,4,2,5,80,0,0
90380,-111.111111111111,4,2,5,70,0,0
91055,-111.111111111111,4,2,5,60,0,0
91729,-111.111111111111,4,2,5,50,0,0
92403,-111.111111111111,4,2,5,40,0,0
93077,-111.111111111111,4,2,5,30,0,0

[Colours]
Combo1 : 221,34,53
Combo2 : 61,80,211
Combo3 : 230,108,247
Combo4 : 179,136,230

[HitObjects]
375,150,1392,6,0,P|418:126|444:22,3,160,2|2|2|2,0:0|0:0|0:0|0:0,0:0:0:0:
137,150,5437,6,0,P|94:126|68:22,3,160,2|2|2|2,0:0|0:0|0:0|0:0,0:0:0:0:
255,192,8807,6,0,L|256:360,1,160,2|0,0:0|0:0,0:0:0:0:
431,217,10156,6,0,P|391:213|352:222,1,80,2|0,0:0|0:0,0:0:0:0:
258,272,10830,2,0,P|218:275|179:266,1,80,2|0,0:0|0:0,0:0:0:0:
34,314,11504,6,0,P|30:255|68:172,1,120,8|0,3:0|0:0,0:0:0:0:
70,188,11841,1,0,0:0:0:0:
173,25,12178,2,0,P|192:80|176:170,1,120,8|0,3:0|0:0,0:0:0:0:
170,156,12515,1,0,0:0:0:0:
307,275,12852,6,0,P|307:230|410:235,1,160,12|0,3:0|0:0,0:0:0:0:
411,228,13358,2,0,P|413:174|416:154,1,40,2|0,0:0|0:0,0:0:0:0:
474,96,13526,2,0,B|424:63|424:63|372:89|327:82,1,160,2|0,0:0|0:0,0:0:0:0:
252,19,14032,1,0,0:0:0:0:
231,189,14369,6,0,L|220:255,1,40,0|0,3:2|0:0,0:0:0:0:
293,333,14538,2,0,L|241:290,1,40,0|0,3:2|0:0,0:0:0:0:
137,314,14706,2,0,L|199:290,1,40,0|0,3:2|0:0,0:0:0:0:
338,239,14875,2,0,P|390:297|387:375,1,160,0|0,3:0|0:0,0:0:0:0:
136,191,15549,6,0,L|123:93,1,80,2|0,3:2|0:0,0:0:0:0:
42,168,15886,1,8,0:0:0:0:
117,14,16055,2,0,B|200:0|178:66|266:51,1,160,2|0,3:2|3:0,0:0:0:0:
404,105,16560,2,0,P|363:121|326:140,1,80,10|0,0:2|0:0,0:0:0:0:
419,16,16897,5,0,3:0:0:0:
502,83,17066,1,2,3:2:0:0:
459,174,17234,1,8,0:0:0:0:
483,291,17403,2,0,P|424:266|315:240,1,160,2|0,3:2|3:0,0:0:0:0:
183,271,17909,1,10,0:2:0:0:
333,218,18077,2,0,L|379:207,1,40
243,169,18246,6,0,P|175:144|97:191,1,160,2|8,3:2|0:0,0:0:0:0:
163,347,18751,2,0,B|190:384|190:384|182:270,1,160,2|0,3:2|3:0,0:0:0:0:
102,183,19257,1,10,0:2:0:0:
16,266,19425,1,10,0:2:0:0:
84,61,19762,6,0,L|77:12,1,40,2|0,3:2|0:0,0:0:0:0:
163,102,19931,2,0,L|181:56,1,40,2|0,3:2|0:0,0:0:0:0:
265,64,20100,2,0,L|258:15,1,40,2|0,3:2|0:0,0:0:0:0:
343,149,20268,2,0,P|354:93|387:-13,1,160,2|0,3:2|0:0,0:0:0:0:
393,338,20942,6,0,B|339:299|339:299|293:332|240:324,1,160,2|8,3:2|0:0,0:0:0:0:
153,202,21448,2,0,B|259:192|259:192|277:206|269:242,1,160,2|0,3:2|3:0,0:0:0:0:
126,302,21953,1,8,0:2:0:0:
170,99,22122,1,2,0:2:0:0:
57,235,22291,5,0,3:0:0:0:
80,136,22459,1,0,0:0:0:0:
44,222,22628,1,8,0:0:0:0:
48,42,22796,6,0,P|120:41|164:79,1,120,2|0,3:2|0:0,0:0:0:0:
170,99,23133,1,2,3:2:0:0:
267,53,23302,2,0,P|337:51|382:47,1,80,10|0,0:2|0:0,0:0:0:0:
478,128,23639,6,0,P|403:149|373:221,1,160,2|10,3:2|0:2,0:0:0:0:
471,224,24144,1,2,3:2:0:0:
369,330,24313,2,0,P|321:301|271:285,1,80,0|0,3:0|3:0,0:0:0:0:
474,335,24650,1,10,0:2:0:0:
363,355,24819,6,0,L|229:365,1,120,2|0,0:0|0:0,0:0:0:0:
218,368,25156,2,0,B|208:328|208:328|212:288,1,80,2|8,3:2|0:0,0:0:0:0:
131,164,25493,2,0,L|114:282,1,120,2|0,3:2|0:0,0:0:0:0:
111,308,25830,1,2,3:2:0:0:
136,137,25998,2,0,B|141:71|108:90|113:19,1,120,10|0,0:2|0:0,0:0:0:0:
88,41,26335,6,0,P|41:23|-4:116,1,160,2|8,3:2|0:0,0:0:0:0:
48,191,26841,1,2,3:2:0:0:
36,298,27010,2,0,P|100:283|139:283,1,80,2|0,3:2|0:0,0:0:0:0:
195,339,27347,2,0,P|234:343|273:354,1,80,10|0,0:2|0:0,0:0:0:0:
429,332,27684,6,0,P|376:334|414:252,1,160,0|8,3:0|0:0,0:0:0:0:
442,128,28189,2,0,P|369:159|289:159,1,160,2|2,3:2|3:2,0:0:0:0:
202,121,28695,1,10,0:2:0:0:
371,37,29032,5,2,3:3:0:0:
364,57,29201,1,0,0:0:0:0:
217,29,29369,5,10,0:3:0:0:
210,9,29538,1,0,0:0:0:0:
287,120,29706,5,2,3:3:0:0:
280,140,29875,1,0,0:0:0:0:
133,112,30043,5,10,0:3:0:0:
126,92,30212,1,0,0:0:0:0:
170,202,30380,5,2,3:3:0:0:
24,148,30549,1,0,3:0:0:0:
78,3,30717,1,2,3:3:0:0:
226,51,30886,1,0,3:0:0:0:
43,175,31055,6,0,P|21:234|18:350,1,160,2|0,0:3|0:0,0:0:0:0:
305,264,31729,6,0,B|216:255|239:309|153:300,2,160,2|8|0,3:2|0:0|0:0,0:0:0:0:
366,342,32571,1,0,3:0:0:0:
414,271,32740,1,8,0:2:0:0:
363,187,32909,1,2,0:2:0:0:
462,57,33077,6,0,P|418:66|378:65,1,80,0|0,3:0|0:0,0:0:0:0:
216,46,33414,1,8,0:0:0:0:
152,110,33583,2,0,P|224:137|293:100,1,160,2|2,3:2|3:2,0:0:0:0:
304,7,34088,1,10,0:2:0:0:
230,170,34425,6,0,P|237:208|239:249,1,80,2|0,3:2|0:0,0:0:0:0:
335,224,34762,2,0,P|328:263|325:303,1,80,10|2,0:2|3:2,0:0:0:0:
179,317,35100,2,0,B|95:335|114:276|25:290,1,160,0|10,3:0|0:2,0:0:0:0:
52,376,35605,1,0,0:0:0:0:
154,223,35774,5,0,3:0:0:0:
130,128,35942,1,2,3:2:0:0:
63,192,36111,1,8,0:0:0:0:
221,144,36279,2,0,P|288:132|359:144,1,120,2|0,3:2|0:0,0:0:0:0:
360,160,36616,1,2,3:2:0:0:
271,43,36785,1,10,0:2:0:0:
480,104,37122,6,0,P|470:172|461:270,1,160,2|8,3:2|0:0,0:0:0:0:
325,328,37628,2,0,P|365:264|439:275,1,160,2|0,3:2|3:0,0:0:0:0:
305,343,38133,2,0,L|223:329,1,80,10|0,0:2|0:0,0:0:0:0:
74,239,38470,6,0,B|105:245|146:274|146:274|179:241|213:233,1,160,2|8,3:2|0:2,0:0:0:0:
160,91,38976,2,0,B|134:54|134:54|141:168,1,160,2|0,3:2|3:0,0:0:0:0:
291,219,39482,2,0,L|203:234,1,80,8|0,0:2|0:0,0:0:0:0:
271,110,39819,6,0,B|384:115|384:115|395:131|381:160,1,160,2|10,3:2|0:2,0:0:0:0:
470,214,40324,2,0,P|494:156|475:58,1,160,0|2,3:0|3:2,0:0:0:0:
385,17,40830,1,8,0:0:0:0:
183,136,41167,6,0,L|97:143,1,80,2|2,3:2|3:2,0:0:0:0:
340,156,41841,6,0,L|377:78,1,80,2|2,3:2|3:2,0:0:0:0:
244,283,42515,6,0,L|289:353,1,81.6000004980469,4|0,3:1|0:0,0:0:0:0:
477,345,43864,5,4,3:0:0:0:
443,231,44032,1,4,3:0:0:0:
365,312,44201,1,2,0:0:0:0:
430,296,44369,1,0,0:0:0:0:
398,172,44538,6,0,L|386:103,1,60.0000022888184,2|0,0:0|0:0,0:0:0:0:
306,156,44875,2,0,L|294:87,1,60.0000022888184,2|0,0:0|0:0,0:0:0:0:
401,22,45212,5,4,3:0:0:0:
274,119,45380,2,0,P|215:105|155:104,1,120.000004577637,4|0,3:0|0:0,0:0:0:0:
71,62,45886,2,0,P|33:73|4:75,2,60.0000022888184,2|0|2,0:0|0:0|0:3,0:0:0:0:
154,16,46560,5,4,3:3:0:0:
168,21,46729,1,4,3:3:0:0:
158,100,46897,1,2,0:0:0:0:
145,108,47066,1,0,0:0:0:0:
167,185,47234,2,0,L|172:306,1,120.000004577637,2|2,0:0|0:0,0:0:0:0:
112,383,47909,5,0,3:0:0:0:
79,297,48077,1,0,3:0:0:0:
236,380,48246,1,2,0:0:0:0:
269,294,48414,1,0,0:0:0:0:
342,358,48583,2,0,L|402:346,2,60.0000022888184,2|0|2,0:0|0:0|0:3,0:0:0:0:
257,193,49257,5,4,3:0:0:0:
266,99,49425,1,4,3:0:0:0:
180,134,49594,2,0,L|119:121,1,60.0000022888184,2|0,0:3|0:0,0:0:0:0:
348,153,49931,2,0,L|482:133,1,120.000004577637,8|0,0:0|0:0,0:0:0:0:
275,14,50605,6,0,P|245:16|216:25,1,60.0000022888184,4|4,3:0|3:0,0:0:0:0:
117,56,50942,1,2,0:3:0:0:
117,56,51111,1,0,0:0:0:0:
180,134,51279,2,0,L|188:260,1,120.000004577637,8|0,0:0|0:0,0:0:0:0:
199,361,51785,1,0,0:0:0:0:
96,203,51953,6,0,P|35:207|20:308,1,180.000006866455,6|0,3:2|0:0,0:0:0:0:
38,326,52291,1,8,0:0:0:0:
79,176,52459,2,0,P|70:138|65:98,1,80,2|0,3:2|0:0,0:0:0:0:
187,30,52796,1,0,3:0:0:0:
174,118,52965,1,10,0:2:0:0:
234,195,53133,1,0,0:0:0:0:
221,283,53302,6,0,P|276:275|385:278,1,160,2|8,3:2|0:0,0:0:0:0:
464,346,53807,1,2,3:2:0:0:
498,177,53976,2,0,B|483:139|483:139|434:189|470:248,1,160,2|10,3:2|0:2,0:0:0:0:
354,100,54650,6,0,P|302:114|182:117,1,160,0|0,3:0|0:0,0:0:0:0:
0,69,55324,6,0,B|37:46|53:11|53:11|85:36|126:41,1,160,0|0,3:0|0:0,0:0:0:0:
208,143,55998,6,0,B|72:142|143:231|0:238,1,240.000009155274,4|0,0:1|0:0,0:0:0:0:
197,320,57010,1,2,0:1:0:0:
288,371,57178,6,0,B|309:318|309:318|286:276|287:228,1,150,2|0,3:2|0:0,0:0:0:0:
301,209,57515,1,2,3:2:0:0:
454,194,57684,2,0,P|406:216|385:258,1,100,10|2,0:0|0:3,0:0:0:0:
480,291,58021,1,2,3:3:0:0:
427,95,58189,1,2,3:3:0:0:
474,5,58358,1,10,0:2:0:0:
438,115,58526,1,2,0:3:0:0:
319,71,58695,6,0,P|270:76|219:76,1,100,2|2,3:2|0:0,0:0:0:0:
111,8,59032,2,0,P|158:18|188:57,1,100,10|2,0:2|0:3,0:0:0:0:
244,171,59369,2,0,P|182:165|67:161,1,150,2|0,3:2|0:0,0:0:0:0:
71,172,59706,1,8,0:0:0:0:
225,261,59875,6,0,P|293:251|330:176,1,150,2|0,3:2|0:0,0:0:0:0:
327,157,60212,1,2,3:2:0:0:
404,267,60380,2,0,L|410:372,1,100,10|2,0:2|0:3,0:0:0:0:
314,336,60717,1,2,3:3:0:0:
500,328,60886,1,2,3:3:0:0:
488,187,61055,1,8,0:2:0:0:
404,267,61223,1,0,0:3:0:0:
429,101,61392,6,0,L|424:-2,2,100,2|2|10,3:2|3:2|0:0,0:0:0:0:
250,24,61897,1,10,3:2:0:0:
334,58,62066,2,0,P|284:57|151:114,1,150,2|0,3:0|0:0,0:0:0:0:
174,108,62403,2,0,P|175:130|169:157,1,50,10|0,0:0|0:0,0:0:0:0:
60,193,62571,6,0,P|77:131|63:40,1,150,2|0,3:2|0:0,0:0:0:0:
47,31,62909,1,2,3:2:0:0:
36,209,63077,1,10,0:0:0:0:
107,278,63246,1,2,3:3:0:0:
13,304,63414,5,2,3:2:0:0:
173,358,63583,1,2,3:3:0:0:
242,254,63751,1,8,0:1:0:0:
107,278,63920,1,2,0:3:0:0:
303,339,64088,5,4,3:2:0:0:
364,254,64257,1,2,3:3:0:0:
300,170,64425,1,8,0:0:0:0:
353,59,64594,1,2,3:3:0:0:
414,134,64762,2,0,P|318:139|259:63,1,200,2|8,3:2|0:0,0:0:0:0:
65,86,65437,6,0,L|55:31,1,50,2|0,3:3|0:0,0:0:0:0:
139,136,65605,1,2,3:3:0:0:
44,219,65774,1,10,0:2:0:0:
291,219,66111,6,0,L|301:164,1,50,2|0,3:0|0:0,0:0:0:0:
217,269,66279,1,2,3:0:0:0:
312,352,66448,1,10,0:2:0:0:
193,283,66616,1,10,0:0:0:0:
398,280,66785,6,0,P|445:265|476:226,1,100,2|2,3:3|3:3,0:0:0:0:
382,82,67122,2,0,L|391:189,1,100,10|2,0:0|3:0,0:0:0:0:
478,113,67459,1,2,0:3:0:0:
290,47,67628,1,0,0:0:0:0:
193,126,67796,2,0,L|41:144,1,150,10|0,0:0|0:0,0:0:0:0:
29,161,68133,6,0,B|9:114|9:114|23:61,1,100,0|0,3:0|0:0,0:0:0:0:
104,14,68470,1,8,0:0:0:0:
123,167,68639,2,0,L|135:292,1,100,0|0,3:0|0:0,0:0:0:0:
142,360,68976,1,0,3:0:0:0:
224,204,69144,1,8,0:0:0:0:
476,324,69482,6,0,L|369:312,1,100,2|2,3:0|3:0,0:0:0:0:
293,356,69819,1,2,0:2:0:0:
293,356,69987,1,2,0:2:0:0:
404,215,70156,6,0,L|297:227,1,100,2|2,3:0|3:0,0:0:0:0:
221,183,70493,1,2,0:2:0:0:
221,183,70661,1,2,0:2:0:0:
316,34,70830,6,0,B|333:83|333:83|328:133,1,100,2|2,3:3|3:0,0:0:0:0:
174,150,71167,2,0,B|157:101|157:101|161:50,1,100,2|0,3:3|3:2,0:0:0:0:
171,297,71504,6,0,P|132:265|35:261,1,150,2|0,3:0|0:0,0:0:0:0:
42,286,71841,2,0,P|61:231|45:177,1,100,10|0,0:2|0:0,0:0:0:0:
93,23,72178,5,0,3:0:0:0:
2,73,72347,2,0,L|204:43,1,200,0|10,3:0|0:0,0:0:0:0:
242,196,72852,5,0,3:0:0:0:
348,175,73021,2,0,L|151:146,1,200,0|10,3:0|0:0,0:0:0:0:
302,73,73526,5,10,0:0:0:0:
332,281,73695,1,2,3:0:0:0:
478,259,73864,1,2,3:0:0:0:
369,372,74032,2,0,B|266:393|279:312|179:332,1,200,8|0,0:0|0:0,0:0:0:0:
159,137,75043,6,0,L|147:196,1,50,0|0,3:0|0:0,0:0:0:0:
216,74,75212,2,0,L|273:54,1,50,0|0,3:0|0:0,0:0:0:0:
134,56,75380,2,0,L|88:16,1,50,0|0,3:0|0:0,0:0:0:0:
234,213,75549,6,0,P|170:224|63:263,1,150,0|0,3:0|0:0,0:0:0:0:
63,241,75886,2,0,B|85:297|85:297|76:333|76:333|93:388,1,150,2|0,0:3|0:0,0:0:0:0:
115,369,76223,6,0,P|165:371|247:369,1,120,0|0,3:2|0:0,0:0:0:0:
260,356,76560,1,8,0:0:0:0:
398,367,76729,2,0,P|364:296|388:222,1,160,0|0,3:2|0:0,0:0:0:0:
469,299,77234,1,8,0:2:0:0:
268,230,77403,1,0,3:0:0:0:
328,139,77571,5,0,3:0:0:0:
292,47,77740,2,0,L|308:140,1,80,0|8,3:0|0:0,0:0:0:0:
170,186,78077,2,0,P|110:136|31:133,1,160,0|0,3:0|3:0,0:0:0:0:
75,228,78583,1,8,0:0:0:0:
127,106,78751,2,0,P|122:86|120:66,1,40,2|0,3:0|0:0,0:0:0:0:
136,42,78920,5,0,0:0:0:0:
310,121,79088,1,2,3:0:0:0:
364,5,79257,1,10,0:0:0:0:
221,82,79425,1,0,3:0:0:0:
322,215,79594,2,0,L|334:320,1,80,2|0,3:0|3:0,0:0:0:0:
212,346,79931,2,0,L|202:266,1,80,10|0,0:0|3:0,0:0:0:0:
132,166,80268,5,0,3:0:0:0:
232,180,80437,2,0,B|192:175|192:175|152:185,1,80,0|8,3:0|0:0,0:0:0:0:
47,244,80774,2,0,B|11:174|11:174|29:94,1,160,0|0,3:0|3:0,0:0:0:0:
132,166,81279,1,8,0:0:0:0:
234,102,81448,2,0,L|308:87,1,40,2|0,3:0|0:0,0:0:0:0:
348,31,81616,5,0,3:0:0:0:
172,14,81785,1,2,3:0:0:0:
159,167,81953,1,10,3:2:0:0:
335,184,82122,1,2,3:3:0:0:
234,102,82291,5,10,3:2:0:0:
242,275,82459,1,2,3:0:0:0:
348,361,82628,1,10,3:2:0:0:
377,267,82796,1,2,3:3:0:0:
217,287,82965,6,0,P|175:293|118:294,1,80,0|0,3:2|3:0,0:0:0:0:
58,183,83302,2,0,P|100:189|157:190,1,80,8|0,3:2|3:0,0:0:0:0:
273,80,83639,2,0,P|231:86|174:87,1,80,8|0,0:0|3:0,0:0:0:0:
36,12,83976,2,0,P|78:18|135:19,1,80,8|0,3:2|0:0,0:0:0:0:
296,100,84313,5,0,3:0:0:0:
310,87,84650,1,10,0:0:0:0:
151,203,84987,5,2,3:0:0:0:
137,190,85324,1,10,0:0:0:0:
372,327,85661,5,2,3:0:0:0:
251,310,85830,1,10,0:0:0:0:
394,308,85998,1,10,0:0:0:0:
241,286,86167,1,2,3:0:0:0:
159,209,86335,5,2,3:0:0:0:
280,192,86504,1,10,0:0:0:0:
137,190,86673,1,10,0:0:0:0:
290,168,86841,1,10,0:0:0:0:
255,52,89032,5,14,3:0:0:0:
256,192,89116,12,0,93077,0:0:0:0:
