osu file format v14

[General]
AudioFilename: audio.mp3
AudioLeadIn: 0
PreviewTime: 54650
Countdown: 0
SampleSet: Soft
StackLeniency: 0.7
Mode: 0
LetterboxInBreaks: 0
WidescreenStoryboard: 1

[Editor]
Bookmarks: 11504,15549,20942,31729,43864,54650,57347,65437,69482,72178,76223,89032,93077
DistanceSpacing: 1.3
BeatDivisor: 4
GridSize: 32
TimelineZoom: 0.8999999

[Metadata]
Title:Chikatto Chika Chika
TitleUnicode:チカっとチカ千花っ♡
Artist:cillia
ArtistUnicode:cillia
Creator:Noffy
Version:Insane
Source:Kaguya-sama: Love Is War
Tags:FrenZ396 Trynna Ataraxia Cynplytholowazy -GN Jr. -Keitaro VOCALOID kyaami cover ハイカラちゃん 音街ウナ Otomachi Una Unatto Una-UNA シリア かぐや様は告らせたい~天才たちの恋愛頭脳戦~ Japanese Anime Ending ED
BeatmapID:2009127
BeatmapSetID:959603

[Difficulty]
HPDrainRate:5
CircleSize:4.8
OverallDifficulty:6
ApproachRate:9
SliderMultiplier:1.6
SliderTickRate:1

[Events]
//Background and Video events
0,0,"una una.jpg",0,0
Video,0,"una test one.mp4"
//Break Periods
//Storyboard Layer 0 (Background)
//Storyboard Layer 1 (Fail)
//Storyboard Layer 2 (Pass)
//Storyboard Layer 3 (Foreground)
//Storyboard Layer 4 (Overlay)
//Storyboard Sound Samples

[TimingPoints]
718,337.078651685393,4,2,0,100,1,0
1055,-200,4,2,0,100,0,0
11504,-100,4,2,0,70,0,0
15549,-100,4,2,2,70,0,0
31392,-100,4,2,2,5,0,0
31729,-100,4,2,2,70,0,0
41167,-100,4,2,2,90,0,0
41504,-100,4,2,2,30,0,0
41841,-100,4,2,2,90,0,0
42178,-100,4,2,2,30,0,0
42515,-100,4,2,2,80,0,0
43695,-100,4,2,1,70,0,0
51953,-66.6666666666667,4,2,2,70,0,0
52796,-100,4,2,2,70,0,0
54650,-100,4,2,2,80,0,0
55324,-100,4,2,2,90,0,0
57347,-80,4,2,5,90,0,1
65437,-80,4,2,0,90,0,1
65774,-80,4,2,5,90,0,1
66111,-80,4,2,0,90,0,1
66448,-80,4,2,5,90,0,1
69482,-80,4,2,5,90,0,0
72178,-80,4,2,5,90,0,1
74032,-50,4,2,5,90,0,0
76223,-100,4,2,5,70,0,0
78920,-100,4,2,5,75,0,0
81616,-100,4,2,5,80,0,0
84313,-100,4,2,5,85,0,0
85661,-100,4,2,5,90,0,0
89032,-133.333333333333,4,2,5,90,0,0

[Colours]
Combo1 : 221,34,53
Combo2 : 61,80,211
Combo3 : 230,108,247
Combo4 : 179,136,230

[HitObjects]
290,118,11504,6,0,L|336:53,1,80,8|0,3:0|0:0,0:0:0:0:
426,105,11841,1,0,0:0:0:0:
222,118,12178,2,0,L|175:53,1,80,8|0,3:0|0:0,0:0:0:0:
86,105,12515,1,0,0:0:0:0:
293,277,12852,6,0,P|256:333|218:277,1,160,12|0,3:0|0:0,0:0:0:0:
256,192,13358,1,2,0:0:0:0:
293,107,13526,2,0,P|256:50|218:106,1,160,2|0,0:0|0:0,0:0:0:0:
119,204,14369,5,0,3:2:0:0:
256,283,14538,1,0,3:2:0:0:
256,139,14706,1,0,3:2:0:0:
400,211,14875,1,0,3:0:0:0:
400,211,15212,1,0,0:0:0:0:
400,211,15549,6,0,P|402:265|323:363,1,160,2|8,3:2|0:0,0:0:0:0:
358,142,16055,2,0,P|398:120|455:124,1,80,2|0,3:2|0:0,0:0:0:0:
316,217,16392,1,0,3:0:0:0:
316,217,16560,1,10,0:2:0:0:
112,211,16897,6,0,P|110:265|189:363,1,160,0|8,3:0|0:0,0:0:0:0:
154,142,17403,2,0,P|114:120|57:124,1,80,2|0,3:2|0:0,0:0:0:0:
196,217,17740,1,0,3:0:0:0:
196,217,17909,1,10,0:2:0:0:
332,114,18246,6,0,P|257:88|183:114,1,160,2|8,3:2|0:0,0:0:0:0:
256,264,18751,2,0,L|256:165,1,80,2|0,3:2|0:0,0:0:0:0:
259,91,19088,1,0,3:0:0:0:
259,91,19257,1,10,0:2:0:0:
259,91,19762,5,2,3:2:0:0:
357,195,19931,1,2,3:2:0:0:
253,293,20100,1,2,3:2:0:0:
155,189,20268,1,2,3:2:0:0:
480,172,20942,6,0,B|448:157|448:157|416:190|357:192|316:151,1,160,2|8,3:2|0:0,0:0:0:0:
379,29,21448,2,0,P|394:66|387:105,1,80,2|0,3:2|0:0,0:0:0:0:
257,62,21785,1,0,3:0:0:0:
126,95,21953,1,8,0:2:0:0:
257,62,22122,1,2,0:2:0:0:
235,163,22291,6,0,L|150:194,1,80,0|0,3:0|0:0,0:0:0:0:
63,230,22628,1,8,0:0:0:0:
63,230,22796,1,2,3:2:0:0:
258,302,23133,1,2,3:2:0:0:
258,302,23302,1,10,0:2:0:0:
32,172,23639,6,0,B|64:157|64:157|96:190|155:192|196:151,1,160,2|10,3:2|0:2,0:0:0:0:
133,29,24144,2,0,P|117:66|124:105,1,80,2|0,3:2|0:0,0:0:0:0:
255,62,24482,1,0,3:0:0:0:
386,95,24650,1,10,0:2:0:0:
255,62,24819,1,2,0:0:0:0:
277,163,24987,6,0,L|362:194,1,80,0|2,3:0|3:2,0:0:0:0:
449,230,25324,1,8,0:0:0:0:
449,230,25493,1,2,3:2:0:0:
258,302,25830,1,2,3:2:0:0:
258,302,25998,1,10,0:2:0:0:
314,102,26335,6,0,L|379:23,1,80,2|0,3:2|0:0,0:0:0:0:
345,194,26673,2,0,L|410:115,1,80,8|0,0:0|0:0,0:0:0:0:
198,102,27010,2,0,L|133:23,1,80,2|0,3:2|3:0,0:0:0:0:
167,194,27347,2,0,L|102:115,1,80,10|0,0:2|0:0,0:0:0:0:
256,340,27684,2,0,L|256:169,1,160,0|8,3:0|0:0,0:0:0:0:
256,44,28189,2,0,L|256:296,1,240,2|10,3:2|0:2,0:0:0:0:
373,260,29032,5,2,3:3:0:0:
324,309,29201,1,0,0:0:0:0:
373,122,29369,1,10,0:3:0:0:
392,192,29538,1,0,0:0:0:0:
256,54,29706,1,2,3:3:0:0:
324,73,29875,1,0,0:0:0:0:
137,122,30043,1,10,0:3:0:0:
186,73,30212,1,0,0:0:0:0:
137,260,30380,5,2,3:3:0:0:
118,191,30549,1,0,3:0:0:0:
256,328,30717,1,2,3:3:0:0:
186,309,30886,1,0,3:0:0:0:
256,192,31055,2,0,P|342:219|382:310,1,160,2|0,0:3|0:0,0:0:0:0:
138,100,31729,6,0,B|117:156|117:156|77:159|50:179|42:239,1,160,2|8,3:2|0:0,0:0:0:0:
201,266,32234,2,0,P|205:226|189:189,1,80,2|0,3:2|0:0,0:0:0:0:
104,316,32571,1,0,3:0:0:0:
104,316,32740,1,8,0:2:0:0:
290,317,32909,1,2,0:2:0:0:
190,200,33077,6,0,P|173:163|177:125,1,80,0|0,3:0|0:0,0:0:0:0:
230,28,33414,1,8,0:0:0:0:
230,28,33583,1,2,3:2:0:0:
259,233,33920,1,2,3:2:0:0:
259,233,34088,1,10,0:2:0:0:
374,100,34425,6,0,B|395:156|395:156|435:159|462:179|470:239,1,160,2|10,3:2|0:2,0:0:0:0:
311,266,34931,2,0,P|306:226|322:189,1,80,2|0,3:2|0:0,0:0:0:0:
408,316,35268,1,0,3:0:0:0:
408,316,35437,1,10,0:2:0:0:
222,317,35605,1,2,0:0:0:0:
322,200,35774,5,0,3:0:0:0:
190,200,35942,1,2,3:2:0:0:
256,22,36111,1,8,0:0:0:0:
256,201,36279,2,0,P|227:283|140:306,1,160,2|2,3:2|3:2,0:0:0:0:
60,295,36785,1,10,0:2:0:0:
85,204,37122,6,0,P|181:202|251:155,1,160,2|8,3:2|0:0,0:0:0:0:
218,23,37628,2,0,P|195:60|184:104,1,80,2|0,3:2|0:0,0:0:0:0:
51,53,37965,2,0,P|80:76|103:111,1,80,0|10,3:0|0:2,0:0:0:0:
79,212,38302,1,2,0:0:0:0:
160,277,38470,2,0,P|247:240|298:151,1,160,2|8,3:2|0:2,0:0:0:0:
352,277,38976,6,0,P|265:240|214:151,1,160,2|0,3:2|3:0,0:0:0:0:
256,89,39482,1,8,0:2:0:0:
357,129,39650,1,0,0:0:0:0:
433,212,39819,2,0,P|448:260|439:300,1,80,2|0,3:2|0:0,0:0:0:0:
353,341,40156,2,0,P|255:237|164:345,1,320,10|8,0:2|0:0,0:0:0:0:
315,255,41167,6,0,B|374:254|411:234|411:234|386:207|359:202,1,160,2|2,3:2|3:2,0:0:0:0:
197,255,41841,2,0,B|138:254|101:234|101:234|126:207|152:202,1,160,2|2,3:2|3:2,0:0:0:0:
186,45,42515,2,0,B|256:192|256:192|317:45,1,320,4|0,3:1|3:2,0:0:0:0:
20,218,43779,5,0,0:0:0:0:
20,218,43864,2,0,B|84:255|131:176|184:246,1,160,4|2,3:0|0:0,0:0:0:0:
124,306,44369,1,0,0:0:0:0:
182,371,44538,2,0,B|255:342|255:342|331:368,1,160,2|2,0:0|0:0,0:0:0:0:
492,166,45128,5,0,0:0:0:0:
492,166,45212,2,0,B|428:129|381:208|328:138,1,160,4|2,3:0|0:0,0:0:0:0:
388,78,45717,1,0,0:0:0:0:
330,13,45886,2,0,B|257:42|257:42|180:15,1,160,2|2,0:0|0:0,0:0:0:0:
165,145,46476,5,0,0:0:0:0:
165,145,46560,2,0,B|206:212|135:224|184:318,1,160,4|2,3:3|0:0,0:0:0:0:
256,253,47066,1,0,0:0:0:0:
336,299,47234,2,0,B|377:224|306:212|347:145,1,160,2|2,0:0|0:0,0:0:0:0:
470,192,47824,5,0,0:0:0:0:
470,192,47909,2,0,P|491:100|449:39,1,160,0|2,3:0|0:0,0:0:0:0:
384,93,48414,1,0,0:0:0:0:
347,116,48498,1,0,0:0:0:0:
329,156,48583,2,0,P|255:128|184:158,1,160,2|2,0:0|0:3,0:0:0:0:
42,192,49173,5,0,0:0:0:0:
42,192,49257,2,0,P|21:284|63:345,1,160,4|0,3:0|0:0,0:0:0:0:
137,356,49762,1,0,0:0:0:0:
201,296,49931,2,0,P|249:287|296:305,1,80,8|0,0:0|0:0,0:0:0:0:
358,199,50268,2,0,P|367:247|349:294,1,80
256,196,50605,2,0,P|247:158|255:119,1,80,4|4,3:0|3:0,0:0:0:0:
413,100,50942,2,0,P|375:109|336:101,1,80,2|0,0:3|0:0,0:0:0:0:
175,101,51279,2,0,P|136:109|98:100,1,80,8|0,0:0|0:0,0:0:0:0:
136,20,51616,1,0,0:0:0:0:
256,73,51785,1,0,0:0:0:0:
256,278,51953,6,0,B|214:192|214:192|297:192|297:192|256:275,2,240.000009155274,6|8|0,3:2|0:0|0:0,0:0:0:0:
387,204,52796,2,0,L|347:279,1,80,0|10,3:0|0:2,0:0:0:0:
256,278,53133,1,0,0:0:0:0:
162,274,53302,2,0,L|125:204,1,80,2|0,3:2|0:0,0:0:0:0:
198,130,53639,1,8,0:0:0:0:
301,130,53807,1,2,3:2:0:0:
329,295,53976,2,0,P|255:322|179:301,1,160,2|10,3:2|0:2,0:0:0:0:
106,106,54650,6,0,P|127:193|95:268,1,160,0|0,3:0|0:0,0:0:0:0:
178,62,55324,2,0,P|253:40|328:64,1,160,0|0,3:0|0:0,0:0:0:0:
408,256,55998,2,0,P|384:181|406:106,1,160,4|0,0:1|0:0,0:0:0:0:
256,192,57010,5,2,0:1:0:0:
256,192,57178,1,0,3:0:0:0:
385,240,57347,6,0,P|430:215|453:160,1,100,0|2,3:0|0:3,0:0:0:0:
302,282,57684,2,0,P|327:327|382:350,1,100,10|0,0:0|0:3,0:0:0:0:
256,192,58021,2,0,P|211:217|188:272,1,100,2|2,3:3|0:3,0:0:0:0:
344,156,58358,2,0,P|319:111|264:88,1,100,10|2,0:2|0:3,0:0:0:0:
256,192,58695,5,2,3:2:0:0:
302,282,58864,1,2,3:0:0:0:
344,156,59032,1,10,0:2:0:0:
417,309,59201,1,2,3:0:0:0:
417,309,59369,2,0,B|375:220|460:195|421:116,1,200,2|8,3:2|0:0,0:0:0:0:
139,154,59875,6,0,B|101:234|186:259|144:348,1,200,2|2,3:2|0:2,0:0:0:0:
57,146,60380,2,0,P|80:102|123:79,1,100,10|2,0:2|0:3,0:0:0:0:
252,127,60717,1,2,3:3:0:0:
206,37,60886,1,2,3:3:0:0:
164,163,61055,2,0,P|189:208|244:231,1,100,8|0,0:2|0:3,0:0:0:0:
306,37,61392,5,2,3:2:0:0:
348,163,61560,1,2,3:2:0:0:
164,163,61729,1,10,0:0:0:0:
206,37,61897,1,10,3:2:0:0:
256,256,62066,2,0,P|352:290|447:243,1,200,2|10,3:0|0:0,0:0:0:0:
256,256,62571,6,0,P|160:290|65:243,1,200,2|2,3:2|0:2,0:0:0:0:
239,135,63077,2,0,P|216:178|173:202,1,100,10|2,0:0|0:3,0:0:0:0:
158,74,63414,1,2,3:2:0:0:
158,74,63583,1,2,3:3:0:0:
354,74,63751,1,8,0:1:0:0:
354,74,63920,1,2,0:3:0:0:
206,171,64088,6,0,B|176:263|176:263|112:236|66:306,1,200,4|8,3:2|0:0,0:0:0:0:
256,331,64594,1,2,3:3:0:0:
306,171,64762,2,0,B|336:263|336:263|400:236|446:306,1,200,2|8,3:2|0:0,0:0:0:0:
332,64,65437,5,2,0:0:0:0:
312,73,65521,1,2,0:0:0:0:
295,80,65605,1,2,0:0:0:0:
256,204,65774,1,10,0:2:0:0:
180,64,66111,1,2,0:0:0:0:
200,73,66195,1,2,0:0:0:0:
217,80,66279,1,2,0:0:0:0:
256,204,66448,1,10,0:2:0:0:
191,316,66616,5,10,0:0:0:0:
321,316,66785,1,2,3:3:0:0:
386,203,66953,1,2,3:3:0:0:
321,91,67122,1,10,0:0:0:0:
191,91,67291,1,2,3:0:0:0:
125,203,67459,2,0,P|161:292|255:313,1,200,2|10,0:3|0:0,0:0:0:0:
386,203,68133,2,0,B|391:288|311:332|256:313|256:313|256:78,1,400,0|0,3:0|0:0,0:0:0:0:
172,248,69482,5,2,3:0:0:0:
200,343,69650,1,2,3:0:0:0:
300,347,69819,1,2,0:0:0:0:
334,253,69987,1,2,0:0:0:0:
256,192,70156,1,2,3:0:0:0:
172,136,70324,1,2,3:0:0:0:
200,41,70493,1,2,0:0:0:0:
300,37,70661,1,2,0:0:0:0:
334,131,70830,1,2,3:0:0:0:
256,192,70998,1,2,3:2:0:0:
172,248,71167,1,2,3:2:0:0:
334,253,71335,1,10,0:2:0:0:
254,106,71504,2,0,P|256:33|256:106,1,200,2|8,3:0|0:2,0:0:0:0:
92,245,72178,5,0,3:0:0:0:
96,134,72347,2,0,B|134:118|205:154|167:214|256:231,1,200,0|10,3:0|0:0,0:0:0:0:
420,245,72852,1,0,3:0:0:0:
416,134,73021,2,0,B|378:118|307:154|345:214|255:231,1,200,0|10,3:0|0:0,0:0:0:0:
256,66,73526,5,10,0:0:0:0:
398,208,73695,1,2,3:0:0:0:
256,66,73864,1,2,3:0:0:0:
114,208,74032,2,0,P|104:236|119:209,1,80,8|0,0:0|0:0,0:0:0:0:
307,23,76223,6,0,P|315:71|306:109,1,80,2|0,3:2|0:0,0:0:0:0:
202,101,76560,2,0,P|196:61|205:23,1,80,10|0,0:3|3:2,0:0:0:0:
294,175,76897,2,0,P|323:203|361:215,1,80,2|0,0:3|0:0,0:0:0:0:
217,175,77234,2,0,P|188:203|151:215,1,80,10|0,0:3|0:0,0:0:0:0:
151,300,77571,6,0,P|188:311|217:339,1,80,2|0,3:3|0:0,0:0:0:0:
360,300,77909,2,0,P|323:311|294:339,1,80,10|0,0:3|3:0,0:0:0:0:
183,206,78246,2,0,P|255:235|328:206,1,160,2|8,3:3|0:0,0:0:0:0:
438,295,78751,5,2,3:0:0:0:
438,295,78920,2,0,P|474:275|492:231,1,80,2|0,3:2|0:0,0:0:0:0:
371,328,79257,2,0,P|391:364|435:382,1,80,10|0,0:0|0:0,0:0:0:0:
334,256,79594,2,0,P|298:276|279:320,1,80,2|0,3:2|0:0,0:0:0:0:
405,227,79931,2,0,P|385:191|341:172,1,80,10|0,0:0|0:0,0:0:0:0:
361,84,80268,6,0,P|317:68|293:41,1,80,0|0,3:0|0:0,0:0:0:0:
151,83,80605,2,0,P|188:72|217:44,1,80,8|0,0:0|3:0,0:0:0:0:
328,177,80942,2,0,P|256:148|183:177,1,160,0|8,3:0|0:0,0:0:0:0:
74,295,81448,5,2,3:2:0:0:
74,295,81616,2,0,P|38:275|19:231,1,80,2|2,3:2|3:0,0:0:0:0:
141,328,81953,2,0,P|121:364|77:382,1,80,10|2,3:2|3:3,0:0:0:0:
178,256,82291,2,0,P|214:276|232:320,1,80,10|2,3:2|3:0,0:0:0:0:
107,227,82628,2,0,P|127:191|171:172,1,80,10|2,3:2|3:3,0:0:0:0:
380,98,82965,6,0,L|352:173,1,80,2|0,3:2|3:0,0:0:0:0:
160,173,83302,2,0,L|131:98,1,80,8|0,3:2|3:0,0:0:0:0:
256,27,83639,2,0,L|256:195,1,160,2|8,3:2|3:2,0:0:0:0:
256,294,84144,5,2,3:2:0:0:
256,294,84313,2,0,P|297:284|335:261,1,80,2|2,3:2|3:0,0:0:0:0:
256,90,84650,2,0,P|215:100|177:123,1,80,10|0,0:0|3:0,0:0:0:0:
358,192,84987,2,0,P|348:151|325:113,1,80,2|2,3:0|3:0,0:0:0:0:
154,192,85324,2,0,P|164:233|187:271,1,80,10|0,0:0|3:0,0:0:0:0:
328,264,85661,5,2,3:0:0:0:
256,294,85830,1,10,0:0:0:0:
328,119,85998,1,10,0:0:0:0:
358,192,86167,1,2,3:0:0:0:
183,119,86335,1,2,3:0:0:0:
256,89,86504,1,10,0:0:0:0:
183,264,86673,1,10,0:0:0:0:
153,191,86841,1,10,0:0:0:0:
