osu file format v14

[General]
AudioFilename: audio.mp3
AudioLeadIn: 0
PreviewTime: 54650
Countdown: 0
SampleSet: Soft
StackLeniency: 0.7
Mode: 0
LetterboxInBreaks: 0
WidescreenStoryboard: 1

[Editor]
Bookmarks: 11504,15549,20942,31729,43864,54650,57347,65437,69482,72178,76223,89032,93077
DistanceSpacing: 0.3
BeatDivisor: 4
GridSize: 32
TimelineZoom: 0.7999998

[Metadata]
Title:Chikatto Chika Chika
TitleUnicode:チカっとチカ千花っ♡
Artist:cillia
ArtistUnicode:cillia
Creator:Noffy
Version:-GN Jr.'s Love Detective
Source:Kaguya-sama: Love Is War
Tags:FrenZ396 Trynna Ataraxia Cynplytholowazy -GN Jr. -Keitaro VOCALOID kyaami cover ハイカラちゃん 音街ウナ Otomachi Una Unatto Una-UNA シリア かぐや様は告らせたい~天才たちの恋愛頭脳戦~ Japanese Anime Ending ED
BeatmapID:2024637
BeatmapSetID:959603

[Difficulty]
HPDrainRate:7
CircleSize:5.5
OverallDifficulty:8
ApproachRate:9
SliderMultiplier:2
SliderTickRate:1

[Events]
//Background and Video events
0,0,"una una.jpg",0,0
Video,0,"una test one.mp4"
//Break Periods
//Storyboard Layer 0 (Background)
//Storyboard Layer 1 (Fail)
//Storyboard Layer 2 (Pass)
//Storyboard Layer 3 (Foreground)
//Storyboard Layer 4 (Overlay)
//Storyboard Sound Samples

[TimingPoints]
718,337.078651685393,4,2,0,100,1,0
1392,-200,4,2,0,40,0,0
11504,-200,4,2,0,70,0,0
12852,-133.333333333333,4,2,0,70,0,0
14875,-117.647058823529,4,2,0,70,0,0
15549,-153.846153846153,4,2,2,70,0,0
16897,-133.333333333333,4,2,2,70,0,0
18246,-153.846153846153,4,2,2,70,0,0
20268,-100,4,2,2,70,0,0
20942,-200,4,2,2,70,0,0
25746,-200,4,2,2,5,0,0
25830,-200,4,2,2,70,0,0
27684,-166.666666666667,4,2,2,70,0,0
28189,-90.9090909090909,4,2,2,70,0,0
28611,-90.9090909090909,4,2,2,5,0,0
28695,-90.9090909090909,4,2,2,70,0,0
29032,-66.6666666666667,4,2,2,70,0,0
30380,-100,4,2,2,70,0,0
31392,-100,4,2,2,5,0,0
31729,-200,4,2,2,70,0,0
36279,-153.846153846153,4,2,2,70,0,0
36532,-200,4,2,2,5,0,0
36616,-200,4,2,2,70,0,0
41167,-133.333333333333,4,2,2,90,0,0
41251,-133.333333333333,4,2,2,30,0,0
41841,-114.285714285714,4,2,2,90,0,0
41925,-114.285714285714,4,2,2,30,0,0
42515,-100,4,2,2,80,0,0
43864,-250,4,2,1,70,0,0
49931,-133.333333333333,4,2,1,70,0,0
50605,-250,4,2,1,70,0,0
51279,-133.333333333333,4,2,1,70,0,0
51953,-200,4,2,2,70,0,0
54650,-80,4,2,2,80,0,0
54734,-80,4,2,2,5,0,0
55324,-80,4,2,2,90,0,0
55409,-80,4,2,2,5,0,0
55998,-86.9565217391304,4,2,2,90,0,0
56098,-133.333333333333,4,2,2,90,0,0
57094,-133.333333333333,4,2,5,90,0,0
57347,-133.333333333333,4,2,5,90,0,1
59622,-133.333333333333,4,2,5,5,0,1
59706,-117.647058823529,4,2,5,90,0,1
59791,-117.647058823529,4,2,5,5,0,1
59875,-133.333333333333,4,2,5,90,0,1
62066,-117.647058823529,4,2,5,90,0,1
62319,-117.647058823529,4,2,5,5,0,1
62403,-50,4,2,5,90,0,1
62487,-50,4,2,5,5,0,1
62571,-133.333333333333,4,2,5,90,0,1
66111,-117.647058823529,4,2,5,90,0,1
66785,-105.263157894737,4,2,5,90,0,1
67459,-100,4,2,5,90,0,1
68133,-133.333333333333,4,2,5,90,0,1
69482,-100,4,2,5,90,0,0
72178,-100,4,2,5,90,0,1
72346,-83.3333333333333,4,2,5,90,0,1
72852,-100,4,2,5,90,0,1
73021,-76.9230769230769,4,2,5,90,0,1
74032,-71.4285714285714,4,2,5,90,0,0
75886,-133.333333333333,4,2,5,100,0,0
76055,-133.333333333333,4,2,5,5,0,0
76223,-153.846153846154,4,2,5,70,0,0
77571,-133.333333333333,4,2,5,70,0,0
78751,-133.333333333333,4,2,5,75,0,0
81448,-100,4,2,5,80,0,0
84144,-100,4,2,5,85,0,0
85661,-100,4,2,5,90,0,0
89032,-148.148148148148,4,2,5,90,0,0
89116,-148.148148148148,4,2,0,20,0,0

[Colours]
Combo1 : 221,34,53
Combo2 : 61,80,211
Combo3 : 230,108,247
Combo4 : 179,136,230

[HitObjects]
103,151,1392,5,2,0:0:0:0:
87,52,2066,1,2,0:0:0:0:
186,36,2740,1,2,0:0:0:0:
202,135,3414,1,2,0:0:0:0:
409,233,5437,5,2,0:0:0:0:
425,332,6111,1,2,0:0:0:0:
326,348,6785,1,2,0:0:0:0:
310,249,7459,1,2,0:0:0:0:
304,209,8807,5,2,0:0:0:0:
298,169,10156,5,2,0:0:0:0:
296,149,10830,1,2,0:0:0:0:
293,129,11504,2,0,L|286:19,1,100,8|0,3:0|0:0,0:0:0:0:
275,240,12178,2,0,L|268:350,1,100,8|0,3:0|0:0,0:0:0:0:
202,124,12852,2,0,B|252:35|217:-32|139:-1|131:57|131:57|44:-1|-22:65|35:138|84:192|142:142|199:200|215:277,1,600.000022888185,12|0,3:0|0:0,0:0:0:0:
234,328,14369,5,0,3:2:0:0:
84,183,14538,1,0,3:2:0:0:
252,71,14706,1,0,3:2:0:0:
52,315,14875,2,0,B|26:347|26:347|163:340,1,170.000003242493,0|0,3:0|0:0,0:0:0:0:
426,298,15549,6,0,P|468:262|462:191,1,129.999994049073,2|8,3:2|0:0,0:0:0:0:
235,339,16055,2,0,L|376:353,1,129.999994049073,2|0,3:2|3:0,0:0:0:0:
435,360,16560,1,10,0:2:0:0:
371,285,16729,1,0,0:0:0:0:
185,378,16897,5,0,3:0:0:0:
235,74,17066,2,0,L|219:169,1,75.0000028610231,2|8,3:2|0:0,0:0:0:0:
338,298,17403,2,0,P|408:305|382:253,1,150.000005722046,2|0,3:2|3:0,0:0:0:0:
272,300,17909,1,10,0:2:0:0:
186,61,18246,6,0,P|142:119|178:183,1,129.999994049073,2|8,3:2|0:0,0:0:0:0:
397,42,18751,2,0,L|254:25,1,129.999994049073,2|0,3:2|3:0,0:0:0:0:
186,19,19257,1,10,0:2:0:0:
177,18,19425,1,10,0:2:0:0:
334,252,19762,5,2,3:2:0:0:
136,131,19931,1,2,3:2:0:0:
377,88,20100,1,2,3:2:0:0:
94,353,20268,2,0,B|53:332|42:288|71:248|71:248|91:220|91:191|73:161,1,200,2|0,3:2|0:0,0:0:0:0:
32,26,20942,6,0,P|63:55|134:51,1,100,2|8,3:2|0:0,0:0:0:0:
299,103,21448,2,0,P|268:132|197:128,1,100,2|0,3:2|3:0,0:0:0:0:
125,121,21953,1,8,0:2:0:0:
176,190,22122,1,2,0:2:0:0:
91,329,22291,6,0,L|114:211,1,100,0|8,3:0|0:0,0:0:0:0:
38,21,22796,2,0,L|61:139,1,100,2|2,3:2|3:2,0:0:0:0:
168,201,23302,1,10,0:2:0:0:
413,221,23639,6,0,P|356:212|314:242,1,100,2|10,3:2|0:2,0:0:0:0:
250,317,24144,1,2,3:2:0:0:
249,118,24313,2,0,P|240:165|244:188,1,50,0|0,3:0|3:0,0:0:0:0:
256,235,24650,1,10,0:2:0:0:
176,158,24819,1,2,0:2:0:0:
135,335,24987,5,0,3:0:0:0:
102,162,25156,2,0,P|101:206|106:231,1,50,2|8,3:2|0:0,0:0:0:0:
197,306,25493,2,0,P|156:273|113:273,1,75,2|0,3:2|0:0,0:0:0:0:
113,276,25830,1,2,3:2:0:0:
305,304,25998,1,10,0:2:0:0:
159,138,26335,6,0,P|198:180|248:180,1,100,2|8,3:2|0:0,0:0:0:0:
397,34,27010,2,0,L|390:102,1,50,2|0,3:2|3:0,0:0:0:0:
432,139,27347,2,0,L|440:205,1,50,10|0,0:2|0:0,0:0:0:0:
365,264,27684,6,0,P|420:260|439:316,1,119.999996337891,0|8,3:0|0:0,0:0:0:0:
172,234,28189,22,0,B|113:169|192:117|246:142|245:202|245:202|246:223|237:236|233:251|231:276|236:306,1,275.000008392334,2|0,3:2|0:0,0:0:0:0:
247,333,28695,1,10,0:2:0:0:
399,208,29032,38,0,B|424:188|424:188|437:175|405:195|405:195|377:158|386:176|386:176|399:208|401:240,1,150.000005722046,2|0,3:3|0:0,0:0:0:0:
356,45,29369,2,0,B|384:29|384:29|399:19|364:33|364:33|343:-9|348:11|348:11|356:45|352:76,1,150.000005722046,10|0,0:3|0:0,0:0:0:0:
161,24,29706,2,0,B|132:8|132:8|117:-2|152:12|152:12|173:-30|168:-10|168:-10|161:24|163:36,1,150.000005722046,2|0,3:3|0:0,0:0:0:0:
77,193,30043,2,0,B|52:173|52:173|39:160|71:180|71:180|99:143|90:161|90:161|77:193|77:205,1,150.000005722046,10|0,0:3|0:0,0:0:0:0:
214,326,30380,5,2,3:3:0:0:
135,199,30549,1,0,3:0:0:0:
220,37,30717,1,2,3:3:0:0:
409,95,30886,1,0,3:0:0:0:
340,308,31055,2,0,P|404:270|371:349,1,200,2|0,0:3|0:0,0:0:0:0:
61,316,31729,6,0,P|111:305|139:263,1,100,2|8,3:2|0:0,0:0:0:0:
82,82,32403,2,0,L|137:89,1,50,0|0,3:0|3:0,0:0:0:0:
191,137,32740,2,0,L|258:127,1,50,8|2,0:2|0:2,0:0:0:0:
322,62,33077,6,0,L|308:165,1,100,0|8,3:0|0:0,0:0:0:0:
402,322,33583,2,0,L|388:219,1,100,2|2,3:2|3:2,0:0:0:0:
289,143,34088,1,10,0:2:0:0:
150,307,34425,6,0,L|207:298,1,50,2|0,3:2|0:0,0:0:0:0:
310,364,34762,2,0,L|253:355,1,50,10|2,0:2|3:2,0:0:0:0:
159,237,35100,2,0,P|161:178|203:153,1,100,0|10,3:0|0:2,0:0:0:0:
269,134,35605,1,2,0:0:0:0:
237,320,35774,6,0,P|233:291|241:260,1,50,0|2,3:0|3:2,0:0:0:0:
281,124,36111,1,8,0:0:0:0:
112,287,36279,2,0,P|159:282|170:328,1,97.4999955368044,2|0,3:2|0:0,0:0:0:0:
161,339,36616,2,0,L|226:336,1,50,2|10,3:2|0:2,0:0:0:0:
385,300,37122,6,0,P|354:271|283:275,1,100,2|8,3:2|0:0,0:0:0:0:
118,223,37628,2,0,P|149:194|220:198,1,100,2|0,3:2|3:0,0:0:0:0:
292,205,38133,1,10,0:2:0:0:
241,136,38302,1,2,0:0:0:0:
379,30,38470,6,0,P|373:78|339:113,1,100,2|8,3:2|0:2,0:0:0:0:
393,293,38976,2,0,P|398:244|432:209,1,100,2|0,3:2|3:0,0:0:0:0:
506,168,39482,1,8,0:2:0:0:
438,116,39650,1,2,0:0:0:0:
332,215,39819,6,0,L|338:283,1,50,2|0,3:2|0:0,0:0:0:0:
346,347,40156,1,10,0:2:0:0:
272,172,40324,2,0,P|315:143|376:165,1,100,0|2,3:0|3:2,0:0:0:0:
445,227,40830,1,8,0:0:0:0:
205,345,41167,6,0,L|199:308,1,37.5000014305115,2|2,3:2|3:2,0:0:0:0:
162,236,41335,2,0,L|168:197,1,37.5000014305115,2|2,3:2|3:2,0:0:0:0:
208,127,41504,1,2,3:2:0:0:
330,359,41841,6,0,L|337:314,1,43.7500004172325,2|2,3:2|3:2,0:0:0:0:
377,239,42010,2,0,L|369:191,1,43.7500004172325,2|0,3:2|0:0,0:0:0:0:
326,119,42178,1,2,3:2:0:0:
60,216,42515,6,0,B|41:250|57:272|88:277|98:253|108:227|108:227|89:264|88:288|89:319|89:319|87:334|72:352|46:322|106:297|123:294|123:294|164:287|172:314|106:334|129:355|205:335,1,400,4|0,3:1|3:2,0:0:0:0:
438,351,43864,5,4,3:0:0:0:
481,214,44032,1,4,3:0:0:0:
455,146,44201,2,0,L|448:92,1,40,2|0,0:0|0:0,0:0:0:0:
389,66,44538,2,0,L|383:105,1,40,2|0,0:0|0:0,0:0:0:0:
377,177,44875,1,2,0:0:0:0:
377,177,45043,1,0,0:0:0:0:
269,80,45212,5,4,3:0:0:0:
226,217,45380,1,4,3:0:0:0:
247,285,45549,2,0,L|240:339,1,40,2|0,0:0|0:0,0:0:0:0:
181,365,45886,2,0,L|175:325,1,40,2|0,0:0|0:0,0:0:0:0:
169,254,46223,1,2,0:3:0:0:
153,76,46560,5,4,3:3:0:0:
290,33,46729,1,4,3:3:0:0:
358,59,46897,2,0,L|412:66,1,40,2|0,0:0|0:0,0:0:0:0:
438,125,47234,2,0,L|398:130,1,40,2|0,0:0|0:0,0:0:0:0:
327,137,47571,1,2,0:0:0:0:
424,245,47909,5,0,3:0:0:0:
287,288,48077,1,0,3:0:0:0:
219,267,48246,2,0,L|165:274,1,40,2|0,0:0|0:0,0:0:0:0:
139,333,48583,2,0,L|178:338,1,40,2|0,0:0|0:0,0:0:0:0:
250,345,48920,1,2,0:3:0:0:
370,216,49257,5,4,3:0:0:0:
437,89,49425,1,4,3:0:0:0:
480,146,49594,2,0,L|486:197,1,40,2|0,0:3|0:0,0:0:0:0:
386,289,49931,2,0,B|351:295|320:280|307:248|307:248|279:273|241:257,1,150.000005722046,8|0,0:0|0:0,0:0:0:0:
141,176,50605,5,4,3:0:0:0:
74,303,50774,1,4,3:0:0:0:
31,246,50942,2,0,L|25:195,1,40,2|0,0:3|0:0,0:0:0:0:
125,103,51279,2,0,B|160:97|191:112|204:144|204:144|232:119|270:135,1,150.000005722046,8|0,0:0|0:0,0:0:0:0:
403,287,51953,6,0,P|393:239|430:206,1,100,6|8,3:2|0:0,0:0:0:0:
461,340,52459,2,0,P|415:371|363:349,1,100,2|0,3:2|3:0,0:0:0:0:
317,298,52965,1,10,0:2:0:0:
104,352,53302,6,0,L|116:241,1,100,2|8,3:2|0:0,0:0:0:0:
176,192,53807,1,2,3:2:0:0:
134,114,53976,1,2,3:2:0:0:
220,273,54144,2,0,L|228:326,1,50,2|10,3:2|0:2,0:0:0:0:
412,168,54650,6,0,L|401:254,1,62.5,0|0,3:0|3:0,0:0:0:0:
298,35,55324,6,0,L|287:121,1,62.5,0|0,3:0|3:0,0:0:0:0:
103,347,55998,6,0,B|115:277|42:175|42:175|128:168|82:104|166:100|166:100|198:100|265:110|274:186|248:271|179:273|148:270|113:231|111:193|142:154|163:144|187:157|188:186,1,690.000013160706,4|2,0:1|0:1,0:0:0:0:
348,222,57178,6,0,P|361:150|306:165,1,150.000005722046,2|2,3:2|0:3,0:0:0:0:
242,364,57684,2,0,L|256:267,1,75.0000028610231,10|0,0:0|0:3,0:0:0:0:
149,155,58021,2,0,L|164:253,1,75.0000028610231,2|2,3:3|0:3,0:0:0:0:
258,383,58358,2,0,L|272:286,1,75.0000028610231,10|2,0:2|0:3,0:0:0:0:
301,109,58695,5,2,3:2:0:0:
192,200,58864,1,2,3:0:0:0:
283,300,59032,1,10,0:2:0:0:
214,54,59201,1,2,3:0:0:0:
217,334,59369,2,0,P|286:385|324:361,1,112.500004291535,2|0,3:2|0:0,0:0:0:0:
329,363,59706,2,0,L|333:307,1,42.5000008106232,8|0,0:0|0:0,0:0:0:0:
349,130,59875,6,0,P|410:113|394:173,1,150.000005722046,2|2,3:2|0:2,0:0:0:0:
207,232,60380,2,0,L|296:217,1,75.0000028610231,10|2,0:2|0:3,0:0:0:0:
412,324,60717,2,0,L|322:309,1,75.0000028610231,2|2,3:3|0:3,0:0:0:0:
187,216,61055,2,0,L|276:201,1,75.0000028610231,8|0,0:2|0:3,0:0:0:0:
458,175,61392,5,2,3:2:0:0:
369,280,61560,1,2,3:2:0:0:
264,192,61729,1,10,0:0:0:0:
511,260,61897,1,10,3:2:0:0:
156,342,62066,2,0,L|146:181,1,127.50000243187,2|0,3:0|0:0,0:0:0:0:
163,188,62403,2,0,P|202:182|185:226,1,100,10|0,0:0|0:0,0:0:0:0:
80,312,62571,6,0,P|15:291|54:238,1,150.000005722046,2|2,3:2|0:0,0:0:0:0:
220,339,63077,2,0,L|241:243,1,75.0000028610231,10|2,0:0|0:3,0:0:0:0:
135,133,63414,2,0,L|149:228,1,75.0000028610231,2|2,3:2|0:3,0:0:0:0:
235,356,63751,2,0,L|256:260,1,75.0000028610231,8|2,0:1|0:3,0:0:0:0:
175,89,64088,5,4,3:2:0:0:
257,261,64257,2,0,L|275:181,1,75.0000028610231,2|8,3:3|0:0,0:0:0:0:
454,23,64594,1,2,3:3:0:0:
401,213,64762,2,0,P|449:189|430:255,1,150.000005722046,2|8,3:2|0:0,0:0:0:0:
241,340,65437,6,0,L|204:334,1,37.5000014305115,2|0,3:3|0:0,0:0:0:0:
48,256,65605,2,0,L|87:250,1,37.5000014305115,2|0,3:3|0:0,0:0:0:0:
236,235,65774,1,10,0:2:0:0:
282,175,66111,6,0,L|231:166,1,42.5000008106232,2|0,3:0|0:0,0:0:0:0:
17,109,66279,2,0,L|62:101,1,42.5000008106232,2|0,3:0|0:0,0:0:0:0:
257,74,66448,1,10,0:2:0:0:
257,74,66616,1,10,0:0:0:0:
268,323,66785,6,0,L|280:257,1,47.4999987316132,2|0,3:3|0:0,0:0:0:0:
322,32,66953,2,0,L|331:95,1,47.4999987316132,2|0,3:3|0:0,0:0:0:0:
370,294,67122,1,10,0:0:0:0:
203,200,67291,1,2,3:0:0:0:
441,176,67459,5,2,0:2:0:0:
41,71,67796,1,10,0:0:0:0:
403,335,68133,6,0,P|417:267|350:276,1,150.000005722046,0|8,3:0|0:0,0:0:0:0:
177,360,68639,2,0,P|245:355|224:291,1,150.000005722046,0|0,3:0|3:0,0:0:0:0:
126,268,69144,1,8,0:0:0:0:
206,51,69482,5,2,3:0:0:0:
225,189,69650,1,2,3:0:0:0:
162,291,69819,1,2,0:2:0:0:
68,325,69987,1,10,0:2:0:0:
340,113,70156,5,2,3:0:0:0:
240,211,70324,1,2,3:0:0:0:
120,225,70493,1,10,0:2:0:0:
0,153,70661,1,10,0:2:0:0:
387,268,70830,5,2,3:0:0:0:
237,323,70998,1,10,3:2:0:0:
103,201,71167,1,8,0:0:0:0:
186,31,71335,1,0,3:3:0:0:
255,345,71504,5,2,3:0:0:0:
315,61,71673,1,2,0:3:0:0:
380,191,71841,2,0,P|389:238|338:288,1,100,8|0,0:2|0:0,0:0:0:0:
192,370,72178,5,0,3:0:0:0:
146,81,72347,2,0,B|126:50|84:54|61:90|58:126|94:154|94:154|124:173|138:192|150:228,1,239.999992675781,0|10,3:0|0:0,0:0:0:0:
192,370,72852,1,0,3:0:0:0:
211,34,73021,2,0,B|234:5|276:14|293:53|292:88|253:112|253:112|221:128|205:144|191:192,1,259.999988098145,0|10,3:0|0:0,0:0:0:0:
172,352,73526,5,10,0:0:0:0:
323,243,73695,1,2,3:0:0:0:
77,157,73864,1,2,3:0:0:0:
394,358,74032,2,0,B|460:338|488:276|455:209|455:209|433:163|440:120|472:78|472:78|422:71|368:96|339:126|339:126|332:97|345:65|366:49|366:49|326:42|290:53|258:80|250:122,1,699.999978637696,8|0,0:0|0:0,0:0:0:0:
224,244,75043,5,2,3:3:0:0:
383,169,75212,1,2,3:3:0:0:
150,91,75380,1,2,3:3:0:0:
463,343,75549,1,2,3:3:0:0:
416,26,75886,6,0,L|497:20,1,75.0000028610231,2|0,0:3|0:0,0:0:0:0:
426,86,76223,6,0,P|468:122|462:193,1,129.999994049073,2|8,3:2|0:0,0:0:0:0:
235,45,76729,2,0,L|376:31,1,129.999994049073,0|0,3:2|3:0,0:0:0:0:
435,24,77234,1,8,0:2:0:0:
371,99,77403,1,0,3:0:0:0:
185,6,77571,5,0,3:0:0:0:
235,310,77740,2,0,L|219:215,1,75.0000028610231,0|8,3:0|0:0,0:0:0:0:
338,86,78077,2,0,P|408:79|382:131,1,150.000005722046,0|0,3:0|3:0,0:0:0:0:
272,84,78583,1,8,0:0:0:0:
223,344,78751,6,0,L|255:170,1,150.000005722046,2|2,3:0|3:0,0:0:0:0:
283,32,79257,5,10,0:0:0:0:
304,223,79425,1,0,3:0:0:0:
205,88,79594,1,2,3:0:0:0:
381,166,79762,1,0,3:0:0:0:
216,184,79931,1,10,0:0:0:0:
370,70,80100,1,0,3:0:0:0:
304,223,80268,5,0,3:0:0:0:
52,186,80437,2,0,L|131:197,1,75.0000028610231,0|8,3:0|0:0,0:0:0:0:
275,335,80774,2,0,P|237:361|226:288,1,150.000005722046,0|0,3:0|3:0,0:0:0:0:
343,370,81279,1,8,0:0:0:0:
291,43,81448,6,0,L|283:149,1,100,2|0,3:0|3:0,0:0:0:0:
270,314,81785,1,2,3:0:0:0:
148,173,81953,1,10,3:2:0:0:
393,230,82122,1,2,3:3:0:0:
163,352,82291,5,10,3:2:0:0:
245,91,82459,1,2,3:0:0:0:
286,329,82628,1,10,3:2:0:0:
245,91,82796,1,2,3:3:0:0:
138,253,82965,5,0,3:2:0:0:
319,188,83133,1,0,3:0:0:0:
103,113,83302,1,8,3:2:0:0:
372,314,83470,2,0,P|441:266|424:153,1,200,0|0,3:0|3:0,0:0:0:0:
348,57,83976,1,8,3:2:0:0:
170,167,84144,6,0,L|191:290,1,100,0|0,0:0|3:0,0:0:0:0:
215,383,84482,1,2,3:0:0:0:
266,136,84650,1,10,0:0:0:0:
299,317,84819,1,10,0:0:0:0:
108,206,84987,5,2,3:0:0:0:
363,182,85156,1,2,3:0:0:0:
94,302,85324,1,10,0:0:0:0:
401,265,85493,1,10,0:0:0:0:
226,44,85661,5,2,3:0:0:0:
108,208,85830,1,10,0:0:0:0:
272,326,85998,1,10,0:0:0:0:
390,162,86167,1,2,3:0:0:0:
76,59,86335,5,2,3:0:0:0:
123,358,86504,1,10,0:0:0:0:
422,310,86673,1,10,0:0:0:0:
374,12,86841,1,10,0:0:0:0:
16,223,89032,6,0,B|30:370|65:391|110:384|144:349|134:319|108:203|108:203|132:320|172:376|183:388|216:295|190:195|190:195|222:276|310:322|310:322|291:262|288:176|288:176|281:291|335:339|386:348|362:291|414:157|414:157|471:256|471:256|429:269|429:269|476:265|476:265|509:328,1,1620.00000617981,14|0,3:0|0:0,0:0:0:0:
