osu file format v14

[General]
AudioFilename: audio.mp3
AudioLeadIn: 0
PreviewTime: 212002
Countdown: 0
SampleSet: Soft
StackLeniency: 0.4
Mode: 0
LetterboxInBreaks: 0
EpilepsyWarning: 1
WidescreenStoryboard: 1

[Editor]
Bookmarks: 21202,42802,60802,81052,90802,112402,131602,226725
DistanceSpacing: 0.2
BeatDivisor: 4
GridSize: 16
TimelineZoom: 2.5

[Metadata]
Title:Shiroi Yuki no Princess wa
TitleUnicode:白い雪のプリンセスは
Artist:cillia & Ayaponzu*
ArtistUnicode:cillia & あやぽんず*
Creator:Mnyui
Version:Jval's Extra
Source:
Tags:初音ミク Hatsune Miku -Project DIVA- Arcade The Snow White Princess Is のぼる↑ Noboru↑ Noboru↑-P NoboruP Noboru MEIKO V3 POWER Vocaloid Utaite Cover ぽんたすてぃっく!Pontastick! Comiket Comik Comic Market 90 C90 Japanese Novelty Rock kaizuun shifu touka jval93700
BeatmapID:2156341
BeatmapSetID:993928

[Difficulty]
HPDrainRate:6
CircleSize:4.5
OverallDifficulty:8.4
ApproachRate:9.3
SliderMultiplier:1.93
SliderTickRate:1

[Events]
//Background and Video events
0,0,"insane.jpg",0,0
//Break Periods
//Storyboard Layer 0 (Background)
//Storyboard Layer 1 (Fail)
//Storyboard Layer 2 (Pass)
//Storyboard Layer 3 (Foreground)
//Storyboard Layer 4 (Overlay)
Sprite,Overlay,Centre,"SB\pulse2.jpg",320,240 F,0,6577,6588,1,0.9473135 S,0,6577,6652,0.4632259,0.5045163 F,0,6588,6652,0.9473135,0.6407743 F,0,6652,6727,0.6407743,0 S,0,6652,6727,0.5045163,0.1 F,0,6727,6802,0
//Storyboard Sound Samples

[TimingPoints]
1852,300,4,2,2,70,1,0
1852,-166.666666666667,4,2,2,70,0,0
6652,-86.9565217391304,4,2,2,90,0,0
6802,300,4,2,2,90,1,0
7102,-86.9565217391304,4,2,2,90,0,0
8977,-86.9565217391304,4,2,2,5,0,0
9052,-86.9565217391304,4,2,2,90,0,0
10477,-86.9565217391304,4,2,2,5,0,0
10552,-86.9565217391304,4,2,2,90,0,0
10627,-86.9565217391304,4,2,2,5,0,0
10702,-86.9565217391304,4,2,2,90,0,0
10852,-71.4285714285714,4,2,2,90,0,0
11077,-86.9565217391304,4,2,2,5,0,0
11152,-86.9565217391304,4,2,2,90,0,0
11227,-86.9565217391304,4,2,2,5,0,0
11302,-86.9565217391304,4,2,2,90,0,0
11902,-76.9230769230769,4,2,2,90,0,0
12127,-86.9565217391304,4,2,2,5,0,0
12202,-76.9230769230769,4,2,2,90,0,0
12652,-86.9565217391304,4,2,2,90,0,0
13852,-76.9230769230769,4,2,2,90,0,0
14302,-86.9565217391304,4,2,2,90,0,0
15277,-86.9565217391304,4,2,2,5,0,0
15352,-86.9565217391304,4,2,2,90,0,0
15427,-86.9565217391304,4,2,2,5,0,0
15502,-86.9565217391304,4,2,2,90,0,0
15652,-71.4285714285714,4,2,2,90,0,0
15877,-86.9565217391304,4,2,2,5,0,0
15952,-86.9565217391304,4,2,2,90,0,0
16027,-86.9565217391304,4,2,2,5,0,0
16102,-86.9565217391304,4,2,2,90,0,0
16252,-71.4285714285714,4,2,2,90,0,0
16477,-86.9565217391304,4,2,2,5,0,0
16552,-71.4285714285714,4,2,2,90,0,0
16927,-86.9565217391304,4,2,2,5,0,0
17002,-71.4285714285714,4,2,2,90,0,0
17377,-86.9565217391304,4,2,2,5,0,0
17452,-71.4285714285714,4,2,2,90,0,0
19852,-71.4285714285714,4,2,2,80,0,0
20077,-71.4285714285714,4,2,2,5,0,0
20152,-71.4285714285714,4,2,2,70,0,0
20302,-111.111111111111,4,2,2,70,0,0
20377,-71.4285714285714,4,2,2,5,0,0
20452,-111.111111111111,4,2,2,70,0,0
20527,-71.4285714285714,4,2,2,5,0,0
20602,-111.111111111111,4,2,2,70,0,0
20677,-71.4285714285714,4,2,2,5,0,0
20752,-111.111111111111,4,2,2,70,0,0
20827,-71.4285714285714,4,2,2,5,0,0
20902,-71.4285714285714,4,2,2,70,0,0
21127,-71.4285714285714,4,2,2,5,0,0
21202,-71.4285714285714,4,2,2,80,0,0
23152,-166.666666666667,4,2,2,80,0,0
23452,-111.111111111111,4,2,2,80,0,0
25327,-71.4285714285714,4,2,2,5,0,0
25552,-111.111111111111,4,2,2,80,0,0
25627,-71.4285714285714,4,2,2,5,0,0
25702,-111.111111111111,4,2,2,80,0,0
26527,-71.4285714285714,4,2,2,5,0,0
26602,-111.111111111111,4,2,2,80,0,0
27727,-71.4285714285714,4,2,2,5,0,0
27802,-111.111111111111,4,2,2,80,0,0
30577,-71.4285714285714,4,2,2,5,0,0
30652,-111.111111111111,4,2,2,80,0,0
30727,-71.4285714285714,4,2,2,5,0,0
30802,-111.111111111111,4,2,2,80,0,0
32752,-166.666666666667,4,2,2,80,0,0
33052,-111.111111111111,4,2,2,80,0,0
34927,-71.4285714285714,4,2,2,5,0,0
35152,-111.111111111111,4,2,2,80,0,0
35227,-71.4285714285714,4,2,2,5,0,0
35302,-111.111111111111,4,2,2,80,0,0
36127,-71.4285714285714,4,2,2,5,0,0
36202,-111.111111111111,4,2,2,80,0,0
39202,-95.2380952380952,4,2,2,80,0,0
40402,-83.3333333333333,4,2,2,80,0,0
41602,-71.4285714285714,4,2,2,80,0,0
41827,-71.4285714285714,4,2,2,5,0,0
41902,-71.4285714285714,4,2,2,80,0,0
42127,-71.4285714285714,4,2,2,5,0,0
42202,-71.4285714285714,4,2,2,80,0,0
42427,-71.4285714285714,4,2,2,5,0,0
42502,-71.4285714285714,4,2,2,80,0,0
42727,-71.4285714285714,4,2,2,5,0,0
42802,-74.0740740740741,4,2,2,80,0,0
43027,-71.4285714285714,4,2,2,5,0,0
43102,-74.0740740740741,4,2,2,90,0,0
44227,-71.4285714285714,4,2,2,5,0,0
44302,-74.0740740740741,4,2,2,90,0,0
45127,-71.4285714285714,4,2,2,5,0,0
45202,-74.0740740740741,4,2,2,90,0,0
45427,-71.4285714285714,4,2,2,5,0,0
45502,-74.0740740740741,4,2,2,90,0,0
46327,-71.4285714285714,4,2,2,5,0,0
46402,-74.0740740740741,4,2,2,90,0,0
46627,-71.4285714285714,4,2,2,5,0,0
46702,-74.0740740740741,4,2,2,90,0,0
47827,-71.4285714285714,4,2,2,5,0,0
47902,-74.0740740740741,4,2,2,90,0,0
49027,-71.4285714285714,4,2,2,5,0,0
49102,-74.0740740740741,4,2,2,90,0,0
49927,-74.0740740740741,4,2,2,5,0,0
50002,-74.0740740740741,4,2,2,70,0,0
50227,-71.4285714285714,4,2,2,5,0,0
50302,-74.0740740740741,4,2,2,90,0,0
51127,-71.4285714285714,4,2,2,5,0,0
51202,-66.6666666666667,4,2,2,70,0,0
51427,-71.4285714285714,4,2,2,5,0,0
51502,-66.6666666666667,4,2,2,70,0,0
51727,-71.4285714285714,4,2,2,5,0,0
51802,-66.6666666666667,4,2,2,70,0,0
52027,-71.4285714285714,4,2,2,5,0,0
52102,-66.6666666666667,4,2,2,70,0,0
52327,-71.4285714285714,4,2,2,5,0,0
52402,-95.2380952380952,4,2,2,70,0,0
56902,-74.0740740740741,4,2,2,70,0,0
57127,-71.4285714285714,4,2,2,5,0,0
57202,-86.9565217391304,4,2,2,70,0,0
58027,-71.4285714285714,4,2,2,5,0,0
58102,-86.9565217391304,4,2,2,70,0,0
59602,-117.647058823529,4,2,2,70,0,0
59827,-71.4285714285714,4,2,2,5,0,0
59902,-117.647058823529,4,2,2,70,0,0
59977,-71.4285714285714,4,2,2,5,0,0
60052,-117.647058823529,4,2,2,70,0,0
60427,-71.4285714285714,4,2,2,5,0,0
60502,-117.647058823529,4,2,2,70,0,0
61027,-117.647058823529,4,2,2,5,0,0
61102,-117.647058823529,4,2,2,45,0,0
61327,-117.647058823529,4,2,2,5,0,0
61402,-117.647058823529,4,2,2,50,0,0
61627,-117.647058823529,4,2,2,5,0,0
61702,-117.647058823529,4,2,2,55,0,0
61927,-117.647058823529,4,2,2,5,0,0
62002,-66.6666666666667,4,2,2,90,0,1
62452,-78.125,4,2,2,90,0,1
62827,-78.125,4,2,2,5,0,1
62902,-78.125,4,2,2,90,0,1
63127,-78.125,4,2,2,5,0,1
63202,-78.125,4,2,2,90,0,1
64627,-78.125,4,2,2,5,0,1
64702,-78.125,4,2,2,90,0,1
65527,-78.125,4,2,2,5,0,1
65602,-68.9655172413793,4,2,2,90,0,1
65902,-117.647058823529,4,2,2,90,0,1
65977,-78.125,4,2,2,5,0,1
66052,-117.647058823529,4,2,2,90,0,1
66127,-78.125,4,2,2,5,0,1
66202,-68.9655172413793,4,2,2,90,0,1
66427,-68.9655172413793,4,2,2,5,0,1
66502,-68.9655172413793,4,2,2,90,0,1
66727,-68.9655172413793,4,2,2,5,0,1
66802,-78.125,4,2,2,90,0,1
67927,-78.125,4,2,2,5,0,1
68002,-78.125,4,2,2,90,0,1
69127,-78.125,4,2,2,5,0,1
69202,-68.9655172413793,4,2,2,90,0,1
69502,-78.125,4,2,2,90,0,1
69577,-78.125,4,2,2,5,0,1
69652,-68.9655172413793,4,2,2,90,0,1
69877,-78.125,4,2,2,5,0,1
69952,-68.9655172413793,4,2,2,90,0,1
70177,-78.125,4,2,2,5,0,1
70252,-68.9655172413793,4,2,2,90,0,1
71152,-90.9090909090909,4,2,2,90,0,1
71602,-66.6666666666667,4,2,2,90,0,1
72052,-78.125,4,2,2,90,0,1
72727,-78.125,4,2,2,5,0,1
72802,-78.125,4,2,2,90,0,1
73027,-78.125,4,2,2,5,0,1
73102,-78.125,4,2,2,100,0,1
73327,-78.125,4,2,2,5,0,1
73402,-78.125,4,2,2,90,0,1
74002,-68.9655172413793,4,2,2,90,0,1
74227,-68.9655172413793,4,2,2,5,0,1
74302,-68.9655172413793,4,2,2,90,0,1
74902,-90.9090909090909,4,2,2,90,0,1
74977,-78.125,4,2,2,5,0,1
75052,-68.9655172413793,4,2,2,90,0,1
76327,-78.125,4,2,2,5,0,1
76402,-68.9655172413793,4,2,2,90,0,1
77302,-78.125,4,2,2,90,0,1
77527,-78.125,4,2,2,5,0,1
77602,-78.125,4,2,2,90,0,1
77827,-78.125,4,2,2,5,0,1
77902,-78.125,4,2,2,90,0,1
78802,-90.9090909090909,4,2,2,90,0,1
79252,-76.9230769230769,4,2,2,90,0,1
79702,-66.6666666666667,4,2,2,90,0,1
79927,-78.125,4,2,2,5,0,1
80002,-66.6666666666667,4,2,2,90,0,1
80077,-78.125,4,2,2,5,0,1
80152,-66.6666666666667,4,2,2,90,0,1
80977,-78.125,4,2,2,5,0,1
81052,-86.9565217391304,4,2,2,90,0,0
83227,-78.125,4,2,2,5,0,0
83302,-86.9565217391304,4,2,2,90,0,0
88402,-74.0740740740741,4,2,2,90,0,0
88477,-78.125,4,2,2,5,0,0
88852,-74.0740740740741,4,2,2,90,0,0
88927,-78.125,4,2,2,5,0,0
89302,-74.0740740740741,4,2,2,90,0,0
89377,-78.125,4,2,2,5,0,0
89752,-74.0740740740741,4,2,2,90,0,0
89827,-78.125,4,2,2,5,0,0
90202,-74.0740740740741,4,2,2,90,0,0
90277,-78.125,4,2,2,5,0,0
90352,-74.0740740740741,4,2,2,90,0,0
90727,-74.0740740740741,4,2,2,5,0,0
90802,-74.0740740740741,4,2,2,80,0,0
92752,-166.666666666667,4,2,2,80,0,0
93052,-111.111111111111,4,2,2,80,0,0
94927,-111.111111111111,4,2,2,5,0,0
95152,-111.111111111111,4,2,2,80,0,0
95227,-111.111111111111,4,2,2,5,0,0
95302,-111.111111111111,4,2,2,80,0,0
96127,-111.111111111111,4,2,2,5,0,0
96202,-111.111111111111,4,2,2,80,0,0
97327,-111.111111111111,4,2,2,5,0,0
97402,-111.111111111111,4,2,2,80,0,0
99502,-111.111111111111,4,2,2,5,0,0
99652,-200,4,2,2,60,0,0
99802,-200,4,2,2,5,0,0
100327,-111.111111111111,4,2,2,5,0,0
100402,-200,4,2,2,90,0,0
102352,-166.666666666667,4,2,2,90,0,0
102652,-111.111111111111,4,2,2,90,0,0
104527,-111.111111111111,4,2,2,5,0,0
104752,-111.111111111111,4,2,2,80,0,0
104827,-111.111111111111,4,2,2,5,0,0
104902,-111.111111111111,4,2,2,80,0,0
105727,-111.111111111111,4,2,2,5,0,0
105802,-111.111111111111,4,2,2,80,0,0
106927,-111.111111111111,4,2,2,5,0,0
107002,-111.111111111111,4,2,2,80,0,0
108802,-95.2380952380952,4,2,2,90,0,0
110002,-83.3333333333333,4,2,2,90,0,0
111202,-71.4285714285714,4,2,2,90,0,0
111427,-71.4285714285714,4,2,2,5,0,0
111502,-71.4285714285714,4,2,2,90,0,0
111727,-71.4285714285714,4,2,2,5,0,0
111802,-71.4285714285714,4,2,2,90,0,0
112027,-71.4285714285714,4,2,2,5,0,0
112102,-71.4285714285714,4,2,2,90,0,0
112327,-71.4285714285714,4,2,2,5,0,0
112402,-74.0740740740741,4,2,2,90,0,0
112627,-71.4285714285714,4,2,2,5,0,0
112702,-74.0740740740741,4,2,2,90,0,0
114727,-71.4285714285714,4,2,2,5,0,0
114802,-74.0740740740741,4,2,2,90,0,0
115027,-71.4285714285714,4,2,2,5,0,0
115102,-74.0740740740741,4,2,2,90,0,0
115927,-71.4285714285714,4,2,2,5,0,0
116002,-74.0740740740741,4,2,2,90,0,0
116227,-71.4285714285714,4,2,2,5,0,0
116302,-74.0740740740741,4,2,2,90,0,0
118627,-71.4285714285714,4,2,2,5,0,0
118702,-74.0740740740741,4,2,2,90,0,0
119827,-71.4285714285714,4,2,2,5,0,0
119902,-74.0740740740741,4,2,2,90,0,0
120727,-71.4285714285714,4,2,2,5,0,0
120802,-66.6666666666667,4,2,2,90,0,0
121027,-71.4285714285714,4,2,2,5,0,0
121102,-66.6666666666667,4,2,2,90,0,0
121327,-71.4285714285714,4,2,2,5,0,0
121402,-66.6666666666667,4,2,2,90,0,0
121627,-71.4285714285714,4,2,2,5,0,0
121702,-66.6666666666667,4,2,2,90,0,0
121927,-71.4285714285714,4,2,2,5,0,0
122002,-95.2380952380952,4,2,2,90,0,0
126502,-74.0740740740741,4,2,2,90,0,0
126727,-74.0740740740741,4,2,2,5,0,0
126802,-86.9565217391304,4,2,2,90,0,0
129277,-86.9565217391304,4,2,2,5,0,0
129352,-86.9565217391304,4,2,2,90,0,0
129877,-86.9565217391304,4,2,2,5,0,0
129952,-86.9565217391304,4,2,2,90,0,0
130402,-71.4285714285714,4,2,2,90,0,0
130627,-71.4285714285714,4,2,2,5,0,0
130702,-71.4285714285714,4,2,2,60,0,0
130927,-71.4285714285714,4,2,2,5,0,0
131002,-66.6666666666667,4,2,2,60,0,0
131227,-66.6666666666667,4,2,2,5,0,0
131302,-66.6666666666667,4,2,2,60,0,0
131527,-66.6666666666667,4,2,2,5,0,0
131602,-66.6666666666667,4,2,2,90,0,1
132052,-78.125,4,2,2,90,0,1
132427,-78.125,4,2,2,5,0,1
132502,-78.125,4,2,2,90,0,1
132727,-78.125,4,2,2,5,0,1
132802,-78.125,4,2,2,90,0,1
134227,-78.125,4,2,2,5,0,1
134302,-78.125,4,2,2,90,0,1
135127,-78.125,4,2,2,5,0,1
135202,-68.9655172413793,4,2,2,90,0,1
135427,-78.125,4,2,2,5,0,1
135502,-117.647058823529,4,2,2,90,0,1
135577,-78.125,4,2,2,5,0,1
135652,-117.647058823529,4,2,2,90,0,1
135727,-78.125,4,2,2,5,0,1
135802,-68.9655172413793,4,2,2,90,0,1
136027,-68.9655172413793,4,2,2,5,0,1
136102,-68.9655172413793,4,2,2,90,0,1
136327,-68.9655172413793,4,2,2,5,0,1
136402,-78.125,4,2,2,90,0,1
137527,-78.125,4,2,2,5,0,1
137602,-78.125,4,2,2,90,0,1
137827,-78.125,4,2,2,5,0,1
137902,-78.125,4,2,2,90,0,1
138802,-68.9655172413793,4,2,2,90,0,1
139027,-78.125,4,2,2,5,0,1
139102,-78.125,4,2,2,90,0,1
139177,-78.125,4,2,2,5,0,1
139252,-68.9655172413793,4,2,2,90,0,1
139477,-78.125,4,2,2,5,0,1
139552,-90.9090909090909,4,2,2,90,0,1
139627,-78.125,4,2,2,5,0,1
139702,-90.9090909090909,4,2,2,90,0,1
139777,-78.125,4,2,2,5,0,1
139852,-68.9655172413793,4,2,2,90,0,1
140752,-90.9090909090909,4,2,2,90,0,1
141202,-66.6666666666667,4,2,2,90,0,1
141652,-78.125,4,2,2,90,0,1
142327,-78.125,4,2,2,5,0,1
142402,-78.125,4,2,2,90,0,1
142627,-78.125,4,2,2,5,0,1
142702,-78.125,4,2,2,100,0,1
142927,-78.125,4,2,2,5,0,1
143002,-78.125,4,2,2,90,0,1
143227,-78.125,4,2,2,5,0,1
143302,-78.125,4,2,2,90,0,1
143527,-78.125,4,2,2,5,0,1
143602,-68.9655172413793,4,2,2,90,0,1
143827,-68.9655172413793,4,2,2,5,0,1
143902,-68.9655172413793,4,2,2,90,0,1
144502,-90.9090909090909,4,2,2,90,0,1
144577,-78.125,4,2,2,5,0,1
144652,-68.9655172413793,4,2,2,90,0,1
145927,-78.125,4,2,2,5,0,1
146002,-68.9655172413793,4,2,2,90,0,1
146902,-78.125,4,2,2,90,0,1
147427,-78.125,4,2,2,5,0,1
147502,-78.125,4,2,2,90,0,1
148402,-90.9090909090909,4,2,2,90,0,1
148852,-76.9230769230769,4,2,2,90,0,1
149302,-66.6666666666667,4,2,2,90,0,1
149527,-78.125,4,2,2,5,0,1
149602,-66.6666666666667,4,2,2,90,0,1
149677,-78.125,4,2,2,5,0,1
149752,-66.6666666666667,4,2,2,90,0,1
150577,-78.125,4,2,2,5,0,1
150652,-66.6666666666667,4,2,2,100,0,0
151102,-84.7457627118644,4,2,2,100,0,0
153727,-84.7457627118644,4,2,2,5,0,0
153802,-84.7457627118644,4,2,2,100,0,0
159052,-72.463768115942,4,2,2,100,0,0
159802,-84.7457627118644,4,2,2,100,0,0
160252,-68.9655172413793,4,2,2,100,0,0
161002,-84.7457627118644,4,2,2,100,0,0
165502,-72.463768115942,4,2,2,100,0,0
167602,-72.463768115942,4,2,2,70,0,0
167902,-111.111111111111,4,2,2,70,0,0
168502,-100,4,2,2,70,0,0
168802,-100,4,2,2,80,0,0
170002,-100,4,2,2,90,0,0
170302,-76.9230769230769,4,2,2,90,0,0
170602,-76.9230769230769,4,2,2,100,0,0
171202,-76.9230769230769,4,2,2,80,0,0
172402,-142.857142857143,4,2,2,70,0,0
175927,-142.857142857143,4,2,2,5,0,0
176002,-142.857142857143,4,2,2,70,0,0
176227,-142.857142857143,4,2,2,5,0,0
176302,-142.857142857143,4,2,2,70,0,0
176527,-142.857142857143,4,2,2,5,0,0
176602,-142.857142857143,4,2,2,70,0,0
176827,-142.857142857143,4,2,2,5,0,0
176902,-142.857142857143,4,2,2,70,0,0
180802,-76.9230769230769,4,2,2,70,0,0
181402,-142.857142857143,4,2,2,70,0,0
181627,-142.857142857143,4,2,2,5,0,0
181702,-71.4285714285714,4,2,2,70,0,0
181927,-71.4285714285714,4,2,2,5,0,0
182002,-95.2380952380952,4,2,2,80,0,0
186502,-74.0740740740741,4,2,2,80,0,0
186727,-74.0740740740741,4,2,2,5,0,0
186802,-86.9565217391304,4,2,2,80,0,0
187027,-74.0740740740741,4,2,2,5,0,0
187102,-86.9565217391304,4,2,2,80,0,0
189202,-117.647058823529,4,2,2,80,0,0
189427,-74.0740740740741,4,2,2,5,0,0
189502,-117.647058823529,4,2,2,80,0,0
189802,-117.647058823529,4,2,2,60,0,0
190627,-117.647058823529,4,2,2,5,0,0
190702,-117.647058823529,4,2,2,50,0,0
190927,-117.647058823529,4,2,2,5,0,0
191002,-117.647058823529,4,2,2,40,0,0
191227,-117.647058823529,4,2,2,5,0,0
191302,-117.647058823529,4,2,2,40,0,0
191602,-166.666666666667,4,2,2,50,0,0
193027,-166.666666666667,4,2,2,5,0,0
193102,-166.666666666667,4,2,2,30,0,0
193327,-166.666666666667,4,2,2,5,0,0
193402,-166.666666666667,4,2,2,30,0,0
193627,-166.666666666667,4,2,2,5,0,0
193702,-166.666666666667,4,2,2,30,0,0
193927,-166.666666666667,4,2,2,5,0,0
194002,-166.666666666667,4,2,2,50,0,0
194227,-166.666666666667,4,2,2,5,0,0
194302,-166.666666666667,4,2,2,50,0,0
194527,-166.666666666667,4,2,2,5,0,0
194602,-166.666666666667,4,2,2,50,0,0
194827,-166.666666666667,4,2,2,5,0,0
194902,-166.666666666667,4,2,2,60,0,0
195127,-166.666666666667,4,2,2,5,0,0
195202,-166.666666666667,4,2,2,50,0,0
199402,-166.666666666667,4,2,2,5,0,0
199552,-166.666666666667,4,2,2,50,0,0
199702,-166.666666666667,4,2,2,5,0,0
199852,-166.666666666667,4,2,2,40,0,0
200302,-166.666666666667,4,2,2,50,0,0
200527,-166.666666666667,4,2,2,5,0,0
200602,-166.666666666667,4,2,2,60,0,0
200827,-166.666666666667,4,2,2,5,0,0
200902,-166.666666666667,4,2,2,70,0,0
201127,-166.666666666667,4,2,2,5,0,0
201202,-166.666666666667,4,2,2,50,0,0
202627,-166.666666666667,4,2,2,5,0,0
202702,-166.666666666667,4,2,2,40,0,0
202927,-166.666666666667,4,2,2,5,0,0
203002,-166.666666666667,4,2,2,30,0,0
203227,-166.666666666667,4,2,2,5,0,0
203302,-166.666666666667,4,2,2,50,0,0
203602,-166.666666666667,4,2,2,40,0,0
203827,-166.666666666667,4,2,2,5,0,0
203902,-166.666666666667,4,2,2,50,0,0
204127,-166.666666666667,4,2,2,5,0,0
204202,-166.666666666667,4,2,2,60,0,0
208402,-83.3333333333334,4,2,2,50,0,0
209602,-83.3333333333334,4,2,2,60,0,0
210202,-83.3333333333334,4,2,2,70,0,0
210802,-83.3333333333334,4,2,2,80,0,0
211702,-142.857142857143,4,2,2,80,0,0
211927,-142.857142857143,4,2,2,5,0,0
212002,-142.857142857143,4,2,2,70,0,0
212227,-142.857142857143,4,2,2,5,0,0
212302,-142.857142857143,4,2,2,70,0,0
212527,-142.857142857143,4,2,2,5,0,0
212602,-142.857142857143,4,2,2,70,0,0
212827,-142.857142857143,4,2,2,5,0,0
212902,-142.857142857143,4,2,2,60,0,0
213127,-142.857142857143,4,2,2,5,0,0
213202,-63.2911392405063,4,2,2,90,0,1
213652,-74.0740740740741,4,2,2,90,0,1
214027,-166.666666666667,4,2,2,5,0,1
214102,-74.0740740740741,4,2,2,90,0,1
214327,-166.666666666667,4,2,2,5,0,1
214402,-74.0740740740741,4,2,2,90,0,1
215827,-166.666666666667,4,2,2,5,0,1
215902,-74.0740740740741,4,2,2,90,0,1
216802,-65.7894736842105,4,2,2,90,0,1
217027,-166.666666666667,4,2,2,5,0,1
217102,-117.647058823529,4,2,2,90,0,1
217177,-166.666666666667,4,2,2,5,0,1
217252,-117.647058823529,4,2,2,90,0,1
217327,-166.666666666667,4,2,2,5,0,1
217402,-65.7894736842105,4,2,2,90,0,1
217627,-65.7894736842105,4,2,2,5,0,1
217702,-65.7894736842105,4,2,2,90,0,1
217927,-65.7894736842105,4,2,2,5,0,1
218002,-74.0740740740741,4,2,2,90,0,1
219427,-166.666666666667,4,2,2,5,0,1
219502,-74.0740740740741,4,2,2,90,0,1
220327,-166.666666666667,4,2,2,5,0,1
220402,-63.2911392405063,4,2,2,90,0,1
220702,-78.125,4,2,2,90,0,1
220777,-166.666666666667,4,2,2,5,0,1
220852,-63.2911392405063,4,2,2,90,0,1
221152,-117.647058823529,4,2,2,90,0,1
221227,-166.666666666667,4,2,2,5,0,1
221302,-117.647058823529,4,2,2,90,0,1
221377,-166.666666666667,4,2,2,5,0,1
221452,-63.2911392405063,4,2,2,90,0,1
222352,-90.9090909090909,4,2,2,90,0,1
222802,-63.2911392405063,4,2,2,90,0,1
223252,-74.0740740740741,4,2,2,90,0,1
223927,-166.666666666667,4,2,2,5,0,1
224002,-74.0740740740741,4,2,2,90,0,1
224227,-74.0740740740741,4,2,2,5,0,1
224302,-74.0740740740741,4,2,2,90,0,1
224527,-74.0740740740741,4,2,2,5,0,1
224602,-74.0740740740741,4,2,2,90,0,1
225202,-65.7894736842105,4,2,2,90,0,1
225427,-65.7894736842105,4,2,2,5,0,1
225502,-65.7894736842105,4,2,2,90,0,1
226102,-90.9090909090909,4,2,2,90,0,1
226177,-166.666666666667,4,2,2,5,0,1
226252,-65.7894736842105,4,2,2,90,0,1
227527,-166.666666666667,4,2,2,5,0,1
227602,-65.7894736842105,4,2,2,90,0,1
228502,-74.0740740740741,4,2,2,90,0,1
228802,-65.7894736842105,4,2,2,90,0,1
229027,-166.666666666667,4,2,2,5,0,1
229102,-65.7894736842105,4,2,2,90,0,1
231202,-89.2857142857143,4,2,2,90,0,1
232102,-89.2857142857143,4,2,2,90,0,0
232177,-166.666666666667,4,2,2,5,0,1
232252,-68.9655172413793,4,2,2,90,0,1
232702,-84.7457627118644,4,2,2,90,0,1
234127,-166.666666666667,4,2,2,5,0,1
234202,-84.7457627118644,4,2,2,90,0,1
237052,-68.9655172413793,4,2,2,90,0,1
237502,-84.7457627118644,4,2,2,90,0,1
239377,-166.666666666667,4,2,2,5,0,1
239452,-84.7457627118644,4,2,2,90,0,1
240352,-172.413793103448,4,2,2,90,0,1
240652,-68.9655172413793,4,2,2,90,0,1
241852,-68.9655172413793,4,2,2,100,0,1
242302,-95.2380952380952,4,2,2,100,0,1
246352,-68.9655172413793,4,2,2,100,0,1
246577,-166.666666666667,4,2,2,5,0,1
246652,-95.2380952380952,4,2,2,100,0,1
250252,-80,4,2,2,100,0,1
254902,-285.714285714286,4,2,2,100,0,0
256102,-285.714285714286,4,2,2,80,0,0
257302,-285.714285714286,4,2,2,60,0,0
258502,-285.714285714286,4,2,2,30,0,0
259252,-285.714285714286,4,2,2,5,0,0
259402,-153.846153846154,4,2,2,20,0,0
259627,-153.846153846154,4,2,2,5,0,0
259702,-105.263157894737,4,2,2,20,0,0
259777,-105.263157894737,4,2,2,5,0,0

[Colours]
Combo1 : 0,0,128
Combo2 : 0,0,160
Combo3 : 0,0,255
Combo4 : 0,128,255
Combo5 : 0,128,192
Combo6 : 128,128,255

[HitObjects]
67,93,1852,6,0,P|134:77|181:118,1,115.799996466065,2|0,0:2|0:2,0:0:0:0:
230,181,2302,2,0,L|236:250,1,57.8999982330323,2|0,0:2|0:0,0:0:0:0:
350,163,2602,2,0,L|360:47,1,115.799996466065,2|0,0:2|0:2,0:0:0:0:
497,232,3052,6,0,P|456:214|376:250,1,115.799996466065,2|0,0:2|0:2,0:0:0:0:
314,320,3502,2,0,L|306:383,1,57.8999982330323,2|0,0:2|0:0,0:0:0:0:
191,308,3802,2,0,L|182:176,1,115.799996466065,2|0,0:2|0:2,0:0:0:0:
13,108,4252,6,0,B|84:77|67:130|150:103,1,115.799996466065,2|0,0:2|0:2,0:0:0:0:
220,67,4702,2,0,P|261:62|293:76,1,57.8999982330323,2|0,0:2|0:0,0:0:0:0:
332,222,5002,2,0,P|275:206|248:141,1,115.799996466065,2|0,0:2|0:2,0:0:0:0:
389,57,5452,6,0,B|396:110|396:110|389:132|389:132|395:183,1,115.799996466065,2|0,0:2|0:2,0:0:0:0:
472,277,5902,2,0,L|477:213,1,57.8999982330323,2|0,0:2|0:0,0:0:0:0:
377,311,6202,2,0,P|330:280|259:293,1,115.799996466065,2|0,0:2|0:2,0:0:0:0:
86,288,6652,6,0,B|164:306|164:306|189:361|189:361|277:383,1,221.95000423336,6|2,3:2|3:2,0:0:0:0:
362,207,7102,2,0,B|316:189|316:189|236:203,1,110.97500211668,10|0,0:2|0:2,0:0:0:0:
319,278,7402,1,2,3:2:0:0:
441,161,7552,1,0,3:2:0:0:
320,54,7702,1,8,0:2:0:0:
137,176,7852,6,0,B|216:155|216:155|267:180|267:180|361:160,1,221.95000423336,2|2,3:2|3:2,0:0:0:0:
216,345,8302,2,0,P|188:297|197:244,1,110.97500211668,10|0,0:2|0:2,0:0:0:0:
320,54,8602,1,2,3:2:0:0:
69,126,8752,2,0,B|168:92|147:165|254:137,1,166.46250317502,0|0,3:2|0:0,0:0:0:0:
318,197,9052,6,0,B|369:236|371:309|322:350|322:350|308:301,1,221.95000423336,2|2,3:2|3:2,0:0:0:0:
387,126,9502,2,0,P|443:117|496:158,1,110.97500211668,10|0,0:2|0:2,0:0:0:0:
218,59,9802,1,2,3:2:0:0:
318,197,9952,1,0,3:2:0:0:
403,27,10102,1,8,0:2:0:0:
230,254,10252,6,0,P|211:194|247:83,1,166.46250317502,2|0,3:2|0:0,0:0:0:0:
325,78,10552,2,0,P|360:97|391:104,1,55.4875010583401,0|0,3:2|0:0,0:0:0:0:
157,7,10702,1,8,0:2:0:0:
417,272,10852,2,0,B|363:240|321:275|321:275|265:290|228:252,1,202.649993815613,2|0,3:2|0:0,0:0:0:0:
216,147,11152,2,0,P|231:117|237:76,1,55.4875010583401,0|0,3:2|0:0,0:0:0:0:
119,279,11302,1,8,0:2:0:0:
54,51,11452,6,0,B|30:9|30:9|-20:56|-21:124|24:177,1,221.95000423336,2|2,3:2|3:2,0:0:0:0:
195,29,11902,2,0,B|298:-5|287:77|393:38,1,188.174991386033,10|0,0:2|0:0,0:0:0:0:
465,20,12202,1,2,3:2:0:0:
361,132,12352,1,0,3:2:0:0:
491,232,12502,1,8,0:2:0:0:
376,43,12652,6,0,B|324:29|279:64|272:114|272:114|231:82|181:101,1,221.95000423336,2|2,3:2|3:2,0:0:0:0:
93,271,13102,2,0,B|148:292|148:292|223:270,1,110.97500211668,10|0,0:2|0:2,0:0:0:0:
39,158,13402,1,2,3:2:0:0:
198,278,13552,1,0,3:2:0:0:
129,85,13702,1,8,0:2:0:0:
214,295,13852,6,0,B|241:252|220:203|220:203|251:172|251:172|225:117|263:63,1,250.89998851471,2|2,3:2|3:2,0:0:0:0:
422,6,14302,2,0,P|457:42|435:114,1,110.97500211668,10|0,0:2|0:2,0:0:0:0:
357,293,14602,1,2,3:2:0:0:
250,172,14752,1,0,3:2:0:0:
370,71,14902,1,8,0:2:0:0:
492,209,15052,6,0,B|400:173|415:244|321:213,1,166.46250317502,2|0,3:2|0:0,0:0:0:0:
250,172,15352,2,0,P|241:143|221:117,1,55.4875010583401,0|0,3:2|0:0,0:0:0:0:
357,293,15502,1,8,0:2:0:0:
138,307,15652,2,0,B|108:306|86:344|86:344|129:382|179:382|220:354,1,202.649993815613,2|0,3:2|0:0,0:0:0:0:
302,288,15952,2,0,P|343:288|375:302,1,55.4875010583401,0|0,3:2|0:0,0:0:0:0:
172,173,16102,1,8,0:2:0:0:
371,71,16252,6,0,B|296:54|296:54|249:80|249:80|171:67,1,202.649993815613,2|0,3:2|0:0,0:0:0:0:
81,44,16552,1,0,3:2:0:0:
104,256,16702,2,0,B|171:297|171:297|172:142,1,202.649993815613,8|0,0:2|0:0,0:0:0:0:
177,68,17002,1,0,3:2:0:0:
452,241,17152,2,0,B|353:193|357:276|246:230,1,202.649993815613,8|0,0:2|0:0,0:0:0:0:
171,172,17452,1,0,3:2:0:0:
363,367,17602,5,8,0:2:0:0:
255,233,17752,1,0,3:2:0:0:
249,259,17827,1,0,3:2:0:0:
243,285,17902,1,0,3:2:0:0:
427,101,18052,1,0,3:2:0:0:
255,233,18202,1,0,3:2:0:0:
272,143,18352,1,0,3:2:0:0:
458,275,18502,1,0,0:2:0:0:
441,185,18652,1,0,3:2:0:0:
281,369,18802,5,10,0:2:0:0:
427,101,18952,1,8,0:2:0:0:
427,101,19852,6,0,B|380:80|341:107|341:107|313:94|313:94|271:121|223:98,1,202.649993815613,10|0,0:2|0:2,0:0:0:0:
164,62,20152,1,0,3:2:0:0:
243,225,20302,2,0,P|236:200|223:176,1,43.4249986747742,0|0,3:2|0:0,0:0:0:0:
164,62,20452,2,0,P|158:82|149:102,1,43.4249986747742,0|0,3:2|0:0,0:0:0:0:
343,203,20602,2,0,P|324:184|301:170,1,43.4249986747742,0|0,3:2|0:0,0:0:0:0:
114,217,20752,2,0,P|135:218|156:224,1,43.4249986747742,0|0,3:2|0:0,0:0:0:0:
325,359,20902,2,0,B|218:309|230:390|114:347,1,202.649993815613,10|0,0:2|0:2,0:0:0:0:
60,305,21202,5,6,3:2:0:0:
114,217,21352,1,2,0:2:0:0:
20,127,21502,1,10,0:2:0:0:
18,142,21652,1,2,0:2:0:0:
201,262,21802,5,2,3:2:0:0:
230,163,21952,1,2,3:2:0:0:
116,100,22102,1,10,0:2:0:0:
113,113,22252,1,2,0:2:0:0:
300,211,22402,5,2,3:2:0:0:
320,74,22552,1,2,3:2:0:0:
183,54,22702,1,10,0:2:0:0:
163,191,22852,1,2,3:2:0:0:
320,74,23002,1,0,0:0:0:0:
293,268,23152,6,0,L|301:201,1,57.8999982330323,0|8,3:2|0:2,0:0:0:0:
299,210,23452,6,0,B|354:169|424:211|424:211|381:236,1,173.699994699097,2|2,3:2|3:2,0:0:0:0:
241,347,23902,2,0,P|289:362|341:341,1,86.8499973495484,10|2,0:2|0:2,0:0:0:0:
173,179,24202,1,2,3:2:0:0:
120,298,24352,1,2,3:2:0:0:
241,347,24502,1,10,0:2:0:0:
207,265,24652,1,2,0:2:0:0:
19,342,24802,5,2,3:2:0:0:
207,265,24952,1,2,3:2:0:0:
33,167,25102,1,10,0:2:0:0:
165,376,25252,2,0,L|160:320,1,43.4249986747742,2|0,3:2|0:0,0:0:0:0:
373,152,25552,2,0,L|369:195,1,43.4249986747742,2|0,3:2|0:0,0:0:0:0:
207,265,25702,1,0,0:0:0:0:
88,109,25852,6,0,B|197:133|197:133|165:105|152:58,1,173.699994699097,2|2,3:2|3:2,0:0:0:0:
387,50,26302,2,0,P|333:20|262:53,1,130.274996024323,10|0,0:2|0:0,0:0:0:0:
324,95,26602,1,2,3:2:0:0:
478,22,26752,2,0,L|482:135,1,86.8499973495484,2|8,3:2|0:2,0:0:0:0:
371,288,27052,6,0,B|343:254|343:254|412:223|481:277,1,173.699994699097,2|0,3:2|3:2,0:0:0:0:
279,362,27502,2,0,B|191:355|191:355|153:309,1,130.274996024323,10|0,0:2|0:0,0:0:0:0:
229,278,27802,1,2,3:2:0:0:
47,353,27952,2,0,L|52:253,1,86.8499973495484,2|8,3:2|0:2,0:0:0:0:
15,101,28252,6,0,B|71:126|119:87|119:87|159:98|179:129,1,173.699994699097,2|2,3:2|3:2,0:0:0:0:
55,27,28702,1,10,0:2:0:0:
88,187,28852,1,2,0:2:0:0:
264,137,29002,1,2,3:2:0:0:
146,257,29152,1,2,3:2:0:0:
135,94,29302,1,10,0:2:0:0:
88,187,29452,1,2,0:2:0:0:
176,352,29602,6,0,B|208:317|213:272|180:233|180:233|127:269,1,173.699994699097,2|8,3:2|0:2,0:0:0:0:
49,117,30052,2,0,P|8:160|94:169,1,173.699994699097,2|0,3:2|3:2,0:0:0:0:
201,44,30502,2,0,L|247:47,1,43.4249986747742,8|0,0:2|0:0,0:0:0:0:
236,168,30652,2,0,L|282:171,1,43.4249986747742,0|0,0:2|0:0,0:0:0:0:
461,28,30802,5,2,3:2:0:0:
401,185,30952,1,2,3:2:0:0:
325,57,31102,1,10,0:2:0:0:
321,77,31252,1,2,0:2:0:0:
512,208,31402,5,2,3:2:0:0:
354,268,31552,1,2,3:2:0:0:
403,104,31702,1,10,0:2:0:0:
386,115,31852,1,2,0:2:0:0:
471,330,32002,5,2,3:2:0:0:
354,291,32152,1,2,3:2:0:0:
237,252,32302,1,10,0:2:0:0:
364,375,32452,1,2,3:2:0:0:
338,183,32602,1,0,0:0:0:0:
184,359,32752,6,0,L|178:290,1,57.8999982330323,0|8,3:2|0:2,0:0:0:0:
178,301,33052,6,0,B|112:283|112:283|73:302|73:302|4:286,1,173.699994699097,2|2,3:2|3:2,0:0:0:0:
247,353,33502,1,10,0:2:0:0:
163,196,33652,1,2,2:2:0:0:
338,183,33802,1,2,3:2:0:0:
250,223,33952,1,0,3:2:0:0:
324,372,34102,1,10,0:2:0:0:
324,372,34402,5,2,3:2:0:0:
452,238,34552,1,2,3:2:0:0:
270,148,34702,1,10,0:2:0:0:
457,93,34852,2,0,P|421:80|398:79,1,43.4249986747742,2|0,3:2|0:0,0:0:0:0:
181,227,35152,2,0,P|217:214|240:213,1,43.4249986747742,2|0,3:2|0:0,0:0:0:0:
303,80,35302,1,0,0:0:0:0:
93,30,35452,6,0,B|135:1|135:1|145:130,1,173.699994699097,2|0,3:2|3:2,0:0:0:0:
45,306,35902,2,0,P|25:253|60:183,1,130.274996024323,10|0,0:2|0:0,0:0:0:0:
107,251,36202,1,2,3:2:0:0:
202,333,36352,2,0,B|234:354|234:354|310:353,1,86.8499973495484,2|8,3:2|0:2,0:0:0:0:
446,225,36652,6,0,B|390:251|330:220|330:220|315:249|340:276,1,173.699994699097,2|0,3:2|3:2,0:0:0:0:
249,105,37102,2,0,B|297:92|297:92|331:102|331:102|379:92,1,130.274996024323,10|0,0:2|0:0,0:0:0:0:
336,20,37402,1,2,3:2:0:0:
287,209,37552,1,2,3:2:0:0:
173,53,37702,2,0,L|165:165,1,86.8499973495484,8|2,0:2|0:2,0:0:0:0:
98,313,38002,6,0,P|51:281|126:253,1,173.699994699097,0|8,3:2|0:2,0:0:0:0:
221,344,38452,1,0,3:2:0:0:
258,217,38602,1,0,0:0:0:0:
374,370,38752,1,0,3:2:0:0:
415,183,38902,2,0,L|430:295,1,86.8499973495484,8|0,0:2|3:2,0:0:0:0:
225,100,39202,6,0,P|193:30|278:71,1,202.649993815613,2|8,3:2|0:2,0:0:0:0:
130,225,39652,1,0,3:2:0:0:
325,113,39802,1,0,0:0:0:0:
106,64,39952,1,0,3:2:0:0:
267,289,40102,2,0,L|260:177,1,101.324996907806,8|0,0:2|3:2,0:0:0:0:
402,358,40402,6,0,P|461:375|418:283,1,231.599992932129,2|8,3:2|0:2,0:0:0:0:
204,368,40852,1,0,3:2:0:0:
356,158,41002,1,0,0:0:0:0:
402,358,41152,1,0,3:2:0:0:
192,154,41302,2,0,B|144:139|144:139|60:162,1,115.799996466065,8|0,0:2|3:2,0:0:0:0:
392,61,41602,6,0,B|417:53|437:97|401:115|373:100|373:100|337:75|299:69|252:88,1,202.649993815613,10|0,0:2|0:0,0:0:0:0:
179,180,41902,2,0,B|154:172|134:216|170:234|198:219|198:219|234:194|272:188|319:207,1,202.649993815613,10|0,0:2|0:0,0:0:0:0:
398,78,42202,6,0,B|423:70|443:114|403:134|353:105|353:105|335:112|335:112|305:91|263:102,1,202.649993815613,10|0,0:2|0:0,0:0:0:0:
173,197,42502,2,0,B|148:189|128:233|168:253|218:224|218:224|236:231|236:231|266:210|308:221,1,202.649993815613,10|0,0:2|0:0,0:0:0:0:
399,260,42802,6,0,B|390:295|366:307|366:307|320:250|360:176,1,195.41250074544,2|0,3:2|0:0,0:0:0:0:
432,128,43102,1,8,0:2:0:0:
208,77,43252,1,0,0:2:0:0:
265,234,43402,1,0,0:2:0:0:
326,11,43552,1,0,3:2:0:0:
83,120,43702,2,0,B|109:138|148:124|148:124|112:144|102:182,1,130.27500049696,8|0,0:2|0:2,0:0:0:0:
240,384,44002,6,0,B|262:345|246:298|210:278|210:278|219:234|182:200,1,195.41250074544,2|0,3:2|0:0,0:0:0:0:
128,264,44302,1,8,0:2:0:0:
330,122,44452,1,0,0:2:0:0:
369,278,44602,1,0,0:2:0:0:
152,110,44752,1,0,3:2:0:0:
358,43,44902,2,0,B|410:30|444:80|444:80|391:115|402:179,1,195.41250074544,10|0,0:2|0:0,0:0:0:0:
459,234,45202,6,0,B|483:250|494:283|494:283|527:203|468:142,1,195.41250074544,2|0,3:2|0:0,0:0:0:0:
441,81,45502,1,8,0:2:0:0:
337,243,45652,1,0,0:2:0:0:
231,149,45802,1,0,0:2:0:0:
361,343,45952,1,0,3:2:0:0:
166,363,46102,2,0,B|187:331|227:332|227:332|249:309|249:309|263:341|299:363|352:346,1,195.41250074544,10|0,0:2|0:0,0:0:0:0:
432,384,46402,6,0,B|453:312|453:312|431:271|431:271|450:183,1,195.41250074544,2|0,3:2|0:0,0:0:0:0:
396,119,46702,1,10,0:2:0:0:
122,232,46852,2,0,B|158:214|158:214|200:242|250:226,1,130.27500049696,2|0,0:2|0:2,0:0:0:0:
374,36,47152,2,0,B|338:18|338:18|296:46|246:30,1,130.27500049696,2|8,3:2|0:2,0:0:0:0:
80,0,47452,1,2,0:2:0:0:
273,218,47602,6,0,B|304:207|308:179|308:179|226:199|237:141|137:183,1,195.41250074544,2|0,3:2|0:0,0:0:0:0:
68,217,47902,1,8,0:2:0:0:
167,329,48052,1,0,0:2:0:0:
273,218,48202,1,0,0:2:0:0:
164,69,48352,1,0,3:2:0:0:
11,156,48502,2,0,P|70:134|138:168,1,130.27500049696,8|0,0:2|0:2,0:0:0:0:
261,348,48802,6,0,B|194:391|125:358|125:358|158:344|182:307,1,195.41250074544,2|0,3:2|0:0,0:0:0:0:
201,226,49102,1,8,0:2:0:0:
371,376,49252,1,0,0:2:0:0:
426,176,49402,1,0,0:2:0:0:
261,348,49552,1,0,3:2:0:0:
281,121,49702,2,0,B|327:93|327:93|312:151|312:151|340:193|310:254,1,195.41250074544,8|0,0:2|0:0,0:0:0:0:
201,315,50002,6,0,B|161:344|161:344|116:265|183:196,1,195.41250074544,2|0,3:2|0:0,0:0:0:0:
191,115,50302,1,8,0:2:0:0:
431,103,50452,1,0,0:2:0:0:
321,17,50602,1,0,0:2:0:0:
291,214,50752,1,0,3:2:0:0:
321,17,50902,2,0,B|335:56|335:56|319:88|319:88|348:152|303:203,1,195.41250074544,8|0,0:2|0:0,0:0:0:0:
195,279,51202,6,0,B|241:273|272:309|272:309|327:281|332:212|287:177,1,217.125008282662,10|0,0:2|0:0,0:0:0:0:
154,124,51502,2,0,B|108:130|77:94|77:94|22:122|17:191|62:226,1,217.125008282662,10|0,0:2|0:0,0:0:0:0:
181,302,51802,6,0,B|231:303|231:303|262:327|262:327|307:307|309:240|258:218,1,217.125008282662,10|0,0:2|0:0,0:0:0:0:
159,137,52102,2,0,B|109:136|109:136|78:112|78:112|33:132|31:199|82:221,1,217.125008282662,10|0,0:2|0:0,0:0:0:0:
14,281,52402,6,0,B|122:218|112:306|220:260,1,202.649993815613,2|8,3:2|0:2,0:0:0:0:
286,172,52852,1,0,0:2:0:0:
441,286,53002,2,0,P|388:294|356:259,1,101.324996907806,0|0,0:2|3:2,0:0:0:0:
224,117,53302,2,0,P|259:83|307:93,1,101.324996907806,10|0,0:2|0:2,0:0:0:0:
220,297,53602,6,0,B|182:303|166:329|166:329|193:246|135:183,1,202.649993815613,2|8,3:2|0:2,0:0:0:0:
71,106,54052,1,0,0:2:0:0:
19,286,54202,2,0,B|48:261|48:261|61:178,1,101.324996907806,0|0,0:2|3:2,0:0:0:0:
262,204,54502,2,0,B|233:179|233:179|220:96,1,101.324996907806,10|0,0:2|0:0,0:0:0:0:
166,329,54802,6,0,B|145:303|123:294|123:294|169:271|233:284|261:327,1,202.649993815613,2|8,3:2|0:2,0:0:0:0:
326,371,55252,1,0,0:2:0:0:
465,192,55402,2,0,P|411:169|358:193,1,101.324996907806,2|2,3:2|0:2,0:0:0:0:
321,242,55627,1,2,2:2:0:0:
321,242,55702,1,10,3:2:0:0:
401,72,55852,1,2,3:2:0:0:
454,286,56002,6,0,B|474:259|474:259|464:186,1,101.324996907806,2|0,3:2|0:2,0:0:0:0:
326,81,56302,1,10,0:2:0:0:
261,285,56452,2,0,B|241:258|241:258|251:185,1,101.324996907806,2|0,3:2|0:2,0:0:0:0:
162,101,56752,1,0,3:2:0:0:
74,288,56902,2,0,B|118:268|159:290|159:290|183:280|183:280|224:303|264:283,1,195.41250074544,10|0,0:2|0:0,0:0:0:0:
320,226,57202,6,0,B|275:284|327:366|327:366|396:316,1,221.95000423336,2|8,3:2|0:2,0:0:0:0:
476,216,57652,1,0,0:2:0:0:
277,113,57802,2,0,B|370:67|363:139|464:96,1,166.46250317502,0|0,3:2|0:0,0:0:0:0:
404,29,58102,1,10,0:2:0:0:
330,190,58252,1,2,0:2:0:0:
175,67,58402,5,0,3:2:0:0:
191,60,58552,1,0,0:2:0:0:
266,240,58702,1,8,0:2:0:0:
29,196,58852,1,8,0:2:0:0:
227,148,59002,1,8,3:2:0:0:
88,286,59152,1,0,3:2:0:0:
30,49,59302,1,10,0:2:0:0:
30,49,59602,6,0,P|74:25|144:67,1,123.037502346754,2|0,3:2|0:0,0:0:0:0:
214,37,59902,2,0,P|214:58|210:78,1,41.0125007822514,8|0,0:2|0:0,0:0:0:0:
184,175,60052,1,0,0:2:0:0:
152,298,60202,2,0,B|209:293|209:293|232:304|232:304|296:300,1,123.037502346754,0|0,3:2|0:0,0:0:0:0:
333,255,60502,1,0,0:2:0:0:
408,371,60652,1,0,0:2:0:0:
447,133,60802,6,0,B|433:116|449:89|512:81|545:161|484:200|437:201|403:173|403:173|358:135|297:154|297:154|332:120|326:58|281:28|281:28|218:35|190:93|207:135,1,615.187511733771,2|0,3:2|0:2,0:0:0:0:
240,208,62002,6,0,B|195:231|153:203|153:203|110:236|110:236|24:198|60:104,1,289.500011043549,6|8,3:2|0:2,0:0:0:0:
185,336,62452,1,2,0:2:0:0:
286,138,62602,2,0,B|383:85|373:176|500:114,1,185.28,2|0,3:2|0:0,0:0:0:0:
419,51,62902,1,8,0:2:0:0:
237,235,63052,2,0,P|267:252|317:249,1,61.76,2|0,0:2|0:0,0:0:0:0:
462,237,63202,6,0,P|486:199|447:116,1,123.52,2|0,3:2|0:2,0:0:0:0:
188,34,63502,2,0,P|164:89|190:143,1,123.52,10|0,0:2|0:2,0:0:0:0:
339,368,63802,1,2,3:2:0:0:
462,237,63952,1,0,3:2:0:0:
325,146,64102,2,0,P|274:177|264:236,1,123.52,10|0,0:2|0:2,0:0:0:0:
106,355,64402,6,0,P|145:299|69:208,1,185.28,2|0,3:2|0:0,0:0:0:0:
23,149,64702,2,0,P|88:171|147:132,1,123.52,10|0,0:2|0:2,0:0:0:0:
341,48,65002,1,2,3:2:0:0:
136,13,65152,1,0,3:2:0:0:
376,179,65302,2,0,B|426:141|426:141|435:5,1,185.28,10|0,0:2|0:0,0:0:0:0:
341,48,65602,6,0,B|288:14|241:62|241:62|251:90|251:90|222:128|249:179,1,209.887506405258,2|0,3:2|0:0,0:0:0:0:
283,235,65902,2,0,P|288:267|288:299,1,41.0125007822514,8|0,0:2|0:0,0:0:0:0:
129,164,66052,2,0,P|109:190|87:212,1,41.0125007822514,0|0,0:2|0:0,0:0:0:0:
353,34,66202,2,0,B|298:1|243:17|256:37|199:67|142:33,1,209.887506405258,2|0,3:2|0:2,0:0:0:0:
6,158,66502,2,0,B|24:103|91:102|91:102|131:158|94:214,1,209.887506405258,10|0,0:2|0:2,0:0:0:0:
35,289,66802,6,0,B|18:318|41:347|41:347|92:313|141:328|135:343|180:365|243:329,1,247.04,2|8,3:2|0:2,0:0:0:0:
341,199,67252,1,0,0:2:0:0:
341,199,67327,1,0,0:0:0:0:
341,199,67402,1,2,3:2:0:0:
421,365,67552,1,0,3:2:0:0:
473,113,67702,2,0,B|407:120|407:120|366:100|366:100|283:111,1,185.28,10|0,0:2|0:0,0:0:0:0:
204,73,68002,6,0,P|254:118|201:215,1,185.28,2|0,3:2|0:0,0:0:0:0:
119,179,68302,1,10,0:2:0:0:
403,22,68452,2,0,P|393:84|334:114,1,123.52,2|0,3:2|0:0,0:0:0:0:
174,5,68752,1,0,3:2:0:0:
351,190,68902,1,8,0:2:0:0:
191,290,69052,2,0,L|193:208,1,61.76,2|0,0:2|0:0,0:0:0:0:
380,99,69202,6,0,B|465:63|515:153|515:153|449:166,1,209.887506405258,2|0,3:2|0:0,0:0:0:0:
351,190,69502,2,0,P|313:172|272:178,1,61.76,8|0,0:2|0:0,0:0:0:0:
63,42,69652,2,0,P|17:114|110:101,1,209.887506405258,2|0,3:2|0:0,0:0:0:0:
196,70,69952,2,0,B|228:131|182:186|182:186|203:233|177:276,1,209.887506405258,10|0,0:2|0:0,0:0:0:0:
94,363,70252,6,0,B|49:385|24:331|62:297|108:331|108:331|177:388|264:326,1,279.850008540345,2|0,3:2|3:2,0:0:0:0:
376,140,70702,2,0,B|329:128|329:128|363:224,1,139.925004270172,8|0,0:2|3:2,0:0:0:0:
395,295,70927,1,0,3:2:0:0:
395,295,71002,1,10,0:2:0:0:
206,208,71152,2,0,P|201:243|192:274,1,53.0750016197205,0|0,3:2|0:0,0:0:0:0:
244,343,71302,1,10,0:2:0:0:
261,57,71452,2,0,P|282:85|297:113,1,53.0750016197205,0|0,3:2|0:0,0:0:0:0:
497,173,71602,6,0,B|434:141|379:170|395:188|335:221|282:183|282:183|319:186|361:158,1,289.500011043549,6|8,3:2|0:2,0:2:0:0:
450,264,72052,1,2,0:2:0:0:
261,57,72202,2,0,B|333:13|399:77|399:77|351:85,1,185.28,2|0,3:2|0:0,0:0:0:0:
301,125,72502,1,8,0:2:0:0:
71,24,72652,2,0,P|65:48|81:89,1,61.76,2|0,0:2|0:0,0:0:0:0:
128,304,72802,6,0,P|162:258|126:179,1,123.52,2|0,3:2|0:0,0:0:0:0:
403,88,73102,2,0,P|346:81|295:152,1,123.52,10|0,0:2|0:0,0:0:0:0:
418,364,73402,1,2,3:2:0:0:
480,198,73552,1,0,3:2:0:0:
308,214,73702,2,0,P|274:260|310:339,1,123.52,10|0,0:2|0:2,0:0:0:0:
422,75,74002,6,0,B|361:39|303:78|303:78|248:73|236:32,1,209.887506405258,2|0,3:2|0:2,0:0:0:0:
152,14,74302,1,8,0:2:0:0:
39,187,74452,1,0,3:2:0:0:
156,38,74602,1,2,3:2:0:0:
200,239,74752,1,0,3:2:0:0:
403,211,74902,2,0,P|404:181|380:141,1,53.0750016197205,10|0,0:2|0:0,0:0:0:0:
250,0,75052,6,0,B|207:53|218:119|282:167|282:167|328:87,1,279.850008540345,2|0,3:2|3:2,0:0:0:0:
511,46,75502,2,0,B|463:34|463:34|426:44|426:44|366:33,1,139.925004270172,10|0,0:2|3:2,0:0:0:0:
205,280,75802,2,0,B|260:290|260:290|290:282|290:282|350:293,1,139.925004270172,10|0,0:2|3:2,0:0:0:0:
86,63,76102,2,0,B|128:79|128:79|162:68|162:68|220:113|291:73,1,209.887506405258,10|0,0:2|3:2,0:0:0:0:
373,20,76402,6,0,B|324:5|286:30|284:75|284:75|254:100|254:100|256:168|192:191,1,279.850008540345,2|8,3:2|0:2,0:0:0:0:
7,180,76852,1,0,3:2:0:0:
190,287,77002,1,0,0:0:0:0:
164,106,77152,1,0,3:2:0:0:
66,368,77302,2,0,B|138:351|138:351|182:371|182:371|266:355,1,185.28,10|0,0:2|0:0,0:0:0:0:
412,338,77602,6,0,B|357:362|357:362|290:316|325:233,1,185.28,2|0,3:2|0:0,0:0:0:0:
387,163,77902,1,10,0:2:0:0:
215,232,78052,1,2,3:2:0:0:
428,103,78202,1,0,0:0:0:0:
312,47,78352,1,0,3:2:0:0:
430,223,78502,1,8,0:2:0:0:
512,37,78652,1,0,0:2:0:0:
291,178,78802,6,0,B|303:139|349:140|349:140|376:197|359:248|302:269,1,212.300006478882,2|8,3:2|0:2,0:0:0:0:
136,142,79252,2,0,B|122:90|61:98|61:98|32:149|36:210|122:239,1,250.89998851471,2|0,3:2|3:2,0:0:0:0:
347,374,79702,2,0,B|372:338|416:333|416:333|427:281|427:281|479:282|508:233,1,217.125008282662,10|0,0:2|0:0,0:0:0:0:
489,129,80002,6,0,B|455:116|455:116|397:124,1,72.3750027608873,2|0,3:2|0:0,0:0:0:0:
188,69,80152,1,0,3:2:0:0:
236,55,80227,1,0,3:2:0:0:
285,66,80302,1,10,0:2:0:0:
325,97,80377,1,0,0:0:0:0:
339,144,80452,1,0,3:2:0:0:
193,363,80602,2,0,B|210:310|210:310|203:277|203:277|220:211,1,144.750005521775,10|0,0:2|3:2,0:0:0:0:
394,0,80902,2,0,B|405:26|405:26|397:75,1,72.3750027608873,10|0,0:2|0:0,0:0:0:0:
217,224,81052,6,0,B|196:155|196:155|360:193,1,221.95000423336,6|2,3:2|3:2,0:0:0:0:
194,364,81502,2,0,B|148:375|148:375|69:351,1,110.97500211668,10|0,0:2|0:2,0:0:0:0:
19,210,81802,1,2,3:2:0:0:
195,155,81952,1,0,3:2:0:0:
10,229,82102,1,8,0:2:0:0:
106,42,82252,2,0,B|65:92|88:153|109:139|144:202|94:266,1,221.95000423336,2|2,3:2|3:2,0:0:0:0:
276,359,82702,2,0,B|295:318|295:318|279:231,1,110.97500211668,10|0,0:2|0:2,0:0:0:0:
464,106,83002,2,0,B|400:93|400:93|356:108|356:108|278:96,1,166.46250317502,2|0,3:2|0:0,0:0:0:0:
228,43,83302,1,8,0:2:0:0:
376,257,83452,6,0,B|392:285|390:318|390:318|434:278|448:223|401:163,1,221.95000423336,2|2,3:2|3:2,0:0:0:0:
276,359,83902,2,0,P|217:329|163:338,1,110.97500211668,10|0,0:2|0:2,0:0:0:0:
50,247,84202,1,2,3:2:0:0:
229,111,84352,2,0,P|170:141|116:132,1,110.97500211668,0|8,3:2|0:2,0:0:0:0:
362,170,84652,6,0,B|404:129|412:54|360:17|360:17|346:70,1,221.95000423336,2|2,3:2|3:2,0:0:0:0:
229,111,85102,1,10,0:2:0:0:
362,170,85252,1,0,0:2:0:0:
221,232,85402,1,2,3:2:0:0:
381,181,85552,1,0,3:2:0:0:
330,21,85702,1,8,0:2:0:0:
100,54,85852,6,0,B|150:41|191:81|191:81|218:75|218:75|257:116|323:99,1,221.95000423336,2|2,3:2|3:2,0:0:0:0:
133,219,86302,2,0,P|70:205|22:227,1,110.97500211668,10|0,0:2|0:2,0:0:0:0:
304,103,86602,2,0,B|321:148|321:148|299:237,1,110.97500211668,2|0,3:2|3:2,0:0:0:0:
267,333,86902,1,8,0:2:0:0:
60,115,87052,6,0,B|118:79|118:79|163:126|164:181|125:229,1,221.95000423336,2|2,3:2|3:2,0:0:0:0:
243,60,87502,1,10,0:2:0:0:
54,22,87652,1,0,0:2:0:0:
333,82,87802,1,2,3:2:0:0:
152,164,87952,1,0,3:2:0:0:
270,213,88102,1,8,3:2:0:0:
187,243,88252,1,0,0:2:0:0:
358,355,88402,6,0,B|384:348|384:348|441:360,1,65.1375002484799,8|0,0:2|0:0,0:0:0:0:
106,294,88852,2,0,B|80:287|80:287|23:299,1,65.1375002484799,8|0,0:2|0:0,0:0:0:0:
494,190,89152,5,0,3:2:0:0:
363,140,89302,2,0,B|389:133|389:133|446:145,1,65.1375002484799,8|0,0:2|0:0,0:0:0:0:
104,85,89752,2,0,B|78:78|78:78|21:90,1,65.1375002484799,8|0,0:2|0:0,0:0:0:0:
256,303,90052,5,0,3:2:0:0:
256,303,90127,1,0,3:2:0:0:
256,303,90202,2,0,P|269:261|261:225,1,65.1375002484799,8|0,0:2|0:0,0:0:0:0:
219,50,90352,2,0,B|178:75|181:121|181:121|229:87|291:76|360:130,1,260.550000993919,2|0,3:2|0:0,0:0:0:0:
482,313,90802,5,6,3:2:0:0:
390,353,90952,1,2,0:2:0:0:
266,292,91102,1,10,0:2:0:0:
281,297,91252,1,2,0:2:0:0:
436,124,91402,5,2,3:2:0:0:
371,229,91552,1,2,3:2:0:0:
224,218,91702,1,10,0:2:0:0:
241,215,91852,1,2,0:2:0:0:
306,71,92002,5,2,3:2:0:0:
184,34,92152,1,2,0:2:0:0:
90,128,92302,1,10,0:2:0:0:
241,215,92452,1,2,3:2:0:0:
184,34,92602,1,0,0:0:0:0:
31,235,92752,6,0,L|38:162,1,57.8999982330323,0|8,3:2|0:2,0:0:0:0:
36,177,93052,6,0,B|74:156|74:156|111:163|111:163|153:128|216:154,1,173.699994699097,2|2,3:2|3:2,0:0:0:0:
207,361,93502,2,0,B|184:339|184:339|177:271,1,86.8499973495484,10|0,0:2|0:2,0:0:0:0:
379,218,93802,1,2,3:2:0:0:
264,254,93952,1,2,3:2:0:0:
198,147,94102,1,10,0:2:0:0:
275,78,94252,1,2,0:2:0:0:
246,262,94402,5,2,3:2:0:0:
98,137,94552,1,2,3:2:0:0:
98,137,94627,1,0,0:0:0:0:
98,137,94702,1,10,0:2:0:0:
288,64,94852,2,0,L|299:134,1,43.4249986747742,2|0,3:2|0:0,0:0:0:0:
340,372,95152,2,0,L|351:302,1,43.4249986747742,2|0,3:2|0:0,0:0:0:0:
271,189,95302,1,0,0:0:0:0:
83,280,95452,6,0,B|175:237|169:306|258:272,1,173.699994699097,2|0,3:2|3:2,0:0:0:0:
473,140,95902,2,0,P|418:116|346:150,1,130.274996024323,10|0,0:2|0:0,0:0:0:0:
415,196,96202,1,2,3:2:0:0:
266,102,96352,2,0,L|272:215,1,86.8499973495484,2|8,3:2|0:2,0:0:0:0:
111,37,96652,6,0,B|99:106|99:106|121:145|121:145|109:221,1,173.699994699097,2|0,3:2|3:2,0:0:0:0:
322,307,97102,2,0,B|238:291|238:291|192:316,1,130.274996024323,10|0,0:2|0:0,0:0:0:0:
253,378,97402,1,2,3:2:0:0:
393,237,97552,2,0,P|440:227|490:263,1,86.8499973495484,2|8,3:2|0:2,0:0:0:0:
297,62,97852,6,0,B|330:92|330:92|349:176|255:208,1,173.699994699097,2|0,3:2|3:2,0:0:0:0:
18,104,98302,1,10,0:2:0:0:
184,154,98452,1,2,3:2:0:0:
184,154,98527,1,0,3:2:0:0:
184,154,98602,1,2,3:2:0:0:
117,53,98752,1,2,3:2:0:0:
60,248,98902,1,10,0:2:0:0:
242,301,99052,1,2,3:2:0:0:
250,271,99127,1,0,3:2:0:0:
259,242,99202,5,2,3:2:0:0:
259,242,99652,6,0,B|293:198|360:191|406:241|406:241|361:283,1,217.125,2|0,3:2|0:0,0:0:0:0:
370,274,100402,5,6,3:2:0:0:
224,312,100552,1,2,0:2:0:0:
267,133,100702,1,10,0:2:0:0:
271,153,100852,1,2,0:2:0:0:
40,205,101002,5,2,3:2:0:0:
197,244,101152,1,2,3:2:0:0:
154,65,101302,1,10,0:2:0:0:
150,85,101452,1,2,0:2:0:0:
372,173,101602,5,2,3:2:0:0:
197,244,101752,1,2,0:2:0:0:
154,65,101902,1,10,0:2:0:0:
288,205,102052,1,2,3:2:0:0:
107,286,102202,1,0,0:0:0:0:
158,44,102352,6,0,L|223:51,1,57.8999982330323,0|8,3:2|0:2,0:0:0:0:
215,50,102652,6,0,P|282:26|354:104,1,173.699994699097,2|0,3:2|3:2,0:0:0:0:
208,283,103102,1,10,2:2:0:0:
183,154,103252,1,2,2:2:0:0:
353,87,103402,1,2,3:2:0:0:
344,164,103552,1,2,3:2:0:0:
421,173,103702,1,10,0:2:0:0:
430,96,103852,1,2,0:2:0:0:
269,20,104002,5,2,3:2:0:0:
305,231,104152,1,2,3:2:0:0:
444,87,104302,1,10,3:2:0:0:
214,116,104452,2,0,P|177:103|142:100,1,43.4249986747742,2|0,3:2|0:0,0:0:0:0:
368,326,104752,2,0,P|388:317|409:312,1,43.4249986747742,2|0,3:2|0:0,0:0:0:0:
233,261,104902,1,0,0:0:0:0:
435,166,105052,6,0,B|380:133|328:163|328:163|290:142|288:102,1,173.699994699097,2|0,3:2|3:2,0:0:0:0:
65,39,105502,2,0,B|130:20|130:20|192:47,1,130.274996024323,10|0,0:2|0:0,0:0:0:0:
121,110,105802,1,2,3:2:0:0:
112,246,105952,2,0,L|106:347,1,86.8499973495484,2|8,3:2|0:2,0:0:0:0:
321,178,106252,6,0,B|255:138|187:184|187:184|223:208,1,173.699994699097,2|0,3:2|3:2,0:0:0:0:
367,371,106702,2,0,B|372:320|372:320|394:291|394:291|399:220,1,130.274996024323,10|0,0:2|0:0,0:0:0:0:
444,185,107002,1,2,3:2:0:0:
261,266,107152,1,2,3:2:0:0:
345,52,107302,2,0,L|345:163,1,86.8499973495484,8|2,0:2|3:2,0:0:0:0:
86,130,107602,6,0,P|56:67|133:93,1,173.699994699097,0|8,3:2|0:2,0:0:0:0:
157,299,108052,1,0,3:2:0:0:
43,207,108202,1,0,0:0:0:0:
222,141,108352,1,0,3:2:0:0:
157,299,108502,2,0,L|148:188,1,86.8499973495484,8|0,0:2|3:2,0:0:0:0:
393,129,108802,6,0,P|433:57|352:69,1,202.649993815613,2|8,3:2|0:2,0:0:0:0:
215,37,109252,1,0,3:2:0:0:
229,244,109402,1,0,0:0:0:0:
393,129,109552,1,0,3:2:0:0:
123,197,109702,2,0,L|134:83,1,101.324996907806,8|0,0:2|3:2,0:0:0:0:
406,277,110002,6,0,P|440:343|347:302,1,231.599992932129,2|8,3:2|0:2,0:0:0:0:
204,83,110452,1,0,3:2:0:0:
393,129,110602,1,0,0:0:0:0:
155,290,110752,1,0,3:2:0:0:
406,277,110902,2,0,B|364:249|364:249|275:264,1,115.799996466065,8|0,0:2|3:2,0:0:0:0:
100,194,111127,1,0,0:0:0:0:
100,194,111202,6,0,B|179:165|166:213|246:206|246:206|221:232|187:232,1,202.649993815613,10|0,0:2|0:0,0:0:0:0:
147,361,111502,2,0,B|68:390|81:342|1:349|1:349|26:323|60:323,1,202.649993815613,10|0,0:2|0:0,0:0:0:0:
110,164,111802,6,0,B|189:135|176:183|256:176|256:176|231:202|197:202,1,202.649993815613,10|0,0:2|0:0,0:0:0:0:
167,333,112102,2,0,B|88:362|101:314|21:321|21:321|46:295|80:295,1,202.649993815613,10|0,0:2|0:0,0:0:0:0:
223,282,112402,6,0,P|236:363|169:307,1,195.41250074544,2|0,3:2|0:0,0:0:0:0:
132,192,112702,2,0,B|162:166|162:166|182:221|138:269,1,130.27500049696,8|0,0:2|0:2,0:0:0:0:
72,76,113002,1,0,0:2:0:0:
279,195,113152,1,0,3:2:0:0:
87,313,113302,2,0,B|57:339|57:339|37:284|81:236,1,130.27500049696,8|0,0:2|0:2,0:0:0:0:
282,99,113602,6,0,B|249:55|204:49|152:86|152:86|177:154|114:208,1,260.550000993919,2|8,3:2|0:2,0:0:0:0:
368,151,114052,1,0,0:2:0:0:
251,331,114202,2,0,B|213:346|213:346|176:306|198:256,1,130.27500049696,0|0,0:2|3:2,0:0:0:0:
470,243,114502,2,0,B|493:292|474:337|429:362|429:362|355:322,1,195.41250074544,10|0,0:2|0:0,0:0:0:0:
287,270,114802,6,0,P|336:314|251:331,1,195.41250074544,2|0,3:2|0:0,0:0:0:0:
195,263,115102,1,8,0:2:0:0:
329,50,115252,1,0,0:2:0:0:
174,101,115402,1,0,0:2:0:0:
416,192,115552,1,0,3:2:0:0:
245,44,115702,2,0,B|246:94|291:123|291:123|251:171|269:229,1,195.41250074544,10|0,0:2|0:0,0:0:0:0:
195,263,116002,6,0,B|230:199|318:221|318:221|298:243|290:282,1,195.41250074544,2|0,3:2|0:0,0:0:0:0:
386,286,116302,1,10,0:2:0:0:
245,44,116452,2,0,B|199:34|199:34|175:122,1,130.27500049696,2|0,3:2|0:2,0:0:0:0:
424,111,116752,2,0,B|470:101|470:101|494:189,1,130.27500049696,2|10,3:2|0:2,0:0:0:0:
293,268,117052,1,0,0:2:0:0:
96,35,117202,6,0,B|63:86|85:169|154:182|154:182|187:144|172:94,1,260.550000993919,2|8,3:2|0:2,0:3:0:0:
371,24,117652,1,0,0:2:0:0:
176,114,117802,1,0,0:2:0:0:
410,211,117952,1,0,3:2:0:0:
267,0,118102,2,0,B|252:44|252:44|288:80|274:134,1,130.27500049696,8|0,0:2|0:2,0:3:0:0:
165,329,118402,6,0,B|144:303|115:293|115:293|186:253|261:312,1,195.41250074544,2|0,3:2|0:0,0:0:0:0:
312,359,118702,1,8,0:2:0:0:
431,166,118852,1,0,0:2:0:0:
282,187,119002,1,0,0:2:0:0:
470,318,119152,1,0,3:2:0:0:
457,45,119302,2,0,B|436:80|436:80|445:136|445:136|424:177,1,130.27500049696,8|0,0:2|0:2,0:0:0:0:
127,283,119602,6,0,B|84:256|84:256|151:204|234:255,1,195.41250074544,2|0,3:2|0:0,0:0:0:0:
291,166,119902,1,8,0:2:0:0:
403,289,120052,1,0,0:2:0:0:
447,82,120202,1,0,0:2:0:0:
398,310,120352,1,0,3:2:0:0:
451,63,120502,2,0,B|393:33|349:57|361:71|316:98|255:67,1,195.41250074544,10|0,0:2|0:0,0:0:0:0:
126,60,120802,6,0,B|93:83|86:120|106:157|106:157|140:192|184:180|203:163,1,217.125008282662,10|0,0:2|0:0,0:0:0:0:
371,267,121102,2,0,B|403:243|410:206|390:169|390:169|356:134|312:146|292:167,1,217.125008282662,10|0,0:2|0:0,0:0:0:0:
167,63,121402,6,0,B|128:61|128:61|114:111|162:168|204:161|204:161|215:128,1,217.125008282662,10|0,0:2|0:0,0:0:0:0:
330,264,121702,2,0,B|369:266|369:266|383:216|335:159|293:166|293:166|282:199,1,217.125008282662,10|0,0:2|0:0,0:0:0:0:
165,343,122002,6,0,B|237:328|237:328|281:356|281:356|370:342,1,202.649993815613,2|8,3:2|0:2,0:0:0:0:
282,197,122452,1,0,0:2:0:0:
163,167,122602,2,0,P|150:227|180:261,1,101.324996907806,0|0,0:2|3:2,0:0:0:0:
339,124,122902,2,0,P|352:64|322:30,1,101.324996907806,10|0,0:2|0:2,0:0:0:0:
477,216,123202,6,0,B|372:162|382:242|279:195,1,202.649993815613,2|8,3:2|0:2,0:0:0:0:
211,71,123652,1,0,0:2:0:0:
98,150,123802,2,0,B|48:163|48:163|-6:147,1,101.324996907806,0|0,0:2|3:2,0:0:0:0:
102,299,124102,2,0,B|152:286|152:286|206:302,1,101.324996907806,10|0,0:2|0:2,0:0:0:0:
425,328,124402,6,0,P|354:383|273:318,1,202.649993815613,2|8,3:2|0:2,0:0:0:0:
344,232,124852,1,0,0:2:0:0:
276,109,125002,2,0,B|236:92|236:92|164:109,1,101.324996907806,2|2,3:2|0:2,0:0:0:0:
130,168,125227,1,2,2:2:0:0:
130,168,125302,1,10,0:2:0:0:
236,271,125452,1,2,0:2:0:0:
351,152,125602,6,0,L|346:47,1,101.324996907806,2|0,3:2|0:0,0:0:0:0:
432,224,125902,1,10,0:2:0:0:
317,343,126052,2,0,L|422:338,1,101.324996907806,2|0,0:2|0:2,0:0:0:0:
266,188,126352,1,0,3:2:0:0:
116,297,126502,2,0,B|130:260|111:220|111:220|124:192|124:192|104:146|128:104,1,195.41250074544,10|0,0:2|0:2,0:0:0:0:
76,22,126802,6,0,P|101:72|243:36,1,221.95000423336,2|8,3:2|0:2,0:0:0:0:
356,136,127252,1,0,0:2:0:0:
353,254,127402,2,0,L|349:374,1,110.97500211668,0|0,3:2|3:2,0:0:0:0:
446,90,127702,1,10,0:2:0:0:
230,197,127852,1,0,0:2:0:0:
448,278,128002,5,2,3:2:0:0:
451,262,128152,1,0,0:2:0:0:
300,63,128302,1,8,0:2:0:0:
265,284,128452,1,0,0:2:0:0:
449,176,128602,1,0,3:2:0:0:
449,176,128902,2,0,B|411:158|411:158|326:175,1,110.97500211668,10|0,0:2|0:2,0:0:0:0:
93,117,129202,6,0,P|131:120|152:130,1,55.4875010583401,2|0,3:2|0:0,0:0:0:0:
378,323,129802,2,0,P|356:291|337:278,1,55.4875010583401,8|0,0:2|0:0,0:0:0:0:
104,292,130102,1,0,3:2:0:0:
104,292,130252,1,0,3:2:0:0:
228,363,130402,6,0,B|238:285|238:285|214:239|214:239|226:146,1,202.649993815613,2|0,3:2|0:2,0:0:0:0:
220,59,130702,2,0,P|245:129|161:99,1,202.649993815613,2|0,3:2|0:2,0:0:0:0:
329,26,131002,2,0,B|313:67|346:112|346:112|333:143|333:143|362:183|342:237,1,217.125008282662,2|0,3:2|0:2,0:0:0:0:
358,356,131302,2,0,B|375:331|405:323|405:323|348:290|293:300|240:350,1,217.125008282662,2|0,3:2|0:2,0:0:0:0:
72,351,131602,6,0,B|131:324|184:363|184:363|165:295|165:295|206:255|187:186,1,289.500011043549,6|8,3:2|0:2,0:0:0:0:
112,80,132052,1,2,0:2:0:0:
302,29,132202,2,0,B|363:5|363:5|347:153,1,185.28,2|0,3:2|0:0,0:0:0:0:
337,215,132502,1,8,0:2:0:0:
168,375,132652,2,0,L|172:293,1,61.76,2|0,0:2|0:0,0:0:0:0:
111,239,132802,6,0,P|170:213|239:256,1,123.52,2|0,3:2|0:2,0:0:0:0:
499,90,133102,2,0,P|442:110|388:84,1,123.52,10|0,0:2|0:2,0:0:0:0:
114,28,133402,1,2,3:2:0:0:
232,7,133552,1,0,3:2:0:0:
284,124,133702,2,0,P|277:188|205:226,1,123.52,10|0,0:2|0:2,0:0:0:0:
75,351,134002,6,0,B|41:314|41:314|106:258|184:305,1,185.28,2|0,0:2|0:0,0:0:0:0:
239,344,134302,2,0,P|298:363|359:330,1,123.52,10|0,3:2|0:2,0:0:0:0:
512,216,134602,1,2,3:2:0:0:
431,376,134752,1,0,3:2:0:0:
402,153,134902,2,0,B|342:126|342:126|292:136|292:136|222:110,1,185.28,10|0,0:2|0:0,0:0:0:0:
160,41,135202,6,0,B|183:20|218:33|218:33|250:89|233:145|178:169,1,209.887506405258,2|0,3:2|0:0,0:0:0:0:
145,239,135502,2,0,P|126:235|95:234,1,41.0125007822514,8|0,0:2|0:0,0:0:0:0:
80,67,135652,2,0,P|61:71|30:72,1,41.0125007822514,0|0,0:2|0:0,0:0:0:0:
305,191,135802,2,0,B|358:175|358:175|399:197|399:197|454:168|515:213,1,209.887506405258,2|0,3:2|0:2,0:0:0:0:
453,290,136102,2,0,B|447:340|387:361|387:361|329:326|338:260,1,209.887506405258,10|0,0:2|0:2,0:0:0:0:
352,75,136402,6,0,B|401:59|401:59|430:133|368:197|303:190,1,247.04,2|8,3:2|3:2,0:0:0:0:
110,101,136852,1,0,0:2:0:0:
110,101,136927,1,0,0:0:0:0:
110,101,137002,1,2,3:2:0:0:
259,27,137152,1,0,3:2:0:0:
59,223,137302,2,0,B|161:175|151:254|249:209,1,185.28,10|0,0:2|0:0,0:0:0:0:
294,141,137602,6,0,B|253:226|326:269|326:269|339:216,1,185.28,2|0,3:2|0:0,0:0:0:0:
376,158,137902,1,10,0:2:0:0:
243,54,138052,1,2,3:2:0:0:
334,233,138202,1,0,0:0:0:0:
392,3,138352,1,0,3:2:0:0:
172,78,138502,1,8,0:2:0:0:
376,158,138652,1,2,0:2:0:0:
400,152,138727,1,0,0:0:0:0:
424,146,138802,6,0,B|493:192|463:283|463:283|452:256|426:235,1,209.887506405258,2|0,3:2|0:0,0:0:0:0:
308,338,139102,2,0,P|339:341|378:318,1,61.76,8|0,0:2|0:0,0:0:0:0:
151,138,139252,2,0,B|96:102|96:102|46:182|111:249,1,209.887506405258,2|0,3:2|0:0,0:0:0:0:
150,363,139552,2,0,P|155:334|146:289,1,53.0750016197205,10|0,0:2|0:0,0:0:0:0:
349,97,139702,2,0,P|347:123|351:149,1,53.0750016197205,0|0,0:0|0:0,0:0:0:0:
261,276,139852,6,0,B|222:289|182:232|244:182|294:215|294:215|353:256|426:204,1,279.850008540345,2|0,3:2|3:2,0:0:0:0:
188,61,140302,2,0,B|156:29|156:29|142:105|142:105|152:134|152:134|138:207,1,209.887506405258,8|0,0:2|3:2,0:0:0:0:
101,263,140602,1,10,3:2:0:0:
297,366,140752,2,0,P|307:334|303:290,1,53.0750016197205,0|0,3:2|3:2,0:0:0:0:
286,212,140902,1,10,3:2:0:0:
415,72,141052,2,0,P|405:104|409:148,1,53.0750016197205,0|0,3:2|3:2,0:0:0:0:
507,289,141202,6,0,B|465:249|402:254|365:296|365:296|315:293|275:253|287:197,1,289.500011043549,6|8,3:2|0:2,0:0:0:0:
215,48,141652,1,2,0:2:0:0:
404,123,141802,1,2,3:2:0:0:
285,211,141952,1,0,3:2:0:0:
425,20,142102,1,8,0:2:0:0:
510,234,142252,2,0,B|487:222|487:222|435:224,1,61.76,2|0,0:2|0:0,0:0:0:0:
215,48,142402,6,0,P|275:73|344:29,1,123.52,2|0,3:2|0:0,0:0:0:0:
418,332,142702,2,0,P|361:311|306:336,1,123.52,10|0,3:2|0:0,0:0:0:0:
131,167,143002,2,0,P|155:227|235:244,1,123.52,2|0,3:2|0:0,0:0:0:0:
388,110,143302,2,0,P|393:170|355:216,1,123.52,10|0,3:2|0:0,0:0:0:0:
51,77,143602,6,0,B|111:57|111:57|154:77|154:77|206:52|259:77,1,209.887506405258,2|0,3:2|0:2,0:0:0:0:
310,122,143902,1,10,0:2:0:0:
251,311,144052,1,0,3:2:0:0:
404,373,144202,1,2,3:2:0:0:
284,213,144352,1,0,3:2:0:0:
129,367,144502,2,0,P|157:373|199:360,1,53.0750016197205,10|0,0:2|0:0,0:0:0:0:
192,151,144652,6,0,B|194:92|142:80|142:80|82:126|99:214|173:237,1,279.850008540345,2|0,3:2|3:2,0:0:0:0:
251,311,145027,1,0,0:0:0:0:
251,311,145102,2,0,B|307:290|350:335|350:335|307:348,1,139.925004270172,10|0,0:2|0:2,0:0:0:0:
427,122,145402,2,0,B|481:146|480:208|480:208|440:187,1,139.925004270172,2|0,3:2|3:2,0:0:0:0:
275,26,145702,2,0,B|317:71|295:134|274:117|245:175|292:236,1,209.887506405258,10|0,0:2|3:2,0:0:0:0:
392,231,146002,6,0,B|336:189|285:223|285:223|240:204|240:204|191:258|110:227,1,279.850008540345,2|8,3:2|0:2,0:0:0:0:
58,52,146452,1,0,0:0:0:0:
276,79,146602,1,2,3:2:0:0:
134,234,146752,1,0,3:2:0:0:
158,0,146902,2,0,B|179:40|179:40|162:127,1,123.52,10|0,0:2|0:2,0:0:0:0:
73,322,147202,6,0,P|46:252|145:249,1,185.28,2|0,3:2|0:0,0:0:0:0:
196,306,147502,1,10,0:2:0:0:
296,131,147652,1,2,3:2:0:0:
382,362,147802,2,0,P|408:306|386:237,1,123.52,0|0,0:0|3:2,0:0:0:0:
169,92,148102,1,8,0:2:0:0:
426,164,148252,1,0,0:2:0:0:
434,154,148327,1,0,0:0:0:0:
442,144,148402,6,0,B|459:103|426:73|426:73|385:100|332:98|304:66,1,212.300006478882,2|8,3:2|0:2,0:0:0:0:
71,250,148852,2,0,B|46:202|90:164|90:164|139:197|199:197|236:156,1,250.89998851471,2|0,3:2|3:2,0:0:0:0:
389,325,149302,2,0,B|401:379|459:333|424:279|424:279|430:254|430:254|404:213|427:168,1,217.125008282662,10|0,0:2|0:0,0:0:0:0:
482,89,149602,6,0,B|455:102|455:102|400:96,1,72.3750027608873,10|0,3:2|0:0,0:0:0:0:
159,191,149752,1,0,3:2:0:0:
200,204,149827,1,0,3:2:0:0:
242,213,149902,1,10,3:2:0:0:
279,192,149977,1,0,0:0:0:0:
313,166,150052,1,2,3:2:0:0:
109,37,150202,2,0,B|67:23|67:23|98:73|73:144,1,144.750005521775,10|2,3:2|3:2,0:0:0:0:
186,313,150502,2,0,B|188:341|163:364|163:364|145:340,1,72.3750027608873,10|0,3:2|0:0,0:0:0:0:
19,193,150652,6,0,B|20:136|79:115|79:115|123:154|131:203|118:268|51:286,1,289.500011043549,6|0,3:2|3:2,0:0:0:0:
294,106,151102,1,10,0:2:0:0:
219,185,151252,1,0,0:2:0:0:
284,8,151402,1,2,3:2:0:0:
313,114,151552,1,0,3:2:0:0:
342,220,151702,1,8,0:2:0:0:
512,69,151852,6,0,B|471:52|440:82|440:82|394:51|325:63|301:137,1,227.739992007416,2|2,3:2|3:2,0:0:0:0:
489,245,152302,2,0,B|507:205|507:205|488:120,1,113.869996003708,10|0,0:2|0:2,0:0:0:0:
291,374,152602,1,2,3:2:0:0:
388,292,152752,1,0,3:2:0:0:
500,354,152902,1,10,0:2:0:0:
491,136,153052,6,0,B|506:205|506:205|479:273|479:273|502:359,1,227.739992007416,2|0,3:2|3:2,0:0:0:0:
314,218,153502,2,0,P|362:180|434:204,1,113.869996003708,10|0,0:2|0:0,0:0:0:0:
247,305,153802,1,8,0:2:0:0:
116,268,153952,1,0,3:2:0:0:
168,118,154102,1,8,3:2:0:0:
216,192,154252,1,0,3:2:0:0:
89,290,154402,5,2,2:2:0:0:
35,213,154552,1,2,3:2:0:0:
216,192,154702,1,10,3:2:0:0:
143,362,154852,1,10,3:2:0:0:
168,118,155002,1,10,3:2:0:0:
296,289,155152,1,2,3:2:0:0:
89,290,155302,1,10,0:2:0:0:
342,164,155452,6,0,B|396:199|396:199|426:267|401:328|333:345,1,227.739992007416,2|2,3:2|3:2,0:0:0:0:
189,270,155902,1,10,0:2:0:0:
353,338,156052,1,2,0:2:0:0:
328,133,156202,1,2,3:2:0:0:
288,255,156352,1,0,3:2:0:0:
447,199,156502,1,8,0:2:0:0:
262,72,156652,6,0,B|305:33|365:41|402:78|402:78|453:63|460:23,1,227.739992007416,2|2,3:2|3:2,0:0:0:0:
328,133,157102,1,8,0:2:0:0:
150,29,157252,2,0,P|135:75|162:144,1,113.869996003708,2|0,0:2|3:2,0:0:0:0:
262,72,157552,1,0,3:2:0:0:
147,234,157702,1,8,0:2:0:0:
337,359,157852,6,0,B|359:320|353:287|353:287|303:328|236:332|198:281,1,227.739992007416,2|0,3:2|3:2,0:0:0:0:
403,87,158302,1,10,0:2:0:0:
500,294,158452,1,2,0:2:0:0:
409,61,158602,1,2,3:2:0:0:
382,173,158752,1,2,3:2:0:0:
353,288,158902,1,8,0:2:0:0:
242,125,159052,6,0,B|184:108|234:50|284:38|336:111|315:198|251:236,1,266.340000406403,2|2,3:2|3:2,0:0:0:0:
56,179,159502,1,10,0:2:0:0:
53,145,159577,1,0,0:0:0:0:
50,111,159652,1,2,3:2:0:0:
47,77,159727,1,0,3:2:0:0:
44,43,159802,2,0,L|115:52,1,56.934998001854,10|0,3:2|0:0,0:0:0:0:
266,224,159952,1,0,0:2:0:0:
19,315,160102,2,0,L|28:244,1,56.934998001854,8|0,3:2|0:0,0:0:0:0:
235,97,160252,6,0,B|296:72|342:112|342:112|391:75|469:87|509:155,1,279.850008540345,2|2,3:2|3:2,0:0:0:0:
407,358,160702,1,10,3:2:0:0:
401,337,160777,1,0,0:0:0:0:
399,316,160852,1,2,3:2:0:0:
276,174,161002,2,0,P|291:217|263:285,1,113.869996003708,2|0,0:2|3:2,0:0:0:0:
341,110,161302,1,8,0:2:0:0:
303,352,161452,6,0,P|202:326|211:222,1,227.739992007416,2|0,3:2|3:2,0:0:0:0:
419,70,161902,1,10,0:2:0:0:
339,220,162052,2,0,B|327:180|327:180|345:87,1,113.869996003708,2|10,3:2|3:2,0:0:0:0:
132,19,162352,2,0,B|144:59|144:59|126:152,1,113.869996003708,2|10,3:2|0:2,0:0:0:0:
51,302,162652,5,2,3:2:0:0:
51,302,162952,2,0,P|91:304|119:321,1,56.934998001854,2|0,3:2|3:2,0:0:0:0:
193,197,163102,2,0,P|207:221|212:248,1,56.934998001854,8|0,3:2|3:2,0:0:0:0:
288,368,163252,2,0,P|309:349|323:324,1,56.934998001854,0|0,3:2|3:2,0:0:0:0:
441,291,163402,5,2,3:2:0:0:
411,249,163477,1,0,3:2:0:0:
404,198,163552,1,0,3:2:0:0:
418,150,163627,1,0,3:2:0:0:
458,119,163702,1,10,3:2:0:0:
479,96,163777,1,0,3:2:0:0:
489,66,163852,1,0,3:2:0:0:
489,34,163927,1,0,3:2:0:0:
478,4,164002,5,2,3:2:0:0:
472,22,164077,1,0,3:2:0:0:
467,40,164152,1,0,3:2:0:0:
461,57,164227,1,0,3:2:0:0:
458,119,164302,1,10,3:2:0:0:
442,114,164377,1,0,3:2:0:0:
426,109,164452,1,8,3:2:0:0:
410,104,164527,1,0,3:2:0:0:
393,100,164602,2,0,L|383:173,1,56.934998001854,2|0,3:2|0:0,0:0:0:0:
303,206,164752,2,0,L|313:279,1,56.934998001854,2|0,3:2|0:0,0:0:0:0:
391,333,164902,1,8,0:2:0:0:
227,99,165052,6,0,B|242:184|242:184|286:218|286:218|299:303,1,227.739992007416,6|0,3:2|3:2,0:0:0:0:
69,343,165502,2,0,B|38:316|38:316|89:278|151:320,1,133.170000203201,10|0,0:2|3:2,0:0:0:0:
359,108,165802,1,10,3:2:0:0:
259,367,165952,1,0,3:2:0:0:
142,154,166102,1,10,0:2:0:0:
406,256,166252,6,0,B|332:220|275:276|275:276|207:237|232:159,1,266.340000406403,6|0,3:2|3:2,0:0:0:0:
404,365,166702,1,10,0:2:0:0:
305,133,166852,1,0,3:2:0:0:
488,181,167002,1,10,0:2:0:0:
275,275,167152,1,0,3:2:0:0:
242,45,167302,1,10,0:2:0:0:
398,158,167452,1,2,3:2:0:0:
186,228,167602,5,14,3:2:0:0:
166,224,167677,1,0,3:2:0:0:
146,220,167752,1,0,3:2:0:0:
126,216,167827,1,0,3:2:0:0:
106,213,167902,2,0,L|97:152,3,43.4249986747742,10|0|0|0,3:2|3:2|3:2|3:2,0:0:0:0:
162,86,168202,2,0,P|195:97|219:100,1,43.4249986747742,10|0,3:2|3:2,0:0:0:0:
313,185,168352,2,0,P|291:189|271:197,1,43.4249986747742,0|0,3:2|3:2,0:0:0:0:
215,324,168502,1,10,3:2:0:0:
231,333,168577,1,0,3:2:0:0:
249,337,168652,1,0,3:2:0:0:
268,338,168727,1,0,3:2:0:0:
286,334,168802,5,14,3:2:0:0:
316,320,168877,1,0,3:2:0:0:
349,314,168952,1,0,3:2:0:0:
382,318,169027,1,0,3:2:0:0:
411,334,169102,2,0,P|443:345|470:349,3,48.25,10|0|0|0,3:2|3:2|3:2|3:2,0:0:0:0:
445,190,169402,2,0,P|421:195|398:203,1,48.25,10|0,3:2|3:2,0:0:0:0:
263,251,169552,2,0,P|239:246|217:238,1,48.25,0|0,3:2|3:2,0:0:0:0:
159,148,169702,1,10,3:2:0:0:
188,131,169777,1,0,3:2:0:0:
221,127,169852,1,0,3:2:0:0:
253,135,169927,1,0,3:2:0:0:
280,154,170002,5,14,3:2:0:0:
321,128,170077,1,0,3:2:0:0:
337,82,170152,1,0,3:2:0:0:
327,34,170227,1,0,3:2:0:0:
286,7,170302,2,0,B|254:12|254:12|219:43,1,62.7249971286775,10|0,3:2|3:2,0:0:0:0:
445,82,170452,2,0,B|477:87|477:87|512:118,1,62.7249971286775,10|0,3:2|3:2,0:0:0:0:
285,213,170602,2,0,B|273:182|273:182|282:136,1,62.7249971286775,10|0,3:2|3:2,0:3:0:0:
469,302,170752,2,0,B|480:332|480:332|471:378,1,62.7249971286775,8|0,3:2|3:2,0:3:0:0:
269,354,170902,2,0,B|257:323|257:323|266:277,1,62.7249971286775,10|10,3:2|3:2,0:3:0:0:
441,163,171052,2,0,B|452:193|452:193|443:239,1,62.7249971286775,10|10,3:2|3:2,0:3:0:0:
368,274,171202,5,6,3:2:0:0:
285,213,171502,1,2,3:2:0:0:
192,323,171802,1,2,3:2:0:0:
108,260,172102,1,2,3:2:0:0:
171,77,172402,6,0,B|148:27|148:27|221:-3|266:35|282:107|226:166,1,270.199991754151,2|8,3:2|0:2,0:0:0:0:
128,182,173302,1,0,0:0:0:0:
403,207,173602,2,0,B|374:185|367:153|367:153|318:200|315:259|337:306|396:326,1,270.199991754151,2|8,3:2|0:2,0:0:0:0:
473,283,174502,1,0,3:2:0:0:
166,349,174802,6,0,B|213:363|213:363|256:334|256:334|251:276|187:237|124:266,1,270.199991754151,2|8,3:2|0:2,0:0:0:0:
27,193,175702,1,2,3:2:0:0:
297,75,176002,2,0,B|265:53|265:53|280:112|255:154,1,135.099995877075,2|2,3:2|3:2,0:0:0:0:
128,263,176602,2,0,B|160:241|160:241|145:300|170:342,1,135.099995877075,2|2,3:2|3:2,0:0:0:0:
389,341,177202,6,0,B|429:366|466:342|480:307|461:268|461:268|471:240|471:240|424:192|451:133,1,270.199991754151,2|8,3:2|3:2,0:0:0:0:
489,57,178102,1,0,3:2:0:0:
315,250,178402,2,0,B|350:222|350:222|293:194|238:231|238:231|161:227|151:143,1,270.199991754151,2|8,3:2|0:2,0:0:0:0:
251,94,179302,1,0,3:2:0:0:
27,94,179602,6,0,B|64:71|64:71|121:81|121:81|162:55,2,135.099995877075,2|0|8,3:2|3:2|0:2,0:0:0:0:
162,213,180502,1,0,3:2:0:0:
393,121,180802,6,0,B|406:74|356:46|356:46|303:86|303:158|352:193,1,250.89998851471,10|2,0:2|3:2,0:0:0:0:
439,313,181252,1,10,0:2:0:0:
211,274,181402,2,0,P|260:268|287:319,1,101.324996907806,0|0,3:2|0:0,0:0:0:0:
339,362,181702,2,0,B|299:339|251:361|251:361|231:348|231:348|186:370|139:346,1,202.649993815613,10|0,0:2|0:2,0:0:0:0:
42,348,182002,6,0,P|116:337|104:228,1,202.649993815613,6|8,3:2|0:2,0:0:0:0:
18,165,182452,1,0,0:2:0:0:
127,46,182602,2,0,B|167:37|167:37|217:91,1,101.324996907806,0|0,0:2|3:2,0:0:0:0:
239,258,182902,2,0,B|211:227|211:227|232:157,1,101.324996907806,10|0,0:2|0:0,0:0:0:0:
480,109,183202,6,0,B|443:149|397:151|364:124|364:124|327:93|273:111,1,202.649993815613,2|8,3:2|0:2,0:0:0:0:
335,228,183652,1,0,0:2:0:0:
450,373,183802,2,0,P|470:328|453:279,1,101.324996907806,0|0,3:2|3:2,0:0:0:0:
239,258,184102,2,0,P|223:305|243:350,1,101.324996907806,10|0,0:2|0:0,0:0:0:0:
375,130,184402,6,0,B|309:100|309:100|338:244,1,202.649993815613,2|8,3:2|0:2,0:0:0:0:
358,343,184852,1,0,0:2:0:0:
477,193,185002,2,0,P|500:138|482:84,1,101.324996907806,2|2,3:2|2:2,0:0:0:0:
441,41,185227,1,2,2:2:0:0:
441,41,185302,1,10,3:2:0:0:
312,146,185452,1,0,3:2:0:0:
218,13,185602,6,0,B|258:2|258:2|331:38,1,101.324996907806,2|0,3:2|0:0,0:0:0:0:
171,134,185902,1,10,0:2:0:0:
319,247,186052,2,0,B|283:267|283:267|203:252,1,101.324996907806,2|0,3:2|0:0,0:0:0:0:
151,132,186352,1,0,3:2:0:0:
31,330,186502,2,0,B|83:299|83:299|126:336|191:327|191:327|208:354,1,195.41250074544,10|0,0:2|0:0,0:0:0:0:
308,383,186802,6,0,B|336:343|336:343|314:216,1,166.46250317502,2|0,3:2|0:0,0:0:0:0:
292,127,187102,1,8,0:2:0:0:
417,226,187252,1,0,0:2:0:0:
457,50,187402,2,0,P|408:37|348:71,1,110.97500211668,0|0,3:2|3:2,0:0:0:0:
202,227,187702,1,10,3:2:0:0:
355,61,187852,1,2,0:2:0:0:
329,294,188002,5,0,3:2:0:0:
223,94,188152,1,0,0:2:0:0:
163,331,188302,1,8,0:2:0:0:
206,82,188452,1,0,0:2:0:0:
60,192,188602,1,0,3:2:0:0:
60,192,188677,1,0,0:0:0:0:
60,192,188752,1,0,3:2:0:0:
267,230,188902,1,10,3:2:0:0:
206,82,189052,1,0,0:0:0:0:
13,262,189202,6,0,P|71:229|132:252,1,123.037502346754,2|0,3:2|0:0,0:0:0:0:
176,307,189502,2,0,B|176:375|176:375|147:356,1,82.0250015645027,0|0,3:2|3:2,0:0:0:0:
289,134,189802,2,0,P|334:108|326:189,1,164.050003129005,8|0,0:2|3:2,0:0:0:0:
237,234,190252,1,0,3:2:0:0:
425,76,190402,6,0,B|394:24|462:-2|497:54|487:105|452:141|452:141|475:175|475:175|415:201|399:255|429:315|496:323|530:280,1,451.137508604765,2|0,3:2|0:2,0:0:0:0:
430,365,191302,5,2,3:2:0:0:
376,355,191402,1,0,0:0:0:0:
322,346,191502,1,0,0:0:0:0:
268,337,191602,6,0,P|231:277|282:183,1,173.699994699097,6|2,3:2|3:2,0:0:0:0:
390,81,192202,2,0,P|432:79|378:113,1,173.699994699097,2|2,3:2|3:2,0:0:0:0:
214,58,192802,1,2,3:2:0:0:
192,146,193102,1,2,3:2:0:0:
327,207,193402,1,2,3:2:0:0:
349,295,193702,1,2,3:2:0:0:
337,308,194002,5,2,3:2:0:0:
315,220,194302,1,2,3:2:0:0:
210,133,194602,1,2,3:2:0:0:
232,45,194902,1,2,3:2:0:0:
95,206,195202,1,2,3:2:0:0:
95,206,195802,1,2,3:2:0:0:
220,241,196102,1,2,3:2:0:0:
250,367,196402,6,0,B|203:331|152:346|159:368|106:386|55:349|55:349|88:336,1,231.599992932129,2|2,3:2|3:2,0:0:0:0:
220,241,197302,2,0,L|257:246,2,28.9499991165161,2|0|2,3:2|0:0|3:2,0:0:0:0:
91,69,197602,2,0,P|63:112|99:174,1,115.799996466065,2|2,3:2|3:2,0:0:0:0:
218,117,198052,2,0,P|192:111|152:121,1,57.8999982330323,2|2,3:2|3:2,0:0:0:0:
289,175,198352,1,0,0:0:0:0:
351,71,198502,2,0,P|382:60|414:64,1,57.8999982330323,0|2,0:2|3:2,0:0:0:0:
495,206,198802,6,0,P|442:214|394:153,1,115.799996466065,2|2,3:2|3:2,0:0:0:0:
341,296,199252,2,0,P|343:335|335:367,1,57.8999982330323,2|0,3:2|0:0,0:0:0:0:
303,148,199552,2,0,P|301:187|309:219,1,57.8999982330323,2|0,3:2|0:0,0:0:0:0:
369,25,199852,2,0,B|308:77|233:30|233:30|181:57|196:117,1,231.599992932129,2|0,3:2|0:0,0:0:0:0:
237,183,200602,1,2,3:2:0:0:
133,265,200902,1,2,3:2:0:0:
12,157,201202,6,0,P|65:126|152:193,1,173.699994699097,2|2,3:2|3:2,0:0:0:0:
237,284,201802,2,0,B|334:236|317:313|424:275,1,173.699994699097,2|2,3:2|3:2,0:0:0:0:
466,202,202402,1,2,3:2:0:0:
388,128,202702,1,2,3:2:0:0:
246,176,203002,1,2,3:2:0:0:
237,284,203302,1,2,3:2:0:0:
253,298,203602,5,2,3:2:0:0:
263,188,203902,1,2,3:2:0:0:
166,104,204202,1,2,3:2:0:0:
304,37,204502,1,2,3:2:0:0:
304,37,204652,2,0,P|364:30|412:73,1,115.799996466065,2|0,3:2|0:2,0:0:0:0:
467,174,205102,1,2,3:2:0:0:
366,266,205402,1,2,3:2:0:0:
293,151,205702,1,2,3:2:0:0:
447,362,206002,6,0,B|401:319|353:348|353:348|320:314|270:306|225:345,1,231.599992932129,2|2,3:2|3:2,0:0:0:0:
117,272,206902,1,2,3:2:0:0:
293,151,207202,2,0,P|261:206|198:201,1,115.799996466065,2|2,3:2|3:2,0:0:0:0:
242,72,207652,2,0,B|287:39|351:52|374:107|374:107|416:92|459:126,1,231.599992932129,2|0,3:2|0:2,0:0:0:0:
488,234,208402,6,0,B|455:280|386:286|341:237|341:237|306:264|306:264|234:223|161:272,1,347.399989398194,2|0,3:2|0:0,0:0:0:0:
311,358,209002,1,2,3:2:0:0:
331,353,209302,1,2,3:2:0:0:
309,117,209602,1,2,3:2:0:0:
289,112,209902,1,2,3:2:0:0:
178,261,210202,1,2,3:2:0:0:
452,197,210502,1,2,3:2:0:0:
178,261,210802,5,8,3:2:0:0:
367,160,210952,1,0,3:2:0:0:
450,280,211102,1,0,3:2:0:0:
227,122,211252,5,8,3:2:0:0:
450,280,211402,1,0,3:2:0:0:
269,323,211552,1,0,3:2:0:0:
385,85,211702,6,0,B|369:30|426:3|490:35|471:125|415:152|415:152|426:215|398:268|338:276|300:265|300:265|211:227|256:153|321:175|345:295|253:311|253:311,1,641.724980416108,8|0,0:2|0:2,0:0:0:0:
284,376,213202,6,0,B|270:327|202:314|158:351|158:351|112:310|112:310|144:257|195:258,1,304.940007444824,6|8,3:2|0:2,0:0:0:0:
367,344,213652,1,2,0:2:0:0:
474,124,213802,2,0,B|409:68|337:125|337:125|379:165,1,195.41250074544,2|0,3:2|0:0,0:0:0:0:
429,224,214102,1,8,0:2:0:0:
248,77,214252,2,0,P|236:44|243:-8,1,65.1375002484799,2|0,3:2|0:0,0:0:0:0:
133,277,214402,6,0,P|197:254|261:297,1,130.27500049696,2|0,3:2|0:2,0:0:0:0:
488,18,214702,2,0,P|430:44|371:21,1,130.27500049696,10|0,0:2|0:2,0:0:0:0:
424,285,215002,2,0,P|429:222|479:183,1,130.27500049696,2|0,3:2|3:2,0:0:0:0:
248,77,215303,2,0,P|297:116|303:179,1,130.27500049696,10|0,0:2|0:2,0:0:0:0:
141,343,215602,6,0,B|121:314|99:301|99:301|176:264|236:322,1,195.41250074544,2|0,3:2|0:0,0:0:0:0:
313,372,215902,2,0,P|343:318|308:257,1,130.27500049696,10|0,0:2|0:2,0:0:0:0:
125,123,216202,1,2,3:2:0:0:
314,261,216352,1,0,3:2:0:0:
339,33,216502,2,0,P|285:3|224:38,1,130.27500049696,10|0,0:2|0:2,0:0:0:0:
489,202,216802,6,0,B|489:163|444:153|444:153|476:239|434:302,1,220.019997314209,2|0,3:2|0:0,0:0:0:0:
328,346,217102,2,0,P|358:344|387:351,1,41.0125007822514,8|0,0:2|0:0,0:0:0:0:
315,138,217252,2,0,P|296:146|279:158,1,41.0125007822514,0|0,3:2|0:0,0:0:0:0:
164,347,217402,2,0,B|213:350|232:299|204:264|204:264|168:244|120:262|118:312,1,220.019997314209,2|0,3:2|0:2,0:0:0:0:
31,128,217702,2,0,B|-30:129|-2:202|52:191|92:157|92:157|132:179|174:151,1,220.019997314209,10|0,0:2|0:2,0:0:0:0:
291,73,218002,6,0,B|256:71|234:38|234:38|196:107|235:187|318:202,1,260.550000993919,2|8,3:2|0:2,0:0:0:0:
390,325,218452,1,0,0:2:0:0:
487,127,218602,1,2,3:2:0:0:
292,194,218752,1,0,3:2:0:0:
461,381,218902,2,0,B|459:347|479:318|479:318|453:287|455:235,1,130.27500049696,10|2,0:2|0:2,0:0:0:0:
386,34,219202,6,0,B|423:71|423:71|353:122|284:68,1,195.41250074544,2|0,3:2|0:0,0:0:0:0:
203,13,219502,1,10,0:2:0:0:
142,238,219652,1,2,3:2:0:0:
382,154,219802,1,0,0:0:0:0:
128,48,219952,1,0,3:2:0:0:
220,272,220102,1,8,0:2:0:0:
354,74,220252,2,0,P|333:68|278:81,1,65.1375002484799,2|0,0:2|0:0,0:0:0:0:
43,169,220402,6,0,B|95:140|141:173|141:173|165:148|206:138|247:180|193:198,1,228.705005583618,2|0,3:2|0:0,0:0:0:0:
121,310,220702,2,0,P|119:267|143:224,1,61.76,10|0,0:2|0:0,0:0:0:0:
354,74,220852,2,0,B|399:43|399:43|388:172|388:172|434:142,1,228.705005583618,2|0,3:2|0:0,0:0:0:0:
488,51,221152,2,0,L|482:-11,1,41.0125007822514,10|0,3:2|0:0,0:0:0:0:
303,191,221302,2,0,L|309:253,1,41.0125007822514,0|0,0:0|0:0,0:0:0:0:
481,291,221452,6,0,B|506:286|530:295|530:295|513:237|460:216|407:237|372:312|445:367,1,304.940007444824,0|0,3:2|3:2,0:0:0:0:
169,172,221902,2,0,B|193:149|240:149|240:149|268:184|316:194,1,152.470003722412,8|0,3:2|3:2,0:0:0:0:
384,168,222127,1,0,3:2:0:0:
384,168,222202,2,0,P|314:197|328:267,1,152.470003722412,10|0,3:2|3:2,0:0:0:0:
69,23,222502,2,0,P|85:51|95:97,1,53.0750016197205,10|0,3:2|3:2,0:0:0:0:
257,107,222652,2,0,P|243:129|234:154,1,53.0750016197205,0|0,3:2|3:2,0:0:0:0:
80,302,222802,6,0,B|41:326|-13:266|42:198|100:220|127:249|127:249|175:302|258:260,1,304.940007444824,6|8,3:2|0:2,0:0:0:0:
384,168,223252,1,2,0:2:0:0:
284,378,223402,1,2,3:2:0:0:
224,273,223552,1,0,3:2:0:0:
451,346,223702,1,8,0:2:0:0:
287,191,223852,2,0,L|296:116,1,65.1375002484799,2|0,3:2|0:0,0:0:0:0:
465,36,224002,6,0,P|490:103|446:156,1,130.27500049696,2|0,3:2|0:0,0:0:0:0:
193,152,224302,2,0,P|168:219|212:272,1,130.27500049696,10|0,0:2|0:0,0:0:0:0:
382,310,224602,2,0,P|412:254|386:197,1,130.27500049696,2|0,3:2|3:2,0:0:0:0:
369,25,224902,2,0,P|306:26|269:77,1,130.27500049696,10|0,0:2|0:2,0:0:0:0:
3,136,225202,6,0,B|61:99|121:127|106:154|164:174|216:144,1,220.019997314209,2|0,3:2|0:2,0:0:0:0:
324,197,225502,1,10,0:2:0:0:
279,335,225652,1,0,3:2:0:0:
210,146,225802,1,10,3:2:0:0:
378,14,225952,1,0,3:2:0:0:
472,208,226102,2,0,P|437:219|405:220,1,53.0750016197205,10|0,3:2|0:0,0:0:0:0:
179,39,226252,6,0,B|211:9|256:14|281:55|281:55|282:103|239:136|191:143|124:102,1,293.359996418945,2|0,3:2|3:2,0:0:0:0:
57,331,226702,2,0,B|96:352|96:352|120:284|120:284|153:270,1,146.679998209473,10|0,0:2|3:2,0:0:0:0:
463,330,227002,2,0,B|424:351|424:351|400:283|400:283|367:269,1,146.679998209473,10|0,0:2|3:2,0:0:0:0:
258,43,227302,2,0,B|309:20|309:20|296:96|296:96|266:124|266:124|254:184,1,220.019997314209,10|0,3:2|3:2,0:0:0:0:
221,289,227602,6,0,B|192:241|199:185|258:165|258:165|308:186|332:241|286:309,1,293.359996418945,2|8,3:2|0:2,0:0:0:0:
84,379,228052,1,0,3:2:0:0:
301,283,228202,1,0,0:0:0:0:
76,159,228352,1,0,3:2:0:0:
221,289,228502,2,0,B|169:277|169:277|137:290|137:290|86:280,1,130.27500049696,10|0,0:2|3:2,0:0:0:0:
363,113,228802,6,0,B|415:91|452:131|452:131|479:122|479:122|520:164|486:220,1,220.019997314209,2|0,3:2|0:0,0:0:0:0:
423,268,229102,1,10,0:2:0:0:
232,183,229252,1,2,3:2:0:0:
319,2,229402,2,0,P|369:33|358:117,1,146.679998209473,0|0,0:0|3:2,0:0:0:0:
109,241,229702,1,8,0:2:0:0:
301,333,229852,1,2,3:2:0:0:
309,312,229927,1,0,0:0:0:0:
317,291,230002,5,2,3:2:0:0:
232,183,230152,1,0,0:0:0:0:
387,351,230302,1,8,0:2:0:0:
121,384,230452,2,0,B|59:363|54:300|104:252|169:257|192:321|192:321|218:291|184:243,1,293.359996418945,2|0,3:2|3:2,0:0:0:0:
103,98,230902,1,10,0:2:0:0:
103,98,231202,5,10,0:2:0:0:
314,23,231352,1,0,3:2:0:0:
172,166,231502,5,10,3:2:0:0:
427,190,231652,1,0,3:2:0:0:
113,242,231802,5,10,0:2:0:0:
402,38,231952,1,0,3:2:0:0:
358,30,232027,1,0,3:2:0:0:
314,23,232102,2,0,L|318:97,1,54.040000659668,10|0,3:2|0:0,0:0:0:0:
435,281,232252,6,0,B|457:278|475:247|475:247|414:206|364:241|364:241|312:279|253:241,1,279.850008540345,6|2,3:2|3:2,0:0:0:0:
100,76,232702,2,0,P|116:110|88:188,1,113.869996003708,10|0,0:2|0:2,0:0:0:0:
260,351,233002,2,0,P|242:298|263:246,1,113.869996003708,2|0,3:2|3:2,0:0:0:0:
362,150,233302,1,8,0:2:0:0:
171,34,233452,6,0,B|203:79|257:83|298:47|298:47|337:14|394:38,1,227.739992007416,2|2,3:2|3:2,0:0:0:0:
504,230,233902,2,0,B|443:220|443:220|402:242|402:242|325:231,1,170.804994005562,10|0,0:2|0:0,0:0:0:0:
268,195,234202,2,0,B|252:229|252:229|264:278|264:278|242:314,1,113.869996003708,2|0,3:2|3:2,0:0:0:0:
402,366,234502,1,8,0:2:0:0:
281,115,234652,6,0,B|334:112|334:112|377:175|377:175|355:248|355:248|332:225,1,227.739992007416,2|2,3:2|3:2,0:0:0:0:
152,179,235102,2,0,P|110:153|41:172,1,113.869996003708,10|0,0:2|0:2,0:0:0:0:
241,266,235402,1,2,3:2:0:0:
281,115,235552,1,0,3:2:0:0:
93,231,235702,1,10,0:2:0:0:
262,369,235852,6,0,B|287:386|328:365|328:365|345:307|299:254|224:266,1,227.739992007416,2|2,3:2|3:2,0:0:0:0:
216,13,236302,2,0,P|164:64|167:123,1,113.869996003708,10|0,0:2|0:2,0:0:0:0:
407,232,236602,1,2,3:2:0:0:
275,107,236752,1,2,3:2:0:0:
450,26,236902,1,8,0:2:0:0:
486,228,237052,6,0,B|445:205|407:232|407:232|386:182|333:177|286:220|300:276|347:292,1,279.850008540345,2|2,3:2|3:2,0:0:0:0:
270,18,237502,2,0,P|314:26|360:90,1,113.869996003708,10|0,0:2|0:2,0:0:0:0:
231,249,237802,2,0,P|187:241|141:177,1,113.869996003708,2|0,3:2|3:2,0:0:0:0:
131,43,238102,1,8,0:2:0:0:
134,344,238252,6,0,P|162:316|71:323,1,227.739992007416,2|2,3:2|3:2,0:0:0:0:
208,169,238702,2,0,P|261:156|305:190,1,113.869996003708,10|0,0:2|0:2,0:0:0:0:
389,344,239002,1,2,3:2:0:0:
440,103,239152,1,0,3:2:0:0:
285,270,239302,2,0,P|319:271|357:256,1,56.934998001854,8|0,0:2|0:0,0:0:0:0:
502,224,239452,6,0,B|445:211|445:211|403:239|403:239|333:250|305:189,1,227.739992007416,2|2,3:2|3:2,0:0:0:0:
343,12,239902,2,0,B|356:93|356:93|322:68,1,113.869996003708,10|0,0:2|0:2,0:0:0:0:
103,37,240202,1,2,3:2:0:0:
195,276,240352,2,0,L|201:208,1,55.9700017080689,0|8,3:2|0:2,0:0:0:0:
199,220,240652,6,0,B|169:194|139:187|139:187|195:155|238:182|238:182|286:215|343:179,1,279.850008540345,2|0,3:2|3:2,0:0:0:0:
414,112,241102,1,10,0:2:0:0:
285,342,241252,1,0,0:2:0:0:
506,229,241402,1,2,3:2:0:0:
262,271,241552,1,2,3:2:0:0:
363,53,241702,1,8,0:2:0:0:
509,316,241852,6,0,B|464:283|418:306|418:306|390:287|390:287|363:313|319:320|277:309|257:261,1,279.850008540345,6|2,3:2|3:2,0:0:0:0:
465,69,242302,2,0,B|481:113|481:113|457:187,1,101.324996907806,10|0,0:2|0:2,0:0:0:0:
260,185,242602,2,0,B|244:141|244:141|268:67,1,101.324996907806,2|0,3:2|3:2,0:0:0:0:
363,53,242902,1,8,0:2:0:0:
205,243,243052,6,0,B|321:188|298:282|419:231,1,202.649993815613,2|2,3:2|3:2,0:0:0:0:
186,337,243502,2,0,P|136:325|111:263,1,101.324996907806,10|0,0:2|0:2,0:0:0:0:
326,368,243802,2,0,P|380:347|441:366,1,101.324996907806,2|0,3:2|3:2,0:0:0:0:
360,157,244102,1,8,0:2:0:0:
186,337,244252,6,0,P|241:267|167:175,1,202.649993815613,2|2,3:2|3:2,0:0:0:0:
64,68,244702,2,0,B|56:101|56:101|88:185,1,101.324996907806,10|0,0:2|0:2,0:0:0:0:
294,14,245002,1,0,3:2:0:0:
186,182,245152,1,2,3:2:0:0:
421,104,245302,1,8,0:2:0:0:
298,30,245452,1,2,3:2:0:0:
426,121,245602,5,0,0:0:0:0:
261,167,245752,1,2,3:2:0:0:
483,279,245902,1,10,0:2:0:0:
454,33,246052,1,2,3:2:0:0:
489,295,246202,1,8,0:2:0:0:
268,183,246352,2,0,B|307:161|307:161|326:205|298:253|246:259|207:235,1,209.887506405258,2|0,3:2|0:0,0:0:0:0:
160,303,246652,6,0,P|194:254|142:128,1,202.649993815613,6|2,3:2|3:2,0:0:0:0:
14,32,247102,2,0,P|23:84|75:101,1,101.324996907806,10|0,0:2|0:2,0:0:0:0:
276,38,247402,2,0,P|234:11|159:23,1,101.324996907806,2|0,3:2|3:2,0:0:0:0:
333,162,247702,1,8,0:2:0:0:
498,52,247852,6,0,B|463:17|463:17|404:92|453:169,1,202.649993815613,2|2,3:2|3:2,0:0:0:0:
363,299,248302,2,0,P|419:294|468:332,1,101.324996907806,10|0,0:2|0:0,0:0:0:0:
237,369,248602,2,0,P|206:329|205:279,1,101.324996907806,2|0,3:2|3:2,0:0:0:0:
263,89,248902,1,8,0:2:0:0:
78,222,249052,6,0,P|111:194|11:93,1,202.649993815613,2|2,3:2|3:2,0:0:0:0:
262,88,249502,2,0,P|295:52|345:52,1,101.324996907806,10|0,0:2|0:2,0:0:0:0:
461,284,249802,2,0,P|465:234|455:185,1,101.324996907806,2|0,3:2|3:2,0:0:0:0:
319,205,250102,1,8,0:2:0:0:
490,78,250252,6,0,B|436:40|369:65|383:85|325:125|246:81,1,241.25,2|2,3:2|3:2,0:0:0:0:
53,29,250702,2,0,B|101:42|101:42|117:117,1,120.625,10|2,0:2|3:2,0:0:0:0:
82,344,251002,1,10,3:2:0:0:
203,186,251152,1,2,3:2:0:0:
220,183,251227,1,0,3:2:0:0:
237,180,251302,1,8,3:2:0:0:
50,9,251452,6,0,B|113:28|113:28|137:141|137:141|87:199,1,241.25,6|2,3:2|3:2,0:0:0:0:
293,360,251902,1,10,0:2:0:0:
170,257,252052,1,0,3:2:0:0:
321,146,252202,1,10,0:2:0:0:
443,294,252352,1,0,3:2:0:0:
324,128,252502,1,8,0:2:0:0:
291,377,252652,6,0,B|239:347|239:347|188:362|188:362|131:313|50:348,1,241.25,6|2,3:2|3:2,0:0:0:0:
41,173,253102,1,8,0:2:0:0:
170,257,253252,1,2,3:2:0:0:
324,128,253402,1,8,0:2:0:0:
195,44,253552,1,0,3:2:0:0:
168,275,253702,1,2,3:2:0:0:
197,27,253852,1,0,3:2:0:0:
372,246,254002,5,14,0:2:0:0:
214,169,254152,1,0,3:2:0:0:
97,308,254302,1,0,3:2:0:0:
368,265,254452,5,14,0:2:0:0:
237,263,254602,1,0,3:2:0:0:
194,384,254752,1,0,3:2:0:0:
354,133,254902,6,0,B|392:142|420:111|420:111|378:71|317:72|252:111|252:111|233:120|163:133|113:83|119:-9|168:-64|266:-60|306:-15|359:27|319:112|273:147|223:183|155:145|121:195|111:278|137:333|191:368|260:373|363:335|297:252|238:229|237:265|237:277,1,979.474970108796,14|0,0:2|0:0,0:0:0:0:
447,380,259402,2,0,P|432:348|429:282,1,94.0874956930163,2|0,3:2|0:2,0:0:0:0:
360,222,259702,2,0,B|308:310|202:284|229:210|298:195|318:274|318:274|374:331|430:287,1,366.699990208054,2|0,3:2|0:2,0:0:0:0:
