osu file format v14

[General]
AudioFilename: audio.mp3
AudioLeadIn: 0
PreviewTime: 212002
Countdown: 0
SampleSet: Soft
StackLeniency: 0.7
Mode: 0
LetterboxInBreaks: 0
EpilepsyWarning: 1
WidescreenStoryboard: 1

[Editor]
Bookmarks: 112402,226725
DistanceSpacing: 1.5
BeatDivisor: 4
GridSize: 8
TimelineZoom: 1.2

[Metadata]
Title:Shiroi Yuki no Princess wa
TitleUnicode:白い雪のプリンセスは
Artist:cillia & Ayaponzu*
ArtistUnicode:cillia & あやぽんず*
Creator:Mnyui
Version:Insane
Source:
Tags:初音ミク Hatsune Miku -Project DIVA- Arcade The Snow White Princess Is のぼる↑ Noboru↑ Noboru↑-P NoboruP Noboru MEIKO V3 POWER Vocaloid Utaite Cover ぽんたすてぃっく!Pontastick! Comiket Comik Comic Market 90 C90 Japanese Novelty Rock kaizuun shifu touka jval93700
BeatmapID:2078322
BeatmapSetID:993928

[Difficulty]
HPDrainRate:5
CircleSize:4
OverallDifficulty:7
ApproachRate:9
SliderMultiplier:1.4
SliderTickRate:1

[Events]
//Background and Video events
0,0,"insane.jpg",0,0
//Break Periods
//Storyboard Layer 0 (Background)
//Storyboard Layer 1 (Fail)
//Storyboard Layer 2 (Pass)
//Storyboard Layer 3 (Foreground)
//Storyboard Layer 4 (Overlay)
//Storyboard Sound Samples

[TimingPoints]
1852,300,4,2,2,70,1,0
1852,-133.333333333333,4,2,2,70,0,0
6652,-90.9090909090909,4,2,2,90,0,0
6802,300,4,2,2,90,1,0
6802,-90.9090909090909,4,2,2,90,0,0
21202,-100,4,2,2,60,0,0
59602,-133.333333333333,4,2,2,80,0,0
62002,-90.9090909090909,4,2,2,100,0,1
90802,-111.111111111111,4,2,2,60,0,0
129202,-111.111111111111,4,2,2,80,0,0
131602,-90.9090909090909,4,2,2,100,0,1
150652,-90.9090909090909,4,2,2,100,0,0
172402,-153.846153846153,4,2,2,50,0,0
182002,-111.111111111111,4,2,2,60,0,0
213202,-90.9090909090909,4,2,2,100,0,1
242302,-90.9090909090909,4,2,2,100,0,0
251452,-90.9090909090909,4,2,2,100,0,1
259275,-90.9090909090909,4,2,2,5,0,0
259425,-90.9090909090909,4,2,2,100,0,0
260302,-90.9090909090909,4,2,2,5,0,0

[Colours]
Combo1 : 0,0,128
Combo2 : 0,0,160
Combo3 : 0,0,255
Combo4 : 0,128,255
Combo5 : 0,128,192
Combo6 : 128,128,255

[HitObjects]
78,188,1852,6,0,P|59:242|85:300,1,105.000004005432,2|0,0:2|0:2,0:0:0:0:
247,206,2302,2,0,P|209:162|146:156,2,105.000004005432,2|2|0,0:2|0:2|0:2,0:0:0:0:
154,339,3052,6,0,P|210:328|247:276,1,105.000004005432,2|0,0:2|0:2,0:0:0:0:
400,311,3502,2,0,P|362:267|299:261,2,105.000004005432,2|2|0,0:2|0:2|0:2,0:0:0:0:
470,231,4252,6,0,L|468:109,1,105.000004005432,2|0,0:2|0:2,0:0:0:0:
388,71,4702,2,0,P|331:89|280:71,2,105.000004005432,2|2|0,0:2|0:2|0:2,0:0:0:0:
199,114,5452,6,0,L|193:218,1,105.000004005432,2|0,0:2|0:2,0:0:0:0:
139,285,5902,2,0,P|90:302|40:289,2,105.000004005432,2|2|0,0:2|0:2|0:2,0:0:0:0:
286,175,6652,6,0,L|100:171,1,154.000004699707,6|2,3:2|3:2,0:0:0:0:
46,82,7102,2,0,P|74:62|123:59,1,77.0000023498536,10|0,0:2|0:2,0:0:0:0:
223,58,7402,2,0,P|281:81|382:49,1,154.000004699707,2|8,3:2|0:2,0:0:0:0:
452,95,7852,6,0,B|478:153|478:153|473:250,1,154.000004699707,2|2,3:2|3:2,0:0:0:0:
386,269,8302,2,0,L|391:186,1,77.0000023498536,10|0,0:2|0:2,0:0:0:0:
446,321,8602,2,0,P|381:349|307:287,1,154.000004699707,2|8,3:2|0:2,0:0:0:0:
242,214,9052,6,0,B|161:198|161:198|61:206,1,154.000004699707,2|2,3:2|3:2,0:0:0:0:
2,50,9502,1,10,0:2:0:0:
52,128,9652,1,0,0:2:0:0:
102,50,9802,6,0,P|174:27|249:70,1,154.000004699707,2|8,3:2|0:2,0:0:0:0:
170,264,10252,2,0,B|178:206|178:206|166:157|166:157|168:111,1,154.000004699707,2|0,3:2|3:2,0:0:0:0:
287,173,10702,1,8,0:2:0:0:
303,28,10852,2,0,L|300:181,1,154.000004699707,2|0,3:2|3:2,0:0:0:0:
318,282,11302,1,8,0:2:0:0:
227,321,11452,6,0,P|146:337|91:290,1,154.000004699707,2|2,3:2|3:2,0:0:0:0:
24,215,11902,2,0,P|27:172|53:140,1,77.0000023498536,10|0,0:2|0:2,0:0:0:0:
101,47,12202,2,0,B|158:50|158:50|194:72|194:72|276:79,1,154.000004699707,2|8,3:2|0:2,0:0:0:0:
378,95,12652,6,0,P|364:187|396:246,1,154.000004699707,2|2,3:2|3:2,0:0:0:0:
486,82,13102,2,0,L|500:169,1,77.0000023498536,10|0,0:2|0:2,0:0:0:0:
488,276,13402,2,0,P|426:341|343:328,1,154.000004699707,2|8,3:2|0:2,0:0:0:0:
224,244,13852,6,0,B|164:242|164:242|131:257|131:257|71:253,1,154.000004699707,2|2,3:2|3:2,0:0:0:0:
10,364,14302,2,0,P|-4:328|6:280,1,77.0000023498536,10|0,0:2|0:2,0:0:0:0:
108,181,14602,1,2,3:2:0:0:
224,244,14752,2,0,P|230:281|215:316,1,77.0000023498536,0|8,3:2|0:2,0:0:0:0:
352,355,15052,6,0,B|376:301|376:301|382:203,1,154.000004699707,2|0,3:2|3:2,0:0:0:0:
250,89,15502,1,8,0:2:0:0:
381,83,15652,2,0,P|328:52|245:99,1,154.000004699707,2|0,3:2|3:2,0:0:0:0:
319,140,16102,1,8,0:2:0:0:
173,290,16252,6,0,L|152:129,1,154.000004699707,2|0,3:2|3:2,0:0:0:0:
244,171,16702,2,0,P|304:225|386:193,1,154.000004699707,8|0,0:2|3:2,0:0:0:0:
454,133,17152,2,0,B|448:239|448:239|427:281,1,154.000004699707,8|0,0:2|3:2,0:0:0:0:
271,289,17602,5,8,0:2:0:0:
271,289,17677,1,0,0:0:0:0:
271,289,17752,1,0,3:2:0:0:
369,209,17902,1,0,3:2:0:0:
364,90,18052,1,0,3:2:0:0:
263,153,18202,1,0,3:2:0:0:
470,146,18352,1,0,3:2:0:0:
369,209,18502,1,0,0:2:0:0:
364,90,18652,1,0,3:2:0:0:
481,271,18802,5,10,0:2:0:0:
271,289,18952,1,8,0:2:0:0:
240,142,19852,6,0,B|183:142|183:142|137:119|137:119|74:122,1,154.000004699707,10|0,0:2|3:2,0:0:0:0:
21,75,20302,2,0,P|8:104|17:158,1,77.0000023498536,0|0,3:2|3:2,0:0:0:0:
111,265,20602,2,0,P|124:236|115:182,1,77.0000023498536,0|0,3:2|3:2,0:0:0:0:
208,65,20902,2,0,L|318:69,1,77.0000023498536,10|0,0:2|0:0,0:0:0:0:
401,124,21202,5,6,3:2:0:0:
401,124,21352,2,0,L|437:64,2,70,2|10|2,0:2|0:2|0:2,0:0:0:0:
309,197,21802,1,2,3:2:0:0:
309,197,21952,2,0,L|342:258,2,70,2|10|2,3:2|0:2|0:2,0:0:0:0:
240,130,22402,5,2,3:2:0:0:
155,147,22552,1,2,3:2:0:0:
213,211,22702,1,10,0:2:0:0:
183,67,22852,2,0,P|109:73|69:141,1,140,2|0,3:2|3:2,0:0:0:0:
46,207,23302,1,8,0:2:0:0:
112,283,23452,6,0,B|175:263|188:306|250:292,1,140,2|2,3:2|3:2,0:0:0:0:
337,272,23902,2,0,P|355:240|347:192,1,70,10|2,0:2|0:2,0:0:0:0:
290,134,24202,1,2,3:2:0:0:
237,211,24352,1,2,3:2:0:0:
178,128,24502,2,0,P|120:115|85:131,1,70,10|2,0:2|0:2,0:0:0:0:
4,205,24802,6,0,B|-4:246|-4:246|10:279,1,70,2|2,3:2|3:2,0:0:0:0:
135,322,25102,1,10,0:2:0:0:
135,322,25252,2,0,B|202:323|202:323|224:306|224:306|275:305,1,140,2|2,3:2|3:2,0:0:0:0:
356,300,25702,1,0,0:0:0:0:
419,234,25852,6,0,P|442:166|409:86,1,140,2|2,3:2|3:2,0:0:0:0:
279,101,26302,2,0,P|260:167|283:232,1,140,10|2,0:2|3:2,0:0:0:0:
353,165,26752,1,2,3:2:0:0:
422,230,26902,1,8,0:2:0:0:
340,42,27052,2,0,B|309:13|309:13|202:11,1,140,2|0,3:2|3:2,0:0:0:0:
149,119,27502,2,0,P|90:145|11:109,1,140,10|2,0:2|3:2,0:0:0:0:
22,3,27952,1,2,3:2:0:0:
95,69,28102,1,8,0:2:0:0:
216,39,28252,6,0,B|232:113|232:113|208:195,1,140,2|2,3:2|3:2,0:0:0:0:
207,268,28702,1,10,0:2:0:0:
290,329,28852,1,2,0:2:0:0:
366,264,29002,2,0,L|372:185,1,70,2|2,3:2|3:2,0:0:0:0:
455,149,29302,2,0,L|449:228,1,70,10|2,0:2|0:2,0:0:0:0:
377,108,29602,6,0,B|336:89|336:89|242:90,1,140,2|8,3:2|0:2,0:0:0:0:
146,135,30052,1,2,3:2:0:0:
243,169,30202,2,0,L|312:171,1,70,0|0,0:0|3:2,0:0:0:0:
141,225,30502,2,0,L|71:222,1,70,8|0,0:2|0:2,0:0:0:0:
333,284,30802,5,2,3:2:0:0:
333,284,30952,2,0,L|242:304,2,70,2|10|2,3:2|0:2|0:2,0:0:0:0:
442,346,31402,1,2,3:2:0:0:
442,346,31552,2,0,L|509:363,2,70,2|10|2,3:2|0:2|0:2,0:0:0:0:
333,284,32002,5,2,3:2:0:0:
322,200,32152,1,2,3:2:0:0:
255,250,32302,1,10,0:2:0:0:
443,214,32452,2,0,P|468:135|441:58,1,140,2|0,3:2|3:2,0:0:0:0:
384,141,32902,1,8,0:2:0:0:
247,172,33052,6,0,B|181:151|177:202|102:174,1,140,2|2,3:2|3:2,0:0:0:0:
217,247,33502,2,0,L|198:332,1,70,10|2,0:2|2:2,0:0:0:0:
110,176,33802,1,0,3:2:0:0:
247,172,33952,1,2,3:2:0:0:
37,351,34102,6,0,P|38:305|18:256,1,70,10|0,0:2|0:2,0:0:0:0:
17,141,34402,1,2,3:2:0:0:
17,141,34552,2,0,P|9:106|11:72,1,70,2|10,3:2|0:2,0:0:0:0:
110,176,34852,2,0,B|155:163|155:163|252:172,1,140,2|2,3:2|3:2,0:0:0:0:
366,172,35302,1,0,0:0:0:0:
364,38,35452,6,0,P|416:13|505:52,1,140,2|0,3:2|3:2,0:0:0:0:
494,171,35902,2,0,P|442:196|353:157,1,140,10|2,0:2|3:2,0:0:0:0:
430,104,36352,1,2,3:2:0:0:
364,38,36502,1,8,0:2:0:0:
292,108,36652,6,0,B|282:168|282:168|294:260,1,140,2|0,3:2|3:2,0:0:0:0:
379,348,37102,2,0,B|389:288|389:288|377:196,1,140,10|2,0:2|3:2,0:0:0:0:
292,108,37552,1,2,3:2:0:0:
227,152,37702,1,8,0:2:0:0:
297,186,37852,1,2,0:2:0:0:
209,72,38002,6,0,P|148:45|83:69,1,140,0|8,3:2|0:2,0:0:0:0:
25,153,38452,1,0,3:2:0:0:
36,265,38602,2,0,P|39:300|61:346,1,70,0|0,0:0|3:2,0:0:0:0:
163,371,38902,2,0,P|172:336|166:285,1,70,8|0,0:2|3:2,0:0:0:0:
106,222,39202,6,0,B|181:211|181:211|252:238,1,140,2|8,3:2|0:2,0:0:0:0:
335,292,39652,1,0,3:2:0:0:
436,192,39802,2,0,P|454:165|458:121,1,70,0|0,0:0|3:2,0:0:0:0:
356,69,40102,2,0,P|375:98|379:133,1,70,8|0,0:2|3:2,0:0:0:0:
153,134,40402,6,0,B|218:91|226:164|292:129,1,140,2|8,3:2|0:2,0:0:0:0:
356,69,40852,1,0,3:2:0:0:
335,251,41002,2,0,P|357:214|360:175,1,70,0|0,0:0|3:2,0:0:0:0:
285,0,41302,2,0,P|263:37|259:75,1,70,0|0,0:0|3:2,0:0:0:0:
94,161,41602,5,10,0:2:0:0:
227,146,41752,1,0,3:2:0:0:
175,276,41902,1,10,0:2:0:0:
81,154,42052,1,0,3:2:0:0:
185,286,42202,1,10,0:2:0:0:
243,133,42352,1,0,3:2:0:0:
342,292,42502,1,10,0:2:0:0:
421,145,42652,1,0,3:2:0:0:
422,331,42802,6,0,B|387:365|387:365|286:387,1,140,2|8,3:2|0:2,0:0:0:0:
245,229,43252,1,0,0:2:0:0:
171,307,43402,2,0,P|121:298|88:269,1,70,0|0,0:2|3:2,0:0:0:0:
64,189,43702,1,8,0:2:0:0:
64,189,44002,5,2,3:2:0:0:
145,195,44152,1,0,0:0:0:0:
229,203,44302,1,8,0:2:0:0:
194,126,44452,1,0,0:2:0:0:
243,56,44602,1,0,0:2:0:0:
279,134,44752,1,0,3:2:0:0:
327,64,44902,1,10,0:2:0:0:
153,47,45202,6,0,P|89:15|5:46,1,140,2|8,3:2|0:2,0:0:0:0:
82,103,45652,1,0,0:2:0:0:
24,170,45802,2,0,P|22:204|42:240,1,70,0|0,0:2|3:2,0:0:0:0:
111,338,46102,2,0,L|138:179,1,140,10|2,0:2|3:2,0:0:0:0:
156,107,46552,5,0,0:2:0:0:
257,163,46702,1,10,0:2:0:0:
356,104,46852,1,2,0:2:0:0:
356,104,47152,5,2,3:2:0:0:
415,203,47302,1,8,0:2:0:0:
359,304,47452,1,2,0:2:0:0:
270,332,47602,6,0,B|220:328|220:328|189:308|189:308|126:308,1,140,2|8,3:2|0:2,0:0:0:0:
53,340,48052,1,0,0:2:0:0:
73,220,48202,2,0,P|107:213|154:222,1,70,0|0,0:2|3:2,0:0:0:0:
211,277,48502,1,8,0:2:0:0:
357,201,48652,2,0,P|363:162|349:113,1,70,0|2,0:2|3:2,0:0:0:0:
266,203,48952,5,0,0:2:0:0:
218,124,49102,1,8,0:2:0:0:
310,122,49252,1,0,0:2:0:0:
357,201,49402,1,0,0:2:0:0:
313,281,49552,1,0,3:2:0:0:
405,279,49702,1,8,0:2:0:0:
357,201,49852,1,0,0:2:0:0:
463,213,50002,6,0,P|491:274|464:348,1,140,2|8,3:2|0:2,0:0:0:0:
357,358,50452,1,0,0:2:0:0:
313,281,50602,2,0,P|279:269|245:269,1,70,0|0,0:2|3:2,0:0:0:0:
265,343,50902,2,0,P|229:349|200:366,1,70,0|0,0:2|3:2,0:0:0:0:
91,104,51202,5,10,0:2:0:0:
319,58,51502,5,10,0:2:0:0:
364,287,51802,5,10,0:2:0:0:
155,342,52102,5,10,0:2:0:0:
295,100,52402,6,0,P|253:160|255:232,1,140,2|8,3:2|0:2,0:0:0:0:
473,184,52852,2,0,P|441:117|377:83,1,140,0|0,0:2|3:2,0:0:0:0:
308,299,53302,1,10,0:2:0:0:
308,299,53602,6,0,P|381:305|442:266,1,140,2|8,3:2|0:2,0:0:0:0:
256,209,54052,2,0,P|214:269|216:341,1,140,0|0,0:2|3:2,0:0:0:0:
365,202,54502,1,10,0:2:0:0:
365,202,54802,2,0,P|333:135|269:101,1,140,2|8,3:2|0:2,0:0:0:0:
277,102,55252,1,0,0:2:0:0:
138,106,55402,2,0,P|111:142|108:197,2,93.3333333333333,2|0|0,3:2|0:0|0:0,0:0:0:0:
194,359,56002,6,0,B|137:357|137:357|107:341|107:341|32:339,1,140,2|10,3:2|0:2,0:0:0:0:
3,273,56452,1,2,3:2:0:0:
65,207,56602,2,0,P|76:177|77:135,1,70,0|0,0:2|3:2,0:0:0:0:
42,63,56902,1,10,0:2:0:0:
0,151,57052,1,0,0:2:0:0:
136,84,57202,6,0,B|170:60|208:81|208:81|254:106|290:79,1,140,2|8,3:2|0:2,0:0:0:0:
357,21,57652,1,0,0:2:0:0:
411,170,57802,2,0,P|424:207|456:226,1,70,0|0,3:2|3:2,0:0:0:0:
362,110,58102,2,0,P|336:139|331:181,1,70,10|2,0:2|0:2,0:0:0:0:
264,312,58402,6,0,L|254:223,1,70,0|0,3:2|0:2,0:0:0:0:
99,361,58702,2,0,L|109:272,1,70,8|8,0:2|0:2,0:0:0:0:
27,159,59002,2,0,L|19:228,1,70,10|0,0:2|0:2,0:0:0:0:
151,55,59302,2,0,L|158:124,1,70,8|0,3:2|3:2,0:0:0:0:
307,183,59602,6,0,B|261:159|209:185|209:185|158:211|104:184,1,210.000008010865,2|0,3:2|3:2,0:0:0:0:
260,257,60502,2,0,L|256:310,1,52.5000020027161,0|0,0:2|0:2,0:0:0:0:
116,360,60802,5,2,3:2:0:0:
260,257,61102,5,2,3:2:0:0:
389,343,61402,5,2,3:2:0:0:
501,253,61702,5,2,3:2:0:0:
347,100,62002,6,0,B|288:99|288:99|247:126|247:126|175:124,1,154.000004699707,6|8,3:2|0:2,0:0:0:0:
82,144,62452,1,2,0:2:0:0:
175,213,62602,2,0,L|259:214,1,77.0000023498536,2|0,3:2|3:2,0:0:0:0:
327,340,62902,2,0,L|250:340,1,77.0000023498536,8|2,0:2|0:2,0:0:0:0:
331,191,63202,6,0,B|348:223|327:260|327:260|307:305|327:340,1,154.000004699707,2|10,3:2|0:2,0:0:0:0:
401,302,63652,1,0,0:2:0:0:
405,141,63802,2,0,P|335:106|251:138,1,154.000004699707,2|10,3:2|0:2,0:0:0:0:
187,169,64252,1,0,0:2:0:0:
107,88,64402,6,0,P|64:91|28:76,1,77.0000023498536,2|0,3:2|0:2,0:0:0:0:
331,191,64702,2,0,P|312:229|281:253,1,77.0000023498536,10|0,0:2|0:2,0:0:0:0:
187,169,65002,2,0,P|151:193|112:198,1,77.0000023498536,2|0,3:2|3:2,0:0:0:0:
437,158,65302,2,0,P|440:200|424:236,1,77.0000023498536,10|0,0:2|0:2,0:0:0:0:
305,345,65602,6,0,B|250:343|250:343|221:318|221:318|151:316,1,154.000004699707,2|8,3:2|0:2,0:0:0:0:
81,239,66052,1,0,0:2:0:0:
31,338,66202,1,2,3:2:0:0:
10,132,66502,1,10,0:2:0:0:
206,118,66802,6,0,P|286:96|379:123,1,154.000004699707,2|8,3:2|0:2,0:0:0:0:
431,284,67252,1,0,0:2:0:0:
263,346,67402,2,0,P|282:308|264:243,1,77.0000023498536
431,284,67702,2,0,P|388:286|341:334,1,77.0000023498536
294,170,68002,2,0,P|317:205|382:222,1,77.0000023498536,0|0,3:0|3:0,3:0:0:0:
226,23,68302,5,10,0:2:0:0:
157,94,68452,2,0,B|104:90|104:90|68:111|68:111|0:108,1,154.000004699707,2|0,3:2|3:2,0:0:0:0:
128,170,68902,2,0,P|136:214|120:264,1,77.0000023498536,8|2,0:2|0:2,0:0:0:0:
16,381,69202,6,0,L|123:375,1,77.0000023498536,2|0,3:2|0:0,0:0:0:0:
219,344,69502,1,8,0:2:0:0:
219,344,69652,2,0,P|243:259|214:164,1,154.000004699707,2|10,3:2|0:2,0:0:0:0:
122,134,70102,1,0,0:0:0:0:
122,134,70252,2,0,L|292:100,1,154.000004699707,2|0,3:2|3:2,0:0:0:0:
382,79,70702,5,8,0:2:0:0:
462,139,70852,2,0,L|459:198,2,38.5000011749268,0|0|10,3:2|3:2|0:2,0:0:0:0:
370,174,71152,2,0,L|366:233,2,38.5000011749268,0|0|10,3:2|0:0|0:2,0:0:0:0:
481,286,71452,1,0,3:2:0:0:
481,313,71527,1,0,0:0:0:0:
479,332,71602,6,0,B|437:366|437:366|325:366,1,154.000004699707,6|8,3:2|0:2,0:0:0:0:
246,261,72052,1,2,0:2:0:0:
166,350,72202,2,0,P|129:354|86:346,1,77.0000023498536,2|0,3:2|3:2,0:0:0:0:
14,261,72502,2,0,P|58:252|96:263,1,77.0000023498536,8|2,0:2|0:2,0:0:0:0:
246,261,72802,6,0,P|281:186|246:100,1,154.000004699707,2|10,3:2|0:2,0:0:0:0:
87,95,73252,1,0,0:0:0:0:
87,95,73402,2,0,P|134:162|226:175,1,154.000004699707,2|10,3:2|0:2,0:0:0:0:
311,36,73852,1,0,0:2:0:0:
311,36,74002,2,0,P|228:43|171:115,1,154.000004699707,2|8,3:2|0:2,0:0:0:0:
146,178,74452,1,0,3:2:0:0:
146,178,74527,1,0,3:2:0:0:
146,178,74602,1,2,3:2:0:0:
196,272,74752,1,0,3:2:0:0:
258,180,74902,1,10,0:2:0:0:
300,327,75052,6,0,P|367:361|446:322,1,154.000004699707,2|0,3:2|3:2,0:0:0:0:
388,207,75502,2,0,L|369:282,1,77.0000023498536,10|0,0:2|3:2,0:0:0:0:
491,121,75802,2,0,L|492:202,1,77.0000023498536,10|0,0:2|3:2,0:0:0:0:
388,207,76102,1,10,0:2:0:0:
362,123,76252,1,0,3:2:0:0:
361,110,76327,1,0,3:2:0:0:
362,98,76402,6,0,P|298:66|210:105,1,154.000004699707,2|8,3:2|0:2,0:0:0:0:
183,173,76852,1,0,3:2:0:0:
259,208,77002,2,0,L|338:252,1,77.0000023498536,0|0,0:0|3:2,0:0:0:0:
105,204,77302,2,0,L|26:248,1,77.0000023498536,0|0,0:0|3:2,0:0:0:0:
111,118,77602,6,0,P|186:92|263:124,1,154.000004699707,2|10,3:2|0:2,0:0:0:0:
185,324,78052,2,0,B|183:150,1,154.000004699707,2|0,3:2|3:2,0:0:0:0:
436,212,78502,2,0,P|442:247|432:288,1,77.0000023498536,8|0,0:2|0:2,0:0:0:0:
353,360,78802,5,2,3:2:0:0:
321,268,78952,2,0,L|297:177,1,77.0000023498536,0|8,0:0|0:2,0:0:0:0:
256,83,79252,1,2,3:2:0:0:
212,193,79402,2,0,L|189:284,1,77.0000023498536,0|0,0:0|3:2,0:0:0:0:
162,361,79702,1,10,0:2:0:0:
274,363,79852,1,0,0:2:0:0:
125,187,80002,5,2,3:2:0:0:
52,364,80152,1,0,3:2:0:0:
52,364,80227,1,0,3:2:0:0:
52,364,80302,1,10,0:2:0:0:
0,251,80452,1,0,3:2:0:0:
230,147,80602,1,10,0:2:0:0:
85,143,80752,1,0,3:2:0:0:
149,252,80902,1,10,0:2:0:0:
286,268,81052,6,0,B|346:265|346:265|383:248|383:248|436:248,1,154.000004699707,6|2,3:2|3:2,0:0:0:0:
511,163,81502,2,0,L|435:163,1,77.0000023498536,10|0,0:2|0:2,0:0:0:0:
235,199,81802,2,0,P|199:275|248:348,1,154.000004699707,2|8,3:2|0:2,0:0:0:0:
326,191,82252,2,0,P|278:121|190:127,1,154.000004699707,2|2,3:2|3:2,0:0:0:0:
154,169,82702,2,0,B|114:186|114:186|57:184,1,77.0000023498536,10|0,0:2|0:2,0:0:0:0:
5,56,83002,2,0,B|50:37|50:37|157:46,1,154.000004699707,2|8,3:2|0:2,0:0:0:0:
154,169,83452,6,0,B|107:188|107:188|0:178,1,154.000004699707,2|2,3:2|3:2,0:0:0:0:
228,131,83902,2,0,P|236:168|227:205,1,77.0000023498536,10|0,0:2|0:2,0:0:0:0:
115,276,84202,2,0,B|179:246|194:312|270:274,1,154.000004699707,2|8,3:2|0:2,0:0:0:0:
336,210,84652,1,2,3:2:0:0:
412,315,84952,5,2,3:2:0:0:
412,315,85102,2,0,L|405:236,1,77.0000023498536,10|0,0:2|0:2,0:0:0:0:
505,144,85402,1,2,3:2:0:0:
505,144,85552,2,0,L|498:222,1,77.0000023498536,0|8,3:2|0:2,0:0:0:0:
357,90,85852,6,0,B|303:88|303:88|258:108|258:108|200:107,1,154.000004699707,2|2,3:2|3:2,0:0:0:0:
131,263,86302,2,0,P|142:221|135:176,1,77.0000023498536,10|0,0:2|0:2,0:0:0:0:
78,91,86602,2,0,P|25:133|82:204,1,154.000004699707,2|8,3:2|0:2,0:0:0:0:
217,345,87052,2,0,L|230:180,1,154.000004699707,2|2,3:2|3:2,0:0:0:0:
299,132,87502,2,0,P|231:104|159:136,2,154.000004699707,10|2|8,0:2|3:2|3:2,0:0:0:0:
406,320,88402,5,8,0:2:0:0:
360,175,88852,1,8,0:2:0:0:
257,287,89302,1,8,0:2:0:0:
406,320,89752,1,8,0:2:0:0:
216,149,90202,1,8,0:2:0:0:
360,175,90352,1,2,3:2:0:0:
472,88,90802,6,0,L|407:84,3,62.9999980773926,6|2|10|2,3:2|0:2|0:2|0:2,0:0:0:0:
265,140,91402,2,0,L|328:144,3,62.9999980773926,2|2|10|2,3:2|3:2|0:2|0:2,0:0:0:0:
452,176,92002,5,2,3:2:0:0:
384,240,92152,1,2,0:2:0:0:
451,314,92302,1,10,0:2:0:0:
346,344,92452,2,0,P|310:350|280:342,1,62.9999980773926,2|0,3:2|0:0,0:0:0:0:
228,274,92752,2,0,P|197:267|166:272,1,62.9999980773926,0|8,3:2|0:2,0:0:0:0:
43,362,93052,6,0,B|20:327|20:327|22:221,1,125.999996154785,2|2,3:2|3:2,0:0:0:0:
104,137,93502,2,0,L|103:210,1,62.9999980773926,10|0,0:2|0:2,0:0:0:0:
195,135,93802,2,0,L|194:65,1,62.9999980773926,2|2,3:2|3:2,0:0:0:0:
279,154,94102,2,0,L|275:237,1,62.9999980773926,10|2,0:2|0:2,0:0:0:0:
373,308,94402,5,2,3:2:0:0:
356,216,94552,1,2,3:2:0:0:
476,142,94702,1,10,0:2:0:0:
459,234,94852,1,2,3:2:0:0:
270,160,95152,6,0,P|239:151|208:150,1,62.9999980773926,2|0,3:2|0:0,0:0:0:0:
84,254,95452,2,0,B|74:217|74:217|85:172|85:172|77:112,1,125.999996154785,2|0,3:2|3:2,0:0:0:0:
0,44,95902,2,0,P|30:42|71:54,1,62.9999980773926,10|0,0:2|0:2,0:0:0:0:
148,96,96202,1,2,3:2:0:0:
236,56,96352,2,0,P|266:54|309:57,1,62.9999980773926,2|8,3:2|0:2,0:0:0:0:
411,240,96652,6,0,B|421:203|421:203|403:163|414:116,1,125.999996154785,2|0,3:2|3:2,0:0:0:0:
504,76,97102,2,0,L|503:161,1,62.9999980773926,10|0,0:2|0:2,0:0:0:0:
416,302,97402,2,0,L|410:239,1,62.9999980773926,2|2,3:2|3:2,0:0:0:0:
498,369,97702,1,8,0:2:0:0:
295,311,97852,6,0,B|214:338|233:284|151:312,1,125.999996154785,2|0,3:2|3:2,0:0:0:0:
59,384,98302,2,0,L|61:313,1,62.9999980773926,10|2,0:2|3:2,0:0:0:0:
0,246,98602,2,0,L|2:183,1,62.9999980773926,2|2,3:2|3:2,0:0:0:0:
2,85,98902,1,10,0:2:0:0:
101,37,99052,1,2,3:2:0:0:
101,37,99127,1,0,3:2:0:0:
101,37,99202,6,0,P|135:109|100:234,1,188.999994232178,2|2,3:2|3:2,0:0:0:0:
113,175,100402,6,0,L|116:238,3,62.9999980773926,6|2|10|2,3:2|0:2|0:2|0:2,0:0:0:0:
34,340,101002,2,0,L|32:278,3,62.9999980773926,2|2|10|2,3:2|3:2|0:2|0:2,0:0:0:0:
195,366,101602,5,2,3:2:0:0:
195,366,101752,1,2,0:2:0:0:
261,277,101902,1,10,0:2:0:0:
330,357,102052,2,0,P|360:361|398:351,1,62.9999980773926,2|0,3:2|0:0,0:0:0:0:
356,267,102352,2,0,P|383:255|411:227,1,62.9999980773926,0|8,3:2|0:2,0:0:0:0:
323,155,102652,6,0,B|253:189|261:121|181:167,1,125.999996154785,2|0,3:2|3:2,0:0:0:0:
112,55,103102,2,0,P|100:85|103:115,1,62.9999980773926,10|2,2:2|2:2,0:0:0:0:
137,232,103402,1,2,3:2:0:0:
6,135,103552,1,2,3:2:0:0:
37,289,103702,2,0,L|37:370,1,62.9999980773926,10|2,0:2|0:2,0:0:0:0:
194,253,104002,2,0,P|153:233|114:235,1,62.9999980773926,2|2,3:2|3:2,0:0:0:0:
265,349,104302,1,10,3:2:0:0:
265,349,104452,2,0,P|322:371|390:341,1,125.999996154785,2|2,3:2|3:2,0:0:0:0:
321,294,104902,1,0,0:0:0:0:
474,233,105052,6,0,B|474:176|474:176|461:152|461:152|460:104,1,125.999996154785,2|0,3:2|3:2,0:0:0:0:
353,27,105502,2,0,P|322:14|291:13,1,62.9999980773926,10|0,0:2|0:2,0:0:0:0:
334,134,105802,1,2,3:2:0:0:
245,112,105952,2,0,P|215:124|193:146,1,62.9999980773926,2|8,3:2|0:2,0:0:0:0:
265,315,106252,6,0,B|269:241|269:241|255:192,1,125.999996154785,2|0,3:2|3:2,0:0:0:0:
112,246,106702,2,0,P|91:304|105:364,1,125.999996154785,10|2,0:2|3:2,0:0:0:0:
237,187,107152,1,8,0:2:0:0:
216,82,107302,1,2,3:2:0:0:
136,152,107452,1,2,3:2:0:0:
331,72,107602,6,0,P|394:58|462:88,1,125.999996154785,0|8,3:2|0:2,0:0:0:0:
401,202,108052,1,0,3:2:0:0:
401,202,108202,2,0,L|390:134,1,62.9999980773926,0|0,0:0|3:2,0:0:0:0:
299,267,108502,2,0,L|309:199,1,62.9999980773926,8|0,0:2|3:2,0:0:0:0:
221,335,108802,6,0,P|158:353|89:325,1,125.999996154785,2|8,3:2|0:2,0:0:0:0:
191,219,109252,1,0,3:2:0:0:
191,219,109402,2,0,L|170:280,1,62.9999980773926,0|0,0:0|3:2,0:0:0:0:
77,129,109702,2,0,L|82:194,1,62.9999980773926,8|0,0:2|3:2,0:0:0:0:
179,85,110002,6,0,B|225:69|225:69|317:73,1,125.999996154785,2|8,3:2|0:2,0:0:0:0:
404,132,110452,1,0,3:2:0:0:
404,132,110602,2,0,L|483:147,1,62.9999980773926,0|0,0:0|3:2,0:0:0:0:
310,190,110902,2,0,L|248:201,1,62.9999980773926,8|0,0:2|3:2,0:0:0:0:
89,238,111202,5,10,0:2:0:0:
89,238,111352,1,0,3:2:0:0:
160,167,111502,1,10,0:2:0:0:
177,260,111652,1,0,3:2:0:0:
266,105,111802,1,10,0:2:0:0:
249,199,111952,1,0,3:2:0:0:
143,74,112102,1,10,0:2:0:0:
160,167,112252,1,0,3:2:0:0:
335,100,112402,6,0,B|415:97|415:97|455:118,1,125.999996154785,2|8,3:2|0:2,0:0:0:0:
49,191,112852,1,0,0:2:0:0:
140,266,113002,2,0,P|176:266|209:251,1,62.9999980773926,0|0,0:2|3:2,0:0:0:0:
290,351,113302,2,0,P|317:317|335:273,1,62.9999980773926,8|0,0:2|0:2,0:0:0:0:
202,93,113602,6,0,P|202:137|221:178,1,62.9999980773926,2|0,3:2|0:0,0:0:0:0:
313,87,113902,1,8,0:2:0:0:
335,170,114052,1,0,0:2:0:0:
395,109,114202,1,0,0:2:0:0:
357,251,114352,1,0,3:2:0:0:
473,126,114502,2,0,P|484:160|486:207,1,62.9999980773926,10|0,0:2|0:2,0:0:0:0:
260,263,114802,6,0,P|209:287|131:268,1,125.999996154785,2|8,3:2|0:2,0:0:0:0:
191,137,115252,1,0,0:2:0:0:
191,137,115402,2,0,L|194:200,1,62.9999980773926,0|0,0:2|3:2,0:0:0:0:
302,62,115702,2,0,L|286:196,1,125.999996154785,10|2,0:2|3:2,0:0:0:0:
274,278,116152,5,0,0:0:0:0:
359,244,116302,1,10,0:2:0:0:
287,187,116452,1,2,3:2:0:0:
458,113,116752,5,2,3:2:0:0:
387,55,116902,1,10,0:2:0:0:
373,147,117052,1,0,0:2:0:0:
472,211,117202,6,0,B|470:255|470:255|451:288|451:288|452:346,1,125.999996154785,2|8,3:2|0:2,0:0:0:0:
345,271,117652,1,0,0:2:0:0:
249,349,117802,2,0,P|205:352|174:342,1,62.9999980773926,0|0,0:2|3:2,0:0:0:0:
109,278,118102,2,0,P|64:275|26:282,1,62.9999980773926,8|0,0:2|0:2,0:0:0:0:
188,196,118402,6,0,P|232:196|258:188,1,62.9999980773926,2|0,3:2|0:0,0:0:0:0:
391,116,118702,5,8,0:2:0:0:
451,182,118852,1,0,0:2:0:0:
512,248,119002,1,0,0:2:0:0:
425,268,119152,1,0,3:2:0:0:
338,287,119302,1,8,0:2:0:0:
366,202,119452,1,0,0:2:0:0:
443,51,119602,6,0,P|385:36|324:71,1,125.999996154785,2|8,3:2|0:2,0:0:0:0:
257,145,120052,1,0,0:2:0:0:
366,202,120202,2,2,L|386:134,1,62.9999980773926,0|0,0:2|3:2,0:0:0:0:
512,248,120502,2,0,L|500:185,1,62.9999980773926,10|0,0:2|0:2,0:0:0:0:
511,61,120802,5,10,0:2:0:0:
301,39,121102,5,10,0:2:0:0:
279,248,121402,5,10,0:2:0:0:
21,159,121702,6,0,B|71:137|119:152,1,94.499997116089,10|0,0:2|0:0,0:0:0:0:
142,155,122002,6,0,B|197:176|197:176|286:172,1,125.999996154785,2|8,3:2|0:2,0:0:0:0:
362,197,122452,2,0,P|401:245|403:316,1,125.999996154785,0|0,0:2|3:2,0:0:0:0:
318,122,122902,1,10,0:2:0:0:
318,122,123202,6,0,P|340:64|400:26,1,125.999996154785,2|8,3:2|0:2,0:0:0:0:
512,149,123652,2,0,P|507:87|468:38,1,125.999996154785,0|0,0:2|3:2,0:0:0:0:
347,193,124102,1,10,0:2:0:0:
347,193,124402,2,0,P|402:220|464:210,1,125.999996154785,2|8,3:2|0:2,0:0:0:0:
257,136,124852,1,0,0:2:0:0:
229,275,125002,2,0,P|244:311|240:358,2,83.9999974365235,2|0|0,3:2|0:0|0:0,0:0:0:0:
27,305,125602,6,0,P|44:245|95:210,1,125.999996154785,2|10,3:2|0:2,0:0:0:0:
169,330,126052,1,2,0:2:0:0:
204,163,126202,2,0,P|232:170|277:199,1,62.9999980773926,0|0,0:2|3:2,0:0:0:0:
293,341,126502,1,10,0:2:0:0:
203,247,126652,1,0,0:0:0:0:
362,283,126802,6,0,L|387:137,1,125.999996154785,2|8,3:2|0:2,0:0:0:0:
391,34,127252,1,0,0:2:0:0:
296,101,127402,2,0,L|231:88,1,62.9999980773926,0|0,3:2|3:2,0:0:0:0:
86,47,127702,2,0,L|150:33,1,62.9999980773926,10|0,0:2|0:2,0:0:0:0:
179,155,128002,6,0,P|145:184|115:189,1,62.9999980773926,2|0,3:2|0:2,0:0:0:0:
219,269,128302,2,0,P|248:303|253:333,1,62.9999980773926,2|0,3:2|0:2,0:0:0:0:
293,115,128602,2,0,P|264:81|259:51,1,62.9999980773926,2|0,3:2|0:2,0:0:0:0:
333,229,128902,2,0,P|367:200|397:195,1,62.9999980773926,2|0,3:2|0:2,0:0:0:0:
174,382,129202,6,0,P|179:326|157:248,1,125.999996154785,2|0,3:2|3:2,0:0:0:0:
308,215,129802,2,0,P|303:159|325:81,1,125.999996154785,8|0,0:2|3:2,0:0:0:0:
17,34,130402,5,2,3:2:0:0:
224,16,130702,5,2,3:2:0:0:
241,225,131002,5,2,3:2:0:0:
30,241,131302,5,2,3:2:0:0:
284,96,131602,6,0,P|349:58|425:66,1,154.000004699707,6|8,3:2|0:2,0:0:0:0:
445,164,132052,1,2,0:2:0:0:
353,191,132202,2,0,P|341:227|341:271,1,77.0000023498536,2|0,3:2|3:2,0:0:0:0:
420,339,132502,2,0,P|432:303|432:259,1,77.0000023498536,8|2,0:2|0:2,0:0:0:0:
287,359,132802,6,0,P|213:337|137:348,1,154.000004699707,2|10,3:2|0:2,0:0:0:0:
10,367,133252,1,0,0:2:0:0:
31,251,133402,2,0,B|32:194|32:194|15:155|15:155|14:87,1,154.000004699707,2|10,3:2|0:2,0:0:0:0:
106,9,133852,1,0,0:2:0:0:
168,130,134002,2,0,P|208:141|247:125,1,77.0000023498536,2|0,3:2|0:2,0:0:0:0:
103,181,134302,2,0,P|132:210|173:216,1,77.0000023498536,10|0,0:2|0:2,0:0:0:0:
239,334,134602,2,0,P|249:294|234:255,1,77.0000023498536,10|0,0:2|0:2,0:0:0:0:
346,160,134902,2,0,P|306:170|280:203,1,77.0000023498536,10|0,0:2|0:2,0:0:0:0:
222,70,135202,6,0,P|285:24|374:32,1,154.000004699707,2|8,3:2|0:2,0:0:0:0:
431,121,135652,1,0,0:2:0:0:
404,223,135802,1,2,3:2:0:0:
305,94,136102,1,10,0:2:0:0:
267,268,136402,6,0,P|194:297|113:260,1,154.000004699707,2|8,3:2|3:2,0:0:0:0:
278,175,136852,1,0,0:2:0:0:
278,175,137002,6,0,P|339:223|348:311,2,154.000004699707,2|10|2,3:2|0:2|3:2,0:0:0:0:
196,214,137902,1,10,0:2:0:0:
196,214,138052,6,0,P|207:135|279:84,1,154.000004699707,2|0,3:2|3:2,0:0:0:0:
289,186,138502,2,0,P|329:191|368:186,1,77.0000023498536,8|2,0:2|0:2,0:0:0:0:
395,56,138802,5,2,3:2:0:0:
452,186,139102,1,8,0:2:0:0:
502,94,139252,1,2,3:2:0:0:
447,228,139552,2,0,P|454:279|439:336,1,77.0000023498536,10|0,0:2|0:0,0:0:0:0:
248,355,139852,6,0,P|224:277|248:203,1,154.000004699707,2|0,3:2|3:2,0:0:0:0:
368,161,140302,1,8,0:2:0:0:
190,100,140452,2,0,L|169:152,2,38.5000011749268,0|0|10,3:2|3:2|3:2,0:0:0:0:
86,183,140752,2,0,L|106:235,2,38.5000011749268,0|0|10,3:2|3:2|3:2,0:0:0:0:
191,304,141052,1,0,3:2:0:0:
323,227,141202,6,0,B|408:272|395:197|486:243,1,154.000004699707,6|8,3:2|0:2,0:0:0:0:
431,302,141652,1,2,0:2:0:0:
176,384,141802,2,0,P|171:345|172:306,1,77.0000023498536,2|0,3:2|3:2,0:0:0:0:
323,227,142102,2,0,P|324:265|319:305,1,77.0000023498536,8|2,0:2|0:2,0:0:0:0:
218,214,142402,6,0,B|155:207|155:207|127:225|127:225|69:220,1,154.000004699707,2|10,3:2|3:2,0:0:0:0:
171,307,142852,1,0,0:0:0:0:
386,291,143002,2,0,P|410:212|374:155,1,154.000004699707,2|10,3:2|3:2,0:0:0:0:
323,227,143452,1,0,0:0:0:0:
204,143,143602,6,0,P|130:175|56:142,1,154.000004699707,2|10,3:2|0:2,0:0:0:0:
33,42,144052,1,0,3:2:0:0:
33,42,144127,1,0,3:2:0:0:
33,42,144202,1,2,3:2:0:0:
130,96,144352,1,0,3:2:0:0:
203,38,144502,1,10,0:2:0:0:
328,91,144652,6,0,B|349:129|349:129|348:248,1,154.000004699707,2|0,3:2|3:2,0:0:0:0:
273,153,145102,2,0,P|253:184|216:202,1,77.0000023498536,10|0,0:2|0:2,0:0:0:0:
425,155,145402,2,0,P|445:186|482:204,1,77.0000023498536,2|0,3:2|3:2,0:0:0:0:
380,349,145702,1,10,0:2:0:0:
248,343,145852,1,0,3:2:0:0:
248,343,145927,1,0,3:2:0:0:
248,343,146002,6,0,P|210:273|218:200,1,154.000004699707,2|8,3:2|0:2,0:0:0:0:
262,89,146452,1,0,0:0:0:0:
119,46,146602,2,0,L|37:36,1,77.0000023498536,2|0,3:2|3:2,0:0:0:0:
262,89,146902,2,0,L|345:74,1,77.0000023498536,10|0,0:2|0:2,0:0:0:0:
174,229,147202,6,0,P|99:204|70:131,1,154.000004699707,2|10,3:2|0:2,0:0:0:0:
247,186,147652,2,0,P|253:274|191:319,1,154.000004699707,2|0,3:2|3:2,0:0:0:0:
162,144,148102,2,0,P|169:109|202:78,1,77.0000023498536,8|0,0:2|0:2,0:0:0:0:
309,9,148402,5,2,3:2:0:0:
427,27,148552,2,0,L|512:43,1,77.0000023498536,0|8,0:0|0:2,0:0:0:0:
494,143,148852,1,2,3:2:0:0:
343,177,149002,2,0,L|258:193,1,77.0000023498536,0|0,0:0|3:2,0:0:0:0:
154,198,149302,1,10,0:2:0:0:
154,198,149452,1,0,3:2:0:0:
343,177,149602,5,10,3:2:0:0:
273,322,149752,1,0,3:2:0:0:
273,322,149827,1,0,3:2:0:0:
273,322,149902,1,10,3:2:0:0:
343,177,150052,1,2,3:2:0:0:
232,133,150202,1,10,3:2:0:0:
353,280,150352,1,2,3:2:0:0:
438,140,150502,1,10,3:2:0:0:
182,232,150652,6,0,P|118:252|37:204,1,154.000004699707,6|0,3:2|3:2,0:0:0:0:
123,153,151102,1,10,0:2:0:0:
123,153,151252,1,0,0:2:0:0:
85,64,151402,2,0,P|124:54|169:68,1,77.0000023498536,2|0,3:2|3:2,0:0:0:0:
182,232,151702,1,8,0:2:0:0:
325,70,151852,6,0,P|388:39|480:89,1,154.000004699707,2|2,3:2|3:2,0:0:0:0:
419,237,152302,1,10,0:2:0:0:
395,128,152452,1,0,0:2:0:0:
336,304,152602,1,2,3:2:0:0:
314,200,152752,1,0,3:2:0:0:
465,328,152902,1,10,0:2:0:0:
260,131,153052,6,0,P|195:112|110:152,1,154.000004699707,2|0,3:2|3:2,0:0:0:0:
23,236,153502,2,0,P|61:249|114:246,1,77.0000023498536,10|0,0:2|0:0,0:0:0:0:
224,211,153802,1,8,0:2:0:0:
160,372,153952,1,0,3:2:0:0:
23,236,154102,1,8,3:2:0:0:
188,142,154252,6,0,B|225:123|261:141|261:141|301:161|341:137,1,154.000004699707,0|2,3:2|3:2,0:0:0:0:
471,78,154702,1,10,3:2:0:0:
470,78,154852,1,10,3:2:0:0:
296,71,155002,1,10,3:2:0:0:
377,236,155152,1,2,3:2:0:0:
470,78,155302,1,10,0:2:0:0:
220,175,155452,6,0,P|148:231|84:219,1,154.000004699707,2|2,3:2|3:2,0:0:0:0:
65,90,155902,2,0,P|118:111|131:150,1,77.0000023498536,10|2,0:2|0:2,0:0:0:0:
132,323,156202,2,0,B|178:341|178:341|300:341,1,154.000004699707,2|8,3:2|0:2,0:0:0:0:
434,373,156652,6,0,P|465:300|432:214,1,154.000004699707,2|2,3:2|3:2,0:0:0:0:
362,296,157102,1,8,0:2:0:0:
295,213,157252,2,0,P|219:241|136:204,1,154.000004699707,2|0,0:2|3:2,0:0:0:0:
307,125,157702,1,8,0:2:0:0:
307,125,157852,2,0,P|366:171|383:245,1,154.000004699707,2|0,3:2|3:2,0:0:0:0:
324,367,158302,1,10,0:2:0:0:
324,367,158452,1,2,0:2:0:0:
491,335,158602,1,2,3:2:0:0:
491,335,158752,1,2,3:2:0:0:
383,245,158902,1,8,0:2:0:0:
485,190,159052,6,0,P|506:117|484:44,1,154.000004699707,2|2,3:2|3:2,0:0:0:0:
464,23,159427,1,0,3:2:0:0:
464,23,159502,1,10,0:2:0:0:
361,120,159652,2,0,L|361:175,2,38.5000011749268,2|0|10,3:2|3:2|3:2,0:0:0:0:
238,30,159952,1,0,0:2:0:0:
324,138,160102,1,8,3:2:0:0:
93,74,160252,6,0,P|76:147|108:216,1,154.000004699707,2|2,3:2|3:2,0:0:0:0:
249,250,160702,1,10,3:2:0:0:
324,138,160852,1,2,3:2:0:0:
382,259,161002,1,2,0:2:0:0:
241,250,161152,1,0,3:2:0:0:
316,138,161302,1,8,0:2:0:0:
358,339,161452,6,0,B|424:337|424:337|456:314|456:314|520:314,1,154.000004699707,2|0,3:2|3:2,0:0:0:0:
382,259,161902,1,10,0:2:0:0:
502,141,162052,2,0,P|506:102|497:64,1,77.0000023498536,2|10,3:2|3:2,0:0:0:0:
405,20,162352,1,2,3:2:0:0:
315,138,162502,1,10,0:2:0:0:
293,49,162652,2,0,P|255:44|205:59,1,77.0000023498536,2|0,3:2|0:0,0:0:0:0:
146,159,162952,6,0,L|146:201,5,38.5000011749268,2|0|8|0|0|0,3:2|3:2|3:2|3:2|3:2|3:2,0:0:0:0:
65,245,163402,2,0,L|66:307,3,38.5000011749268,2|0|0|0,3:2|3:2|3:2|3:2,0:0:0:0:
148,315,163702,2,0,L|150:385,3,38.5000011749268,10|0|0|0,3:2|3:2|3:2|3:2,0:0:0:0:
233,226,164002,2,0,L|225:162,3,38.5000011749268,2|0|0|0,3:2|3:2|3:2|3:2,0:0:0:0:
379,209,164302,2,0,L|401:142,3,38.5000011749268,10|0|8|0,3:2|3:2|3:2|3:2,0:0:0:0:
343,302,164602,6,0,P|382:311|429:292,1,77.0000023498536,2|2,3:2|3:2,0:0:0:0:
459,213,164902,1,8,0:2:0:0:
487,358,165052,6,0,P|505:285|467:221,1,154.000004699707,6|0,3:2|3:2,0:0:0:0:
348,355,165502,1,10,0:2:0:0:
368,232,165652,1,0,3:2:0:0:
224,256,165802,1,10,3:2:0:0:
204,133,165952,1,0,3:2:0:0:
224,256,166102,1,10,0:2:0:0:
329,102,166252,6,0,P|366:97|401:113,2,77.0000023498536,6|0|0,3:2|0:0|3:2,0:0:0:0:
204,133,166702,1,10,0:2:0:0:
368,232,166852,1,0,3:2:0:0:
224,256,167002,1,10,0:2:0:0:
329,100,167152,2,0,P|346:66|380:37,2,77.0000023498536,0|10|2,3:2|0:2|3:2,0:0:0:0:
368,232,167602,6,0,L|370:293,3,38.5000011749268,14|0|0|0,3:2|3:2|3:2|3:2,0:0:0:0:
471,188,167902,2,0,L|469:249,3,38.5000011749268,10|0|0|0,3:2|3:2|3:2|3:2,0:0:0:0:
371,145,168202,2,0,L|371:104,3,38.5000011749268,10|0|0|0,3:2|3:2|3:2|3:2,0:0:0:0:
463,90,168502,2,0,L|463:49,3,38.5000011749268,10|0|0|0,3:2|3:2|3:2|3:2,0:0:0:0:
371,145,168802,6,0,L|318:148,3,38.5000011749268,14|0|0|0,3:2|3:2|3:2|3:2,0:0:0:0:
287,66,169102,2,0,L|247:66,3,38.5000011749268,10|0|0|0,3:2|3:2|3:2|3:2,0:0:0:0:
212,150,169402,2,0,L|157:150,3,38.5000011749268,10|0|0|0,3:2|3:2|3:2|3:2,0:0:0:0:
122,61,169702,2,0,L|67:61,3,38.5000011749268,10|0|0|0,3:2|3:2|3:2|3:2,0:0:0:0:
212,150,170002,5,14,3:2:0:0:
212,150,170077,1,0,3:2:0:0:
212,150,170152,1,0,3:2:0:0:
216,153,170227,1,0,3:2:0:0:
216,153,170302,6,0,L|221:205,1,38.5000011749268,10|0,3:2|3:2,0:0:0:0:
276,311,170452,2,0,L|279:273,1,38.5000011749268,10|0,3:2|3:2,0:0:0:0:
344,158,170602,2,0,L|346:210,1,38.5000011749268,10|0,3:2|3:2,0:0:0:0:
406,322,170752,2,0,L|409:284,1,38.5000011749268,8|0,3:2|3:2,0:0:0:0:
439,211,170902,5,10,3:2:0:0:
434,191,170977,1,10,3:2:0:0:
431,174,171052,1,10,3:2:0:0:
428,155,171127,1,10,3:2:0:0:
426,137,171202,1,6,3:2:0:0:
346,46,172402,6,0,P|387:64|435:55,1,90.9999958343508,2|0,3:2|3:2,0:0:0:0:
381,144,173002,2,0,P|407:180|453:197,1,90.9999958343508,8|0,0:2|3:2,0:0:0:0:
373,310,173602,6,0,P|345:275|341:231,1,90.9999958343508,2|0,3:2|3:2,0:0:0:0:
241,364,174202,2,0,P|235:319|254:279,1,90.9999958343508,8|0,0:2|3:2,0:0:0:0:
313,188,174802,2,0,B|268:201|221:172|221:172|175:143|124:163,1,181.999991668702,2|8,3:2|0:2,0:0:0:0:
45,225,175702,5,2,3:2:0:0:
28,90,176002,2,0,L|12:-2,1,90.9999958343508,2|2,3:2|3:2,0:0:0:0:
138,158,176602,2,0,L|153:69,1,90.9999958343508,2|2,3:2|3:2,0:0:0:0:
278,118,177202,6,0,B|296:167|296:167|294:239|294:239|309:296,1,181.999991668702,2|8,3:2|3:2,0:0:0:0:
388,359,178102,1,0,3:2:0:0:
435,285,178402,2,0,L|452:192,1,90.9999958343508,2|0,3:2|3:2,0:0:0:0:
352,223,179002,2,0,L|335:130,1,90.9999958343508,8|0,0:2|3:2,0:0:0:0:
166,229,179602,6,0,P|159:181|177:133,1,90.9999958343508,2|0,3:2|3:2,0:0:0:0:
116,313,180202,2,0,P|85:274|77:224,1,90.9999958343508,8|0,0:2|3:2,0:0:0:0:
287,225,180802,5,10,0:2:0:0:
219,126,180952,1,0,3:2:0:0:
168,232,181102,1,2,3:2:0:0:
304,237,181252,1,10,0:2:0:0:
218,113,181402,1,0,3:2:0:0:
154,246,181552,1,2,3:2:0:0:
340,125,181702,1,10,0:2:0:0:
44,137,182002,6,0,P|20:200|38:257,2,125.999996154785,6|8|0,3:2|0:2|0:2,0:0:0:0:
126,303,182752,1,0,3:2:0:0:
126,303,182902,2,0,L|131:235,1,62.9999980773926,10|0,0:2|0:0,0:0:0:0:
195,152,183202,6,0,P|244:136|329:161,2,125.999996154785,2|8|0,3:2|0:2|3:2,0:0:0:0:
352,237,183952,1,0,3:2:0:0:
352,237,184102,2,0,L|281:229,1,62.9999980773926,10|0,0:2|0:0,0:0:0:0:
410,304,184402,6,0,P|437:242|410:173,1,125.999996154785,2|8,3:2|0:2,0:0:0:0:
412,99,185002,2,0,P|364:92|301:109,1,83.9999974365235,2|0,3:2|0:0,0:0:0:0:
330,98,185302,2,0,P|282:105|219:87,1,83.9999974365235,10|0,3:2|0:0,0:0:0:0:
248,100,185602,6,0,B|199:93|199:93|121:114,1,125.999996154785,2|10,3:2|0:2,0:0:0:0:
36,134,186052,2,0,P|57:184|42:271,1,125.999996154785,2|0,3:2|3:2,0:0:0:0:
9,355,186502,1,10,0:2:0:0:
133,254,186802,6,0,P|170:249|217:257,1,62.9999980773926,2|0,3:2|0:0,0:0:0:0:
245,348,187102,2,0,P|278:351|316:335,1,62.9999980773926,8|0,0:2|0:2,0:0:0:0:
373,257,187402,2,0,P|412:255|456:269,1,62.9999980773926,0|0,3:2|3:2,0:0:0:0:
508,364,187702,2,0,P|514:332|511:300,1,62.9999980773926,10|2,3:2|0:2,0:0:0:0:
488,200,188002,5,0,3:2:0:0:
419,130,188152,1,0,0:2:0:0:
323,154,188302,1,8,0:2:0:0:
254,84,188452,1,0,0:2:0:0:
157,147,188602,2,0,L|161:108,2,31.4999990386963,0|0|0,3:2|0:0|3:2,0:0:0:0:
70,45,188902,2,0,L|66:84,2,31.4999990386963,10|0|0,3:2|0:0|0:0,0:0:0:0:
95,211,189202,6,0,P|151:232|215:213,1,125.999996154785,2|0,3:2|3:2,0:0:0:0:
266,101,189652,1,0,3:2:0:0:
443,254,189802,2,0,P|386:275|323:256,1,125.999996154785,8|0,0:2|3:2,0:0:0:0:
207,113,190252,1,0,3:2:0:0:
132,175,190402,5,2,3:2:0:0:
247,330,190702,5,2,3:2:0:0:
112,310,191002,5,2,3:2:0:0:
267,195,191302,5,2,3:2:0:0:
189,252,191602,5,6,3:2:0:0:
50,231,192052,1,2,3:2:0:0:
50,231,192202,1,2,3:2:0:0:
87,44,192652,1,2,3:2:0:0:
87,44,192802,6,0,P|109:11|153:-4,1,62.9999980773926,2|0,3:2|0:0,0:0:0:0:
169,83,193102,2,0,P|200:59|247:60,1,62.9999980773926,2|0,3:2|0:0,0:0:0:0:
237,145,193402,2,0,P|275:133|318:150,1,62.9999980773926,2|0,3:2|0:0,0:0:0:0:
278,227,193702,2,0,P|309:229|338:241,1,62.9999980773926,2|0,3:2|0:0,0:0:0:0:
432,150,194002,6,0,P|429:181|417:210,1,62.9999980773926,2|0,3:2|0:0,0:0:0:0:
484,312,194302,2,0,P|452:309|423:297,1,62.9999980773926,2|0,3:2|0:0,0:0:0:0:
338,380,194602,2,0,P|340:348|352:319,1,62.9999980773926,2|0,3:2|0:0,0:0:0:0:
432,150,194902,2,0,P|429:181|417:210,1,62.9999980773926,2|0,3:2|0:0,0:0:0:0:
368,71,195202,2,0,P|310:60|233:79,1,125.999996154785,2|0,3:2|0:2,0:0:0:0:
205,196,195802,1,2,3:2:0:0:
103,112,196102,1,2,3:2:0:0:
85,233,196402,6,0,L|69:363,1,125.999996154785,2|0,3:2|0:2,0:0:0:0:
175,258,197002,1,2,3:2:0:0:
175,258,197302,1,2,3:2:0:0:
232,330,197452,1,2,3:2:0:0:
312,295,197602,1,2,3:2:0:0:
312,160,197902,1,2,3:2:0:0:
244,95,198052,2,0,B|283:59|336:71|336:71|385:79|420:43,1,188.999994232178,2|0,3:2|0:2,0:0:0:0:
312,160,198652,1,2,3:2:0:0:
312,161,198802,5,2,3:2:0:0:
201,27,199102,1,2,3:2:0:0:
201,27,199252,1,2,3:2:0:0:
244,95,199552,1,2,3:2:0:0:
60,192,199852,2,0,P|151:213|241:189,1,188.999994232178,2|2,3:2|3:2,0:0:0:0:
311,79,200602,5,2,3:2:0:0:
371,199,200902,1,2,3:2:0:0:
447,93,201202,2,0,P|499:205|468:289,1,188.999994232178,2|2,3:2|3:2,0:0:0:0:
371,199,201802,1,2,3:2:0:0:
287,286,202252,1,2,3:2:0:0:
287,286,202402,5,2,3:2:0:0:
254,170,202702,1,2,3:2:0:0:
170,256,203002,1,2,3:2:0:0:
371,199,203302,1,2,3:2:0:0:
404,316,203602,5,2,3:2:0:0:
287,281,203902,1,2,3:2:0:0:
170,256,204202,1,2,3:2:0:0:
371,199,204502,1,2,3:2:0:0:
371,199,204652,2,0,P|378:136|367:74,1,125.999996154785,2|0,3:2|0:2,0:0:0:0:
244,10,205102,5,2,3:2:0:0:
185,126,205402,1,2,3:2:0:0:
297,134,205702,1,2,3:2:0:0:
163,51,206002,2,0,P|95:31|26:60,1,125.999996154785,2|0,3:2|0:2,0:0:0:0:
16,163,206602,1,2,3:2:0:0:
101,112,206902,1,2,3:2:0:0:
96,215,207202,1,2,3:2:0:0:
223,131,207502,1,2,3:2:0:0:
287,202,207652,2,0,B|410:150|377:247|512:186,1,220.499993270874,2|0,3:2|0:0,0:0:0:0:
44,204,208402,5,2,3:2:0:0:
44,204,208702,1,0,0:0:0:0:
112,60,209002,5,2,3:2:0:0:
112,60,209302,1,2,3:2:0:0:
211,204,209602,5,2,3:2:0:0:
211,204,209902,1,2,3:2:0:0:
117,148,210202,5,2,3:2:0:0:
117,148,210502,1,2,3:2:0:0:
288,208,210802,5,8,3:2:0:0:
296,26,210952,1,0,3:2:0:0:
296,26,211102,1,0,3:2:0:0:
374,269,211252,5,8,3:2:0:0:
375,88,211402,1,0,3:2:0:0:
375,88,211552,1,0,3:2:0:0:
285,325,211702,5,8,0:2:0:0:
384,116,212002,5,2,3:2:0:0:
404,200,212302,5,2,3:2:0:0:
424,288,212602,5,2,3:2:0:0:
444,372,212902,5,2,3:2:0:0:
322,259,213202,6,0,B|271:230|271:230|163:232,1,154.000004699707,6|8,3:2|0:2,0:0:0:0:
96,292,213652,1,2,0:2:0:0:
37,210,213802,2,0,P|17:121|62:37,1,154.000004699707,2|8,3:2|0:2,0:0:0:0:
109,142,214252,1,2,3:2:0:0:
208,205,214402,6,0,P|220:152|192:102,1,77.0000023498536,2|0,3:2|0:2,0:0:0:0:
259,279,214702,2,0,P|292:242|293:190,1,77.0000023498536,10|0,0:2|0:2,0:0:0:0:
263,367,215002,2,0,P|315:350|344:301,1,77.0000023498536,2|0,3:2|3:2,0:0:0:0:
405,172,215302,2,0,L|393:262,1,77.0000023498536,10|0,0:2|0:2,0:0:0:0:
419,354,215602,5,2,3:2:0:0:
509,292,215752,1,0,0:2:0:0:
510,198,215902,2,0,L|513:116,1,77.0000023498536,10|0,0:2|0:2,0:0:0:0:
438,40,216202,1,2,3:2:0:0:
340,35,216352,1,0,3:2:0:0:
266,122,216502,2,0,P|219:124|183:118,1,77.0000023498536,10|0,0:2|0:2,0:0:0:0:
84,27,216802,6,0,B|60:77|60:77|60:184,1,154.000004699707,2|8,3:2|0:2,0:0:0:0:
108,290,217252,1,0,3:2:0:0:
108,290,217402,1,2,3:2:0:0:
162,124,217702,1,10,0:2:0:0:
242,301,218002,6,0,B|285:323|285:323|330:282|401:296,1,154.000004699707,2|8,3:2|0:2,0:0:0:0:
360,384,218452,1,0,0:2:0:0:
480,357,218602,2,0,B|502:321|502:321|495:199,2,154.000004699707,2|10|2,3:2|0:2|3:2,0:0:0:0:
383,293,219502,5,10,0:2:0:0:
315,210,219652,2,0,B|274:176|274:176|248:191|248:191|202:175|152:199,1,154.000004699707,2|0,3:2|3:2,0:0:0:0:
87,245,220102,2,0,P|48:244|14:228,1,77.0000023498536,8|2,0:2|0:2,0:0:0:0:
96,75,220402,5,2,3:2:0:0:
96,75,220552,2,0,L|70:162,1,77.0000023498536,0|10,0:0|0:2,0:0:0:0:
227,253,220852,2,0,P|232:175|162:103,1,154.000004699707,2|10,3:2|3:2,0:0:0:0:
144,298,221452,2,0,P|209:341|306:316,1,154.000004699707,0|0,3:2|3:2,0:0:0:0:
304,250,221902,5,8,3:2:0:0:
395,319,222052,2,0,L|397:362,2,38.5000011749268,0|0|10,3:2|3:2|3:2,0:0:0:0:
479,210,222352,1,0,3:2:0:0:
479,191,222427,1,0,3:2:0:0:
479,174,222502,1,10,3:2:0:0:
479,155,222577,1,0,3:2:0:0:
479,137,222652,1,0,3:2:0:0:
479,120,222727,1,0,3:2:0:0:
479,106,222802,6,0,B|409:106|409:106|368:123|368:123|301:120,1,154.000004699707,6|8,3:2|0:2,0:0:0:0:
220,255,223252,1,2,0:2:0:0:
148,133,223402,2,0,P|190:69|286:76,1,154.000004699707,2|8,3:2|0:2,0:0:0:0:
323,130,223852,1,2,3:2:0:0:
220,255,224002,6,0,B|127:254,1,77.0000023498536,2|0,3:2|0:0,0:0:0:0:
74,153,224302,2,0,P|34:142|-6:149,1,77.0000023498536,10|0,0:2|0:0,0:0:0:0:
78,329,224602,6,0,B|170:331,1,77.0000023498536,2|0,3:2|3:2,0:0:0:0:
286,213,224902,2,0,P|325:202|365:209,1,77.0000023498536,10|0,0:2|0:2,0:0:0:0:
485,347,225202,5,2,3:2:0:0:
370,346,225352,1,0,0:0:0:0:
488,232,225502,2,0,L|487:155,1,77.0000023498536,10|0,0:2|3:2,0:0:0:0:
432,17,225802,1,10,3:2:0:0:
303,13,225952,1,0,3:2:0:0:
365,127,226102,1,10,3:2:0:0:
242,187,226252,6,0,B|186:185|186:185|149:162|149:162|94:160,1,154.000004699707,2|0,3:2|3:2,0:0:0:0:
0,78,226702,2,0,L|76:79,1,77.0000023498536,10|0,0:2|3:2,0:0:0:0:
254,18,227002,2,0,L|177:16,1,77.0000023498536,10|0,0:2|3:2,0:0:0:0:
239,186,227302,2,0,L|240:109,1,77.0000023498536,10|0,3:2|3:2,0:0:0:0:
247,24,227602,5,2,3:2:0:0:
406,53,227902,1,8,0:2:0:0:
406,53,228052,1,0,3:2:0:0:
376,188,228202,2,0,P|295:216|230:174,1,154.000004699707,0|10,0:0|0:2,0:0:0:0:
85,47,228652,1,0,3:2:0:0:
67,287,228802,1,2,3:2:0:0:
67,287,229102,5,10,0:2:0:0:
143,211,229252,2,0,P|217:184|299:211,1,154.000004699707,2|0,3:2|3:2,0:0:0:0:
344,305,229702,2,0,P|380:317|424:313,1,77.0000023498536,8|2,0:2|3:2,0:0:0:0:
360,31,230002,5,2,3:2:0:0:
373,165,230152,2,0,L|385:245,1,77.0000023498536,0|8,0:0|0:2,0:0:0:0:
490,29,230452,1,2,3:2:0:0:
470,134,230602,2,0,L|458:214,1,77.0000023498536,0|0,0:0|3:2,0:0:0:0:
360,31,230902,1,10,0:2:0:0:
360,31,231052,1,0,3:2:0:0:
256,105,231202,5,10,0:2:0:0:
176,40,231352,1,0,3:2:0:0:
176,40,231427,1,0,3:2:0:0:
176,40,231502,2,0,L|180:2,3,38.5000011749268,10|0|0|0,3:2|0:0|3:2|0:0,0:0:0:0:
67,71,231802,1,10,0:2:0:0:
67,88,231877,1,0,0:0:0:0:
67,105,231952,1,0,3:2:0:0:
67,123,232027,1,0,3:2:0:0:
67,140,232102,1,10,3:2:0:0:
67,158,232177,1,0,0:0:0:0:
65,173,232252,6,0,B|61:242|61:242|43:284|43:284|43:354,1,154.000004699707,6|2,3:2|3:2,0:0:0:0:
167,384,232702,2,0,L|165:304,1,77.0000023498536,10|0,0:2|0:2,0:0:0:0:
193,147,233002,2,0,P|269:122|342:160,1,154.000004699707,2|8,3:2|0:2,0:0:0:0:
375,279,233452,2,0,P|437:237|449:160,1,154.000004699707,2|2,3:2|3:2,0:0:0:0:
254,252,233902,2,0,P|263:328|320:375,2,154.000004699707,10|2|8,0:2|3:2|0:2,0:0:0:0:
446,152,234652,6,0,P|376:123|305:148,1,154.000004699707,2|2,3:2|3:2,0:0:0:0:
180,226,235102,2,0,P|145:235|97:222,1,77.0000023498536,10|0,0:2|0:2,0:0:0:0:
25,86,235402,2,0,B|75:73|75:73|180:88,1,154.000004699707,2|10,3:2|0:2,0:0:0:0:
372,145,235852,1,2,3:2:0:0:
372,145,236152,5,2,3:2:0:0:
454,231,236302,2,0,L|466:332,1,77.0000023498536,10|0,0:2|0:2,0:0:0:0:
372,145,236602,1,2,3:2:0:0:
372,145,236752,2,0,L|363:244,1,77.0000023498536,2|8,3:2|0:2,0:0:0:0:
307,350,237052,6,0,B|256:352|256:352|211:332|211:332|142:334,1,154.000004699707,2|2,3:2|3:2,0:0:0:0:
36,384,237502,2,0,P|25:342|32:297,1,77.0000023498536,10|0,0:2|0:2,0:0:0:0:
135,99,237802,2,0,L|118:266,1,154.000004699707,2|8,3:2|0:2,0:0:0:0:
244,340,238252,2,0,L|224:177,1,154.000004699707,2|2,3:2|3:2,0:0:0:0:
290,105,238702,2,0,P|358:77|444:123,2,154.000004699707,10|2|8,0:2|3:2|0:2,0:0:0:0:
425,282,239452,2,0,P|366:237|366:143,1,154.000004699707,2|2,3:2|3:2,0:0:0:0:
425,105,239902,2,0,P|443:143|440:180,1,77.0000023498536,10|0,0:2|0:2,0:0:0:0:
318,293,240202,2,0,B|269:320|269:320|166:315,1,154.000004699707,2|8,3:2|0:2,0:0:0:0:
42,190,240652,6,0,B|98:191|98:191|135:212|135:212|195:215,1,154.000004699707,2|0,3:2|3:2,0:0:0:0:
318,293,241102,2,0,P|330:257|326:219,1,77.0000023498536,10|0,0:2|0:2,0:0:0:0:
324,195,241327,1,0,0:0:0:0:
324,195,241402,1,2,3:2:0:0:
269,46,241552,1,2,3:2:0:0:
129,48,241702,1,8,0:2:0:0:
412,240,241852,6,0,P|432:170|373:103,1,154.000004699707,6|2,3:2|3:2,0:0:0:0:
279,27,242302,2,0,L|286:106,1,77.0000023498536,10|0,0:2|0:2,0:0:0:0:
195,254,242602,2,0,L|178:79,1,154.000004699707,2|8,3:2|0:2,0:0:0:0:
50,183,243052,2,0,L|28:350,1,154.000004699707,2|2,3:2|3:2,0:0:0:0:
206,352,243502,2,0,P|282:338|316:266,2,154.000004699707,10|2|8,0:2|3:2|0:2,0:0:0:0:
398,244,244252,6,0,P|347:185|268:191,1,154.000004699707,2|2,3:2|3:2,0:0:0:0:
179,266,244702,2,0,P|135:272|84:260,1,77.0000023498536,10|0,0:2|0:2,0:0:0:0:
44,179,245002,2,0,L|75:25,1,154.000004699707,0|8,3:2|0:2,0:0:0:0:
152,114,245452,2,0,L|179:266,1,154.000004699707,2|2,3:2|3:2,0:0:0:0:
281,376,245902,2,0,L|274:287,1,77.0000023498536,10|2,0:2|3:2,0:0:0:0:
320,171,246202,1,8,0:2:0:0:
433,362,246352,2,0,L|440:273,1,77.0000023498536,2|0,3:2|0:2,0:0:0:0:
366,114,246652,6,0,B|348:90|300:85|270:108|270:108|208:109,1,154.000004699707,6|2,3:2|3:2,0:0:0:0:
153,260,247102,2,0,L|141:172,1,77.0000023498536,10|0,0:2|0:2,0:0:0:0:
318,176,247402,2,0,L|290:330,1,154.000004699707,2|8,3:2|0:2,0:0:0:0:
460,286,247852,6,0,B|461:232|461:232|445:195|445:195|440:117,1,154.000004699707,2|2,3:2|3:2,0:0:0:0:
318,48,248302,2,0,P|257:19|172:62,2,154.000004699707,10|2|8,0:2|3:2|0:2,0:0:0:0:
252,253,249052,6,0,L|251:93,1,154.000004699707,2|2,3:2|3:2,0:0:0:0:
162,231,249502,2,0,L|148:337,1,77.0000023498536,10|0,0:2|0:2,0:0:0:0:
12,147,249802,2,0,P|81:120|161:135,1,154.000004699707,2|8,3:2|0:2,0:0:0:0:
237,304,250252,6,0,B|289:334|289:334|391:331,1,154.000004699707,2|2,3:2|3:2,0:0:0:0:
353,110,250702,2,0,L|328:198,1,77.0000023498536,10|2,0:2|3:2,0:0:0:0:
476,210,251002,1,10,3:2:0:0:
437,21,251152,1,2,3:2:0:0:
437,21,251227,1,0,3:2:0:0:
437,21,251302,1,8,3:2:0:0:
332,185,251452,6,0,P|248:164|187:196,1,154.000004699707,6|2,3:2|3:2,0:0:0:0:
224,357,251902,2,0,P|250:325|255:291,1,77.0000023498536,10|0,0:2|3:2,0:0:0:0:
77,187,252202,6,0,P|100:270|159:307,1,154.000004699707,10|8,0:2|0:2,0:0:0:0:
352,315,252652,6,0,B|352:262|352:262|340:215|340:215|343:160,1,154.000004699707,6|2,3:2|3:2,0:0:0:0:
347,32,253102,1,8,0:2:0:0:
195,145,253252,1,2,3:2:0:0:
372,206,253402,1,8,0:2:0:0:
241,64,253552,1,0,3:2:0:0:
203,57,253627,1,0,0:0:0:0:
165,64,253702,1,2,3:2:0:0:
133,84,253777,1,0,3:2:0:0:
110,115,253852,1,0,3:2:0:0:
101,152,253927,1,0,3:2:0:0:
98,188,254002,6,0,L|100:289,1,77.0000023498536,14|0,0:2|3:2,0:0:0:0:
253,354,254302,1,0,3:2:0:0:
256,238,254452,2,0,L|257:161,1,77.0000023498536,14|0,0:2|3:2,0:0:0:0:
261,48,254752,1,0,3:2:0:0:
256,238,254902,5,14,0:2:0:0:
256,192,255052,12,0,260302,0:2:0:0:
