osu file format v14

[General]
AudioFilename: audio.mp3
AudioLeadIn: 0
PreviewTime: 85191
Countdown: 0
SampleSet: Normal
StackLeniency: 0.7
Mode: 1
LetterboxInBreaks: 0
WidescreenStoryboard: 0

[Editor]
DistanceSpacing: 0.1
BeatDivisor: 4
GridSize: 32
TimelineZoom: 2.2

[Metadata]
Title:tiny tales continue
TitleUnicode:tiny tales continue
Artist:Chroma
ArtistUnicode:黒魔
Creator:ensan71714
Version:qoot8123's Futsuu
Source:GROOVE COASTER 3 LINK FEVER
Tags:TCBC #1 Taiko Chinese Beatmap Contest グルーヴコースター3 リンクフイーバー タイトー Taito 8bit chiptune Electronic Instrumental qoot8123 Faputa -GN Junior Jr. Cynplytholowazy Rhythm Video Game Cynp-zy
BeatmapID:1648624
BeatmapSetID:785389

[Difficulty]
HPDrainRate:6
CircleSize:5
OverallDifficulty:4
ApproachRate:5
SliderMultiplier:1.4
SliderTickRate:1

[Events]
//Background and Video events
0,0,"19388_8_bit.jpg",0,0
//Break Periods
//Storyboard Layer 0 (Background)
//Storyboard Layer 1 (Fail)
//Storyboard Layer 2 (Pass)
//Storyboard Layer 3 (Foreground)
//Storyboard Layer 4 (Overlay)
//Storyboard Sound Samples

[TimingPoints]
-21,319.148936170213,4,1,0,50,1,0
10989,-100,4,1,0,70,0,0
85510,-100,4,1,0,80,0,1
95723,-100,4,1,0,70,0,0
108489,-100,4,1,0,80,0,1
116149,-100,4,1,0,30,0,0
117744,-66.6666666666667,4,1,0,80,0,0

[HitObjects]
256,192,617,5,4,0:0:0:0:
256,192,936,1,8,0:0:0:0:
256,192,1255,12,8,6361,0:0:0:0:
256,192,7638,5,0,0:0:0:0:
256,192,8276,1,8,0:0:0:0:
256,192,8596,1,8,0:0:0:0:
256,192,8915,1,0,0:0:0:0:
256,192,9553,1,8,0:0:0:0:
256,192,11149,1,0,0:0:0:0:
256,192,11308,1,8,0:0:0:0:
256,192,11468,1,0,0:0:0:0:
256,192,12106,1,8,0:0:0:0:
256,192,12585,1,0,0:0:0:0:
256,192,13064,1,0,0:0:0:0:
256,192,13383,1,8,0:0:0:0:
256,192,13702,1,8,0:0:0:0:
256,192,14021,1,0,0:0:0:0:
256,192,14659,1,8,0:0:0:0:
256,192,15138,1,0,0:0:0:0:
256,192,15617,1,0,0:0:0:0:
256,192,15936,1,8,0:0:0:0:
256,192,16255,1,8,0:0:0:0:
256,192,16415,1,8,0:0:0:0:
256,192,16574,1,0,0:0:0:0:
256,192,17213,1,0,0:0:0:0:
256,192,17851,1,0,0:0:0:0:
256,192,18170,1,0,0:0:0:0:
256,192,18489,1,0,0:0:0:0:
256,192,18808,1,8,0:0:0:0:
256,96,19127,2,8,P|448:96|192:288,1,840
256,192,21361,1,0,0:0:0:0:
256,192,21681,1,12,0:0:0:0:
256,192,22319,1,8,0:0:0:0:
256,192,22638,1,0,0:0:0:0:
256,192,22798,1,0,0:0:0:0:
256,192,22957,1,8,0:0:0:0:
256,192,23596,1,8,0:0:0:0:
256,192,23915,1,0,0:0:0:0:
256,192,24074,1,8,0:0:0:0:
256,192,24234,1,8,0:0:0:0:
256,192,24553,1,0,0:0:0:0:
256,192,24872,1,8,0:0:0:0:
256,192,25191,1,8,0:0:0:0:
256,192,25510,1,0,0:0:0:0:
256,192,25830,1,0,0:0:0:0:
256,192,26149,1,8,0:0:0:0:
256,192,26468,1,8,0:0:0:0:
256,192,26787,1,4,0:0:0:0:
256,192,27425,1,0,0:0:0:0:
256,192,27744,1,8,0:0:0:0:
256,192,27904,1,8,0:0:0:0:
256,192,28064,1,0,0:0:0:0:
256,192,28383,1,0,0:0:0:0:
256,192,28702,1,8,0:0:0:0:
256,192,29021,1,8,0:0:0:0:
256,192,29340,1,0,0:0:0:0:
256,192,29979,1,0,0:0:0:0:
256,192,30298,1,8,0:0:0:0:
256,192,30617,1,0,0:0:0:0:
256,192,30936,1,0,0:0:0:0:
256,192,31255,1,8,0:0:0:0:
256,192,31574,1,8,0:0:0:0:
256,192,31893,1,4,0:0:0:0:
256,192,32213,1,8,0:0:0:0:
256,192,32691,1,0,0:0:0:0:
256,192,32851,1,8,0:0:0:0:
256,192,33170,1,0,0:0:0:0:
256,192,33489,1,8,0:0:0:0:
256,192,33968,1,0,0:0:0:0:
256,192,34127,1,8,0:0:0:0:
256,192,34447,1,0,0:0:0:0:
256,192,34766,1,8,0:0:0:0:
256,192,34925,1,8,0:0:0:0:
256,192,35085,1,0,0:0:0:0:
256,192,35404,1,8,0:0:0:0:
256,192,35723,1,0,0:0:0:0:
256,192,36361,1,0,0:0:0:0:
256,192,36681,1,8,0:0:0:0:
256,192,37000,1,0,0:0:0:0:
256,192,37638,1,0,0:0:0:0:
256,192,37957,1,8,0:0:0:0:
256,192,38117,1,8,0:0:0:0:
256,192,38276,1,0,0:0:0:0:
256,192,38596,1,0,0:0:0:0:
256,192,38915,1,8,0:0:0:0:
256,192,39234,1,0,0:0:0:0:
256,192,39393,1,8,0:0:0:0:
256,192,39553,1,8,0:0:0:0:
256,192,40191,1,0,0:0:0:0:
256,192,40510,1,8,0:0:0:0:
256,192,40830,1,0,0:0:0:0:
256,192,41149,1,8,0:0:0:0:
256,192,41308,1,0,0:0:0:0:
256,192,41468,1,8,0:0:0:0:
256,192,41787,1,8,0:0:0:0:
256,192,42106,1,4,0:0:0:0:
256,192,42744,1,0,0:0:0:0:
256,192,43064,1,8,0:0:0:0:
256,192,43383,1,0,0:0:0:0:
256,192,44020,1,0,0:0:0:0:
256,192,44340,1,8,0:0:0:0:
256,192,44659,1,0,0:0:0:0:
256,192,45297,1,0,0:0:0:0:
256,192,45617,1,8,0:0:0:0:
256,192,45936,1,0,0:0:0:0:
256,192,46255,1,8,0:0:0:0:
256,192,46414,1,8,0:0:0:0:
256,192,46574,1,0,0:0:0:0:
256,192,46893,1,8,0:0:0:0:
256,192,47532,1,8,0:0:0:0:
256,192,47850,1,0,0:0:0:0:
256,192,48009,1,0,0:0:0:0:
256,192,48169,1,8,0:0:0:0:
256,192,48489,1,0,0:0:0:0:
256,192,48808,1,8,0:0:0:0:
256,192,49128,1,0,0:0:0:0:
256,192,49447,1,8,0:0:0:0:
256,192,49607,1,0,0:0:0:0:
256,192,49766,1,8,0:0:0:0:
256,192,50084,1,8,0:0:0:0:
256,192,50403,1,0,0:0:0:0:
256,192,50723,1,8,0:0:0:0:
256,192,50883,1,8,0:0:0:0:
256,192,51042,1,8,0:0:0:0:
256,192,51681,1,0,0:0:0:0:
256,192,52318,1,12,0:0:0:0:
256,192,52797,1,0,0:0:0:0:
256,192,52957,1,0,0:0:0:0:
256,192,53276,1,8,0:0:0:0:
256,192,53596,1,0,0:0:0:0:
256,192,54073,1,8,0:0:0:0:
256,192,54233,1,8,0:0:0:0:
256,192,54552,1,0,0:0:0:0:
256,192,54872,1,8,0:0:0:0:
256,192,55190,1,8,0:0:0:0:
256,192,55510,1,0,0:0:0:0:
256,192,55829,1,8,0:0:0:0:
256,192,55989,1,8,0:0:0:0:
256,192,56149,1,0,0:0:0:0:
256,192,56786,1,8,0:0:0:0:
256,192,57106,1,12,0:0:0:0:
256,192,57425,1,0,0:0:0:0:
256,192,57904,1,0,0:0:0:0:
256,192,58063,1,0,0:0:0:0:
256,192,58383,1,8,0:0:0:0:
256,192,58702,1,0,0:0:0:0:
256,192,59180,1,8,0:0:0:0:
256,192,59340,1,8,0:0:0:0:
256,192,59660,1,0,0:0:0:0:
256,192,59979,1,0,0:0:0:0:
256,192,60297,1,8,0:0:0:0:
256,192,60617,1,0,0:0:0:0:
256,192,60936,1,8,0:0:0:0:
256,192,61254,1,0,0:0:0:0:
256,192,61414,1,8,0:0:0:0:
256,192,61573,1,8,0:0:0:0:
256,192,61893,12,0,62372,0:0:0:0:
256,192,62532,5,4,0:0:0:0:
256,192,63170,1,8,0:0:0:0:
256,192,63489,1,0,0:0:0:0:
256,192,63808,1,0,0:0:0:0:
256,192,64446,1,8,0:0:0:0:
256,192,64766,1,0,0:0:0:0:
256,192,65085,1,8,0:0:0:0:
256,192,65722,1,0,0:0:0:0:
256,192,66042,1,8,0:0:0:0:
256,192,66361,1,0,0:0:0:0:
256,192,66999,1,8,0:0:0:0:
288,192,67212,1,8,0:0:0:0:
256,192,67318,1,8,0:0:0:0:
256,192,67638,1,0,0:0:0:0:
256,192,68276,1,0,0:0:0:0:
256,192,68595,1,8,0:0:0:0:
256,192,68915,1,0,0:0:0:0:
256,192,69553,1,0,0:0:0:0:
256,192,69872,1,8,0:0:0:0:
256,192,70192,1,8,0:0:0:0:
256,192,70830,1,8,0:0:0:0:
256,192,71150,1,0,0:0:0:0:
256,192,71786,1,0,0:0:0:0:
256,192,71999,1,8,0:0:0:0:
256,192,72105,1,8,0:0:0:0:
256,192,72425,1,8,0:0:0:0:
256,192,72744,1,4,0:0:0:0:
256,192,73222,1,0,0:0:0:0:
256,192,73382,1,0,0:0:0:0:
256,192,73702,1,8,0:0:0:0:
256,192,74021,1,0,0:0:0:0:
256,192,74499,1,8,0:0:0:0:
256,192,74659,1,8,0:0:0:0:
256,192,74978,1,8,0:0:0:0:
256,192,75298,1,0,0:0:0:0:
256,192,75775,1,0,0:0:0:0:
256,192,75935,1,8,0:0:0:0:
256,192,76254,1,0,0:0:0:0:
256,192,76574,1,8,0:0:0:0:
256,192,77213,1,0,0:0:0:0:
256,192,77532,1,12,0:0:0:0:
256,192,77851,1,4,0:0:0:0:
256,192,78488,1,8,0:0:0:0:
256,192,78728,1,8,0:0:0:0:
256,192,78968,1,0,0:0:0:0:
256,192,79446,1,8,0:0:0:0:
256,192,79605,1,8,0:0:0:0:
256,192,79925,1,0,0:0:0:0:
256,192,80085,1,8,0:0:0:0:
256,192,80404,12,0,82319,0:0:0:0:
256,192,82637,5,8,0:0:0:0:
256,192,82797,1,8,0:0:0:0:
256,192,82957,1,0,0:0:0:0:
256,192,83276,1,0,0:0:0:0:
256,192,83596,1,0,0:0:0:0:
256,192,83914,1,0,0:0:0:0:
256,192,84234,1,0,0:0:0:0:
256,192,84553,1,0,0:0:0:0:
256,192,84713,1,0,0:0:0:0:
256,192,84872,1,0,0:0:0:0:
256,192,85510,1,12,0:0:0:0:
256,192,86149,1,0,0:0:0:0:
256,192,86467,1,8,0:0:0:0:
256,192,86626,1,0,0:0:0:0:
256,192,86786,1,8,0:0:0:0:
256,192,87106,1,8,0:0:0:0:
256,192,87425,1,0,0:0:0:0:
256,192,87745,1,8,0:0:0:0:
256,192,87904,1,8,0:0:0:0:
256,192,88064,1,0,0:0:0:0:
256,192,88701,1,0,0:0:0:0:
256,192,89020,1,8,0:0:0:0:
256,192,89180,1,0,0:0:0:0:
256,192,89340,1,8,0:0:0:0:
256,192,89658,1,8,0:0:0:0:
256,192,89978,1,0,0:0:0:0:
256,192,90297,1,0,0:0:0:0:
256,192,90457,1,0,0:0:0:0:
256,192,90617,1,8,0:0:0:0:
256,192,91255,1,0,0:0:0:0:
256,192,91574,1,8,0:0:0:0:
256,192,91893,1,0,0:0:0:0:
256,192,92212,1,8,0:0:0:0:
256,192,92372,1,0,0:0:0:0:
256,192,92531,1,8,0:0:0:0:
256,192,92851,1,0,0:0:0:0:
256,192,93170,1,8,0:0:0:0:
256,192,93808,1,0,0:0:0:0:
256,192,94128,1,8,0:0:0:0:
256,192,94447,1,0,0:0:0:0:
256,192,94766,1,0,0:0:0:0:
256,192,95085,1,8,0:0:0:0:
256,192,95404,1,8,0:0:0:0:
256,192,95564,1,0,0:0:0:0:
256,192,95724,1,8,0:0:0:0:
256,192,96361,1,8,0:0:0:0:
256,192,96680,1,8,0:0:0:0:
256,192,97000,1,0,0:0:0:0:
256,192,97637,1,8,0:0:0:0:
256,192,97956,1,8,0:0:0:0:
256,192,98276,1,0,0:0:0:0:
256,192,98595,1,8,0:0:0:0:
256,192,98914,1,8,0:0:0:0:
256,192,99234,1,0,0:0:0:0:
256,192,99553,1,0,0:0:0:0:
256,192,100031,1,8,0:0:0:0:
256,192,100190,1,8,0:0:0:0:
256,192,100510,1,8,0:0:0:0:
256,192,100829,1,0,0:0:0:0:
256,192,100989,1,0,0:0:0:0:
256,192,101946,1,8,0:0:0:0:
256,192,102266,1,0,0:0:0:0:
256,192,102425,1,0,0:0:0:0:
256,192,102904,1,8,0:0:0:0:
256,192,103063,1,8,0:0:0:0:
256,192,103383,1,4,0:0:0:0:
256,192,103702,1,8,0:0:0:0:
256,192,103860,1,8,0:0:0:0:
256,192,104020,1,0,0:0:0:0:
256,192,104339,1,8,0:0:0:0:
256,192,104659,1,0,0:0:0:0:
256,192,104979,1,8,0:0:0:0:
256,192,105299,1,0,0:0:0:0:
256,192,105618,1,8,0:0:0:0:
256,192,105776,1,0,0:0:0:0:
256,192,105937,1,0,0:0:0:0:
256,192,106255,1,8,0:0:0:0:
256,192,106415,1,8,0:0:0:0:
256,192,106574,1,0,0:0:0:0:
256,192,106894,1,8,0:0:0:0:
256,192,107213,1,0,0:0:0:0:
256,192,107531,1,8,0:0:0:0:
256,192,107850,1,0,0:0:0:0:
256,192,108489,1,12,0:0:0:0:
256,192,108967,1,8,0:0:0:0:
256,192,109127,1,0,0:0:0:0:
256,192,109446,1,8,0:0:0:0:
256,192,109766,1,0,0:0:0:0:
256,192,110243,1,0,0:0:0:0:
256,192,110403,1,0,0:0:0:0:
256,192,110722,1,8,0:0:0:0:
256,192,110882,1,8,0:0:0:0:
256,192,111042,1,0,0:0:0:0:
256,192,111360,1,8,0:0:0:0:
256,192,111999,1,8,0:0:0:0:
256,192,112319,1,0,0:0:0:0:
256,192,112638,1,8,0:0:0:0:
256,192,112957,1,8,0:0:0:0:
256,192,113117,1,0,0:0:0:0:
256,192,113277,1,8,0:0:0:0:
256,192,113596,1,0,0:0:0:0:
256,192,113914,1,8,0:0:0:0:
256,192,114074,1,8,0:0:0:0:
256,192,114233,1,0,0:0:0:0:
256,192,114553,1,8,0:0:0:0:
256,192,114872,1,8,0:0:0:0:
256,192,115191,1,8,0:0:0:0:
256,192,115350,1,0,0:0:0:0:
256,192,115510,1,8,0:0:0:0:
256,192,115830,1,8,0:0:0:0:
256,192,116149,1,0,0:0:0:0:
224,128,117744,2,8,L|416:288,1,210.000008010865
