osu file format v14

[General]
AudioFilename: audio.mp3
AudioLeadIn: 0
PreviewTime: 85191
Countdown: 0
SampleSet: Normal
StackLeniency: 0.7
Mode: 1
LetterboxInBreaks: 0
WidescreenStoryboard: 0

[Editor]
DistanceSpacing: 0.1
BeatDivisor: 4
GridSize: 32
TimelineZoom: 2.799999

[Metadata]
Title:tiny tales continue
TitleUnicode:tiny tales continue
Artist:Chroma
ArtistUnicode:黒魔
Creator:ensan71714
Version:Fapu's Muzukashii
Source:GROOVE COASTER 3 LINK FEVER
Tags:TCBC #1 Taiko Chinese Beatmap Contest グルーヴコースター3 リンクフイーバー タイトー Taito 8bit chiptune Electronic Instrumental qoot8123 Faputa -GN Junior Jr. Cynplytholowazy Rhythm Video Game Cynp-zy
BeatmapID:1648627
BeatmapSetID:785389

[Difficulty]
HPDrainRate:5
CircleSize:5
OverallDifficulty:5
ApproachRate:5
SliderMultiplier:1.4
SliderTickRate:1

[Events]
//Background and Video events
0,0,"19388_8_bit.jpg",0,0
//Break Periods
//Storyboard Layer 0 (Background)
//Storyboard Layer 1 (Fail)
//Storyboard Layer 2 (Pass)
//Storyboard Layer 3 (Foreground)
//Storyboard Layer 4 (Overlay)
//Storyboard Sound Samples

[TimingPoints]
-21,319.148936170213,4,1,0,50,1,0
10989,-100,4,1,0,70,0,0
85510,-100,4,1,0,80,0,1
95723,-100,4,1,0,70,0,0
108489,-100,4,1,0,80,0,1
116149,-100,4,1,0,30,0,0
117425,-80,4,1,0,80,0,0

[HitObjects]
160,320,617,5,0,0:0:0:0:
256,192,1255,12,0,6361,0:0:0:0:
256,192,7957,5,0,0:0:0:0:
256,192,8276,1,0,0:0:0:0:
256,192,8596,1,0,0:0:0:0:
256,192,8915,1,8,0:0:0:0:
256,192,9553,1,8,0:0:0:0:
256,192,10191,1,0,0:0:0:0:
256,192,10989,1,8,0:0:0:0:
256,192,11149,1,0,0:0:0:0:
256,192,11308,1,0,0:0:0:0:
256,192,11388,1,0,0:0:0:0:
256,192,11468,1,0,0:0:0:0:
256,192,11947,1,0,0:0:0:0:
256,192,12106,1,8,0:0:0:0:
256,192,12585,1,0,0:0:0:0:
256,192,12904,1,8,0:0:0:0:
256,192,13064,1,0,0:0:0:0:
256,192,13223,1,0,0:0:0:0:
256,192,13383,1,8,0:0:0:0:
256,192,13702,1,0,0:0:0:0:
256,192,13861,1,0,0:0:0:0:
256,192,14021,1,0,0:0:0:0:
256,192,14500,1,0,0:0:0:0:
256,192,14659,1,8,0:0:0:0:
256,192,14819,1,8,0:0:0:0:
256,192,14979,1,0,0:0:0:0:
256,192,15138,1,0,0:0:0:0:
256,192,15218,1,0,0:0:0:0:
256,192,15298,1,0,0:0:0:0:
256,192,15776,1,0,0:0:0:0:
256,192,15936,1,8,0:0:0:0:
256,192,16255,1,8,0:0:0:0:
256,192,16335,1,8,0:0:0:0:
256,192,16415,1,8,0:0:0:0:
256,192,16574,1,0,0:0:0:0:
256,192,16893,1,0,0:0:0:0:
256,192,17213,1,0,0:0:0:0:
256,192,17532,1,0,0:0:0:0:
256,192,17851,1,0,0:0:0:0:
256,192,18170,1,0,0:0:0:0:
256,192,18489,1,0,0:0:0:0:
256,192,18808,1,8,0:0:0:0:
256,192,19048,1,8,0:0:0:0:
256,192,19127,1,8,0:0:0:0:
256,192,19447,1,8,0:0:0:0:
256,192,19766,1,8,0:0:0:0:
256,192,20085,1,8,0:0:0:0:
256,192,20404,1,0,0:0:0:0:
256,192,20564,1,0,0:0:0:0:
256,192,20723,1,0,0:0:0:0:
256,192,20883,1,0,0:0:0:0:
256,192,21042,12,0,21361,0:0:0:0:
256,192,21681,5,4,0:0:0:0:
256,192,22000,1,8,0:0:0:0:
256,192,22319,1,0,0:0:0:0:
256,192,22479,1,0,0:0:0:0:
256,192,22638,1,8,0:0:0:0:
256,192,22798,1,8,0:0:0:0:
256,192,22957,1,0,0:0:0:0:
256,192,23276,1,8,0:0:0:0:
256,192,23596,1,8,0:0:0:0:
256,192,23755,1,0,0:0:0:0:
256,192,23915,1,0,0:0:0:0:
256,192,24074,1,8,0:0:0:0:
256,192,24234,1,8,0:0:0:0:
256,192,24553,1,0,0:0:0:0:
256,192,24872,1,8,0:0:0:0:
256,192,25191,1,8,0:0:0:0:
256,192,25510,1,0,0:0:0:0:
256,192,25830,1,0,0:0:0:0:
256,192,26149,1,0,0:0:0:0:
256,192,26627,1,8,0:0:0:0:
256,192,26787,1,4,0:0:0:0:
256,192,27106,1,8,0:0:0:0:
256,192,27425,1,0,0:0:0:0:
256,192,27585,1,0,0:0:0:0:
256,192,27744,1,8,0:0:0:0:
256,192,27904,1,8,0:0:0:0:
256,192,28064,1,0,0:0:0:0:
256,192,28383,1,8,0:0:0:0:
256,192,28702,1,8,0:0:0:0:
256,192,28941,1,8,0:0:0:0:
256,192,29181,1,0,0:0:0:0:
256,192,29340,1,8,0:0:0:0:
256,192,29659,1,8,0:0:0:0:
256,192,29819,1,0,0:0:0:0:
256,192,29979,1,8,0:0:0:0:
256,192,30298,1,0,0:0:0:0:
256,192,30617,1,8,0:0:0:0:
256,192,30936,1,8,0:0:0:0:
256,192,31255,1,8,0:0:0:0:
256,192,31734,1,8,0:0:0:0:
256,192,31893,1,4,0:0:0:0:
256,192,32133,1,8,0:0:0:0:
256,192,32372,1,8,0:0:0:0:
256,192,32611,1,0,0:0:0:0:
256,192,33010,1,0,0:0:0:0:
256,192,33170,1,8,0:0:0:0:
256,192,33409,1,8,0:0:0:0:
256,192,33649,1,0,0:0:0:0:
256,192,33888,1,0,0:0:0:0:
256,192,34287,1,0,0:0:0:0:
256,192,34447,1,8,0:0:0:0:
256,192,34686,1,8,0:0:0:0:
256,192,34925,1,0,0:0:0:0:
256,192,35085,1,8,0:0:0:0:
256,192,35404,1,8,0:0:0:0:
256,192,35723,1,0,0:0:0:0:
256,192,36361,1,0,0:0:0:0:
256,192,36681,1,0,0:0:0:0:
256,192,36840,1,8,0:0:0:0:
256,192,37000,1,0,0:0:0:0:
256,192,37319,1,8,0:0:0:0:
256,192,37479,1,8,0:0:0:0:
256,192,37638,1,0,0:0:0:0:
256,192,37798,1,8,0:0:0:0:
256,192,37957,1,8,0:0:0:0:
256,192,38117,1,0,0:0:0:0:
256,192,38276,1,0,0:0:0:0:
256,192,38516,1,0,0:0:0:0:
256,192,38915,1,0,0:0:0:0:
256,192,39154,1,0,0:0:0:0:
256,192,39393,1,8,0:0:0:0:
256,192,39553,1,8,0:0:0:0:
256,192,39792,1,8,0:0:0:0:
256,192,40191,1,0,0:0:0:0:
256,192,40431,1,0,0:0:0:0:
256,192,40670,1,8,0:0:0:0:
256,192,40830,1,0,0:0:0:0:
256,192,41069,1,0,0:0:0:0:
256,192,41308,1,0,0:0:0:0:
256,192,41468,1,8,0:0:0:0:
256,192,41627,1,8,0:0:0:0:
256,192,41787,1,0,0:0:0:0:
256,192,41867,1,0,0:0:0:0:
256,192,41947,1,0,0:0:0:0:
256,192,42106,1,0,0:0:0:0:
256,192,42425,1,8,0:0:0:0:
256,192,42585,1,8,0:0:0:0:
256,192,42744,1,8,0:0:0:0:
256,192,43064,1,0,0:0:0:0:
256,192,43224,1,8,0:0:0:0:
256,192,43383,1,8,0:0:0:0:
256,192,43861,1,8,0:0:0:0:
256,192,44020,1,8,0:0:0:0:
256,192,44340,1,0,0:0:0:0:
256,192,44499,1,8,0:0:0:0:
256,192,44659,1,8,0:0:0:0:
256,192,45137,1,8,0:0:0:0:
256,192,45297,1,8,0:0:0:0:
256,192,45617,1,0,0:0:0:0:
256,192,45776,1,8,0:0:0:0:
256,192,45936,1,8,0:0:0:0:
256,192,46414,1,8,0:0:0:0:
256,192,46574,1,8,0:0:0:0:
256,192,46734,1,0,0:0:0:0:
256,192,46893,1,8,0:0:0:0:
256,192,47053,1,8,0:0:0:0:
256,192,47532,1,0,0:0:0:0:
256,192,47690,1,0,0:0:0:0:
256,192,47851,1,8,0:0:0:0:
256,192,48009,1,0,0:0:0:0:
256,192,48169,1,0,0:0:0:0:
256,192,48329,1,8,0:0:0:0:
256,192,48489,1,8,0:0:0:0:
256,192,48968,1,8,0:0:0:0:
256,192,49128,1,8,0:0:0:0:
256,192,49287,1,0,0:0:0:0:
256,192,49447,1,0,0:0:0:0:
256,192,49607,1,8,0:0:0:0:
256,192,49766,1,8,0:0:0:0:
256,192,50244,1,8,0:0:0:0:
256,192,50403,1,8,0:0:0:0:
256,192,50563,1,0,0:0:0:0:
256,192,50723,1,0,0:0:0:0:
256,192,50883,1,8,0:0:0:0:
256,192,51042,1,8,0:0:0:0:
256,192,51521,1,8,0:0:0:0:
256,192,51681,1,0,0:0:0:0:
256,192,52318,1,8,0:0:0:0:
256,192,52398,1,8,0:0:0:0:
256,192,52478,1,8,0:0:0:0:
256,192,52638,1,8,0:0:0:0:
256,192,52717,1,8,0:0:0:0:
256,192,52797,1,8,0:0:0:0:
256,192,52957,1,0,0:0:0:0:
256,192,53595,1,0,0:0:0:0:
256,192,53675,1,0,0:0:0:0:
256,192,53755,1,0,0:0:0:0:
256,192,53914,1,0,0:0:0:0:
256,192,53994,1,0,0:0:0:0:
256,192,54074,1,0,0:0:0:0:
256,192,54234,1,8,0:0:0:0:
256,192,54713,1,0,0:0:0:0:
256,192,54871,1,8,0:0:0:0:
256,192,55190,1,8,0:0:0:0:
256,192,55510,1,0,0:0:0:0:
256,192,55750,1,0,0:0:0:0:
256,192,55988,1,8,0:0:0:0:
256,192,56148,1,8,0:0:0:0:
256,192,56627,1,0,0:0:0:0:
256,192,56786,1,0,0:0:0:0:
256,192,57106,1,12,0:0:0:0:
256,192,57425,1,0,0:0:0:0:
256,192,57505,1,0,0:0:0:0:
256,192,57585,1,0,0:0:0:0:
256,192,57745,1,0,0:0:0:0:
256,192,57825,1,0,0:0:0:0:
256,192,57905,1,0,0:0:0:0:
256,192,58064,1,8,0:0:0:0:
256,192,58702,1,8,0:0:0:0:
256,192,58782,1,8,0:0:0:0:
256,192,58860,1,8,0:0:0:0:
256,192,59020,1,8,0:0:0:0:
256,192,59100,1,8,0:0:0:0:
256,192,59181,1,8,0:0:0:0:
256,192,59339,1,0,0:0:0:0:
256,192,59659,1,8,0:0:0:0:
256,192,59978,1,0,0:0:0:0:
256,192,60138,1,0,0:0:0:0:
256,192,60297,1,0,0:0:0:0:
256,192,60617,1,0,0:0:0:0:
256,192,60936,1,0,0:0:0:0:
256,192,61096,1,8,0:0:0:0:
256,192,61176,1,8,0:0:0:0:
256,192,61256,1,8,0:0:0:0:
256,192,61414,1,0,0:0:0:0:
256,192,61573,1,8,0:0:0:0:
256,192,61893,2,8,L|480:192,1,210
256,192,62532,1,4,0:0:0:0:
256,192,63063,1,0,0:0:0:0:
256,192,63170,1,8,0:0:0:0:
256,192,63702,1,0,0:0:0:0:
256,192,64020,1,8,0:0:0:0:
256,192,64127,1,0,0:0:0:0:
256,192,64447,1,8,0:0:0:0:
256,192,65085,1,0,0:0:0:0:
256,192,65616,1,0,0:0:0:0:
256,192,65722,1,8,0:0:0:0:
256,192,66255,1,0,0:0:0:0:
256,192,66574,1,8,0:0:0:0:
256,192,66681,1,0,0:0:0:0:
256,192,66894,1,0,0:0:0:0:
256,192,67000,1,8,0:0:0:0:
256,192,67637,1,0,0:0:0:0:
256,192,68169,1,0,0:0:0:0:
256,192,68276,1,8,0:0:0:0:
256,192,68807,1,0,0:0:0:0:
256,192,69127,1,8,0:0:0:0:
256,192,69233,1,0,0:0:0:0:
256,192,69446,1,0,0:0:0:0:
256,192,69553,1,8,0:0:0:0:
256,192,70192,1,0,0:0:0:0:
256,192,70724,1,0,0:0:0:0:
256,192,70830,1,8,0:0:0:0:
256,192,71361,1,0,0:0:0:0:
256,192,71680,1,8,0:0:0:0:
256,192,71787,1,0,0:0:0:0:
256,192,72000,1,0,0:0:0:0:
256,192,72106,1,8,0:0:0:0:
256,192,72425,1,8,0:0:0:0:
256,192,72744,1,4,0:0:0:0:
256,192,73222,1,8,0:0:0:0:
256,192,73302,1,8,0:0:0:0:
256,192,73382,1,8,0:0:0:0:
256,192,73542,1,0,0:0:0:0:
256,192,73702,1,8,0:0:0:0:
256,192,74021,1,0,0:0:0:0:
256,192,74500,1,0,0:0:0:0:
256,192,74580,1,0,0:0:0:0:
256,192,74660,1,0,0:0:0:0:
256,192,74820,1,8,0:0:0:0:
256,192,74979,1,8,0:0:0:0:
256,192,75297,1,0,0:0:0:0:
256,192,75776,1,8,0:0:0:0:
256,192,75856,1,8,0:0:0:0:
256,192,75936,1,8,0:0:0:0:
256,192,76095,1,0,0:0:0:0:
256,192,76255,1,8,0:0:0:0:
256,192,76574,1,8,0:0:0:0:
256,192,76893,1,0,0:0:0:0:
256,192,77213,1,8,0:0:0:0:
256,192,77372,1,0,0:0:0:0:
256,192,77532,1,12,0:0:0:0:
256,192,77851,1,4,0:0:0:0:
256,192,78488,1,12,0:0:0:0:
256,192,78728,1,4,0:0:0:0:
256,192,78968,1,12,0:0:0:0:
256,192,79286,1,8,0:0:0:0:
256,192,79366,1,8,0:0:0:0:
256,192,79446,1,8,0:0:0:0:
256,192,79605,1,8,0:0:0:0:
256,192,79925,1,4,0:0:0:0:
256,192,80085,1,12,0:0:0:0:
256,192,80404,12,12,82319,0:0:0:0:
256,192,82637,5,8,0:0:0:0:
256,192,82717,1,8,0:0:0:0:
256,192,82797,1,8,0:0:0:0:
256,192,82957,1,0,0:0:0:0:
256,192,83276,1,0,0:0:0:0:
256,192,83596,1,0,0:0:0:0:
256,192,83914,1,0,0:0:0:0:
256,192,84234,1,8,0:0:0:0:
256,192,84393,1,8,0:0:0:0:
256,192,84553,1,8,0:0:0:0:
256,192,84713,1,8,0:0:0:0:
256,192,84872,1,8,0:0:0:0:
256,192,85509,1,4,0:0:0:0:
256,192,85989,1,0,0:0:0:0:
256,192,86068,1,0,0:0:0:0:
256,192,86148,1,0,0:0:0:0:
256,192,86308,1,8,0:0:0:0:
256,192,86468,1,8,0:0:0:0:
256,192,86627,1,0,0:0:0:0:
256,192,86787,1,8,0:0:0:0:
256,192,87106,1,8,0:0:0:0:
256,192,87425,1,0,0:0:0:0:
256,192,87904,1,8,0:0:0:0:
256,192,87984,1,8,0:0:0:0:
256,192,88064,1,8,0:0:0:0:
256,192,88541,1,0,0:0:0:0:
256,192,88621,1,0,0:0:0:0:
256,192,88701,1,0,0:0:0:0:
256,192,88861,1,8,0:0:0:0:
256,192,89020,1,8,0:0:0:0:
256,192,89180,1,0,0:0:0:0:
256,192,89340,1,8,0:0:0:0:
256,192,89658,1,0,0:0:0:0:
256,192,89978,1,8,0:0:0:0:
256,192,90297,1,8,0:0:0:0:
256,192,90617,1,4,0:0:0:0:
256,192,90935,1,0,0:0:0:0:
256,192,91095,1,8,0:0:0:0:
256,192,91255,1,0,0:0:0:0:
256,192,91574,1,8,0:0:0:0:
256,192,91734,1,0,0:0:0:0:
256,192,91893,1,8,0:0:0:0:
256,192,92212,1,8,0:0:0:0:
256,192,92531,1,8,0:0:0:0:
256,192,92851,1,0,0:0:0:0:
256,192,93170,1,8,0:0:0:0:
256,192,93489,1,8,0:0:0:0:
256,192,93648,1,8,0:0:0:0:
256,192,93808,1,0,0:0:0:0:
256,192,94128,1,0,0:0:0:0:
256,192,94447,1,8,0:0:0:0:
256,192,94765,1,8,0:0:0:0:
256,192,95084,1,8,0:0:0:0:
256,192,95244,1,0,0:0:0:0:
256,192,95324,1,0,0:0:0:0:
256,192,95404,1,0,0:0:0:0:
256,192,95563,1,8,0:0:0:0:
256,192,95723,1,4,0:0:0:0:
256,192,96202,1,0,0:0:0:0:
256,192,96362,1,12,0:0:0:0:
256,192,96681,1,0,0:0:0:0:
256,192,96840,1,0,0:0:0:0:
256,192,97000,1,0,0:0:0:0:
256,192,97159,1,0,0:0:0:0:
256,192,97479,1,0,0:0:0:0:
256,192,97639,1,12,0:0:0:0:
256,192,98117,1,0,0:0:0:0:
256,192,98277,1,0,0:0:0:0:
256,192,98596,1,0,0:0:0:0:
256,192,98756,1,0,0:0:0:0:
256,192,98915,1,12,0:0:0:0:
256,192,99233,1,0,0:0:0:0:
256,192,99393,1,0,0:0:0:0:
256,192,99552,1,0,0:0:0:0:
256,192,99712,1,0,0:0:0:0:
256,192,100032,1,8,0:0:0:0:
256,192,100191,1,12,0:0:0:0:
256,192,100669,1,8,0:0:0:0:
256,192,100749,1,8,0:0:0:0:
256,192,100829,1,8,0:0:0:0:
256,192,100989,1,0,0:0:0:0:
256,192,101946,1,0,0:0:0:0:
256,192,102266,1,0,0:0:0:0:
256,192,102425,1,0,0:0:0:0:
256,192,102904,1,8,0:0:0:0:
256,192,102984,1,8,0:0:0:0:
256,192,103063,1,8,0:0:0:0:
256,192,103223,1,8,0:0:0:0:
256,192,103383,1,0,0:0:0:0:
256,192,103860,1,8,0:0:0:0:
256,192,104020,1,8,0:0:0:0:
256,192,104181,1,0,0:0:0:0:
256,192,104339,1,8,0:0:0:0:
256,192,104499,1,0,0:0:0:0:
256,192,104659,1,0,0:0:0:0:
256,192,104979,1,8,0:0:0:0:
256,192,105139,1,0,0:0:0:0:
256,192,105299,1,8,0:0:0:0:
256,192,105458,1,8,0:0:0:0:
256,192,105618,1,0,0:0:0:0:
256,192,105776,1,8,0:0:0:0:
256,192,105937,1,0,0:0:0:0:
256,192,106415,1,8,0:0:0:0:
256,192,106574,1,8,0:0:0:0:
256,192,106734,1,0,0:0:0:0:
256,192,106894,1,8,0:0:0:0:
256,192,107054,1,8,0:0:0:0:
256,192,107213,1,0,0:0:0:0:
256,192,107371,1,0,0:0:0:0:
256,192,107531,1,8,0:0:0:0:
256,192,107690,1,8,0:0:0:0:
256,192,107850,1,4,0:0:0:0:
256,192,108170,1,4,0:0:0:0:
256,192,108488,1,12,0:0:0:0:
256,192,108728,1,8,0:0:0:0:
256,192,108967,1,0,0:0:0:0:
256,192,109127,1,8,0:0:0:0:
256,192,109446,1,8,0:0:0:0:
256,192,109606,1,8,0:0:0:0:
256,192,109766,1,0,0:0:0:0:
256,192,110005,1,0,0:0:0:0:
256,192,110244,1,0,0:0:0:0:
256,192,110404,1,8,0:0:0:0:
256,192,110643,1,0,0:0:0:0:
256,192,110882,1,8,0:0:0:0:
256,192,111042,1,8,0:0:0:0:
256,192,111281,1,8,0:0:0:0:
256,192,111521,1,0,0:0:0:0:
256,192,111681,1,0,0:0:0:0:
256,192,111920,1,0,0:0:0:0:
256,192,112319,1,8,0:0:0:0:
256,192,112558,1,8,0:0:0:0:
256,192,112798,1,0,0:0:0:0:
256,192,112957,1,8,0:0:0:0:
256,192,113596,1,0,0:0:0:0:
256,192,113916,1,0,0:0:0:0:
256,192,113994,1,0,0:0:0:0:
256,192,114074,1,0,0:0:0:0:
256,192,114235,1,0,0:0:0:0:
256,192,114553,1,0,0:0:0:0:
256,192,114633,1,0,0:0:0:0:
256,192,114712,1,0,0:0:0:0:
256,192,114872,1,8,0:0:0:0:
256,192,115192,1,8,0:0:0:0:
256,192,115351,1,8,0:0:0:0:
256,192,115510,1,0,0:0:0:0:
256,192,115670,1,0,0:0:0:0:
256,192,115830,1,8,0:0:0:0:
256,192,115909,1,8,0:0:0:0:
256,192,115989,1,8,0:0:0:0:
256,192,116149,1,0,0:0:0:0:
256,192,117744,1,4,0:0:0:0:
256,192,117904,1,0,0:0:0:0:
256,192,117984,1,0,0:0:0:0:
256,192,118064,1,0,0:0:0:0:
