osu file format v14

[General]
AudioFilename: audio.mp3
AudioLeadIn: 0
PreviewTime: 85191
Countdown: 0
SampleSet: Normal
StackLeniency: 0.7
Mode: 1
LetterboxInBreaks: 0
WidescreenStoryboard: 1

[Editor]
DistanceSpacing: 0.1
BeatDivisor: 4
GridSize: 32
TimelineZoom: 1.6

[Metadata]
Title:tiny tales continue
TitleUnicode:tiny tales continue
Artist:Chroma
ArtistUnicode:黒魔
Creator:ensan71714
Version:-GN Jr.'s Oni
Source:GROOVE COASTER 3 LINK FEVER
Tags:TCBC #1 Taiko Chinese Beatmap Contest グルーヴコースター3 リンクフイーバー タイトー Taito 8bit chiptune Electronic Instrumental qoot8123 Faputa -GN Junior Jr. Cynplytholowazy Rhythm Video Game Cynp-zy
BeatmapID:1759437
BeatmapSetID:785389

[Difficulty]
HPDrainRate:5.5
CircleSize:5
OverallDifficulty:5.5
ApproachRate:5
SliderMultiplier:1.4
SliderTickRate:1

[Events]
//Background and Video events
0,0,"19388_8_bit.jpg",0,0
//Break Periods
//Storyboard Layer 0 (Background)
//Storyboard Layer 1 (Fail)
//Storyboard Layer 2 (Pass)
//Storyboard Layer 3 (Foreground)
//Storyboard Layer 4 (Overlay)
//Storyboard Sound Samples

[TimingPoints]
-21,319.148936170213,4,1,0,50,1,0
616,-125,4,1,0,50,0,0
1255,-100,4,1,0,50,0,0
10989,-100,4,1,0,70,0,0
20404,-100,4,1,0,70,0,0
20564,-98.7654320987654,4,1,0,70,0,0
20643,-98.159509202454,4,1,0,70,0,0
20723,-97.5609756097561,4,1,0,70,0,0
20883,-96.3855421686747,4,1,0,70,0,0
21042,-95.2380952380952,4,1,0,70,0,0
21521,-96.7741935515088,4,1,0,70,0,0
21601,-98.3606557377049,4,1,0,70,0,0
21681,-100,4,1,0,70,0,0
31893,-100,4,1,0,70,0,0
42106,-100,4,1,0,70,0,0
52319,-100,4,1,0,70,0,0
62532,-100,4,1,0,70,0,0
85510,-100,4,1,0,80,0,1
95723,-100,4,1,0,70,0,0
108489,-100,4,1,0,80,0,1
116149,-100,4,1,0,30,0,0
117744,-66.6666666666667,4,1,0,80,0,0

[HitObjects]
256,192,617,5,0,0:0:0:0:
256,192,856,1,8,0:0:0:0:
256,192,936,1,0,0:0:0:0:
256,192,1096,1,8,0:0:0:0:
256,192,1255,8,0,6361,0:0:0:0:
256,192,7957,5,0,0:0:0:0:
256,192,8276,1,0,0:0:0:0:
256,192,8596,1,0,0:0:0:0:
256,192,8915,1,8,0:0:0:0:
256,192,9553,1,0,0:0:0:0:
256,192,10191,1,0,0:0:0:0:
256,192,10989,1,8,0:0:0:0:
256,192,11149,1,0,0:0:0:0:
256,192,11308,1,8,0:0:0:0:
256,192,11388,1,0,0:0:0:0:
256,192,11468,1,0,0:0:0:0:
256,192,11947,1,0,0:0:0:0:
256,192,12106,1,8,0:0:0:0:
256,192,12585,1,0,0:0:0:0:
256,192,12904,1,8,0:0:0:0:
256,192,13064,1,0,0:0:0:0:
256,192,13223,1,0,0:0:0:0:
256,192,13383,1,8,0:0:0:0:
256,192,13702,1,0,0:0:0:0:
256,192,13861,1,0,0:0:0:0:
256,192,14021,1,0,0:0:0:0:
256,192,14500,1,0,0:0:0:0:
256,192,14659,1,8,0:0:0:0:
256,192,14819,1,0,0:0:0:0:
256,192,14979,1,0,0:0:0:0:
256,192,15138,1,0,0:0:0:0:
256,192,15218,1,0,0:0:0:0:
256,192,15457,1,8,0:0:0:0:
256,192,15617,1,0,0:0:0:0:
256,192,15776,1,0,0:0:0:0:
256,192,15856,1,0,0:0:0:0:
256,192,15936,1,8,0:0:0:0:
256,192,16255,1,0,0:0:0:0:
256,192,16335,1,0,0:0:0:0:
256,192,16415,1,0,0:0:0:0:
256,192,16494,1,0,0:0:0:0:
256,192,16574,1,0,0:0:0:0:
256,192,16893,1,0,0:0:0:0:
256,192,17213,1,0,0:0:0:0:
256,192,17532,1,0,0:0:0:0:
256,192,17851,1,0,0:0:0:0:
256,192,18170,1,0,0:0:0:0:
256,192,18489,1,0,0:0:0:0:
256,192,18808,1,0,0:0:0:0:
256,192,19048,1,0,0:0:0:0:
256,192,19127,1,0,0:0:0:0:
256,192,19287,1,0,0:0:0:0:
256,192,19447,1,0,0:0:0:0:
256,192,19606,1,0,0:0:0:0:
256,192,19766,1,0,0:0:0:0:
256,192,19925,1,0,0:0:0:0:
256,192,20085,1,0,0:0:0:0:
256,192,20244,1,0,0:0:0:0:
256,192,20404,1,8,0:0:0:0:
256,192,20564,1,0,0:0:0:0:
256,192,20643,1,0,0:0:0:0:
256,192,20723,1,0,0:0:0:0:
256,192,20883,1,8,0:0:0:0:
256,192,21042,1,0,0:0:0:0:
256,192,21202,1,8,0:0:0:0:
256,192,21361,1,0,0:0:0:0:
256,192,21521,1,0,0:0:0:0:
256,192,21601,1,0,0:0:0:0:
256,192,21681,1,8,0:0:0:0:
256,192,22159,1,0,0:0:0:0:
256,192,22239,1,0,0:0:0:0:
256,192,22319,1,8,0:0:0:0:
256,192,22479,1,0,0:0:0:0:
256,192,22638,1,8,0:0:0:0:
256,192,22798,1,0,0:0:0:0:
256,192,22957,1,8,0:0:0:0:
256,192,23436,1,0,0:0:0:0:
256,192,23516,1,0,0:0:0:0:
256,192,23596,1,8,0:0:0:0:
256,192,23755,1,0,0:0:0:0:
256,192,23915,1,8,0:0:0:0:
256,192,24074,1,0,0:0:0:0:
256,192,24234,1,8,0:0:0:0:
256,192,24393,1,8,0:0:0:0:
256,192,24473,1,8,0:0:0:0:
256,192,24553,1,0,0:0:0:0:
256,192,24872,1,8,0:0:0:0:
256,192,25032,1,0,0:0:0:0:
256,192,25111,1,0,0:0:0:0:
256,192,25191,1,8,0:0:0:0:
256,192,25510,1,0,0:0:0:0:
256,192,25670,1,8,0:0:0:0:
256,192,25830,1,0,0:0:0:0:
256,192,26149,1,0,0:0:0:0:
256,192,26308,1,0,0:0:0:0:
256,192,26468,1,8,0:0:0:0:
256,192,26627,1,0,0:0:0:0:
256,192,26707,1,0,0:0:0:0:
256,192,26787,1,8,0:0:0:0:
256,192,27266,1,0,0:0:0:0:
256,192,27346,1,8,0:0:0:0:
256,192,27425,1,0,0:0:0:0:
256,192,27585,1,8,0:0:0:0:
256,192,27744,1,8,0:0:0:0:
256,192,27904,1,0,0:0:0:0:
256,192,28064,1,0,0:0:0:0:
256,192,28542,1,0,0:0:0:0:
256,192,28622,1,0,0:0:0:0:
256,192,28702,1,8,0:0:0:0:
256,192,28941,1,8,0:0:0:0:
256,192,29181,1,8,0:0:0:0:
256,192,29260,1,8,0:0:0:0:
256,192,29340,1,8,0:0:0:0:
256,192,29819,1,8,0:0:0:0:
256,192,29899,1,8,0:0:0:0:
256,192,29979,1,0,0:0:0:0:
256,192,30298,1,0,0:0:0:0:
256,192,30617,1,0,0:0:0:0:
256,192,30776,1,0,0:0:0:0:
256,192,30856,1,0,0:0:0:0:
256,192,30936,1,8,0:0:0:0:
256,192,31096,1,0,0:0:0:0:
256,192,31255,1,8,0:0:0:0:
256,192,31415,1,0,0:0:0:0:
256,192,31494,1,0,0:0:0:0:
256,192,31574,1,0,0:0:0:0:
256,192,31654,1,0,0:0:0:0:
256,192,31734,1,0,0:0:0:0:
256,192,31893,1,8,0:0:0:0:
256,192,32133,1,8,0:0:0:0:
256,192,32292,1,0,0:0:0:0:
256,192,32372,1,8,0:0:0:0:
256,192,32532,1,0,0:0:0:0:
256,192,32611,1,8,0:0:0:0:
256,192,32851,1,8,0:0:0:0:
256,192,33010,1,0,0:0:0:0:
256,192,33170,1,8,0:0:0:0:
256,192,33409,1,8,0:0:0:0:
256,192,33569,1,0,0:0:0:0:
256,192,33649,1,8,0:0:0:0:
256,192,33808,1,0,0:0:0:0:
256,192,33888,1,8,0:0:0:0:
256,192,34127,1,8,0:0:0:0:
256,192,34287,1,0,0:0:0:0:
256,192,34447,1,8,0:0:0:0:
256,192,34606,1,0,0:0:0:0:
256,192,34686,1,8,0:0:0:0:
256,192,34766,1,0,0:0:0:0:
256,192,35085,1,8,0:0:0:0:
256,192,35324,1,0,0:0:0:0:
256,192,35404,1,8,0:0:0:0:
256,192,35564,1,0,0:0:0:0:
256,192,35723,1,8,0:0:0:0:
256,192,35963,1,8,0:0:0:0:
256,192,36202,1,8,0:0:0:0:
256,192,36441,1,8,0:0:0:0:
256,192,36681,1,8,0:0:0:0:
256,192,36840,1,0,0:0:0:0:
256,192,36920,1,0,0:0:0:0:
256,192,37000,1,8,0:0:0:0:
256,192,37239,1,8,0:0:0:0:
256,192,37479,1,8,0:0:0:0:
256,192,37638,1,0,0:0:0:0:
256,192,37798,1,8,0:0:0:0:
256,192,37957,1,8,0:0:0:0:
256,192,38117,1,0,0:0:0:0:
256,192,38276,1,0,0:0:0:0:
256,192,38436,1,0,0:0:0:0:
256,192,38516,1,0,0:0:0:0:
256,192,38755,1,0,0:0:0:0:
256,192,38915,1,0,0:0:0:0:
256,192,39154,1,8,0:0:0:0:
256,192,39393,1,8,0:0:0:0:
256,192,39473,1,0,0:0:0:0:
256,192,39553,1,8,0:0:0:0:
256,192,39792,1,8,0:0:0:0:
256,192,40032,1,0,0:0:0:0:
256,192,40111,1,0,0:0:0:0:
256,192,40191,1,0,0:0:0:0:
256,192,40431,1,0,0:0:0:0:
256,192,40590,1,0,0:0:0:0:
256,192,40670,1,8,0:0:0:0:
256,192,40830,1,8,0:0:0:0:
256,192,41069,1,8,0:0:0:0:
256,192,41229,1,0,0:0:0:0:
256,192,41308,1,8,0:0:0:0:
256,192,41468,1,8,0:0:0:0:
256,192,41627,1,0,0:0:0:0:
256,192,41707,1,0,0:0:0:0:
256,192,41787,1,8,0:0:0:0:
256,192,41947,1,8,0:0:0:0:
256,192,42026,1,8,0:0:0:0:
256,192,42106,1,0,0:0:0:0:
256,192,42424,1,8,0:0:0:0:
256,192,42584,1,8,0:0:0:0:
256,192,42743,1,8,0:0:0:0:
256,192,42903,1,0,0:0:0:0:
256,192,43063,1,0,0:0:0:0:
256,192,43223,1,8,0:0:0:0:
256,192,43383,1,8,0:0:0:0:
256,192,43861,1,8,0:0:0:0:
256,192,44020,1,8,0:0:0:0:
256,192,44180,1,0,0:0:0:0:
256,192,44340,1,0,0:0:0:0:
256,192,44499,1,8,0:0:0:0:
256,192,44659,1,8,0:0:0:0:
256,192,45137,1,8,0:0:0:0:
256,192,45297,1,8,0:0:0:0:
256,192,45457,1,0,0:0:0:0:
256,192,45617,1,0,0:0:0:0:
256,192,45776,1,8,0:0:0:0:
256,192,45936,1,8,0:0:0:0:
256,192,46414,1,8,0:0:0:0:
256,192,46574,1,8,0:0:0:0:
256,192,46734,1,0,0:0:0:0:
256,192,46893,1,0,0:0:0:0:
256,192,47053,1,8,0:0:0:0:
256,192,47532,1,8,0:0:0:0:
256,192,47690,1,8,0:0:0:0:
256,192,47850,1,8,0:0:0:0:
256,192,48009,1,0,0:0:0:0:
256,192,48089,1,0,0:0:0:0:
256,192,48169,1,0,0:0:0:0:
256,192,48329,1,8,0:0:0:0:
256,192,48489,1,8,0:0:0:0:
256,192,48968,1,8,0:0:0:0:
256,192,49128,1,8,0:0:0:0:
256,192,49287,1,0,0:0:0:0:
256,192,49367,1,0,0:0:0:0:
256,192,49447,1,0,0:0:0:0:
256,192,49607,1,8,0:0:0:0:
256,192,49766,1,8,0:0:0:0:
256,192,50244,1,8,0:0:0:0:
256,192,50403,1,8,0:0:0:0:
256,192,50563,1,0,0:0:0:0:
256,192,50643,1,0,0:0:0:0:
256,192,50723,1,0,0:0:0:0:
256,192,50883,1,8,0:0:0:0:
256,192,51042,1,8,0:0:0:0:
256,192,51520,1,8,0:0:0:0:
256,192,51680,1,0,0:0:0:0:
256,192,51920,1,8,0:0:0:0:
256,192,52000,1,0,0:0:0:0:
256,192,52159,1,8,0:0:0:0:
256,192,52318,1,8,0:0:0:0:
256,192,52398,1,8,0:0:0:0:
256,192,52478,1,8,0:0:0:0:
256,192,52558,1,8,0:0:0:0:
256,192,52638,1,8,0:0:0:0:
256,192,52797,1,0,0:0:0:0:
256,192,52877,1,8,0:0:0:0:
256,192,52957,1,0,0:0:0:0:
256,192,53275,1,8,0:0:0:0:
256,192,53595,1,0,0:0:0:0:
256,192,53675,1,0,0:0:0:0:
256,192,53755,1,0,0:0:0:0:
256,192,53834,1,0,0:0:0:0:
256,192,53914,1,0,0:0:0:0:
256,192,54074,1,0,0:0:0:0:
256,192,54153,1,8,0:0:0:0:
256,192,54233,1,8,0:0:0:0:
256,192,54472,1,8,0:0:0:0:
256,192,54712,1,0,0:0:0:0:
256,192,54872,1,8,0:0:0:0:
256,192,55191,1,0,0:0:0:0:
256,192,55511,1,0,0:0:0:0:
256,192,55750,1,0,0:0:0:0:
256,192,55989,1,8,0:0:0:0:
256,192,56149,1,8,0:0:0:0:
256,192,56628,1,8,0:0:0:0:
256,192,56708,1,0,0:0:0:0:
256,192,56787,1,8,0:0:0:0:
256,192,57106,1,12,0:0:0:0:
256,192,57425,1,8,0:0:0:0:
256,192,57505,1,8,0:0:0:0:
256,192,57585,1,8,0:0:0:0:
256,192,57665,1,8,0:0:0:0:
256,192,57745,1,8,0:0:0:0:
256,192,57905,1,0,0:0:0:0:
256,192,57984,1,8,0:0:0:0:
256,192,58064,1,0,0:0:0:0:
256,192,58383,1,8,0:0:0:0:
256,192,58701,1,0,0:0:0:0:
256,192,58781,1,0,0:0:0:0:
256,192,58861,1,0,0:0:0:0:
256,192,58941,1,0,0:0:0:0:
256,192,59021,1,0,0:0:0:0:
256,192,59180,1,8,0:0:0:0:
256,192,59260,1,0,0:0:0:0:
256,192,59340,1,0,0:0:0:0:
256,192,59659,1,0,0:0:0:0:
256,192,59978,1,0,0:0:0:0:
256,192,60138,1,0,0:0:0:0:
256,192,60297,1,8,0:0:0:0:
256,192,60457,1,0,0:0:0:0:
256,192,60616,1,0,0:0:0:0:
256,192,60776,1,0,0:0:0:0:
256,192,60935,1,0,0:0:0:0:
256,192,61095,1,8,0:0:0:0:
256,192,61175,1,0,0:0:0:0:
256,192,61255,1,8,0:0:0:0:
256,192,61415,1,0,0:0:0:0:
256,192,61573,1,8,0:0:0:0:
256,192,61733,1,8,0:0:0:0:
256,192,61893,8,0,62372,0:0:0:0:
256,192,62532,5,4,0:0:0:0:
256,192,63063,1,8,0:0:0:0:
256,192,63170,1,8,0:0:0:0:
256,192,63489,1,0,0:0:0:0:
256,192,63702,1,0,0:0:0:0:
256,192,63808,1,8,0:0:0:0:
256,192,64127,1,0,0:0:0:0:
256,192,64340,1,8,0:0:0:0:
256,192,64446,1,8,0:0:0:0:
256,192,64766,1,0,0:0:0:0:
256,192,64978,1,8,0:0:0:0:
256,192,65084,1,8,0:0:0:0:
256,192,65510,1,8,0:0:0:0:
256,192,65617,1,8,0:0:0:0:
256,192,65723,1,0,0:0:0:0:
256,192,66042,1,8,0:0:0:0:
256,192,66361,1,8,0:0:0:0:
256,192,66787,1,8,0:0:0:0:
256,192,66894,1,8,0:0:0:0:
256,192,67000,1,0,0:0:0:0:
256,192,67212,1,0,0:0:0:0:
256,192,67318,1,8,0:0:0:0:
256,192,67638,1,0,0:0:0:0:
256,192,68169,1,0,0:0:0:0:
256,192,68276,1,8,0:0:0:0:
256,192,68702,1,0,0:0:0:0:
256,192,68809,1,8,0:0:0:0:
256,192,68915,1,0,0:0:0:0:
256,192,69127,1,8,0:0:0:0:
256,192,69233,1,0,0:0:0:0:
256,192,69446,1,0,0:0:0:0:
256,192,69553,1,8,0:0:0:0:
256,192,69872,1,8,0:0:0:0:
256,192,70192,1,0,0:0:0:0:
256,192,70724,1,0,0:0:0:0:
256,192,70830,1,8,0:0:0:0:
256,192,71148,1,0,0:0:0:0:
256,192,71361,1,0,0:0:0:0:
256,192,71680,1,8,0:0:0:0:
256,192,71787,1,0,0:0:0:0:
256,192,71999,1,0,0:0:0:0:
256,192,72105,1,8,0:0:0:0:
256,192,72425,1,8,0:0:0:0:
256,192,72744,1,4,0:0:0:0:
256,192,73222,1,0,0:0:0:0:
256,192,73302,1,0,0:0:0:0:
256,192,73382,1,0,0:0:0:0:
256,192,73542,1,0,0:0:0:0:
256,192,73702,1,8,0:0:0:0:
256,192,74021,1,0,0:0:0:0:
256,192,74500,1,0,0:0:0:0:
256,192,74580,1,0,0:0:0:0:
256,192,74660,1,0,0:0:0:0:
256,192,74820,1,8,0:0:0:0:
256,192,74979,1,8,0:0:0:0:
256,192,75298,1,0,0:0:0:0:
256,192,75777,1,0,0:0:0:0:
256,192,75857,1,0,0:0:0:0:
256,192,75937,1,0,0:0:0:0:
256,192,76096,1,8,0:0:0:0:
256,192,76254,1,0,0:0:0:0:
256,192,76574,1,8,0:0:0:0:
256,192,77053,1,0,0:0:0:0:
256,192,77133,1,0,0:0:0:0:
256,192,77213,1,0,0:0:0:0:
256,192,77372,1,0,0:0:0:0:
256,192,77532,1,12,0:0:0:0:
256,192,77850,1,4,0:0:0:0:
256,192,78330,1,0,0:0:0:0:
256,192,78410,1,0,0:0:0:0:
256,192,78489,1,0,0:0:0:0:
256,192,78648,1,8,0:0:0:0:
256,192,78728,1,0,0:0:0:0:
256,192,78888,1,8,0:0:0:0:
256,192,78968,1,0,0:0:0:0:
256,192,79287,1,0,0:0:0:0:
256,192,79367,1,0,0:0:0:0:
256,192,79447,1,8,0:0:0:0:
256,192,79605,1,8,0:0:0:0:
256,192,79925,1,0,0:0:0:0:
256,192,80085,1,8,0:0:0:0:
256,192,80404,2,0,B|256:227|256:227|256:157|256:157|256:192,6,140
256,192,82637,1,0,0:0:0:0:
256,192,82717,1,0,0:0:0:0:
256,192,82797,1,0,0:0:0:0:
256,192,82877,1,0,0:0:0:0:
256,192,82957,1,0,0:0:0:0:
256,192,83276,1,0,0:0:0:0:
256,192,83596,1,0,0:0:0:0:
256,192,83755,1,0,0:0:0:0:
256,192,83915,1,0,0:0:0:0:
256,192,84074,1,0,0:0:0:0:
256,192,84234,1,12,0:0:0:0:
256,192,84393,1,12,0:0:0:0:
256,192,84553,1,12,0:0:0:0:
256,192,84713,1,12,0:0:0:0:
256,192,84872,1,4,0:0:0:0:
256,192,85191,1,0,0:0:0:0:
256,192,85351,1,8,0:0:0:0:
256,192,85510,1,12,0:0:0:0:
256,192,85829,1,8,0:0:0:0:
256,192,85989,1,0,0:0:0:0:
256,192,86068,1,0,0:0:0:0:
256,192,86148,1,0,0:0:0:0:
256,192,86308,1,0,0:0:0:0:
256,192,86468,1,8,0:0:0:0:
256,192,86627,1,0,0:0:0:0:
256,192,86787,1,8,0:0:0:0:
256,192,87105,1,8,0:0:0:0:
256,192,87266,1,8,0:0:0:0:
256,192,87346,1,8,0:0:0:0:
256,192,87424,1,0,0:0:0:0:
256,192,87744,1,8,0:0:0:0:
256,192,87903,1,0,0:0:0:0:
256,192,87983,1,0,0:0:0:0:
256,192,88063,1,8,0:0:0:0:
256,192,88223,1,0,0:0:0:0:
256,192,88382,1,8,0:0:0:0:
256,192,88542,1,8,0:0:0:0:
256,192,88622,1,8,0:0:0:0:
256,192,88702,1,0,0:0:0:0:
256,192,88861,1,8,0:0:0:0:
256,192,89020,1,8,0:0:0:0:
256,192,89180,1,0,0:0:0:0:
256,192,89340,1,8,0:0:0:0:
256,192,89659,1,0,0:0:0:0:
256,192,89819,1,0,0:0:0:0:
256,192,89899,1,0,0:0:0:0:
256,192,89979,1,8,0:0:0:0:
256,192,90297,1,8,0:0:0:0:
256,192,90457,1,0,0:0:0:0:
256,192,90537,1,0,0:0:0:0:
256,192,90617,1,8,0:0:0:0:
256,192,90935,1,0,0:0:0:0:
256,192,91095,1,8,0:0:0:0:
256,192,91255,1,8,0:0:0:0:
256,192,91574,1,0,0:0:0:0:
256,192,91893,1,8,0:0:0:0:
256,192,92053,1,0,0:0:0:0:
256,192,92213,1,8,0:0:0:0:
256,192,92373,1,8,0:0:0:0:
256,192,92453,1,8,0:0:0:0:
256,192,92532,1,8,0:0:0:0:
256,192,92851,1,0,0:0:0:0:
256,192,93170,1,8,0:0:0:0:
256,192,93330,1,8,0:0:0:0:
256,192,93488,1,8,0:0:0:0:
256,192,93649,1,0,0:0:0:0:
256,192,93729,1,0,0:0:0:0:
256,192,93807,1,8,0:0:0:0:
256,192,94127,1,0,0:0:0:0:
256,192,94446,1,8,0:0:0:0:
256,192,94766,1,0,0:0:0:0:
256,192,95084,1,0,0:0:0:0:
256,192,95244,1,0,0:0:0:0:
256,192,95324,1,0,0:0:0:0:
256,192,95403,1,0,0:0:0:0:
256,192,95563,1,0,0:0:0:0:
256,192,95643,1,0,0:0:0:0:
256,192,95723,1,8,0:0:0:0:
256,192,96201,1,0,0:0:0:0:
256,192,96361,1,8,0:0:0:0:
256,192,96680,1,0,0:0:0:0:
256,192,96840,1,0,0:0:0:0:
256,192,96920,1,0,0:0:0:0:
256,192,96999,1,8,0:0:0:0:
256,192,97158,1,0,0:0:0:0:
256,192,97478,1,0,0:0:0:0:
256,192,97638,1,8,0:0:0:0:
256,192,98116,1,0,0:0:0:0:
256,192,98196,1,0,0:0:0:0:
256,192,98276,1,8,0:0:0:0:
256,192,98595,1,0,0:0:0:0:
256,192,98755,1,8,0:0:0:0:
256,192,98914,1,0,0:0:0:0:
256,192,99234,1,8,0:0:0:0:
256,192,99394,1,0,0:0:0:0:
256,192,99553,1,8,0:0:0:0:
256,192,99712,1,0,0:0:0:0:
256,192,100032,1,8,0:0:0:0:
256,192,100191,1,8,0:0:0:0:
256,192,100510,1,8,0:0:0:0:
256,192,100669,1,0,0:0:0:0:
256,192,100749,1,0,0:0:0:0:
256,192,100829,1,0,0:0:0:0:
256,192,100989,1,0,0:0:0:0:
256,192,101307,1,8,0:0:0:0:
256,192,101387,1,8,0:0:0:0:
256,192,101467,1,8,0:0:0:0:
256,192,101627,1,0,0:0:0:0:
256,192,101787,1,8,0:0:0:0:
256,192,101946,1,8,0:0:0:0:
256,192,102106,1,8,0:0:0:0:
256,192,102425,1,8,0:0:0:0:
256,192,102585,1,8,0:0:0:0:
256,192,102905,1,8,0:0:0:0:
256,192,102985,1,8,0:0:0:0:
256,192,103064,1,0,0:0:0:0:
256,192,103383,1,8,0:0:0:0:
256,192,103543,1,0,0:0:0:0:
256,192,103702,1,0,0:0:0:0:
256,192,103862,1,8,0:0:0:0:
256,192,104022,1,8,0:0:0:0:
256,192,104181,1,0,0:0:0:0:
256,192,104340,1,0,0:0:0:0:
256,192,104500,1,0,0:0:0:0:
256,192,104660,1,8,0:0:0:0:
256,192,104819,1,0,0:0:0:0:
256,192,104979,1,8,0:0:0:0:
256,192,105138,1,0,0:0:0:0:
256,192,105298,1,8,0:0:0:0:
256,192,105457,1,0,0:0:0:0:
256,192,105617,1,8,0:0:0:0:
256,192,105777,1,0,0:0:0:0:
256,192,105936,1,8,0:0:0:0:
256,192,106095,1,0,0:0:0:0:
256,192,106175,1,8,0:0:0:0:
256,192,106255,1,0,0:0:0:0:
256,192,106415,1,8,0:0:0:0:
256,192,106574,1,8,0:0:0:0:
256,192,106733,1,0,0:0:0:0:
256,192,106813,1,0,0:0:0:0:
256,192,106893,1,8,0:0:0:0:
256,192,107053,1,0,0:0:0:0:
256,192,107212,1,8,0:0:0:0:
256,192,107372,1,0,0:0:0:0:
256,192,107452,1,8,0:0:0:0:
256,192,107532,1,0,0:0:0:0:
256,192,107690,1,0,0:0:0:0:
256,192,107850,1,4,0:0:0:0:
256,192,108170,1,0,0:0:0:0:
256,192,108489,1,12,0:0:0:0:
256,192,108649,1,0,0:0:0:0:
256,192,108729,1,8,0:0:0:0:
256,192,108968,1,0,0:0:0:0:
256,192,109047,1,8,0:0:0:0:
256,192,109127,1,0,0:0:0:0:
256,192,109287,1,0,0:0:0:0:
256,192,109446,1,8,0:0:0:0:
256,192,109606,1,0,0:0:0:0:
256,192,109766,1,0,0:0:0:0:
256,192,109925,1,0,0:0:0:0:
256,192,110005,1,0,0:0:0:0:
256,192,110244,1,0,0:0:0:0:
256,192,110324,1,8,0:0:0:0:
256,192,110404,1,0,0:0:0:0:
256,192,110564,1,0,0:0:0:0:
256,192,110643,1,8,0:0:0:0:
256,192,110883,1,8,0:0:0:0:
256,192,110963,1,0,0:0:0:0:
256,192,111043,1,8,0:0:0:0:
256,192,111282,1,8,0:0:0:0:
256,192,111522,1,8,0:0:0:0:
256,192,111600,1,8,0:0:0:0:
256,192,111680,1,0,0:0:0:0:
256,192,111919,1,8,0:0:0:0:
256,192,112159,1,8,0:0:0:0:
256,192,112239,1,0,0:0:0:0:
256,192,112319,1,8,0:0:0:0:
256,192,112558,1,8,0:0:0:0:
256,192,112798,1,8,0:0:0:0:
256,192,112878,1,0,0:0:0:0:
256,192,112957,1,8,0:0:0:0:
256,192,113037,1,0,0:0:0:0:
256,192,113276,1,8,0:0:0:0:
256,192,113436,1,8,0:0:0:0:
256,192,113595,1,0,0:0:0:0:
256,192,113675,1,0,0:0:0:0:
256,192,113755,1,0,0:0:0:0:
256,192,113915,1,0,0:0:0:0:
256,192,113994,1,0,0:0:0:0:
256,192,114074,1,8,0:0:0:0:
256,192,114233,1,0,0:0:0:0:
256,192,114313,1,0,0:0:0:0:
256,192,114473,1,8,0:0:0:0:
256,192,114553,1,8,0:0:0:0:
256,192,114633,1,0,0:0:0:0:
256,192,114712,1,0,0:0:0:0:
256,192,114872,1,0,0:0:0:0:
256,192,114952,1,0,0:0:0:0:
256,192,115032,1,8,0:0:0:0:
256,192,115192,1,0,0:0:0:0:
256,192,115272,1,0,0:0:0:0:
256,192,115351,1,8,0:0:0:0:
256,192,115510,1,8,0:0:0:0:
256,192,115590,1,8,0:0:0:0:
256,192,115750,1,8,0:0:0:0:
256,192,115830,1,8,0:0:0:0:
256,192,115909,1,8,0:0:0:0:
256,192,115989,1,8,0:0:0:0:
256,192,116148,1,0,0:0:0:0:
256,192,116308,1,8,0:0:0:0:
256,192,116388,1,8,0:0:0:0:
256,192,116468,1,8,0:0:0:0:
256,192,116627,1,0,0:0:0:0:
256,192,116787,1,0,0:0:0:0:
256,192,116947,1,0,0:0:0:0:
256,192,117106,1,8,0:0:0:0:
256,192,117265,1,8,0:0:0:0:
256,192,117345,1,8,0:0:0:0:
256,192,117425,1,8,0:0:0:0:
256,192,117744,1,0,0:0:0:0:
256,192,117824,1,0,0:0:0:0:
256,192,117904,1,0,0:0:0:0:
256,192,118064,1,4,0:0:0:0:
