osu file format v14

[General]
AudioFilename: audio.mp3
AudioLeadIn: 0
PreviewTime: 54344
Countdown: 0
SampleSet: Soft
StackLeniency: 0.7
Mode: 2
LetterboxInBreaks: 0
WidescreenStoryboard: 0

[Editor]
Bookmarks: 18810,56245,65604,74964,84323,93682,103042,112401,121760,131119,140479,149838,159197
DistanceSpacing: 1
BeatDivisor: 16
GridSize: 8
TimelineZoom: 1.3

[Metadata]
Title:esc
TitleUnicode:esc
Artist:christtt
ArtistUnicode:chris†††
Creator:Phob
Version:infrared
Source:
Tags:no lives matter christ electronic english jbhyperion jbh vaporwave plunderphonics prefuse 73 infrared
BeatmapID:3968752
BeatmapSetID:1922591

[Difficulty]
HPDrainRate:10
CircleSize:5
OverallDifficulty:10
ApproachRate:10
SliderMultiplier:2.92477479234
SliderTickRate:1

[Events]
//Background and Video events
0,0,"bg.png",0,0
//Break Periods
//Storyboard Layer 0 (Background)
//Storyboard Layer 1 (Fail)
//Storyboard Layer 2 (Pass)
//Storyboard Layer 3 (Foreground)
//Storyboard Layer 4 (Overlay)
//Storyboard Sound Samples

[TimingPoints]
91,584.954958468198,4,2,1,60,1,0
17017,-100,4,2,1,30,0,0
17309,-100,4,2,1,35,0,0
17602,-100,4,2,1,40,0,0
17894,-100,4,2,1,45,0,0
18187,-100,4,2,1,30,0,0
18808,-100,4,2,1,60,0,0
20563,-100,4,2,11,40,0,0
20855,-100,4,2,1,50,0,0
22318,-100,4,3,1,40,0,0
22610,-100,4,2,1,60,0,0
25243,-100,4,2,11,40,0,0
25535,-100,4,2,1,60,0,0
36357,-100,4,3,1,40,0,0
36649,-100,4,2,1,60,0,0
43961,-100,4,2,11,40,0,0
44253,-100,4,2,1,60,0,0
53320,-100,4,2,11,40,0,0
53612,-100,4,2,1,60,0,0
53905,-100,4,3,1,40,0,0
54449,-100,4,2,1,30,0,0
54741,-100,4,2,1,35,0,0
55039,-100,4,2,1,40,0,0
55326,-100,4,2,1,45,0,0
55619,-100,4,2,1,50,0,0
56245,-100,4,2,1,60,0,0
56538,-100,4,2,1,20,0,0
56830,-100,4,2,1,60,0,0
57123,-100,4,2,1,20,0,0
57415,-100,4,2,1,60,0,0
57708,-100,4,2,1,20,0,0
58000,-100,4,2,1,60,0,0
58293,-100,4,2,1,20,0,0
58585,-100,4,2,1,60,0,0
58877,-100,4,2,1,20,0,0
59170,-100,4,2,1,60,0,0
59462,-100,4,2,1,20,0,0
59755,-100,4,2,1,60,0,0
60047,-100,4,2,1,20,0,0
60340,-100,4,2,1,60,0,0
60632,-100,4,2,1,20,0,0
60924,-100,4,2,1,60,0,0
61217,-100,4,2,1,20,0,0
61510,-100,4,2,1,60,0,0
61802,-100,4,2,1,20,0,0
62095,-100,4,2,1,60,0,0
62387,-100,4,3,1,40,0,0
62680,-100,4,2,1,60,0,0
62972,-100,4,2,1,20,0,0
63264,-100,4,2,1,60,0,0
63813,-100,4,2,1,30,0,0
64105,-100,4,2,1,35,0,0
64398,-100,4,2,1,40,0,0
64690,-100,4,2,1,45,0,0
64983,-100,4,2,1,50,0,0
65604,-100,4,2,1,60,0,0
65897,-100,4,2,1,20,0,0
66189,-100,4,2,1,60,0,0
66482,-100,4,2,1,20,0,0
66774,-100,4,2,1,60,0,0
67067,-100,4,2,1,20,0,0
67359,-100,4,2,1,60,0,0
67652,-100,4,2,1,20,0,0
67944,-100,4,2,1,60,0,0
68236,-100,4,2,1,20,0,0
68529,-100,4,2,1,60,0,0
68821,-100,4,2,1,20,0,0
69114,-100,4,2,1,60,0,0
69406,-100,4,2,1,20,0,0
69699,-100,4,2,1,60,0,0
69991,-100,4,2,1,20,0,0
70283,-100,4,2,1,60,0,0
70576,-100,4,2,1,20,0,0
70869,-100,4,2,1,60,0,0
71161,-100,4,2,1,20,0,0
71454,-100,4,2,1,60,0,0
71746,-100,4,3,1,40,0,0
72039,-100,4,2,1,40,0,0
72331,-100,4,2,1,20,0,0
72623,-100,4,2,1,60,0,0
73172,-100,4,2,1,30,0,0
73464,-100,4,2,1,35,0,0
73757,-100,4,2,1,40,0,0
74049,-100,4,2,1,45,0,0
74342,-100,4,2,1,50,0,0
74964,-100,4,2,1,60,0,0
75257,-100,4,2,1,20,0,0
75549,-100,4,2,1,60,0,0
75842,-100,4,2,1,20,0,0
76134,-100,4,2,1,60,0,0
76427,-100,4,2,1,20,0,0
76719,-100,4,2,1,60,0,0
77012,-100,4,2,1,20,0,0
77304,-100,4,2,1,60,0,0
77596,-100,4,2,1,20,0,0
77889,-100,4,2,1,60,0,0
78181,-100,4,2,1,20,0,0
78474,-100,4,2,1,60,0,0
78766,-100,4,2,1,20,0,0
79059,-100,4,2,1,60,0,0
79351,-100,4,2,1,20,0,0
79643,-100,4,2,1,60,0,0
79936,-100,4,2,1,20,0,0
80229,-100,4,2,1,60,0,0
80521,-100,4,2,1,20,0,0
80814,-100,4,2,1,60,0,0
81106,-100,4,3,1,40,0,0
81399,-100,4,2,1,60,0,0
81691,-100,4,2,1,20,0,0
81983,-100,4,2,1,60,0,0
82532,-100,4,2,1,30,0,0
82824,-100,4,2,1,35,0,0
83117,-100,4,2,1,40,0,0
83409,-100,4,2,1,45,0,0
83702,-100,4,2,1,50,0,0
84323,-100,4,2,1,60,0,0
84616,-100,4,2,1,20,0,0
84908,-100,4,2,1,60,0,0
85201,-100,4,2,1,20,0,0
85493,-100,4,2,1,60,0,0
85786,-100,4,2,1,20,0,0
86078,-100,4,2,1,60,0,0
86371,-100,4,2,1,20,0,0
86663,-100,4,2,1,60,0,0
86955,-100,4,2,1,20,0,0
87248,-100,4,2,1,60,0,0
87540,-100,4,2,1,20,0,0
87833,-100,4,2,1,60,0,0
88125,-100,4,2,1,20,0,0
88418,-100,4,2,1,60,0,0
88710,-100,4,2,1,20,0,0
89002,-100,4,2,1,60,0,0
89295,-100,4,3,1,40,0,0
89588,-100,4,2,1,60,0,0
89880,-100,4,2,1,20,0,0
90173,-100,4,2,1,60,0,0
90465,-100,4,3,1,40,0,0
90758,-100,4,2,1,60,0,0
91050,-100,4,2,1,20,0,0
91342,-100,4,2,1,60,0,0
91891,-100,4,2,1,30,0,0
92183,-100,4,2,1,35,0,0
92476,-100,4,2,1,40,0,0
92768,-100,4,2,1,45,0,0
93061,-100,4,2,1,50,0,0
93682,-100,4,2,1,60,0,0
93975,-100,4,2,1,20,0,0
94267,-100,4,2,1,60,0,0
94560,-100,4,2,1,20,0,0
94852,-100,4,2,1,60,0,0
95145,-100,4,2,1,20,0,0
95437,-100,4,2,1,60,0,0
95730,-100,4,2,1,20,0,0
96022,-100,4,2,1,60,0,0
96314,-100,4,2,1,20,0,0
96607,-100,4,2,1,60,0,0
96899,-100,4,2,1,20,0,0
97192,-100,4,2,1,60,0,0
97484,-100,4,2,1,20,0,0
97777,-100,4,2,1,60,0,0
98069,-100,4,2,1,20,0,0
98361,-100,4,2,1,60,0,0
98654,-100,4,3,1,40,0,0
98947,-100,4,2,1,60,0,0
99239,-100,4,2,1,20,0,0
99532,-100,4,2,1,60,0,0
99824,-100,4,3,1,40,0,0
100117,-100,4,2,1,60,0,0
100409,-100,4,2,1,20,0,0
100701,-100,4,2,1,60,0,0
101250,-100,4,2,1,30,0,0
101542,-100,4,2,1,35,0,0
101835,-100,4,2,1,40,0,0
102127,-100,4,2,1,45,0,0
102420,-100,4,2,1,50,0,0
103042,-100,4,2,1,60,0,0
103335,-100,4,2,1,20,0,0
103627,-100,4,2,1,60,0,0
103920,-100,4,2,1,20,0,0
104212,-100,4,2,1,60,0,0
104505,-100,4,2,1,20,0,0
104797,-100,4,2,1,60,0,0
105090,-100,4,2,1,20,0,0
105382,-100,4,2,1,60,0,0
105674,-100,4,2,1,20,0,0
105967,-100,4,2,1,60,0,0
106259,-100,4,2,1,20,0,0
106552,-100,4,2,1,60,0,0
106844,-100,4,2,1,20,0,0
107137,-100,4,2,1,60,0,0
107429,-100,4,2,1,20,0,0
107721,-100,4,2,1,60,0,0
108014,-100,4,2,1,20,0,0
108307,-100,4,2,1,60,0,0
108599,-100,4,2,1,20,0,0
108892,-100,4,2,1,60,0,0
109184,-100,4,3,1,40,0,0
109477,-100,4,2,1,60,0,0
109769,-100,4,2,1,20,0,0
110061,-100,4,2,1,60,0,0
110610,-100,4,2,1,30,0,0
110902,-100,4,2,1,35,0,0
111195,-100,4,2,1,40,0,0
111487,-100,4,2,1,45,0,0
111780,-100,4,2,1,50,0,0
112401,-100,4,2,1,60,0,0
112694,-100,4,2,1,20,0,0
112986,-100,4,2,1,60,0,0
113279,-100,4,2,1,20,0,0
113571,-100,4,2,1,60,0,0
113864,-100,4,2,1,20,0,0
114156,-100,4,2,1,60,0,0
114449,-100,4,2,1,20,0,0
114741,-100,4,2,1,60,0,0
115033,-100,4,2,1,20,0,0
115326,-100,4,2,1,60,0,0
115618,-100,4,2,1,20,0,0
115911,-100,4,2,1,60,0,0
116203,-100,4,2,1,20,0,0
116496,-100,4,2,1,60,0,0
116788,-100,4,2,1,20,0,0
117080,-100,4,2,1,60,0,0
117373,-100,4,2,1,20,0,0
117666,-100,4,2,1,60,0,0
117958,-100,4,2,1,20,0,0
118251,-100,4,2,1,60,0,0
118543,-100,4,3,1,40,0,0
118836,-100,4,2,1,60,0,0
119128,-100,4,2,1,20,0,0
119420,-100,4,2,1,60,0,0
119969,-100,4,2,1,30,0,0
120261,-100,4,2,1,35,0,0
120554,-100,4,2,1,40,0,0
120846,-100,4,2,1,45,0,0
121139,-100,4,2,1,50,0,0
121760,-100,4,2,1,60,0,0
122053,-100,4,2,1,20,0,0
122345,-100,4,2,1,60,0,0
122638,-100,4,2,1,20,0,0
122930,-100,4,2,1,60,0,0
123223,-100,4,2,1,20,0,0
123515,-100,4,2,1,60,0,0
123808,-100,4,2,1,20,0,0
124100,-100,4,2,1,60,0,0
124392,-100,4,2,1,20,0,0
124685,-100,4,2,1,60,0,0
124977,-100,4,2,1,20,0,0
125270,-100,4,2,1,60,0,0
125562,-100,4,2,1,20,0,0
125855,-100,4,2,1,60,0,0
126147,-100,4,2,1,20,0,0
126439,-100,4,2,1,60,0,0
126732,-100,4,3,1,40,0,0
127025,-100,4,2,1,60,0,0
127317,-100,4,2,1,20,0,0
127610,-100,4,2,1,60,0,0
127902,-100,4,3,1,40,0,0
128195,-100,4,2,1,60,0,0
128487,-100,4,2,1,20,0,0
128779,-100,4,2,1,60,0,0
129328,-100,4,2,1,30,0,0
129620,-100,4,2,1,35,0,0
129913,-100,4,2,1,40,0,0
130205,-100,4,2,1,45,0,0
130498,-100,4,2,1,50,0,0
131119,-100,4,2,1,60,0,0
131412,-100,4,2,1,20,0,0
131704,-100,4,2,1,60,0,0
131997,-100,4,2,1,20,0,0
132289,-100,4,2,1,60,0,0
132582,-100,4,2,1,20,0,0
132874,-100,4,2,1,60,0,0
133167,-100,4,2,1,20,0,0
133459,-100,4,2,1,60,0,0
133751,-100,4,2,1,20,0,0
134044,-100,4,2,1,60,0,0
134336,-100,4,2,1,20,0,0
134629,-100,4,2,1,60,0,0
134921,-100,4,2,1,20,0,0
135214,-100,4,2,1,60,0,0
135506,-100,4,2,1,20,0,0
135798,-100,4,2,1,60,0,0
136091,-100,4,2,1,20,0,0
136384,-100,4,2,1,60,0,0
136676,-100,4,2,1,20,0,0
136969,-100,4,2,1,60,0,0
137261,-100,4,3,1,40,0,0
137554,-100,4,2,1,60,0,0
137846,-100,4,2,1,20,0,0
138138,-100,4,2,1,60,0,0
138687,-100,4,2,1,30,0,0
138979,-100,4,2,1,35,0,0
139272,-100,4,2,1,40,0,0
139564,-100,4,2,1,45,0,0
139857,-100,4,2,1,50,0,0
140479,-100,4,2,1,60,0,0
140772,-100,4,2,1,20,0,0
141064,-100,4,2,1,60,0,0
141357,-100,4,2,1,20,0,0
141649,-100,4,2,1,60,0,0
141942,-100,4,2,1,20,0,0
142234,-100,4,2,1,60,0,0
142527,-100,4,2,1,20,0,0
142819,-100,4,2,1,60,0,0
143111,-100,4,2,1,20,0,0
143404,-100,4,2,1,60,0,0
143696,-100,4,2,1,20,0,0
143989,-100,4,2,1,60,0,0
144281,-100,4,2,1,20,0,0
144574,-100,4,2,1,60,0,0
144866,-100,4,2,1,20,0,0
145158,-100,4,2,1,60,0,0
145451,-100,4,3,1,40,0,0
145744,-100,4,2,1,60,0,0
146036,-100,4,2,1,20,0,0
146329,-100,4,2,1,60,0,0
146621,-100,4,3,1,40,0,0
146914,-100,4,2,1,60,0,0
147206,-100,4,2,1,20,0,0
147498,-100,4,2,1,60,0,0
148047,-100,4,2,1,30,0,0
148339,-100,4,2,1,35,0,0
148632,-100,4,2,1,40,0,0
148924,-100,4,2,1,45,0,0
149217,-100,4,2,1,50,0,0
149838,-100,4,2,1,60,0,0
150131,-100,4,2,1,20,0,0
150423,-100,4,2,1,60,0,0
150716,-100,4,2,1,20,0,0
151008,-100,4,2,1,60,0,0
151301,-100,4,2,1,20,0,0
151593,-100,4,2,1,60,0,0
151886,-100,4,2,1,20,0,0
152178,-100,4,2,1,60,0,0
152470,-100,4,2,1,20,0,0
152763,-100,4,2,1,60,0,0
153055,-100,4,2,1,20,0,0
153348,-100,4,2,1,60,0,0
153640,-100,4,2,1,20,0,0
153933,-100,4,2,1,60,0,0
154225,-100,4,2,1,20,0,0
154517,-100,4,2,1,60,0,0
154810,-100,4,2,1,20,0,0
155103,-100,4,2,1,60,0,0
155395,-100,4,2,1,20,0,0
155688,-100,4,2,1,60,0,0
155980,-100,4,3,1,40,0,0
156273,-100,4,2,1,60,0,0
156565,-100,4,2,1,20,0,0
156857,-100,4,2,1,60,0,0
157406,-100,4,2,1,30,0,0
157698,-100,4,2,1,35,0,0
157991,-100,4,2,1,40,0,0
158283,-100,4,2,1,45,0,0
158576,-100,4,2,1,50,0,0
159197,-100,4,2,1,60,0,0
159490,-100,4,2,1,20,0,0
159782,-100,4,2,1,60,0,0
160075,-100,4,2,1,20,0,0
160367,-100,4,2,1,60,0,0
160660,-100,4,2,1,20,0,0
160952,-100,4,2,1,60,0,0
161245,-100,4,2,1,20,0,0
161537,-100,4,2,1,60,0,0
161829,-100,4,2,1,20,0,0
162122,-100,4,2,1,60,0,0
162414,-100,4,2,1,20,0,0
162707,-100,4,2,1,60,0,0
162999,-100,4,2,1,20,0,0
163292,-100,4,2,1,60,0,0
163584,-100,4,2,1,20,0,0
163876,-100,4,2,1,60,0,0
164169,-100,4,3,1,40,0,0
164462,-100,4,2,1,60,0,0
164754,-100,4,2,1,20,0,0
165047,-100,4,2,1,60,0,0
165339,-100,4,3,1,40,0,0
165632,-100,4,2,1,60,0,0
165924,-100,4,2,1,20,0,0
166216,-100,4,2,1,60,0,0
166765,-100,4,2,1,30,0,0
167057,-100,4,2,1,35,0,0
167350,-100,4,2,1,40,0,0
167642,-100,4,2,1,35,0,0
167644,-50,4,2,1,35,0,0

[Colours]
Combo1 : 194,122,50
Combo2 : 194,50,50

[HitObjects]
256,304,17018,5,2,0:0:0:0:
321,276,17164,1,0,0:0:0:0:
348,210,17310,1,0,0:0:0:0:
321,144,17456,1,0,0:0:0:0:
255,117,17602,1,2,0:0:0:0:
189,145,17749,1,0,0:0:0:0:
162,210,17895,1,0,0:0:0:0:
189,276,18041,1,0,0:0:0:0:
255,304,18187,1,2,0:3:0:0:
456,336,18809,6,0,L|472:40,1,292.477479234,2|0,0:0|0:0,0:0:0:0:
256,304,19979,6,0,P|248:118|257:304,1,584.954958468,8|2,0:0|0:0,0:0:0:0:
40,43,21734,5,0,0:0:0:0:
256,304,22319,6,0,P|264:118|255:304,3,584.954958468,2|2|8|2,0:0|0:0|0:0|0:0,0:0:0:0:
472,43,26413,5,0,0:0:0:0:
73,333,26998,6,0,P|122:200|256:152,1,292.477479234,8|0,0:0|0:0,0:0:0:0:
56,336,28168,6,0,L|40:40,1,292.477479234,2|0,0:0|0:0,0:0:0:0:
256,304,29338,6,0,P|264:118|255:304,1,584.954958468,8|2,0:0|0:0,0:0:0:0:
472,43,31093,5,0,0:0:0:0:
256,304,31678,6,0,P|248:118|257:304,3,584.954958468,8|2|8|2,0:0|0:0|0:0|0:0,0:0:0:0:
40,43,35772,5,0,0:0:0:0:
256,232,36357,6,0,P|206:99|73:50,1,292.477479234,2|0,0:0|0:0,0:0:0:0:
456,336,37528,6,0,L|472:40,1,292.477479234,2|0,0:0|0:0,0:0:0:0:
256,304,38698,6,0,P|248:118|257:304,1,584.954958468,8|2,0:0|0:0,0:0:0:0:
40,43,40453,5,0,0:0:0:0:
256,304,41038,6,0,P|264:118|255:304,3,584.954958468,8|2|8|2,0:0|0:0|0:0|0:0,0:0:0:0:
472,43,45132,5,0,0:0:0:0:
73,333,45717,6,0,P|122:200|256:152,1,292.477479234,8|0,0:0|0:0,0:0:0:0:
56,336,46887,6,0,L|40:40,1,292.477479234,2|0,0:0|0:0,0:0:0:0:
256,304,48057,6,0,P|264:118|255:304,1,584.954958468,8|2,0:0|0:0,0:0:0:0:
472,43,49812,5,0,0:0:0:0:
256,304,50397,6,0,P|248:118|257:304,3,584.954958468,8|2|8|8,0:0|0:0|0:0|0:0,0:0:0:0:
256,304,54455,5,2,0:0:0:0:
190,276,54601,1,0,0:0:0:0:
163,210,54747,1,0,0:0:0:0:
190,144,54893,1,0,0:0:0:0:
256,117,55039,1,2,0:0:0:0:
322,145,55186,1,0,0:0:0:0:
349,210,55332,1,0,0:0:0:0:
322,276,55478,1,0,0:0:0:0:
256,304,55624,1,2,0:0:0:0:
0,192,56246,5,4,0:0:0:0:
256,192,56392,12,0,56539,0:0:0:0:
0,192,56831,5,2,0:0:0:0:
256,192,56977,12,0,57124,0:0:0:0:
512,192,57416,5,8,0:0:0:0:
256,192,57562,12,0,57709,0:0:0:0:
0,192,58001,5,0,0:0:0:0:
256,192,58147,12,0,58294,0:0:0:0:
512,192,58586,5,2,0:0:0:0:
256,192,58732,12,0,58879,0:0:0:0:
512,192,59171,5,2,0:0:0:0:
256,192,59317,12,0,59464,0:0:0:0:
512,192,59756,5,8,0:0:0:0:
256,192,59902,12,0,60049,0:0:0:0:
0,192,60341,5,0,0:0:0:0:
256,192,60487,12,0,60634,0:0:0:0:
512,192,60926,5,2,0:0:0:0:
256,192,61072,12,0,61219,0:0:0:0:
512,192,61511,5,2,0:0:0:0:
256,192,61657,12,0,61804,0:0:0:0:
0,192,62096,5,8,0:0:0:0:
256,192,62242,12,2,62389,0:0:0:0:
0,192,62681,5,2,0:0:0:0:
256,192,62827,12,0,62974,0:0:0:0:
512,192,63266,5,2,0:0:0:0:
256,304,63814,5,2,0:0:0:0:
322,276,63960,1,0,0:0:0:0:
349,210,64106,1,0,0:0:0:0:
322,144,64252,1,0,0:0:0:0:
256,117,64398,1,2,0:0:0:0:
190,145,64545,1,0,0:0:0:0:
163,210,64691,1,0,0:0:0:0:
190,276,64837,1,0,0:0:0:0:
256,304,64983,1,2,0:0:0:0:
512,192,65605,5,2,0:0:0:0:
256,192,65752,12,0,65899,0:0:0:0:
0,192,66190,5,2,0:0:0:0:
256,192,66337,12,0,66484,0:0:0:0:
512,192,66775,5,8,0:0:0:0:
256,192,66922,12,0,67069,0:0:0:0:
512,192,67360,5,0,0:0:0:0:
256,192,67507,12,0,67654,0:0:0:0:
0,192,67945,5,2,0:0:0:0:
256,192,68092,12,0,68239,0:0:0:0:
512,192,68530,5,2,0:0:0:0:
256,192,68677,12,0,68824,0:0:0:0:
512,192,69115,5,8,0:0:0:0:
256,192,69262,12,0,69409,0:0:0:0:
0,192,69700,5,0,0:0:0:0:
256,192,69847,12,0,69994,0:0:0:0:
512,192,70285,5,2,0:0:0:0:
256,192,70432,12,0,70579,0:0:0:0:
0,192,70870,5,2,0:0:0:0:
256,192,71017,12,0,71164,0:0:0:0:
0,192,71455,5,8,0:0:0:0:
256,192,71601,12,2,71747,0:0:0:0:
0,192,72040,5,4,0:0:0:0:
256,192,72186,12,0,72332,0:0:0:0:
512,192,72625,5,2,0:0:0:0:
256,304,73173,5,2,0:0:0:0:
190,276,73319,1,0,0:0:0:0:
163,210,73465,1,0,0:0:0:0:
190,144,73611,1,0,0:0:0:0:
256,117,73757,1,2,0:0:0:0:
322,145,73904,1,0,0:0:0:0:
349,210,74050,1,0,0:0:0:0:
322,276,74196,1,0,0:0:0:0:
256,304,74342,1,2,0:0:0:0:
0,192,74965,5,0,0:0:0:0:
256,192,75111,12,0,75258,0:0:0:0:
0,192,75550,5,2,0:0:0:0:
256,192,75696,12,0,75843,0:0:0:0:
0,192,76135,5,8,0:0:0:0:
256,192,76281,12,0,76428,0:0:0:0:
0,192,76720,5,0,0:0:0:0:
256,192,76866,12,0,77013,0:0:0:0:
512,192,77305,5,2,0:0:0:0:
256,192,77451,12,0,77598,0:0:0:0:
0,192,77890,5,2,0:0:0:0:
256,192,78036,12,0,78183,0:0:0:0:
512,192,78474,5,8,0:0:0:0:
256,192,78621,12,0,78768,0:0:0:0:
512,192,79059,5,0,0:0:0:0:
256,192,79206,12,0,79353,0:0:0:0:
512,192,79644,5,2,0:0:0:0:
256,192,79791,12,0,79938,0:0:0:0:
0,192,80229,5,2,0:0:0:0:
256,192,80376,12,0,80523,0:0:0:0:
0,192,80814,5,8,0:0:0:0:
256,192,80961,12,2,81108,0:0:0:0:
512,192,81399,5,0,0:0:0:0:
256,192,81546,12,0,81693,0:0:0:0:
0,192,81984,5,2,0:0:0:0:
256,304,82533,5,2,0:0:0:0:
322,276,82679,1,0,0:0:0:0:
349,210,82825,1,0,0:0:0:0:
322,144,82971,1,0,0:0:0:0:
256,117,83117,1,2,0:0:0:0:
190,145,83264,1,0,0:0:0:0:
163,210,83410,1,0,0:0:0:0:
190,276,83556,1,0,0:0:0:0:
256,304,83702,1,2,0:0:0:0:
0,192,84324,5,2,0:0:0:0:
256,192,84470,12,0,84617,0:0:0:0:
512,192,84909,5,2,0:0:0:0:
256,192,85055,12,0,85202,0:0:0:0:
512,192,85494,5,8,0:0:0:0:
256,192,85640,12,0,85787,0:0:0:0:
0,192,86079,5,0,0:0:0:0:
256,192,86225,12,0,86372,0:0:0:0:
512,192,86664,5,2,0:0:0:0:
256,192,86810,12,0,86957,0:0:0:0:
0,192,87249,5,2,0:0:0:0:
256,192,87395,12,0,87542,0:0:0:0:
512,192,87834,5,8,0:0:0:0:
256,192,87980,12,0,88127,0:0:0:0:
512,192,88419,5,0,0:0:0:0:
256,192,88565,12,0,88712,0:0:0:0:
0,192,89004,5,2,0:0:0:0:
256,192,89150,12,2,89297,0:0:0:0:
512,192,89589,5,2,0:0:0:0:
256,192,89735,12,0,89882,0:0:0:0:
512,192,90174,5,8,0:0:0:0:
256,192,90320,12,2,90467,0:0:0:0:
512,192,90759,5,0,0:0:0:0:
256,192,90905,12,0,91052,0:0:0:0:
0,192,91343,5,2,0:0:0:0:
256,304,91892,5,2,0:0:0:0:
190,276,92038,1,0,0:0:0:0:
163,210,92184,1,0,0:0:0:0:
190,144,92330,1,0,0:0:0:0:
256,117,92476,1,2,0:0:0:0:
322,145,92623,1,0,0:0:0:0:
349,210,92769,1,0,0:0:0:0:
322,276,92915,1,0,0:0:0:0:
256,304,93061,1,2,0:0:0:0:
0,192,93683,5,4,0:0:0:0:
256,192,93830,12,0,93977,0:0:0:0:
0,192,94268,5,2,0:0:0:0:
256,192,94415,12,0,94562,0:0:0:0:
512,192,94853,5,8,0:0:0:0:
256,192,95000,12,0,95147,0:0:0:0:
512,192,95438,5,0,0:0:0:0:
256,192,95585,12,0,95732,0:0:0:0:
0,192,96023,5,2,0:0:0:0:
256,192,96170,12,0,96317,0:0:0:0:
512,192,96608,5,2,0:0:0:0:
256,192,96755,12,0,96902,0:0:0:0:
0,192,97193,5,8,0:0:0:0:
256,192,97340,12,0,97487,0:0:0:0:
0,192,97778,5,0,0:0:0:0:
256,192,97924,12,0,98070,0:0:0:0:
512,192,98363,5,2,0:0:0:0:
256,192,98509,12,2,98654,0:0:0:0:
0,192,98948,5,2,0:0:0:0:
256,192,99094,12,0,99240,0:0:0:0:
0,192,99533,5,8,0:0:0:0:
256,192,99679,12,2,99825,0:0:0:0:
512,192,100118,5,0,0:0:0:0:
256,192,100264,12,0,100410,0:0:0:0:
512,192,100703,5,2,0:0:0:0:
256,304,101251,5,2,0:0:0:0:
322,276,101397,1,0,0:0:0:0:
349,210,101543,1,0,0:0:0:0:
322,144,101689,1,0,0:0:0:0:
256,117,101835,1,2,0:0:0:0:
190,145,101982,1,0,0:0:0:0:
163,210,102128,1,0,0:0:0:0:
190,276,102274,1,0,0:0:0:0:
256,304,102420,1,2,0:0:0:0:
512,192,103043,5,2,0:0:0:0:
256,192,103189,12,0,103336,0:0:0:0:
512,192,103628,5,2,0:0:0:0:
256,192,103774,12,0,103921,0:0:0:0:
512,192,104212,5,8,0:0:0:0:
256,192,104359,12,0,104506,0:0:0:0:
0,192,104797,5,0,0:0:0:0:
256,192,104944,12,0,105091,0:0:0:0:
0,192,105382,5,2,0:0:0:0:
256,192,105529,12,0,105676,0:0:0:0:
0,192,105967,5,2,0:0:0:0:
256,192,106114,12,0,106261,0:0:0:0:
512,192,106552,5,8,0:0:0:0:
256,192,106699,12,0,106846,0:0:0:0:
512,192,107137,5,0,0:0:0:0:
256,192,107284,12,0,107431,0:0:0:0:
0,192,107722,5,2,0:0:0:0:
256,192,107869,12,0,108016,0:0:0:0:
512,192,108307,5,2,0:0:0:0:
256,192,108454,12,0,108601,0:0:0:0:
0,192,108892,5,8,0:0:0:0:
256,192,109039,12,2,109186,0:0:0:0:
0,192,109477,5,0,0:0:0:0:
256,192,109624,12,0,109771,0:0:0:0:
512,192,110062,5,2,0:0:0:0:
256,304,110610,5,2,0:0:0:0:
190,276,110756,1,0,0:0:0:0:
163,210,110902,1,0,0:0:0:0:
190,144,111048,1,0,0:0:0:0:
256,117,111194,1,2,0:0:0:0:
322,145,111341,1,0,0:0:0:0:
349,210,111487,1,0,0:0:0:0:
322,276,111633,1,0,0:0:0:0:
256,304,111779,1,2,0:0:0:0:
512,192,112402,5,2,0:0:0:0:
256,192,112548,12,0,112695,0:0:0:0:
0,192,112987,5,2,0:0:0:0:
256,192,113133,12,0,113280,0:0:0:0:
0,192,113572,5,8,0:0:0:0:
256,192,113718,12,0,113865,0:0:0:0:
0,192,114157,5,0,0:0:0:0:
256,192,114303,12,0,114450,0:0:0:0:
512,192,114742,5,2,0:0:0:0:
256,192,114888,12,0,115035,0:0:0:0:
0,192,115327,5,2,0:0:0:0:
256,192,115473,12,0,115620,0:0:0:0:
0,192,115912,5,8,0:0:0:0:
256,192,116058,12,0,116205,0:0:0:0:
512,192,116497,5,0,0:0:0:0:
256,192,116643,12,0,116790,0:0:0:0:
0,192,117081,5,2,0:0:0:0:
256,192,117228,12,0,117375,0:0:0:0:
512,192,117666,5,2,0:0:0:0:
256,192,117813,12,0,117960,0:0:0:0:
512,192,118251,5,8,0:0:0:0:
256,192,118398,12,2,118545,0:0:0:0:
512,192,118836,5,0,0:0:0:0:
256,192,118983,12,0,119130,0:0:0:0:
0,192,119421,5,2,0:0:0:0:
256,304,119970,5,2,0:0:0:0:
322,276,120116,1,0,0:0:0:0:
349,210,120262,1,0,0:0:0:0:
322,144,120408,1,0,0:0:0:0:
256,117,120554,1,2,0:0:0:0:
190,145,120701,1,0,0:0:0:0:
163,210,120847,1,0,0:0:0:0:
190,276,120993,1,0,0:0:0:0:
256,304,121139,1,2,0:0:0:0:
0,192,121761,5,2,0:0:0:0:
256,192,121907,12,0,122054,0:0:0:0:
0,192,122346,5,2,0:0:0:0:
256,192,122492,12,0,122639,0:0:0:0:
512,192,122931,5,8,0:0:0:0:
256,192,123077,12,0,123224,0:0:0:0:
0,192,123516,5,0,0:0:0:0:
256,192,123662,12,0,123809,0:0:0:0:
0,192,124101,5,2,0:0:0:0:
256,192,124247,12,0,124394,0:0:0:0:
0,192,124686,5,2,0:0:0:0:
256,192,124832,12,0,124979,0:0:0:0:
0,192,125271,5,8,0:0:0:0:
256,192,125417,12,0,125564,0:0:0:0:
0,192,125856,5,0,0:0:0:0:
256,192,126002,12,0,126149,0:0:0:0:
512,192,126441,5,2,0:0:0:0:
256,192,126587,12,2,126734,0:0:0:0:
0,192,127026,5,2,0:0:0:0:
256,192,127172,12,0,127319,0:0:0:0:
512,192,127611,5,8,0:0:0:0:
256,192,127757,12,2,127904,0:0:0:0:
512,192,128196,5,0,0:0:0:0:
256,192,128342,12,0,128489,0:0:0:0:
0,192,128781,5,2,0:0:0:0:
256,304,129329,5,2,0:0:0:0:
322,276,129475,1,0,0:0:0:0:
349,210,129621,1,0,0:0:0:0:
322,144,129767,1,0,0:0:0:0:
256,117,129913,1,2,0:0:0:0:
190,145,130060,1,0,0:0:0:0:
163,210,130206,1,0,0:0:0:0:
190,276,130352,1,0,0:0:0:0:
256,304,130498,1,2,0:0:0:0:
512,192,131120,5,4,0:0:0:0:
256,192,131267,12,0,131414,0:0:0:0:
0,192,131705,5,2,0:0:0:0:
256,192,131852,12,0,131999,0:0:0:0:
512,192,132290,5,8,0:0:0:0:
256,192,132437,12,0,132584,0:0:0:0:
0,192,132875,5,0,0:0:0:0:
256,192,133022,12,0,133169,0:0:0:0:
0,192,133460,5,2,0:0:0:0:
256,192,133607,12,0,133754,0:0:0:0:
512,192,134045,5,2,0:0:0:0:
256,192,134192,12,0,134339,0:0:0:0:
512,192,134630,5,8,0:0:0:0:
256,192,134777,12,0,134924,0:0:0:0:
512,192,135215,5,0,0:0:0:0:
256,192,135362,12,0,135509,0:0:0:0:
512,192,135800,5,2,0:0:0:0:
256,192,135947,12,0,136094,0:0:0:0:
0,192,136385,5,2,0:0:0:0:
256,192,136531,12,0,136677,0:0:0:0:
512,192,136970,5,8,0:0:0:0:
256,192,137116,12,2,137262,0:0:0:0:
512,192,137555,5,0,0:0:0:0:
256,192,137701,12,0,137847,0:0:0:0:
512,192,138140,5,2,0:0:0:0:
256,304,138688,5,2,0:0:0:0:
190,276,138834,1,0,0:0:0:0:
163,210,138980,1,0,0:0:0:0:
190,144,139126,1,0,0:0:0:0:
256,117,139272,1,2,0:0:0:0:
322,145,139419,1,0,0:0:0:0:
349,210,139565,1,0,0:0:0:0:
322,276,139711,1,0,0:0:0:0:
256,304,139857,1,2,0:0:0:0:
512,192,140480,5,2,0:0:0:0:
256,192,140626,12,0,140773,0:0:0:0:
512,192,141065,5,2,0:0:0:0:
256,192,141211,12,0,141358,0:0:0:0:
0,192,141650,5,8,0:0:0:0:
256,192,141796,12,0,141943,0:0:0:0:
0,192,142235,5,0,0:0:0:0:
256,192,142381,12,0,142528,0:0:0:0:
0,192,142820,5,2,0:0:0:0:
256,192,142966,12,0,143113,0:0:0:0:
512,192,143404,5,2,0:0:0:0:
256,192,143551,12,0,143698,0:0:0:0:
512,192,143989,5,8,0:0:0:0:
256,192,144136,12,0,144283,0:0:0:0:
0,192,144574,5,0,0:0:0:0:
256,192,144721,12,0,144868,0:0:0:0:
512,192,145159,5,2,0:0:0:0:
256,192,145306,12,2,145453,0:0:0:0:
0,192,145744,5,2,0:0:0:0:
256,192,145891,12,0,146038,0:0:0:0:
0,192,146329,5,8,0:0:0:0:
256,192,146476,12,2,146623,0:0:0:0:
512,192,146914,5,0,0:0:0:0:
256,192,147061,12,0,147208,0:0:0:0:
0,192,147499,5,2,0:0:0:0:
256,304,148048,5,2,0:0:0:0:
322,276,148194,1,0,0:0:0:0:
349,210,148340,1,0,0:0:0:0:
322,144,148486,1,0,0:0:0:0:
256,117,148632,1,2,0:0:0:0:
190,145,148779,1,0,0:0:0:0:
163,210,148925,1,0,0:0:0:0:
190,276,149071,1,0,0:0:0:0:
256,304,149217,1,2,0:0:0:0:
512,192,149839,5,2,0:0:0:0:
256,192,149985,12,0,150132,0:0:0:0:
0,192,150424,5,2,0:0:0:0:
256,192,150570,12,0,150717,0:0:0:0:
512,192,151009,5,8,0:0:0:0:
256,192,151155,12,0,151302,0:0:0:0:
512,192,151594,5,0,0:0:0:0:
256,192,151740,12,0,151887,0:0:0:0:
0,192,152179,5,2,0:0:0:0:
256,192,152325,12,0,152472,0:0:0:0:
512,192,152764,5,2,0:0:0:0:
256,192,152910,12,0,153057,0:0:0:0:
0,192,153349,5,8,0:0:0:0:
256,192,153495,12,0,153642,0:0:0:0:
512,192,153934,5,0,0:0:0:0:
256,192,154080,12,0,154227,0:0:0:0:
512,192,154519,5,2,0:0:0:0:
256,192,154665,12,0,154812,0:0:0:0:
512,192,155104,5,2,0:0:0:0:
256,192,155250,12,0,155397,0:0:0:0:
0,192,155689,5,8,0:0:0:0:
256,192,155835,12,2,155982,0:0:0:0:
512,192,156273,5,0,0:0:0:0:
256,192,156420,12,0,156567,0:0:0:0:
512,192,156858,5,2,0:0:0:0:
256,304,157407,5,2,0:0:0:0:
190,276,157553,1,0,0:0:0:0:
163,210,157699,1,0,0:0:0:0:
190,144,157845,1,0,0:0:0:0:
256,117,157991,1,2,0:0:0:0:
322,145,158138,1,0,0:0:0:0:
349,210,158284,1,0,0:0:0:0:
322,276,158430,1,0,0:0:0:0:
256,304,158576,1,2,0:0:0:0:
0,192,159198,5,2,0:0:0:0:
256,192,159344,12,0,159491,0:0:0:0:
512,192,159783,5,2,0:0:0:0:
256,192,159929,12,0,160076,0:0:0:0:
512,192,160368,5,8,0:0:0:0:
256,192,160514,12,0,160661,0:0:0:0:
512,192,160953,5,0,0:0:0:0:
256,192,161099,12,0,161246,0:0:0:0:
512,192,161538,5,2,0:0:0:0:
256,192,161684,12,0,161831,0:0:0:0:
0,192,162123,5,2,0:0:0:0:
256,192,162269,12,0,162416,0:0:0:0:
0,192,162708,5,8,0:0:0:0:
256,192,162854,12,0,163001,0:0:0:0:
496,192,163293,5,0,0:0:0:0:
256,192,163439,12,0,163586,0:0:0:0:
0,192,163878,5,2,0:0:0:0:
256,192,164024,12,2,164171,0:0:0:0:
512,192,164463,5,2,0:0:0:0:
256,192,164609,12,0,164756,0:0:0:0:
0,192,165048,5,8,0:0:0:0:
256,192,165194,12,2,165341,0:0:0:0:
0,192,165633,5,0,0:0:0:0:
256,192,165779,12,0,165926,0:0:0:0:
0,192,166218,5,2,0:0:0:0:
256,304,166766,5,2,0:0:0:0:
322,276,166912,1,0,0:0:0:0:
349,210,167058,1,0,0:0:0:0:
322,144,167204,1,0,0:0:0:0:
256,117,167350,1,2,0:0:0:0:
190,145,167497,1,0,0:0:0:0:
163,210,167644,2,0,L|190:235,2,36.55968490425
