osu file format v14

[General]
AudioFilename: audio.mp3
AudioLeadIn: 0
PreviewTime: 71225
Countdown: 0
SampleSet: Normal
StackLeniency: 0.7
Mode: 2
LetterboxInBreaks: 0
WidescreenStoryboard: 1

[Editor]
Bookmarks: 41628,51950,62273,91950
DistanceSpacing: 1.1
BeatDivisor: 2
GridSize: 32
TimelineZoom: 2.799999

[Metadata]
Title:Easy Breezy feat. Zenpaku [ dj-Jo Trap Remix ] TV Size
TitleUnicode:Easy Breezy feat. Zenpaku [ dj-Jo Trap Remix ] TV Size
Artist:chelmico
ArtistUnicode:chelmico
Creator:Ascendance
Version:wonjae's Platter
Source:映像研には手を出すな!
Tags:ni wa Te wo Dasu na! Keep Your Hands Off Eizoken! electronic anime japanese future bass dnb drum and & breakbeat op opening chatie wonjae paranoid grapes examination yumeno himiko radar hip hop hip-hop pop rap
BeatmapID:2943795
BeatmapSetID:1284565

[Difficulty]
HPDrainRate:5
CircleSize:3.2
OverallDifficulty:8
ApproachRate:8
SliderMultiplier:1.74
SliderTickRate:2

[Events]
//Background and Video events
0,0,"1146643_sallystarchaser_strange-girls-from-keep-your-hands-off-eizouken.jpg",0,0
//Break Periods
//Storyboard Layer 0 (Background)
//Storyboard Layer 1 (Fail)
//Storyboard Layer 2 (Pass)
//Storyboard Layer 3 (Foreground)
//Storyboard Layer 4 (Overlay)
//Storyboard Sound Samples

[TimingPoints]
338,322.58064516129,4,2,3,70,1,0
72596,-100,4,1,3,70,0,1
87757,-35.7142857142857,4,1,3,70,0,1
87918,-100,4,1,3,70,0,1
93241,-100,4,1,3,70,0,0

[Colours]
Combo1 : 59,100,171
Combo2 : 255,66,66
Combo3 : 65,255,151

[HitObjects]
389,200,338,6,0,L|202:199,1,174,0|0,1:0|0:0,0:0:0:0:
215,199,821,1,0,0:0:0:0:
306,196,983,2,0,P|345:252|292:335,1,174,2|0,1:0|1:0,0:0:0:0:
213,334,1467,1,0,0:0:0:0:
290,337,1628,6,0,L|394:354,1,87,2|0,1:0|0:0,0:0:0:0:
318,279,1950,2,0,L|231:289,1,87,0|0,1:0|0:0,0:0:0:0:
55,246,2273,1,2,1:0:0:0:
55,246,2918,6,0,L|250:246,1,174,2|0,1:0|0:0,0:0:0:0:
313,198,3402,1,0,0:0:0:0:
229,248,3563,2,0,L|224:338,1,87,2|0,1:0|0:0,0:0:0:0:
320,199,3886,2,0,L|328:81,1,87,0|0,1:0|0:0,0:0:0:0:
218,93,4208,5,2,1:0:0:0:
218,93,4370,1,0,0:0:0:0:
262,72,4531,1,0,0:0:0:0:
325,117,4692,1,0,0:0:0:0:
161,215,4854,2,0,L|72:225,1,87,2|0,1:0|0:0,0:0:0:0:
151,157,5176,2,0,L|262:137,1,87,0|0,1:0|0:0,0:0:0:0:
417,178,5499,6,0,P|473:121|406:65,1,174,2|0,1:0|0:0,0:0:0:0:
330,63,5983,1,0,0:0:0:0:
251,56,6144,2,0,L|379:52,1,87,2|0,1:0|0:0,0:0:0:0:
417,95,6467,2,0,L|309:94,1,87,0|0,1:0|0:0,0:0:0:0:
256,157,6789,6,0,L|163:173,2,87,2|0|0,1:0|0:0|1:0,0:0:0:0:
338,196,7273,1,0,0:0:0:0:
414,275,7434,2,0,L|216:276,1,174,2|0,1:0|0:0,0:0:0:0:
112,276,8079,5,2,1:0:0:0:
50,188,8241,1,0,0:0:0:0:
50,144,8321,1,0,0:0:0:0:
52,87,8402,1,0,3:0:0:0:
144,56,8563,1,0,3:0:0:0:
57,91,8725,2,0,L|255:92,1,174,0|0,3:0|3:0,0:0:0:0:
310,89,9208,1,0,3:0:0:0:
160,143,9370,5,2,1:0:0:0:
82,187,9531,1,0,3:0:0:0:
82,187,9692,1,0,3:0:0:0:
160,143,9854,1,0,3:0:0:0:
323,152,10015,2,0,L|131:159,1,174,2|0,3:1|3:0,0:0:0:0:
79,166,10499,1,0,3:0:0:0:
326,301,10660,6,0,P|404:264|416:181,1,174,6|8,0:2|0:0,0:0:0:0:
328,169,11144,1,0,3:0:0:0:
413,125,11305,1,2,3:2:0:0:
420,76,11386,1,0,3:0:0:0:
428,17,11467,1,2,3:2:0:0:
341,18,11628,2,0,L|231:15,1,87,8|0,0:0|3:0,0:0:0:0:
16,163,11950,6,0,P|106:186|142:286,3,174,2|8|2|8,3:2|0:0|3:2|0:0,0:0:0:0:
435,257,13241,6,0,L|260:282,1,174,6|8,2:0|0:0,0:0:0:0:
188,231,13725,1,0,3:0:0:0:
264,189,13886,1,2,3:2:0:0:
294,147,13967,1,0,3:0:0:0:
258,99,14047,1,2,3:2:0:0:
188,231,14208,2,0,L|181:117,1,87,8|0,0:0|3:0,0:0:0:0:
439,72,14531,6,0,P|361:106|331:210,1,174,2|8,3:2|0:0,0:0:0:0:
71,154,15176,2,0,P|149:188|179:292,1,174,10|8,3:2|0:0,0:0:0:0:
456,331,15821,6,0,L|259:339,1,174,6|8,2:0|0:0,0:0:0:0:
214,277,16305,1,0,3:0:0:0:
292,205,16467,1,2,3:2:0:0:
307,151,16547,1,0,3:0:0:0:
321,100,16628,1,2,3:2:0:0:
424,134,16789,2,0,L|406:19,1,87,8|0,0:0|3:0,0:0:0:0:
162,76,17112,6,0,P|65:122|63:206,3,174,2|8|2|8,3:2|0:0|3:2|0:0,0:0:0:0:
334,207,18402,6,0,L|144:223,1,174,6|8,2:0|0:0,0:0:0:0:
240,267,18886,1,0,3:0:0:0:
128,253,19047,1,2,3:2:0:0:
113,190,19128,1,0,3:0:0:0:
92,137,19208,1,2,3:2:0:0:
180,88,19370,2,0,L|280:73,1,87,8|0,0:0|3:0,0:0:0:0:
496,154,19692,6,0,P|397:182|376:280,2,174,2|8|6,3:2|0:0|2:0,0:0:0:0:
488,152,20983,5,4,2:0:0:0:
400,156,21144,1,0,0:0:0:0:
288,146,21467,1,0,0:0:0:0:
374,142,21628,1,2,0:0:0:0:
452,142,21789,1,0,0:0:0:0:
374,142,21950,1,2,3:2:0:0:
373,142,22004,1,0,3:0:0:0:
373,142,22058,1,0,3:0:0:0:
373,142,22112,1,0,3:0:0:0:
215,141,22273,5,2,3:2:0:0:
216,141,22327,1,0,3:0:0:0:
216,141,22381,1,0,3:0:0:0:
216,141,22435,1,0,3:0:0:0:
373,142,22596,1,0,3:2:0:0:
458,137,22757,1,0,3:2:0:0:
374,142,22918,1,2,3:2:0:0:
458,137,23079,1,2,3:2:0:0:
302,148,23402,1,2,3:2:0:0:
374,142,23563,5,4,3:0:0:0:
134,142,23886,1,2,3:2:0:0:
374,142,24208,1,2,3:2:0:0:
134,142,24531,1,2,3:2:0:0:
134,142,24585,1,0,3:0:0:0:
134,142,24639,1,0,3:0:0:0:
134,142,24692,1,0,3:0:0:0:
290,224,24854,5,2,3:2:0:0:
290,224,24907,1,0,3:0:0:0:
290,224,24961,1,0,3:0:0:0:
290,224,25015,1,0,3:0:0:0:
116,142,25176,1,0,3:2:0:0:
30,182,25337,1,0,3:2:0:0:
30,182,25418,1,0,3:2:0:0:
30,182,25499,1,2,3:2:0:0:
116,142,25660,1,0,0:0:0:0:
152,89,25821,1,0,3:2:0:0:
116,142,25983,1,0,0:0:0:0:
30,182,26144,5,4,3:0:0:0:
281,268,26305,2,0,L|371:272,1,87,0|0,1:0|3:0,0:0:0:0:
279,300,26628,2,0,L|183:309,1,87,0|0,1:0|3:2,0:0:0:0:
277,262,26950,1,0,1:0:0:0:
325,194,27112,1,2,3:2:0:0:
325,194,27165,1,0,3:0:0:0:
325,194,27219,1,0,3:0:0:0:
325,194,27273,1,0,1:0:0:0:
156,138,27434,6,0,L|64:139,1,87,2|0,3:2|1:0,0:0:0:0:
153,90,27757,2,0,L|246:85,1,87,8|0,3:0|1:0,0:0:0:0:
146,46,28079,1,0,3:2:0:0:
160,116,28241,1,0,1:0:0:0:
209,162,28402,1,0,3:2:0:0:
299,169,28563,1,0,1:0:0:0:
469,247,28725,6,0,L|292:251,1,174,4|8,3:0|3:0,0:0:0:0:
171,183,29370,2,0,L|289:169,2,87,8|0|2,3:0|0:0|3:2,0:0:0:0:
171,183,29746,1,0,3:0:0:0:
171,183,29800,1,0,3:0:0:0:
171,183,29854,1,0,3:0:0:0:
335,265,30015,6,0,L|453:282,1,87,2|0,3:2|3:0,0:0:0:0:
349,304,30337,2,0,L|259:325,1,87,8|0,3:0|3:2,0:0:0:0:
349,304,30660,1,2,3:2:0:0:
441,274,30821,1,2,3:0:0:0:
481,178,30983,1,2,3:2:0:0:
477,81,31144,1,2,3:0:0:0:
230,126,31305,6,0,L|32:140,1,174,10|8,3:2|0:0,0:0:0:0:
56,138,31789,1,0,0:0:0:0:
226,232,31950,2,0,L|408:244,1,174,0|2,3:0|3:2,0:0:0:0:
479,203,32434,2,0,L|482:94,1,87,0|2,3:0|3:2,0:0:0:0:
235,113,32757,6,0,L|121:119,2,87,2|8|8,3:0|3:0|3:0,0:0:0:0:
386,131,33241,1,2,3:0:0:0:
465,166,33402,1,0,0:0:0:0:
465,166,33563,1,2,1:3:0:0:
386,131,33725,1,0,0:0:0:0:
228,182,33886,6,0,L|56:208,1,174,10|8,3:2|0:0,0:0:0:0:
55,208,34370,1,0,0:0:0:0:
225,274,34531,2,0,L|431:302,1,174,0|8,3:0|3:3,0:0:0:0:
397,297,35015,1,0,3:0:0:0:
302,293,35176,5,8,3:3:0:0:
70,206,35337,2,0,L|159:134,2,87,2|8|8,3:0|3:0|3:0,0:0:0:0:
225,213,35821,1,2,3:0:0:0:
305,214,35983,1,0,0:0:0:0:
225,213,36144,1,0,3:0:0:0:
146,216,36305,1,0,0:0:0:0:
401,298,36467,6,0,P|457:249|388:191,1,174,10|8,3:2|0:0,0:0:0:0:
314,192,36950,1,0,0:0:0:0:
158,137,37112,2,0,L|351:135,1,174,0|2,3:0|3:2,0:0:0:0:
331,135,37596,1,0,3:0:0:0:
242,139,37757,5,2,3:2:0:0:
481,289,37918,2,0,L|401:249,2,87,2|8|8,3:0|3:0|3:0,0:0:0:0:
330,276,38402,1,2,3:0:0:0:
246,275,38563,1,0,3:0:0:0:
246,275,38725,1,2,3:0:0:0:
330,276,38886,1,0,0:0:0:0:
71,285,39047,6,0,P|19:251|73:172,1,174,10|8,3:2|0:0,0:0:0:0:
160,166,39531,1,0,0:0:0:0:
317,103,39692,2,0,L|134:113,1,174,0|2,3:0|3:2,0:0:0:0:
133,198,40176,1,0,3:0:0:0:
205,254,40337,5,2,3:2:0:0:
448,324,40499,2,0,L|371:282,2,87,2|8|8,3:0|3:0|3:0,0:0:0:0:
286,292,40983,1,0,3:0:0:0:
300,223,41144,1,0,3:0:0:0:
366,160,41305,1,2,3:0:0:0:
472,140,41467,1,2,3:0:0:0:
207,145,41628,6,0,L|2:161,2,174,10|4|8,3:2|3:0|3:2,0:0:0:0:
207,145,42434,1,2,3:0:0:0:
122,149,42596,1,2,0:0:0:0:
207,145,42757,1,8,3:2:0:0:
464,141,43079,5,8,3:2:0:0:
382,183,43241,2,0,L|377:286,1,87,10|8,2:3|2:3,0:0:0:0:
285,269,43563,2,0,L|282:155,1,87,8|8,3:2|3:2,0:0:0:0:
369,134,43886,1,2,0:0:0:0:
79,93,44208,5,6,3:0:0:0:
179,117,44531,2,0,L|183:215,1,87,8|0,3:2|3:0,0:0:0:0:
349,266,44854,2,0,L|487:279,2,130.5,8|0|0,3:2|0:0|3:0,0:0:0:0:
191,313,45499,6,0,L|43:332,2,130.5,0|0|8,3:0|0:0|2:3,0:0:0:0:
351,263,46144,1,8,3:2:0:0:
437,221,46305,1,8,3:2:0:0:
437,221,46467,1,2,0:0:0:0:
351,263,46628,1,0,0:0:0:0:
99,249,46789,6,0,L|-8:266,1,87,10|0,3:2|3:0,0:0:0:0:
160,192,47112,2,0,L|267:204,1,87,10|0,0:2|3:0,0:0:0:0:
113,91,47596,2,0,P|55:152|113:203,1,174,2|0,3:0|3:0,0:0:0:0:
209,207,48079,5,0,3:0:0:0:
445,274,48241,2,0,L|321:284,1,87,8|10,3:2|2:3,0:0:0:0:
278,292,48563,1,8,2:3:0:0:
359,281,48725,2,0,L|454:273,1,87,8|8,3:2|3:2,0:0:0:0:
359,281,49047,1,2,0:0:0:0:
91,175,49370,5,10,3:2:0:0:
243,196,49692,2,0,P|243:252|120:304,1,174,10|8,3:2|3:2,0:0:0:0:
306,308,50176,2,0,L|521:310,1,174,10|8,3:2|3:2,0:0:0:0:
396,310,50660,5,0,3:0:0:0:
158,219,50821,2,0,L|45:230,2,87,8|8|8,3:2|3:2|2:3,0:0:0:0:
328,108,51305,2,0,L|482:97,2,130.5,8|8|8,3:2|1:2|3:2,0:0:0:0:
47,193,51950,5,6,0:0:0:0:
47,193,52112,1,2,0:0:0:0:
47,193,52273,1,8,3:2:0:0:
163,243,52596,2,0,L|266:257,3,87,2|8|8|8,0:0|3:2|3:2|3:2,0:0:0:0:
362,274,53402,5,2,0:0:0:0:
249,254,53725,1,2,0:0:0:0:
406,219,53886,1,2,0:0:0:0:
406,219,54047,1,8,3:2:0:0:
406,219,54208,1,8,3:2:0:0:
131,289,54531,5,2,0:0:0:0:
131,289,54692,1,2,0:0:0:0:
131,289,54854,1,8,3:2:0:0:
257,231,55176,2,0,L|357:233,2,87,2|8|8,0:0|3:2|3:2,0:0:0:0:
170,227,55660,1,8,3:2:0:0:
46,161,55983,5,2,3:0:0:0:
187,103,56305,1,2,0:0:0:0:
187,103,56467,1,2,3:0:0:0:
25,89,56628,1,8,3:2:0:0:
25,89,56789,1,8,3:2:0:0:
25,89,56950,1,0,3:0:0:0:
265,159,57112,5,2,0:0:0:0:
349,194,57273,1,2,0:0:0:0:
349,194,57434,1,8,3:2:0:0:
265,159,57596,1,0,3:0:0:0:
169,148,57757,1,2,0:0:0:0:
169,148,57918,1,2,0:0:0:0:
169,148,58079,1,8,3:2:0:0:
265,159,58241,1,2,0:0:0:0:
349,194,58402,5,2,3:0:0:0:
349,194,58563,1,0,3:0:0:0:
265,159,58725,1,8,3:2:0:0:
128,105,59047,1,2,3:0:0:0:
412,61,59370,1,8,3:2:0:0:
412,61,59531,1,0,0:0:0:0:
157,65,59692,5,10,3:2:0:0:
79,69,60015,1,2,3:0:0:0:
79,69,60176,1,0,3:0:0:0:
324,64,60337,1,8,3:2:0:0:
393,64,60660,1,2,3:0:0:0:
124,90,60983,5,8,3:2:0:0:
87,133,61305,1,2,3:0:0:0:
87,133,61467,1,0,3:0:0:0:
344,157,61628,1,8,3:2:0:0:
423,158,61789,1,8,3:2:0:0:
423,158,61950,1,8,3:2:0:0:
344,157,62112,1,0,0:0:0:0:
71,189,62273,5,6,0:0:0:0:
71,189,62434,1,0,3:0:0:0:
117,190,62515,1,0,3:0:0:0:
162,189,62596,1,2,0:0:0:0:
162,189,62757,1,0,3:0:0:0:
210,191,62838,1,0,3:0:0:0:
260,191,62919,1,2,0:0:0:0:
260,191,63079,1,0,3:0:0:0:
212,193,63160,1,0,3:0:0:0:
162,193,63241,1,2,0:0:0:0:
162,193,63402,1,0,3:0:0:0:
416,184,63563,6,0,P|356:191|300:283,3,174,10|10|10|10,0:0|0:0|0:0|0:0,0:0:0:0:
47,138,64854,5,2,0:0:0:0:
137,177,65015,1,0,3:0:0:0:
152,243,65096,1,0,3:0:0:0:
167,309,65176,1,2,0:0:0:0:
253,175,65337,1,0,3:0:0:0:
238,241,65418,1,0,3:0:0:0:
223,307,65498,1,2,0:0:0:0:
296,175,65660,1,0,3:0:0:0:
311,241,65741,1,0,3:0:0:0:
326,307,65821,1,2,0:0:0:0:
401,173,65983,1,0,3:0:0:0:
145,109,66144,6,0,P|72:136|28:228,3,174,10|10|10|10,0:0|0:0|0:0|0:0,0:0:0:0:
331,121,67434,5,2,1:2:0:0:
406,185,67596,1,0,3:0:0:0:
360,186,67677,1,0,3:0:0:0:
315,185,67758,1,2,0:0:0:0:
315,185,67919,1,0,3:0:0:0:
267,187,68000,1,0,3:0:0:0:
217,187,68079,1,2,0:0:0:0:
217,187,68241,1,0,3:0:0:0:
265,189,68322,1,0,3:0:0:0:
315,189,68403,1,2,0:0:0:0:
406,185,68563,1,0,3:0:0:0:
172,274,68725,6,0,L|-19:298,1,174,10|10,0:0|0:0,0:0:0:0:
125,232,69370,2,0,P|184:166|117:108,1,174,10|10,0:0|0:0,0:0:0:0:
50,106,69854,1,0,3:0:0:0:
295,275,70015,6,0,L|431:284,2,130.5,2|2|2,0:0|3:0|3:0,0:0:0:0:
141,242,70660,1,2,0:0:0:0:
88,197,70741,1,2,3:0:0:0:
73,135,70821,1,0,3:0:0:0:
88,197,70902,1,0,3:0:0:0:
141,242,70983,1,2,3:0:0:0:
232,250,71144,1,2,3:0:0:0:
479,251,71305,5,10,3:0:0:0:
479,251,72112,1,2,3:0:0:0:
479,251,72273,1,2,3:0:0:0:
87,249,72596,6,0,P|28:204|116:156,1,174,12|8,0:2|0:2,0:0:0:0:
156,141,73079,1,0,3:0:0:0:
312,55,73241,1,10,3:3:0:0:
374,123,73402,1,0,3:0:0:0:
389,208,73563,1,8,0:2:0:0:
359,297,73725,1,8,3:0:0:0:
271,326,73886,5,2,3:2:0:0:
429,277,74047,2,0,P|481:294|500:329,2,87,0|8|0,3:0|0:2|3:0,0:0:0:0:
271,243,74531,2,0,P|269:181|386:146,1,174,10|8,3:3|0:2,0:0:0:0:
443,127,75015,1,0,3:0:0:0:
205,198,75176,6,0,L|2:220,3,174,2|8|10|8,3:2|0:2|3:3|0:2,0:0:0:0:
340,270,76467,6,0,L|540:303,2,174,2|8|10,3:2|0:2|3:3,0:0:0:0:
63,146,77434,2,0,L|71:274,1,87,8|0,0:2|0:0,0:0:0:0:
322,308,77757,6,0,L|506:326,1,174,2|8,3:2|0:2,0:0:0:0:
406,331,78241,1,0,3:0:0:0:
247,281,78402,1,10,3:3:0:0:
259,200,78563,1,0,3:0:0:0:
311,134,78725,1,8,0:2:0:0:
403,110,78886,1,8,3:0:0:0:
233,150,79047,6,0,P|173:164|157:191,2,87,2|0|8,3:2|3:0|0:2,0:0:0:0:
317,134,79531,1,0,3:0:0:0:
477,174,79692,2,0,P|480:216|373:271,1,174,10|8,3:3|0:2,0:0:0:0:
294,277,80176,1,8,3:0:0:0:
57,271,80337,5,2,3:2:0:0:
135,192,80499,1,0,3:0:0:0:
169,166,80579,1,0,3:0:0:0:
135,192,80660,1,8,0:2:0:0:
57,271,80821,1,0,3:0:0:0:
220,293,80983,2,0,L|322:329,1,87,10|0,3:3|3:0,0:0:0:0:
232,294,81305,2,0,L|112:318,1,87,8|0,0:2|3:0,0:0:0:0:
396,157,81628,6,0,P|485:201|493:304,3,174,2|8|10|8,3:2|0:2|3:3|0:2,0:0:0:0:
41,195,82918,5,2,0:0:0:0:
183,220,83241,1,2,0:0:0:0:
238,320,83563,1,2,0:0:0:0:
183,220,83886,1,2,0:0:0:0:
44,194,84208,5,2,0:0:0:0:
289,257,84370,2,0,L|417:267,2,87,8|8|8,0:2|0:2|0:2,0:0:0:0:
123,295,84854,2,0,L|29:320,3,87,8|8|8|8,0:2|0:2|0:2|0:2,0:0:0:0:
287,245,85499,6,0,P|335:191|257:156,1,174,4|8,3:1|0:2,0:0:0:0:
185,160,85983,1,0,3:0:0:0:
342,278,86144,2,0,L|524:291,1,174,10|8,3:3|0:2,0:0:0:0:
441,326,86628,1,0,3:0:0:0:
280,324,86789,6,0,L|98:350,1,174,8|8,3:0|0:2,0:0:0:0:
357,193,87434,2,0,L|356:283,1,87,10|0,3:3|3:0,0:0:0:0:
205,288,87757,2,0,L|104:27,1,243.599992565918,8|0,0:2|3:0,0:0:0:0:
379,66,88079,6,0,P|426:142|362:177,1,174,2|8,3:2|0:2,0:0:0:0:
115,231,88725,2,0,L|314:242,1,174,10|8,3:3|0:2,0:0:0:0:
288,240,89208,1,8,3:0:0:0:
136,300,89370,6,0,L|40:308,2,87,2|0|8,3:2|3:0|0:2,0:0:0:0:
376,292,90015,1,10,3:3:0:0:
469,227,90176,1,0,3:0:0:0:
488,152,90337,1,8,0:2:0:0:
469,227,90499,1,0,3:0:0:0:
376,292,90660,5,2,3:2:0:0:
218,311,90821,2,0,L|125:321,2,87,0|8|0,3:0|0:2|3:0,0:0:0:0:
379,263,91305,2,0,L|382:170,1,87,10|0,3:3|3:0,0:0:0:0:
280,175,91628,2,0,L|272:80,1,87,8|0,0:2|3:0,0:0:0:0:
18,49,91950,5,2,3:2:0:0:
48,46,92031,1,0,3:2:0:0:
18,49,92112,1,0,3:2:0:0:
48,46,92192,1,0,3:2:0:0:
18,49,92273,1,2,3:2:0:0:
248,83,92596,1,2,3:2:0:0:
314,111,92676,1,0,3:2:0:0:
331,174,92757,1,0,3:2:0:0:
306,224,92837,1,0,3:2:0:0:
245,239,92918,1,2,3:2:0:0:
474,277,93241,5,14,0:2:0:0:
