osu file format v14

[General]
AudioFilename: audio.mp3
AudioLeadIn: 0
PreviewTime: 71225
Countdown: 0
SampleSet: Soft
StackLeniency: 0.7
Mode: 2
LetterboxInBreaks: 0
WidescreenStoryboard: 1

[Editor]
Bookmarks: 8079,20983,31305,41628,51950,62273
DistanceSpacing: 1.1
BeatDivisor: 4
GridSize: 32
TimelineZoom: 3.099999

[Metadata]
Title:Easy Breezy feat. Zenpaku [ dj-Jo Trap Remix ] TV Size
TitleUnicode:Easy Breezy feat. Zenpaku [ dj-Jo Trap Remix ] TV Size
Artist:chelmico
ArtistUnicode:chelmico
Creator:Ascendance
Version:radar's Overdose
Source:映像研には手を出すな!
Tags:ni wa Te wo Dasu na! Keep Your Hands Off Eizoken! electronic anime japanese future bass dnb drum and & breakbeat op opening chatie wonjae paranoid grapes examination yumeno himiko radar hip hop hip-hop pop rap
BeatmapID:2667947
BeatmapSetID:1284565

[Difficulty]
HPDrainRate:6.5
CircleSize:3.5
OverallDifficulty:9.4
ApproachRate:9.4
SliderMultiplier:2
SliderTickRate:2

[Events]
//Background and Video events
0,0,"1146643_sallystarchaser_strange-girls-from-keep-your-hands-off-eizouken.jpg",0,0
//Break Periods
//Storyboard Layer 0 (Background)
//Storyboard Layer 1 (Fail)
//Storyboard Layer 2 (Pass)
//Storyboard Layer 3 (Foreground)
//Storyboard Layer 4 (Overlay)
//Storyboard Sound Samples

[TimingPoints]
338,322.58064516129,4,2,3,50,1,0
10660,-100,4,2,3,60,0,0
20983,-100,4,2,3,50,0,0
31305,-100,4,2,3,55,0,0
41628,-100,4,2,3,60,0,0
62273,-100,4,2,3,55,0,0
72596,-100,4,1,3,70,0,1
82918,-1000,4,1,3,70,0,1
84370,-100,4,1,3,70,0,1
85499,-100,4,1,3,70,0,1
93241,-100,4,1,3,70,0,0

[HitObjects]
124,178,8079,6,0,L|119:55,1,100,2|0,1:0|0:0,0:0:0:0:
301,206,8402,2,0,L|419:201,1,100,0|0,3:0|3:0,0:0:0:0:
353,268,8644,1,0,0:0:0:0:
210,179,8725,2,0,L|151:177,2,50,0|0|0,3:0|3:0|3:0,0:0:0:0:
359,113,9047,2,0,L|463:106,1,100,0|0,3:0|3:0,0:0:0:0:
235,239,9370,6,0,L|147:300,2,100,2|0|0,1:0|3:0|3:0,0:0:0:0:
396,250,9854,2,0,L|459:249,1,50,0|0,3:0|0:0,0:0:0:0:
295,310,10015,2,0,P|251:273|302:154,1,200,2|0,3:1|3:0,0:0:0:0:
338,153,10418,2,0,L|402:153,1,50,0|0,0:0|3:0,0:0:0:0:
91,321,10660,6,0,L|304:337,1,200,6|8,0:2|0:0,0:0:0:0:
130,281,11144,2,0,L|115:222,1,50,0|0,3:0|3:0,0:0:0:0:
211,198,11305,2,0,L|222:143,1,50,2|0,3:2|0:0,0:0:0:0:
75,118,11467,2,0,L|64:63,1,50,2|0,3:2|0:0,0:0:0:0:
217,101,11628,2,0,L|320:90,1,100,8|0,0:0|3:0,0:0:0:0:
94,220,11950,6,0,L|84:329,1,100,2|0,3:2|3:0,0:0:0:0:
246,230,12273,2,0,L|255:341,1,100,8|0,0:0|3:0,0:0:0:0:
310,198,12515,1,0,3:0:0:0:
453,167,12596,2,0,L|349:160,1,100,2|0,3:2|3:0,0:0:0:0:
194,276,12918,2,0,L|304:263,1,100,8|0,0:0|3:0,0:0:0:0:
39,359,13241,6,0,L|245:370,1,200,6|8,2:0|0:0,0:0:0:0:
399,283,13725,2,0,L|389:227,1,50,0|0,3:0|3:0,0:0:0:0:
300,170,13886,2,0,L|234:168,1,50,2|0,3:2|3:0,0:0:0:0:
403,182,14047,2,0,L|460:180,1,50,2|0,3:2|0:0,0:0:0:0:
298,307,14208,2,0,L|187:332,1,100,8|0,0:0|3:0,0:0:0:0:
367,375,14531,6,0,L|387:264,1,100,2|0,3:2|3:0,0:0:0:0:
224,225,14854,2,0,L|117:230,1,100,8|0,0:0|3:0,0:0:0:0:
191,291,15096,1,0,3:0:0:0:
344,185,15176,1,10,3:2:0:0:
421,129,15337,1,0,3:0:0:0:
416,33,15498,1,8,0:0:0:0:
333,7,15659,1,0,0:0:0:0:
76,90,15821,6,0,L|289:74,1,200,6|8,2:0|0:0,0:0:0:0:
124,117,16305,2,0,L|109:176,1,50,0|0,3:0|3:0,0:0:0:0:
202,212,16466,2,0,L|213:267,1,50,2|0,3:2|0:0,0:0:0:0:
67,367,16628,2,0,L|12:375,1,50,2|0,3:2|0:0,0:0:0:0:
172,303,16789,2,0,L|275:314,1,100,8|0,0:0|3:0,0:0:0:0:
48,159,17111,6,0,L|38:50,1,100,2|0,3:2|3:0,0:0:0:0:
211,155,17434,2,0,L|220:44,1,100,8|0,0:0|3:0,0:0:0:0:
275,187,17676,1,0,3:0:0:0:
419,282,17757,2,0,L|315:289,1,100,2|0,3:2|3:0,0:0:0:0:
141,130,18079,2,0,L|253:123,1,100,8|0,0:0|0:0,0:0:0:0:
465,280,18402,6,0,L|251:254,1,200,6|8,2:0|0:0,0:0:0:0:
414,204,18886,2,0,L|408:135,1,50,0|0,3:0|3:0,0:0:0:0:
320,97,19047,2,0,L|231:87,1,50,2|0,3:2|3:0,0:0:0:0:
127,173,19208,2,0,L|194:163,1,50,2|0,3:2|0:0,0:0:0:0:
322,326,19370,6,0,L|309:209,1,100,8|0,0:0|3:0,0:0:0:0:
157,233,19692,2,0,L|49:226,1,100,2|0,3:2|3:0,0:0:0:0:
196,290,20015,2,0,L|316:300,1,100,8|0,0:0|3:0,0:0:0:0:
257,252,20257,1,0,3:0:0:0:
112,197,20337,1,6,2:0:0:0:
106,272,20983,6,0,L|422:285,1,300,4|0,2:0|0:0,0:0:0:0:
337,328,21547,1,0,0:0:0:0:
159,251,21628,2,0,L|150:138,1,100,2|0,0:0|0:0,0:0:0:0:
312,93,21950,2,0,L|348:129,3,33.3333333333333,2|0|0|0,3:2|3:0|3:0|3:0,0:0:0:0:
199,156,22273,2,0,L|202:199,3,33.3333333333333,2|0|0|0,3:2|3:0|3:0|3:0,0:0:0:0:
372,70,22596,6,0,L|488:59,1,100,0|0,3:2|3:2,0:0:0:0:
230,171,22918,2,0,L|116:164,1,100,2|2,3:2|3:2,0:0:0:0:
256,180,23402,1,2,3:2:0:0:
33,78,23563,6,0,L|8:229,1,150,4|0,3:0|0:0,0:0:0:0:
201,250,23886,2,0,L|209:355,1,100,2|0,3:2|0:0,0:0:0:0:
264,213,24128,1,0,0:0:0:0:
467,88,24208,2,0,L|349:86,1,100,2|0,3:2|0:0,0:0:0:0:
144,133,24531,1,2,3:2:0:0:
83,150,24585,1,0,3:0:0:0:
62,189,24639,1,0,3:0:0:0:
65,217,24692,1,0,3:0:0:0:
227,204,24854,2,0,L|248:168,3,33.3333333333333,2|0|0|0,3:2|3:0|3:0|3:0,0:0:0:0:
398,73,25176,6,0,L|497:73,1,100,0|0,3:2|3:2,0:0:0:0:
445,139,25418,1,0,3:2:0:0:
241,150,25499,2,0,L|122:151,1,100,2|0,3:2|0:0,0:0:0:0:
364,290,25821,1,0,3:2:0:0:
430,290,25929,1,0,3:2:0:0:
364,290,26036,1,0,3:2:0:0:
148,343,26144,6,0,L|261:364,2,100,4|0|0,3:0|1:0|3:0,0:0:0:0:
398,214,26628,2,0,L|182:238,1,200,0|0,1:0|1:0,0:0:0:0:
369,292,27112,2,0,L|378:239,3,33.3333333333333,2|0|0|0,3:2|3:0|3:0|1:0,0:0:0:0:
220,199,27434,2,0,L|211:146,3,33.3333333333333,2|0|0|0,3:2|3:0|3:0|1:0,0:0:0:0:
376,83,27757,2,0,L|480:82,1,100,8|0,3:0|1:0,0:0:0:0:
222,186,28079,2,0,L|102:185,1,100,0|0,3:2|1:0,0:0:0:0:
278,212,28563,1,0,1:0:0:0:
54,335,28725,6,0,L|49:204,1,100,4|0,3:0|0:0,0:0:0:0:
205,200,29047,2,0,L|216:35,1,150,8|0,3:0|3:2,0:0:0:0:
364,107,29370,2,0,L|465:110,1,100,8|0,3:0|0:0,0:0:0:0:
214,218,29692,1,2,3:2:0:0:
150,249,29746,1,0,3:0:0:0:
129,286,29800,1,0,3:0:0:0:
125,312,29854,1,0,3:0:0:0:
275,314,30015,2,0,L|261:275,3,33.3333333333333,2|0|0|0,3:2|0:0|0:0|3:0,0:0:0:0:
82,168,30337,2,0,L|93:52,1,100,8|0,3:0|3:2,0:0:0:0:
333,244,30660,5,2,3:2:0:0:
458,160,30821,1,2,3:0:0:0:
458,160,30983,1,2,3:2:0:0:
333,244,31144,1,2,3:0:0:0:
86,62,31305,6,0,L|306:62,1,200,10|8,3:2|0:0,0:0:0:0:
126,202,31789,2,0,L|116:139,1,50
267,67,31950,2,0,L|382:68,1,100,0|0,3:0|0:0,0:0:0:0:
119,223,32273,2,0,L|110:172,3,33.3333333333333,2|0|0|0,3:2|0:0|0:0|3:0,0:0:0:0:
271,116,32596,2,0,L|280:65,3,33.3333333333333,2|0|0|2,3:2|0:0|0:0|3:0,0:0:0:0:
89,42,32918,5,8,3:0:0:0:
244,131,33079,1,8,3:0:0:0:
16,242,33241,2,0,L|8:363,1,100,2|0,3:0|0:0,0:0:0:0:
181,153,33563,2,0,L|187:252,1,100,2|0,1:3|0:0,0:0:0:0:
413,25,33886,6,0,L|188:28,1,200,10|8,3:2|0:0,0:0:0:0:
43,111,34370,2,0,L|31:168,1,50
175,220,34531,2,0,L|89:297,1,100,0|0,3:0|0:0,0:0:0:0:
324,365,34854,2,0,L|331:323,3,33.3333333333333,8|0|0|0,3:3|0:0|0:0|3:0,0:0:0:0:
184,215,35176,2,0,L|178:166,3,33.3333333333333,8|0|0|2,3:3|0:0|0:0|3:0,0:0:0:0:
342,60,35499,2,0,L|344:19,3,33.3333333333333,8|0|0|8,3:0|0:0|0:0|3:0,0:0:0:0:
405,118,35741,1,0,0:0:0:0:
262,213,35821,6,0,L|53:232,1,200,2|0,3:0|3:0,0:0:0:0:
156,286,36251,1,0,3:0:0:0:
262,213,36359,1,0,3:0:0:0:
92,331,36467,6,0,L|292:331,1,200,10|8,3:2|0:0,0:0:0:0:
132,378,36950,2,0,L|151:260,1,100,0|0,0:0|3:0,0:0:0:0:
319,193,37273,2,0,L|379:183,1,50
224,130,37434,2,0,L|214:83,3,33.3333333333333,2|0|0|0,3:2|0:0|0:0|3:0,0:0:0:0:
365,212,37757,2,0,L|375:165,3,33.3333333333333,0|0|0|2,0:0|0:0|0:0|3:0,0:0:0:0:
189,311,38079,1,8,3:0:0:0:
370,370,38241,1,8,3:0:0:0:
147,292,38402,6,0,L|135:175,1,100,2|0,3:0|3:0,0:0:0:0:
17,347,38725,2,0,L|144:332,1,100,2|0,3:0|0:0,0:0:0:0:
339,97,39047,6,0,L|433:155,2,100,10|0|8,3:2|0:0|0:0,0:0:0:0:
178,167,39531,1,0,0:0:0:0:
356,136,39692,2,0,L|371:19,1,100,0|0,3:0|0:0,0:0:0:0:
144,213,40015,2,0,L|134:154,3,33.3333333333333,2|0|0|0,3:2|0:0|0:0|3:0,0:0:0:0:
304,279,40337,2,0,L|314:220,3,33.3333333333333,2|0|0|2,3:2|0:0|0:0|3:0,0:0:0:0:
84,190,40660,5,8,3:0:0:0:
204,176,40821,1,8,3:0:0:0:
428,147,40983,1,0,3:0:0:0:
204,176,41144,1,0,3:0:0:0:
428,147,41305,1,2,3:0:0:0:
204,176,41467,1,2,3:0:0:0:
450,315,41628,6,0,L|456:92,1,200,10|4,3:2|3:0,0:0:0:0:
295,217,42112,2,0,L|224:223,1,50,0|0,3:0|0:0,0:0:0:0:
140,292,42273,2,0,L|387:306,1,200,8|2,3:2|0:0,0:0:0:0:
116,384,42757,6,0,L|94:174,1,200,8|8,3:2|3:2,0:0:0:0:
319,60,43241,1,10,2:3:0:0:
96,79,43402,1,8,2:3:0:0:
320,74,43563,2,0,L|432:76,1,100,8|8,3:2|3:2,0:0:0:0:
262,195,43886,2,0,L|159:205,1,100,2|8,0:0|3:2,0:0:0:0:
418,352,44208,6,0,L|437:141,1,200,6|8,3:0|3:2,0:0:0:0:
276,246,44692,2,0,L|220:257,1,50,0|0,3:0|3:0,0:0:0:0:
279,273,44854,1,8,3:2:0:0:
149,371,45015,2,0,L|143:235,1,100,8|2,3:2|0:0,0:0:0:0:
283,212,45337,2,0,L|351:213,1,50,0|0,3:0|0:0,0:0:0:0:
276,198,45499,1,0,3:0:0:0:
413,25,45660,6,0,L|403:141,1,100,8|2,3:2|0:0,0:0:0:0:
179,23,45983,2,0,L|121:21,2,50,8|0|8,2:3|0:0|3:2,0:0:0:0:
335,107,46305,2,0,L|390:109,1,50,8|0,3:2|0:0,0:0:0:0:
218,226,46467,1,2,0:0:0:0:
151,226,46574,1,8,2:3:0:0:
218,226,46682,1,8,2:3:0:0:
394,334,46789,5,10,3:2:0:0:
469,273,46950,1,0,3:0:0:0:
469,176,47111,1,10,0:2:0:0:
394,116,47273,2,0,L|339:113,1,50,0|0,3:0|0:0,0:0:0:0:
193,214,47434,6,0,L|93:224,2,100,8|2|2,3:2|3:0|0:0,0:0:0:0:
417,381,47918,1,0,3:0:0:0:
434,334,47998,1,0,0:0:0:0:
456,289,48079,1,0,3:0:0:0:
329,244,48241,1,8,3:2:0:0:
105,372,48402,6,0,L|220:362,1,100,10|8,2:3|2:3,0:0:0:0:
371,320,48725,2,0,L|352:196,1,100,8|8,3:2|3:2,0:0:0:0:
180,186,49047,1,2,0:0:0:0:
304,195,49208,2,0,L|398:203,1,50,8|0,3:2|0:0,0:0:0:0:
179,284,49370,6,0,L|63:204,2,100,10|0|10,3:2|3:0|3:2,0:0:0:0:
403,288,49854,1,0,3:0:0:0:
447,266,49934,1,0,0:0:0:0:
465,221,50015,1,8,3:2:0:0:
447,176,50095,1,0,0:0:0:0:
403,155,50176,1,10,3:2:0:0:
249,257,50337,2,0,L|366:245,1,100,2|8,0:0|3:2,0:0:0:0:
176,251,50660,6,0,L|138:115,1,100,0|8,3:0|3:2,0:0:0:0:
378,291,50983,2,0,L|490:300,1,100,8|8,3:2|2:3,0:0:0:0:
203,374,51305,2,0,L|34:368,2,150,8|8|8,3:2|1:2|3:2,0:0:0:0:
448,346,51950,5,6,0:0:0:0:
327,337,52112,2,0,L|218:328,1,100,2|8,0:0|3:2,0:0:0:0:
451,295,52434,1,0,3:0:0:0:
350,228,52596,2,0,L|370:117,1,100,2|8,0:0|3:2,0:0:0:0:
145,286,52918,1,8,3:2:0:0:
275,247,53079,6,0,L|133:256,1,100,8|0,3:2|0:0,0:0:0:0:
335,264,53402,2,0,L|464:254,1,100,2|0,0:0|0:0,0:0:0:0:
189,344,53725,1,2,0:0:0:0:
86,279,53886,1,2,0:0:0:0:
317,245,54047,2,0,L|335:108,1,100,8|8,3:2|3:2,0:0:0:0:
98,263,54531,5,2,0:0:0:0:
217,235,54692,2,0,L|99:246,1,100,2|8,0:0|3:2,0:0:0:0:
341,321,55015,1,0,3:0:0:0:
221,311,55176,2,0,L|100:294,1,100,2|8,0:0|3:2,0:0:0:0:
349,297,55499,1,8,3:2:0:0:
453,241,55660,6,0,L|462:119,1,100,8|0,3:2|0:0,0:0:0:0:
235,100,55983,2,0,L|242:199,1,100,2|0,3:0|0:0,0:0:0:0:
466,62,56305,1,2,0:0:0:0:
241,283,56467,2,0,L|234:179,1,100,2|8,3:0|3:2,0:0:0:0:
476,318,56789,1,8,3:2:0:0:
230,316,57112,6,0,L|355:305,1,100,2|2,0:0|0:0,0:0:0:0:
170,367,57434,2,0,L|161:267,1,100,8|0,3:2|3:0,0:0:0:0:
331,322,57757,2,0,L|472:306,1,100,2|2,0:0|0:0,0:0:0:0:
208,283,58079,1,8,3:2:0:0:
92,240,58241,2,0,L|75:96,1,100,2|2,0:0|3:0,0:0:0:0:
303,233,58563,5,0,3:0:0:0:
419,190,58725,2,0,L|436:46,1,100,8|0,3:2|3:0,0:0:0:0:
202,155,59047,1,2,3:0:0:0:
425,220,59208,2,0,L|319:238,1,100,8|8,3:2|3:2,0:0:0:0:
120,302,59692,6,0,L|107:187,1,100,10|0,3:2|0:0,0:0:0:0:
334,360,60015,1,2,3:0:0:0:
208,310,60176,2,0,L|196:196,1,100,0|8,3:0|3:2,0:0:0:0:
346,280,60499,1,0,0:0:0:0:
123,209,60660,2,0,L|110:85,1,100,2|0,3:0|3:0,0:0:0:0:
286,173,60983,5,8,3:2:0:0:
385,185,61144,1,0,0:0:0:0:
162,288,61305,2,0,L|149:183,1,100,2|0,3:0|3:0,0:0:0:0:
374,256,61628,1,8,3:2:0:0:
149,188,61789,1,8,3:2:0:0:
374,256,61950,1,8,3:2:0:0:
457,369,62273,5,6,0:0:0:0:
332,274,62434,2,0,L|326:195,2,50,0|0|2,3:0|3:0|0:0,0:0:0:0:
459,201,62757,2,0,L|465:122,2,50,0|0|2,3:0|3:0|0:0,0:0:0:0:
332,274,63079,2,0,L|326:195,2,50,0|0|2,3:0|3:0|0:0,0:0:0:0:
459,201,63402,1,0,3:0:0:0:
236,78,63563,6,0,L|117:71,1,100,10|0,0:0|3:0,0:0:0:0:
276,265,63886,2,0,L|288:154,1,100,10|0,0:0|3:0,0:0:0:0:
100,322,64208,2,0,L|80:186,1,100,10|0,0:0|3:0,0:0:0:0:
285,172,64531,2,0,L|349:253,1,100,10|0,0:0|3:0,0:0:0:0:
123,322,64854,5,2,0:0:0:0:
237,266,65015,2,0,L|243:187,2,50,0|0|2,3:0|3:0|0:0,0:0:0:0:
110,193,65338,2,0,L|104:114,2,50,0|0|2,3:0|3:0|0:0,0:0:0:0:
237,266,65660,2,0,L|243:187,2,50,0|0|2,3:0|3:0|0:0,0:0:0:0:
110,193,65983,1,0,3:0:0:0:
333,71,66144,6,0,L|452:64,1,100,10|0,0:0|3:0,0:0:0:0:
249,222,66467,2,0,L|366:223,1,100,10|0,0:0|3:0,0:0:0:0:
502,331,66789,2,0,L|515:205,1,100,10|0,0:0|3:0,0:0:0:0:
347,258,67112,2,0,L|337:150,1,100,10|0,0:0|3:0,0:0:0:0:
60,350,67434,5,2,1:2:0:0:
150,271,67595,2,0,L|156:192,2,50,0|0|2,3:0|3:0|0:0,0:0:0:0:
23,198,67918,2,0,L|17:119,2,50,0|0|2,3:0|3:0|0:0,0:0:0:0:
150,271,68240,2,0,L|156:192,2,50,0|0|2,3:0|3:0|0:0,0:0:0:0:
23,198,68563,1,0,3:0:0:0:
248,308,68725,6,0,L|263:182,1,100,10|0,0:0|3:0,0:0:0:0:
424,202,69047,2,0,L|413:79,1,100,10|0,0:0|3:0,0:0:0:0:
244,192,69370,2,0,L|112:203,1,100,10|0,0:0|3:0,0:0:0:0:
308,240,69692,2,0,L|432:226,1,100,10|0,0:0|3:0,0:0:0:0:
119,371,70015,6,0,L|58:363,2,50,2|0|0,0:0|0:0|3:0,0:0:0:0:
294,274,70257,1,2,3:0:0:0:
349,243,70337,2,0,L|355:177,1,50
171,197,70499,1,2,3:0:0:0:
116,166,70579,1,0,0:0:0:0:
115,109,70660,1,2,0:0:0:0:
330,218,70741,1,2,0:0:0:0:
406,198,70821,2,0,L|359:215,1,50,0|0,3:0|3:0,0:0:0:0:
142,249,70983,2,0,L|92:236,1,50,2|0,3:0|0:0,0:0:0:0:
302,346,71144,2,0,L|367:358,1,50,2|0,3:0|3:0,0:0:0:0:
69,246,71305,1,10,3:0:0:0:
340,190,72112,6,0,L|325:149,1,25,2|0,3:0|0:0,0:0:0:0:
451,109,72273,2,0,L|467:68,1,25,2|0,3:0|0:0,0:0:0:0:
68,304,72596,6,0,L|11:304,1,50,12|0,0:2|0:0,0:0:0:0:
68,304,72757,2,0,L|125:304,1,50,0|0,3:0|0:0,0:0:0:0:
275,349,72918,1,8,0:2:0:0:
336,321,72999,1,0,0:0:0:0:
336,321,73079,1,0,3:0:0:0:
275,349,73160,1,0,3:0:0:0:
113,197,73241,6,0,L|51:192,1,50,10|0,3:3|0:0,0:0:0:0:
217,185,73402,2,0,L|279:190,1,50,0|0,3:0|0:0,0:0:0:0:
106,213,73563,2,0,L|46:217,1,50,8|0,0:2|0:0,0:0:0:0:
252,211,73725,2,0,L|354:201,1,100,8|2,3:0|3:2,0:0:0:0:
315,253,73967,1,0,0:0:0:0:
159,197,74047,5,0,3:0:0:0:
98,169,74128,1,0,0:0:0:0:
98,169,74208,1,8,0:2:0:0:
159,197,74289,1,0,0:0:0:0:
322,140,74370,6,0,L|378:131,1,50,0|0,3:0|0:0,0:0:0:0:
189,205,74531,2,0,L|133:214,1,50,10|0,3:3|3:0,0:0:0:0:
352,212,74692,2,0,L|376:144,1,50,0|0,3:0|3:0,0:0:0:0:
276,233,74854,2,0,L|300:165,1,50,8|0,0:2|3:0,0:0:0:0:
209,265,75015,2,0,L|177:215,1,50,0|0,3:0|0:0,0:0:0:0:
354,318,75176,6,0,L|373:205,1,100,2|0,3:2|3:0,0:0:0:0:
329,174,75418,1,0,0:0:0:0:
177,264,75499,2,0,L|138:260,2,25,8|0|0,0:2|0:0|3:0,0:0:0:0:
340,332,75660,2,0,L|377:336,2,25,0|0|0,3:0|0:0|0:0,0:0:0:0:
165,358,75821,5,10,3:3:0:0:
112,325,75902,1,0,0:0:0:0:
112,325,75983,1,0,3:0:0:0:
165,358,76063,1,0,3:0:0:0:
324,273,76144,2,0,L|331:237,6,25,8|0|0|0|8|0|0,0:2|0:0|0:0|0:0|3:0|0:0|0:0,0:0:0:0:
169,146,76467,6,0,L|111:137,1,50,2|0,3:2|0:0,0:0:0:0:
316,212,76628,2,0,L|361:219,2,25,8|0|0,3:0|0:0|3:0,0:0:0:0:
136,301,76789,2,0,L|130:348,6,25,8|0|0|0|0|0|0,0:2|0:0|0:0|0:0|3:0|0:0|0:0,0:0:0:0:
313,256,77112,6,0,L|370:251,1,50,10|0,3:3|0:0,0:0:0:0:
157,229,77273,2,0,L|123:228,2,25,0|0|0,3:0|0:0|3:0,0:0:0:0:
300,169,77434,1,8,0:2:0:0:
157,174,77515,1,0,0:0:0:0:
14,172,77596,1,0,0:0:0:0:
157,174,77676,1,0,0:0:0:0:
300,245,77757,6,0,L|309:131,1,100,2|0,3:2|3:0,0:0:0:0:
147,300,78079,2,0,L|135:190,1,100,8|0,0:2|3:0,0:0:0:0:
362,308,78402,1,10,3:3:0:0:
240,275,78563,2,0,L|139:238,1,100,0|8,3:0|0:2,0:0:0:0:
315,256,78886,1,8,3:0:0:0:
92,353,79047,5,2,3:2:0:0:
222,300,79208,1,0,3:0:0:0:
236,252,79288,1,0,0:0:0:0:
253,205,79369,1,8,0:2:0:0:
80,221,79531,1,0,3:0:0:0:
66,173,79611,1,0,0:0:0:0:
49,126,79692,1,10,3:3:0:0:
273,215,79854,6,0,L|424:191,1,150,0|0,3:0|0:0,0:0:0:0:
275,252,80176,2,0,L|214:246,1,50,8|0,3:0|0:0,0:0:0:0:
379,339,80337,6,0,L|405:219,1,100,0|0,0:0|3:0,0:0:0:0:
409,203,80579,1,0,3:0:0:0:
257,271,80660,2,0,L|154:262,1,100,8|0,0:2|3:0,0:0:0:0:
388,341,80983,2,0,L|503:354,1,100,10|0,3:3|3:0,0:0:0:0:
262,195,81305,2,0,L|377:208,1,100,8|0,0:2|3:0,0:0:0:0:
137,193,81628,6,0,L|121:298,1,100,2|0,3:2|0:0,0:0:0:0:
302,243,81950,2,0,L|286:348,1,100,8|0,0:2|0:0,0:0:0:0:
63,119,82273,2,0,L|194:110,1,100,10|0,3:3|0:0,0:0:0:0:
418,257,82596,2,0,L|308:241,1,100,8|0,0:2|0:0,0:0:0:0:
93,318,82918,6,0,L|93:298,4,20,2|2|2|2|2,0:0|0:0|0:0|0:0|0:0,0:0:0:0:
326,139,84370,5,8,0:2:0:0:
66,142,84531,1,8,0:2:0:0:
326,139,84692,1,8,0:2:0:0:
66,142,84854,1,8,0:2:0:0:
326,139,85015,1,8,0:2:0:0:
66,142,85176,1,8,0:2:0:0:
326,139,85337,1,8,0:2:0:0:
101,308,85499,5,4,3:1:0:0:
44,275,85579,1,0,0:0:0:0:
44,275,85660,1,0,3:0:0:0:
101,308,85741,1,0,0:0:0:0:
243,204,85821,6,0,L|334:192,1,50,8|0,0:2|3:0,0:0:0:0:
133,179,85983,2,0,L|42:191,1,50,0|0,3:0|0:0,0:0:0:0:
293,262,86144,6,0,L|382:252,1,50,10|0,3:3|0:0,0:0:0:0:
276,268,86305,2,0,L|187:278,1,50,0|0,3:0|0:0,0:0:0:0:
413,293,86467,5,8,0:2:0:0:
467,260,86547,1,0,3:0:0:0:
467,260,86628,1,0,3:0:0:0:
413,293,86709,1,0,0:0:0:0:
207,139,86789,6,0,L|169:138,2,25,8|0|0,3:0|0:0|0:0,0:0:0:0:
351,184,86950,2,0,L|389:185,2,25,0|0|0,3:0|0:0|0:0,0:0:0:0:
167,244,87112,2,0,L|159:288,6,25,8|0|0|0|0|0|0,0:2|0:0|0:0|0:0|3:0|0:0|3:0,0:0:0:0:
327,207,87434,6,0,L|399:196,1,50,10|0,3:3|0:0,0:0:0:0:
458,157,87596,2,0,L|386:168,1,50,0|0,3:0|0:0,0:0:0:0:
251,87,87757,5,8,0:2:0:0:
109,78,87837,1,0,0:0:0:0:
252,87,87918,1,0,3:0:0:0:
395,96,87999,1,0,3:0:0:0:
252,87,88079,1,2,3:2:0:0:
129,227,88241,5,0,3:0:0:0:
141,178,88321,1,0,0:0:0:0:
161,132,88402,1,8,0:2:0:0:
303,221,88563,1,0,3:0:0:0:
140,188,88725,2,0,L|148:70,1,100,10|0,3:3|3:0,0:0:0:0:
309,181,89047,2,0,L|298:72,1,100,8|8,0:2|3:0,0:0:0:0:
74,209,89370,5,2,3:2:0:0:
32,169,89450,1,0,0:0:0:0:
32,169,89531,1,0,3:0:0:0:
74,209,89612,1,0,0:0:0:0:
310,292,89692,2,0,L|319:227,1,50,8|0,0:2|0:0,0:0:0:0:
229,300,89853,2,0,L|238:235,1,50,0|0,3:0|3:0,0:0:0:0:
394,186,90015,1,10,3:3:0:0:
288,166,90176,2,0,L|182:147,1,100,0|8,3:0|0:2,0:0:0:0:
360,239,90499,1,0,3:0:0:0:
137,158,90660,6,0,L|112:48,1,100,0|0,0:0|3:0,0:0:0:0:
105,37,90902,1,0,3:0:0:0:
264,137,90983,2,0,L|380:152,1,100,8|0,0:2|3:0,0:0:0:0:
139,205,91305,2,0,L|26:182,1,100,10|0,3:3|3:0,0:0:0:0:
177,281,91628,2,0,L|141:382,1,100,8|0,0:2|3:0,0:0:0:0:
366,210,91950,6,0,L|426:206,1,50,2|0,3:2|3:2,0:0:0:0:
325,216,92112,2,0,L|265:220,1,50,0|0,3:2|3:2,0:0:0:0:
89,161,92273,1,2,3:2:0:0:
52,124,92353,1,0,3:2:0:0:
52,124,92434,1,0,3:2:0:0:
89,161,92514,1,0,3:2:0:0:
280,268,92596,6,0,L|330:275,1,50,2|0,3:2|3:2,0:0:0:0:
157,199,92757,2,0,L|108:191,1,50,0|0,3:2|3:2,0:0:0:0:
276,291,92918,2,0,L|325:299,1,50,2|0,3:2|3:2,0:0:0:0:
164,171,93079,2,0,L|114:164,1,50,0|0,3:2|3:2,0:0:0:0:
382,162,93241,1,14,0:2:0:0:
