osu file format v14

[General]
AudioFilename: audio.mp3
AudioLeadIn: 0
PreviewTime:71225
Countdown: 0
SampleSet: Soft
StackLeniency: 0.7
Mode: 2
LetterboxInBreaks: 0
WidescreenStoryboard: 1

[Editor]
DistanceSpacing: 1.4
BeatDivisor: 4
GridSize: 8
TimelineZoom: 2.799999

[Metadata]
Title:Easy Breezy feat. Zenpaku [ dj-Jo Trap Remix ] TV Size
TitleUnicode:Easy Breezy feat. Zenpaku [ dj-Jo Trap Remix ] TV Size
Artist:chelmico
ArtistUnicode:chelmico
Creator:Ascendance
Version:Himiko's Rain
Source:映像研には手を出すな!
Tags:ni wa Te wo Dasu na! Keep Your Hands Off Eizoken! electronic anime japanese future bass dnb drum and & breakbeat op opening chatie wonjae paranoid grapes examination yumeno himiko radar hip hop hip-hop pop rap
BeatmapID:2952517
BeatmapSetID:1284565

[Difficulty]
HPDrainRate:6
CircleSize:4
OverallDifficulty:8
ApproachRate:9
SliderMultiplier:1.92
SliderTickRate:2

[Events]
//Background and Video events
0,0,"1146643_sallystarchaser_strange-girls-from-keep-your-hands-off-eizouken.jpg",0,0
//Break Periods
//Storyboard Layer 0 (Background)
//Storyboard Layer 1 (Fail)
//Storyboard Layer 2 (Pass)
//Storyboard Layer 3 (Foreground)
//Storyboard Layer 4 (Overlay)
//Storyboard Sound Samples

[TimingPoints]
338,322.58064516129,4,2,3,50,1,0
10660,-100,4,2,3,60,0,0
20983,-100,4,2,3,50,0,0
31305,-100,4,2,3,55,0,0
41628,-100,4,2,3,60,0,0
62273,-100,4,2,3,55,0,0
72596,-83.3333333333333,4,1,3,70,0,1
93241,-100,4,1,3,70,0,0

[Colours]
Combo1 : 59,100,171
Combo2 : 255,66,66
Combo3 : 65,255,151

[HitObjects]
192,320,338,6,0,P|96:248|208:144,1,288,0|0,1:0|0:0,0:0:0:0:
328,144,983,2,0,L|128:128,1,192,2|0,1:0|1:0,0:0:0:0:
384,240,1628,6,0,L|248:312,2,144,2|0|0,1:0|0:0|0:0,0:0:0:0:
256,232,2273,2,0,P|182:233|72:48,1,288,2|0,1:0|0:0,0:0:0:0:
216,72,2918,6,0,P|312:128|208:216,1,288,2|0,1:0|0:0,0:0:0:0:
72,288,3563,2,0,L|280:272,1,192,2|0,1:0|1:0,0:0:0:0:
40,80,4208,6,0,L|184:144,2,144,2|0|0,1:0|0:0|0:0,0:0:0:0:
200,72,4854,2,0,L|424:56,1,192,2|0,1:0|1:0,0:0:0:0:
112,312,5499,6,0,P|23:258|144:152,1,288,2|0,1:0|0:0,0:0:0:0:
256,144,6144,2,0,L|64:88,1,192,2|0,1:0|1:0,0:0:0:0:
352,128,6789,6,0,L|504:112,2,144,2|0|0,1:0|0:0|0:0,0:0:0:0:
200,144,7434,2,0,P|304:152|400:320,1,288,2|0,1:0|0:0,0:0:0:0:
240,336,8079,6,0,L|232:208,1,96,2|0,1:0|0:0,0:0:0:0:
384,192,8402,1,0,3:0:0:0:
216,216,8563,1,0,3:0:0:0:
172,197,8643,1,0,0:0:0:0:
156,154,8724,1,0,3:0:0:0:
175,111,8804,1,0,3:0:0:0:
219,95,8885,1,0,3:0:0:0:
384,80,9047,2,0,L|496:64,1,96,0|0,3:0|3:0,0:0:0:0:
320,304,9370,6,0,L|208:296,2,96,2|0|0,1:0|3:0|3:0,0:0:0:0:
192,304,9854,2,0,L|184:232,1,48,0|0,3:0|0:0,0:0:0:0:
264,240,10015,2,0,L|272:112,1,96,2|0,3:1|3:0,0:0:0:0:
136,136,10337,2,0,L|24:128,1,96,0|0,3:0|3:0,0:0:0:0:
288,64,10660,6,0,P|351:99|272:168,1,192,6|8,0:2|0:0,0:0:0:0:
136,272,11144,1,0,3:0:0:0:
132,224,11224,1,0,3:0:0:0:
128,176,11305,1,2,3:2:0:0:
256,272,11467,1,2,3:2:0:0:
488,128,11628,2,0,L|376:136,1,96,8|0,0:0|3:0,0:0:0:0:
160,128,11950,6,0,P|104:160|184:232,1,192,2|8,3:2|0:0,0:0:0:0:
320,248,12434,1,0,3:0:0:0:
376,248,12515,1,0,3:0:0:0:
320,248,12596,1,2,3:2:0:0:
184,248,12757,1,0,3:0:0:0:
416,336,12918,2,0,L|424:240,1,96,8|0,0:0|3:0,0:0:0:0:
192,136,13241,6,0,P|128:128|64:16,1,192,6|8,2:0|0:0,0:0:0:0:
208,24,13725,1,0,3:0:0:0:
248,48,13805,1,0,3:0:0:0:
296,72,13886,1,2,3:2:0:0:
168,136,14047,1,2,3:2:0:0:
400,272,14208,2,0,L|408:152,1,96,8|0,0:0|3:0,0:0:0:0:
168,328,14531,6,0,P|152:256|272:192,1,192,2|8,3:2|0:0,0:0:0:0:
80,144,15015,1,0,3:0:0:0:
32,144,15096,1,0,3:0:0:0:
80,144,15176,1,10,3:2:0:0:
208,144,15337,1,0,3:0:0:0:
56,304,15499,1,8,0:0:0:0:
52,256,15579,1,0,0:0:0:0:
48,208,15660,1,0,0:0:0:0:
288,264,15821,6,0,P|336:216|248:128,1,192,6|8,2:0|0:0,0:0:0:0:
144,104,16305,1,0,3:0:0:0:
191,100,16385,1,0,3:0:0:0:
239,97,16466,1,2,3:2:0:0:
368,88,16628,1,2,3:2:0:0:
136,280,16789,2,0,L|24:272,1,96,8|0,0:0|3:0,0:0:0:0:
272,224,17112,6,0,P|344:224|440:128,1,192,2|8,3:2|0:0,0:0:0:0:
288,112,17596,1,0,3:0:0:0:
240,112,17676,1,0,3:0:0:0:
288,112,17757,1,2,3:2:0:0:
416,112,17918,1,0,3:0:0:0:
176,280,18079,2,0,L|168:160,1,96,8|0,0:0|0:0,0:0:0:0:
416,144,18402,6,0,P|432:200|328:280,1,192,6|8,2:0|0:0,0:0:0:0:
200,320,18886,1,0,3:0:0:0:
196,272,18966,1,0,3:0:0:0:
192,224,19047,1,2,3:2:0:0:
320,216,19208,1,2,3:2:0:0:
80,152,19370,2,0,L|200:144,1,96,8|0,0:0|3:0,0:0:0:0:
416,128,19692,6,0,L|200:104,1,192,2|8,3:2|0:0,0:0:0:0:
384,88,20176,2,0,L|456:80,1,48,0|0,3:0|3:0,0:0:0:0:
288,192,20337,5,6,2:0:0:0:
104,320,20660,2,0,L|216:312,1,96
440,304,20983,6,0,L|448:168,1,96,4|0,2:0|0:0,0:0:0:0:
184,184,21467,2,0,L|248:176,1,48
328,168,21628,2,0,L|336:48,1,96,2|0,0:0|0:0,0:0:0:0:
184,64,21950,1,2,3:2:0:0:
181,95,22003,1,0,3:0:0:0:
179,127,22057,1,0,3:0:0:0:
177,159,22111,1,0,3:0:0:0:
320,272,22273,5,2,3:2:0:0:
322,240,22326,1,0,3:0:0:0:
324,208,22380,1,0,3:0:0:0:
326,176,22434,1,0,3:0:0:0:
192,208,22596,1,0,3:2:0:0:
328,176,22757,1,0,3:2:0:0:
88,280,22918,2,0,L|80:160,1,96,2|2,3:2|3:2,0:0:0:0:
328,128,23402,1,2,3:2:0:0:
176,232,23563,6,0,L|168:120,1,96,4|0,3:0|0:0,0:0:0:0:
296,112,23886,2,0,L|112:128,1,144,2|0,3:2|0:0,0:0:0:0:
232,232,24208,2,0,L|224:120,1,96,2|0,3:2|0:0,0:0:0:0:
376,248,24531,1,2,3:2:0:0:
378,216,24584,1,0,3:0:0:0:
380,184,24638,1,0,3:0:0:0:
382,152,24692,1,0,3:0:0:0:
240,328,24854,5,2,3:2:0:0:
242,296,24907,1,0,3:0:0:0:
244,264,24961,1,0,3:0:0:0:
246,232,25015,1,0,3:0:0:0:
112,200,25176,1,0,3:2:0:0:
248,192,25337,1,0,3:2:0:0:
304,184,25418,1,0,3:2:0:0:
160,120,25499,2,0,L|48:128,1,96,2|0,3:2|0:0,0:0:0:0:
216,224,25821,6,0,L|304:232,2,64,0|0|0,3:2|3:2|3:2,0:0:0:0:
112,288,26144,6,0,L|8:304,2,96,4|0|0,3:0|1:0|3:0,0:0:0:0:
264,200,26628,2,0,L|48:176,1,192,0|0,1:0|1:0,0:0:0:0:
208,112,27112,1,2,3:2:0:0:
210,143,27165,1,0,3:0:0:0:
212,175,27219,1,0,3:0:0:0:
215,207,27273,1,0,1:0:0:0:
352,208,27434,5,2,3:2:0:0:
354,239,27487,1,0,3:0:0:0:
356,271,27541,1,0,3:0:0:0:
359,303,27595,1,0,1:0:0:0:
232,288,27757,1,8,3:0:0:0:
359,303,27918,1,0,1:0:0:0:
232,336,28079,1,0,3:2:0:0:
384,336,28241,2,0,P|432:280|328:208,1,192,0|0,1:0|1:0,0:0:0:0:
136,216,28725,6,0,L|128:112,1,96,4|0,3:0|0:0,0:0:0:0:
256,112,29047,1,8,3:0:0:0:
128,120,29208,1,0,0:0:0:0:
272,112,29370,2,0,L|392:104,1,96,8|0,3:0|0:0,0:0:0:0:
232,248,29692,1,2,3:2:0:0:
229,216,29745,1,0,3:0:0:0:
227,184,29799,1,0,3:0:0:0:
225,152,29853,1,0,3:0:0:0:
368,296,30015,5,2,3:2:0:0:
365,264,30068,1,0,3:0:0:0:
363,232,30122,1,0,3:0:0:0:
361,200,30176,1,0,3:0:0:0:
496,184,30337,1,8,3:0:0:0:
361,200,30499,1,0,3:2:0:0:
128,304,30660,2,0,P|72:256|144:176,1,192,2|2,3:2|3:2,0:0:0:0:
280,168,31144,1,2,3:0:0:0:
48,56,31305,5,10,3:2:0:0:
168,80,31467,1,0,0:0:0:0:
48,96,31628,1,8,0:0:0:0:
168,120,31789,1,0,0:0:0:0:
400,136,31950,2,0,L|176:192,1,192,0|2,3:0|3:2,0:0:0:0:
212,212,32327,1,0,3:0:0:0:
212,242,32381,1,0,3:0:0:0:
208,271,32434,1,0,3:0:0:0:
360,312,32596,5,2,3:2:0:0:
362,280,32649,1,0,3:0:0:0:
364,248,32703,1,0,3:0:0:0:
366,216,32757,1,2,3:0:0:0:
232,304,32918,1,8,3:0:0:0:
366,216,33079,1,8,3:0:0:0:
120,152,33241,1,2,3:0:0:0:
240,128,33402,1,0,0:0:0:0:
120,152,33563,2,0,L|112:40,1,96,2|0,1:3|0:0,0:0:0:0:
344,80,33886,5,10,3:2:0:0:
464,104,34047,1,0,0:0:0:0:
344,80,34208,1,8,0:0:0:0:
464,104,34370,1,0,0:0:0:0:
208,280,34531,2,0,L|408:264,1,192,0|8,3:0|3:3,0:0:0:0:
402,232,34907,1,0,3:0:0:0:
405,200,34961,1,0,3:0:0:0:
408,169,35015,1,0,3:0:0:0:
264,160,35176,5,8,3:3:0:0:
266,128,35229,1,0,3:0:0:0:
268,96,35283,1,0,3:0:0:0:
270,64,35337,1,2,3:0:0:0:
120,224,35499,1,8,3:0:0:0:
122,192,35552,1,0,0:0:0:0:
124,160,35606,1,0,0:0:0:0:
126,128,35660,1,8,3:0:0:0:
360,320,35821,6,0,P|400:256|320:192,1,192,2|0,3:0|3:0,0:0:0:0:
240,192,36251,1,0,3:0:0:0:
324,191,36359,1,0,3:0:0:0:
144,320,36467,6,0,P|72:280|144:208,1,192,10|8,3:2|0:0,0:0:0:0:
248,200,36950,1,0,0:0:0:0:
96,104,37112,2,0,L|208:112,1,96,0|0,3:0|0:0,0:0:0:0:
336,120,37434,1,2,3:2:0:0:
333,151,37487,1,0,3:0:0:0:
331,183,37541,1,0,3:0:0:0:
328,215,37595,1,0,3:0:0:0:
176,224,37757,5,2,3:2:0:0:
173,255,37810,1,0,3:0:0:0:
171,287,37864,1,0,3:0:0:0:
168,319,37918,1,2,3:0:0:0:
296,320,38079,2,0,L|176:304,1,96,8|8,3:0|3:0,0:0:0:0:
328,248,38402,1,2,3:0:0:0:
448,232,38563,1,0,3:0:0:0:
344,200,38725,1,2,3:0:0:0:
448,232,38886,1,0,0:0:0:0:
208,136,39047,5,10,3:2:0:0:
88,112,39208,1,0,0:0:0:0:
216,136,39370,1,8,0:0:0:0:
344,160,39531,1,0,0:0:0:0:
200,136,39692,1,0,3:0:0:0:
344,160,39854,1,0,0:0:0:0:
200,280,40015,1,2,3:2:0:0:
197,248,40068,1,0,3:0:0:0:
195,216,40122,1,0,3:0:0:0:
193,184,40176,1,0,3:0:0:0:
48,184,40337,5,2,3:2:0:0:
45,152,40390,1,0,3:0:0:0:
43,120,40444,1,0,3:0:0:0:
41,88,40498,1,2,3:0:0:0:
160,72,40660,1,8,3:0:0:0:
41,88,40821,1,8,3:0:0:0:
168,72,40983,1,0,3:0:0:0:
41,88,41144,1,0,3:0:0:0:
288,288,41305,2,0,L|408:280,1,96,2|2,3:0|3:0,0:0:0:0:
136,320,41628,6,0,P|80:272|160:200,1,192,10|4,3:2|3:0,0:0:0:0:
256,176,42112,1,0,3:0:0:0:
408,160,42273,2,0,L|288:144,1,96,8|2,3:2|3:0,0:0:0:0:
200,128,42596,1,2,0:0:0:0:
432,320,42757,6,0,P|480:272|408:192,1,192,8|8,3:2|3:2,0:0:0:0:
280,192,43241,1,10,2:3:0:0:
416,192,43402,1,8,2:3:0:0:
280,192,43563,2,0,L|272:88,1,96,8|8,3:2|3:2,0:0:0:0:
432,320,43886,2,0,L|424:216,1,96,2|8,0:0|3:2,0:0:0:0:
192,264,44208,6,0,P|152:200|248:144,1,192,6|8,3:0|3:2,0:0:0:0:
360,128,44692,1,0,3:0:0:0:
200,224,44854,2,0,L|24:208,2,144,8|0|0,3:2|0:0|3:0,0:0:0:0:
432,328,45499,6,0,L|440:224,1,96,0|8,3:0|3:2,0:0:0:0:
312,200,45821,1,2,0:0:0:0:
160,176,45983,2,0,L|224:168,1,48,8|0,2:3|0:0,0:0:0:0:
368,160,46144,2,0,P|416:200|336:296,1,192,8|2,3:2|0:0,0:0:0:0:
272,280,46574,1,8,2:3:0:0:
184,264,46682,1,8,2:3:0:0:
360,352,46789,6,0,L|368:248,1,96,10|0,3:2|3:0,0:0:0:0:
240,208,47112,1,10,0:2:0:0:
376,208,47273,1,0,3:0:0:0:
240,208,47434,2,0,L|128:192,2,96,8|2|2,3:2|3:0|0:0,0:0:0:0:
400,120,47918,6,0,L|512:104,2,96,0|0|8,3:0|3:0|3:2,0:0:0:0:
256,208,48402,2,0,L|368:192,1,96,10|8,2:3|2:3,0:0:0:0:
88,328,48725,5,8,3:2:0:0:
85,231,48886,1,8,3:2:0:0:
80,136,49047,1,2,0:0:0:0:
216,120,49208,1,8,3:2:0:0:
448,296,49370,6,0,L|320:288,2,96,10|0|10,3:2|3:0|3:2,0:0:0:0:
312,208,49854,2,0,L|416:216,2,96,0|8|10,3:0|3:2|3:2,0:0:0:0:
448,216,50337,2,0,L|456:104,1,96,2|8,0:0|3:2,0:0:0:0:
208,136,50660,5,0,3:0:0:0:
80,152,50821,1,8,3:2:0:0:
208,136,50983,1,8,3:2:0:0:
80,152,51144,1,8,2:3:0:0:
312,296,51305,2,0,P|344:232|272:176,1,144,8|8,3:2|1:2,0:0:0:0:
208,168,51628,2,0,L|205:66,1,96,2|8,0:0|3:2,0:0:0:0:
448,336,51950,5,6,0:0:0:0:
451,240,52111,1,2,0:0:0:0:
455,144,52272,1,8,3:2:0:0:
304,160,52434,1,0,3:0:0:0:
152,184,52596,1,2,0:0:0:0:
144,280,52757,1,8,3:2:0:0:
272,272,52918,1,8,3:2:0:0:
40,352,53079,6,0,L|32:144,1,192,8|2,3:2|0:0,0:0:0:0:
192,144,53563,1,8,3:2:0:0:
200,232,53725,1,2,0:0:0:0:
72,264,53886,1,2,0:0:0:0:
200,232,54047,1,8,3:2:0:0:
432,336,54208,6,0,L|440:128,1,192,8|2,3:2|0:0,0:0:0:0:
304,136,54692,1,2,0:0:0:0:
440,144,54854,1,8,3:2:0:0:
448,232,55015,1,0,3:0:0:0:
304,328,55176,1,2,0:0:0:0:
296,248,55337,1,8,3:2:0:0:
144,224,55499,1,8,3:2:0:0:
384,296,55660,6,0,L|368:96,1,192,8|2,3:2|3:0,0:0:0:0:
232,120,56144,1,0,3:0:0:0:
368,104,56305,1,2,0:0:0:0:
232,120,56467,1,2,3:0:0:0:
472,264,56628,1,8,3:2:0:0:
480,168,56789,1,8,3:2:0:0:
488,80,56950,1,0,3:0:0:0:
248,320,57112,5,2,0:0:0:0:
240,240,57273,1,2,0:0:0:0:
232,160,57434,1,8,3:2:0:0:
96,144,57596,1,0,3:0:0:0:
232,160,57757,1,2,0:0:0:0:
248,72,57918,1,2,0:0:0:0:
384,72,58079,1,8,3:2:0:0:
248,72,58241,1,2,0:0:0:0:
384,72,58402,5,2,3:0:0:0:
400,160,58563,1,0,3:0:0:0:
264,184,58725,1,8,3:2:0:0:
400,160,58886,1,0,3:0:0:0:
160,320,59047,1,2,3:0:0:0:
288,288,59208,1,8,3:2:0:0:
160,320,59370,1,8,3:2:0:0:
152,240,59531,1,0,0:0:0:0:
376,328,59692,6,0,L|392:120,1,192,10|2,3:2|3:0,0:0:0:0:
256,128,60176,1,0,3:0:0:0:
104,272,60337,2,0,L|96:56,1,192,8|2,3:2|3:0,0:0:0:0:
224,64,60821,1,0,3:0:0:0:
384,48,60983,6,0,P|440:94|344:176,1,192,8|2,3:2|3:0,0:0:0:0:
256,200,61467,1,0,3:0:0:0:
112,208,61628,1,8,3:2:0:0:
344,296,61789,2,0,L|352:176,1,96,8|8,3:2|3:2,0:0:0:0:
136,352,62273,5,6,0:0:0:0:
256,304,62434,1,0,3:0:0:0:
259,256,62514,1,0,3:0:0:0:
262,208,62595,1,2,0:0:0:0:
408,192,62757,1,0,3:0:0:0:
411,144,62837,1,0,3:0:0:0:
414,96,62918,1,2,0:0:0:0:
264,160,63079,1,0,3:0:0:0:
267,112,63159,1,0,3:0:0:0:
270,64,63240,1,2,0:0:0:0:
128,248,63402,1,0,3:0:0:0:
131,200,63482,1,0,3:0:0:0:
272,192,63563,6,0,L|280:72,1,96,10|0,0:0|3:0,0:0:0:0:
208,88,63805,1,0,3:0:0:0:
144,192,63886,2,0,L|136:72,1,96,10|0,0:0|3:0,0:0:0:0:
208,88,64128,1,0,3:0:0:0:
272,192,64208,2,0,L|280:72,1,96,10|0,0:0|3:0,0:0:0:0:
208,88,64450,1,0,3:0:0:0:
144,192,64531,2,0,L|136:72,1,96,10|0,0:0|3:0,0:0:0:0:
208,88,64773,1,0,3:0:0:0:
352,352,64854,5,2,0:0:0:0:
224,304,65015,1,0,3:0:0:0:
221,256,65095,1,0,3:0:0:0:
218,208,65176,1,2,0:0:0:0:
72,192,65338,1,0,3:0:0:0:
69,144,65418,1,0,3:0:0:0:
66,96,65499,1,2,0:0:0:0:
216,160,65660,1,0,3:0:0:0:
213,112,65740,1,0,3:0:0:0:
210,64,65821,1,2,0:0:0:0:
352,248,65983,1,0,3:0:0:0:
349,200,66063,1,0,3:0:0:0:
208,192,66144,6,0,L|200:72,1,96,10|0,0:0|3:0,0:0:0:0:
272,88,66386,1,0,3:0:0:0:
336,192,66467,2,0,L|344:72,1,96,10|0,0:0|3:0,0:0:0:0:
272,88,66709,1,0,3:0:0:0:
208,192,66789,2,0,L|200:72,1,96,10|0,0:0|3:0,0:0:0:0:
272,88,67031,1,0,3:0:0:0:
336,192,67112,2,0,L|344:72,1,96,10|0,0:0|3:0,0:0:0:0:
272,88,67354,1,0,3:0:0:0:
128,72,67434,5,2,1:2:0:0:
256,160,67596,1,0,3:0:0:0:
258,112,67676,1,0,3:0:0:0:
261,64,67757,1,2,0:0:0:0:
120,288,67918,1,0,3:0:0:0:
117,240,67998,1,0,3:0:0:0:
114,192,68079,1,2,0:0:0:0:
256,160,68241,1,0,3:0:0:0:
258,112,68321,1,0,3:0:0:0:
261,64,68402,1,2,0:0:0:0:
120,288,68563,1,0,3:0:0:0:
117,240,68643,1,0,3:0:0:0:
256,232,68725,6,0,L|360:224,1,96,10|0,0:0|3:0,0:0:0:0:
416,216,68967,1,0,3:0:0:0:
336,176,69047,2,0,L|232:168,1,96,10|0,0:0|3:0,0:0:0:0:
176,160,69289,1,0,3:0:0:0:
256,232,69370,2,0,L|360:224,1,96,10|0,0:0|3:0,0:0:0:0:
416,216,69612,1,0,3:0:0:0:
336,176,69692,2,0,L|232:168,1,96,10|0,0:0|3:0,0:0:0:0:
176,160,69934,1,0,3:0:0:0:
328,320,70015,6,0,L|480:328,2,144,2|2|2,0:0|3:0|3:0,0:0:0:0:
96,224,70660,2,0,L|160:218,1,48,2|2,0:0|3:0,0:0:0:0:
264,152,70902,2,0,L|192:144,1,48,0|2,3:0|3:0,0:0:0:0:
96,128,71144,1,2,3:0:0:0:
336,232,71305,5,10,3:0:0:0:
104,320,71950,2,0,L|96:208,1,96,0|2,3:0|3:0,0:0:0:0:
360,192,72273,2,0,P|392:136|320:80,1,144,2|0,3:0|0:0,0:0:0:0:
144,88,72596,6,0,P|64:144|144:232,1,230.39999296875,12|8,0:2|0:2,0:0:0:0:
248,240,73079,1,0,3:0:0:0:
472,136,73241,2,0,L|224:152,1,230.39999296875,10|8,3:3|0:2,0:0:0:0:
352,216,73725,1,8,3:0:0:0:
488,256,73886,5,2,3:2:0:0:
336,296,74047,2,0,L|336:176,2,115.199996484375,0|8|0,3:0|0:2|3:0,0:0:0:0:
112,280,74531,2,0,L|248:272,1,115.199996484375,10|0,3:3|3:0,0:0:0:0:
376,256,74854,1,8,0:2:0:0:
224,224,75015,1,0,3:0:0:0:
448,120,75176,6,0,P|496:176|392:296,1,230.39999296875,2|8,3:2|0:2,0:0:0:0:
312,288,75660,1,0,3:0:0:0:
88,200,75821,2,0,L|328:184,1,230.39999296875,10|8,3:3|0:2,0:0:0:0:
200,144,76305,1,8,3:0:0:0:
440,296,76467,6,0,L|448:264,4,28.7999991210938,2|0|0|0|8,3:2|0:0|0:0|0:0|3:0,0:0:0:0:
328,240,76789,2,0,L|320:208,4,28.7999991210938,8|0|0|0|0,0:2|0:0|0:0|0:0|3:0,0:0:0:0:
96,336,77112,6,0,P|48:304|136:192,1,230.39999296875,10|8,3:3|0:2,0:0:0:0:
256,168,77596,1,0,0:0:0:0:
112,144,77757,5,2,3:2:0:0:
240,144,77918,2,0,L|240:272,2,115.199996484375,0|8|0,3:0|0:2|3:0,0:0:0:0:
472,192,78402,2,0,L|336:176,1,115.199996484375,10|0,3:3|3:0,0:0:0:0:
200,160,78725,1,8,0:2:0:0:
357,178,78886,1,8,3:0:0:0:
128,304,79047,6,0,L|0:288,1,115.199996484375,2|0,3:2|3:0,0:0:0:0:
80,264,79289,1,0,0:0:0:0:
152,248,79370,2,0,L|272:224,1,115.199996484375,8|0,0:2|3:0,0:0:0:0:
200,200,79612,1,0,0:0:0:0:
56,184,79692,2,0,L|37:52,1,115.199996484375,10|0,3:3|3:0,0:0:0:0:
160,56,80015,1,8,0:2:0:0:
320,48,80176,1,8,3:0:0:0:
96,296,80337,5,2,3:2:0:0:
240,256,80499,1,0,3:0:0:0:
243,198,80579,1,0,3:0:0:0:
246,140,80660,1,8,0:2:0:0:
128,120,80821,1,0,3:0:0:0:
376,112,80983,1,10,3:3:0:0:
496,96,81144,1,0,3:0:0:0:
400,112,81305,1,8,0:2:0:0:
496,96,81467,1,0,3:0:0:0:
248,264,81628,6,0,L|16:240,1,230.39999296875,2|8,3:2|0:2,0:0:0:0:
136,200,82112,1,0,3:0:0:0:
384,248,82273,2,0,P|448:208|352:120,1,230.39999296875,10|8,3:3|0:2,0:0:0:0:
248,104,82757,1,0,3:0:0:0:
16,304,82918,6,0,L|24:264,4,28.7999991210938,2|0|0|0|0,0:0|0:0|0:0|0:0|0:0,0:0:0:0:
152,248,83241,2,0,L|160:208,4,28.7999991210938,2|0|0|0|0,0:0|0:0|0:0|0:0|0:0,0:0:0:0:
288,192,83563,6,0,L|296:152,4,28.7999991210938,2|0|0|0|0,0:0|0:0|0:0|0:0|0:0,0:0:0:0:
424,136,83886,2,0,L|432:96,4,28.7999991210938,2|0|0|0|0,0:0|0:0|0:0|0:0|0:0,0:0:0:0:
280,104,84208,5,2,0:0:0:0:
48,304,84370,1,8,0:2:0:0:
200,272,84531,1,8,0:2:0:0:
352,248,84692,1,8,0:2:0:0:
200,224,84854,1,8,0:2:0:0:
48,200,85015,1,8,0:2:0:0:
200,192,85176,1,8,0:2:0:0:
352,176,85337,1,8,0:2:0:0:
128,160,85499,6,0,P|72:176|136:296,1,230.39999296875,4|8,3:1|0:2,0:0:0:0:
256,304,85983,1,0,3:0:0:0:
480,136,86144,2,0,L|240:152,1,230.39999296875,10|8,3:3|0:2,0:0:0:0:
376,208,86628,1,0,3:0:0:0:
152,312,86789,6,0,P|56:280|40:152,1,230.39999296875,8|8,3:0|0:2,0:0:0:0:
152,144,87273,1,0,3:0:0:0:
392,288,87434,2,0,L|400:160,1,115.199996484375,10|0,3:3|3:0,0:0:0:0:
248,152,87757,2,0,L|240:112,4,28.7999991210938,8|0|0|0|0,0:2|0:0|0:0|0:0|3:0,0:0:0:0:
480,88,88079,5,2,3:2:0:0:
360,96,88241,1,0,3:0:0:0:
356,153,88321,1,0,0:0:0:0:
353,211,88402,1,8,0:2:0:0:
480,240,88563,1,0,3:0:0:0:
232,328,88725,2,0,L|224:200,1,115.199996484375,10|0,3:3|3:0,0:0:0:0:
360,168,89047,1,8,0:2:0:0:
224,152,89208,1,8,3:0:0:0:
72,136,89370,6,0,L|66:43,3,57.5999982421876,2|0|0|0,3:2|0:0|3:0|0:0,0:0:0:0:
176,144,89692,2,0,L|173:223,3,57.5999982421876,8|0|0|0,0:2|0:0|3:0|3:0,0:0:0:0:
352,88,90015,2,0,L|480:80,2,115.199996484375,10|0|8,3:3|3:0|0:2,0:0:0:0:
192,104,90499,1,0,3:0:0:0:
352,168,90660,5,2,3:2:0:0:
192,184,90821,2,0,L|64:176,2,115.199996484375,0|8|0,3:0|0:2|3:0,0:0:0:0:
432,336,91305,2,0,L|440:208,1,115.199996484375,10|0,3:3|3:0,0:0:0:0:
280,192,91628,1,8,0:2:0:0:
440,222,91789,1,0,3:0:0:0:
160,304,91950,5,2,3:2:0:0:
116,269,92030,1,0,3:2:0:0:
118,214,92111,1,0,3:2:0:0:
164,183,92191,1,0,3:2:0:0:
336,176,92273,1,2,3:2:0:0:
379,141,92353,1,0,3:2:0:0:
377,86,92434,1,0,3:2:0:0:
331,55,92514,1,0,3:2:0:0:
176,64,92596,6,0,L|104:64,1,57.5999982421876,2|0,3:2|3:2,0:0:0:0:
280,248,92757,2,0,L|352:248,1,57.5999982421876,0|0,3:2|3:2,0:0:0:0:
152,248,92918,1,2,3:2:0:0:
107,215,92998,1,0,3:2:0:0:
107,159,93079,1,0,3:2:0:0:
153,128,93159,1,0,3:2:0:0:
320,128,93241,5,14,0:2:0:0:
