osu file format v14

[General]
AudioFilename: audio.mp3
AudioLeadIn: 0
PreviewTime: 71225
Countdown: 0
SampleSet: Soft
StackLeniency: 0.7
Mode: 2
LetterboxInBreaks: 0
WidescreenStoryboard: 1

[Editor]
Bookmarks: 41628,51950,62273,91950
DistanceSpacing: 1.4
BeatDivisor: 4
GridSize: 32
TimelineZoom: 1.5

[Metadata]
Title:Easy Breezy feat. Zenpaku [ dj-Jo Trap Remix ] TV Size
TitleUnicode:Easy Breezy feat. Zenpaku [ dj-Jo Trap Remix ] TV Size
Artist:chelmico
ArtistUnicode:chelmico
Creator:Ascendance
Version:Chatie's Salad
Source:映像研には手を出すな!
Tags:ni wa Te wo Dasu na! Keep Your Hands Off Eizoken! electronic anime japanese future bass dnb drum and & breakbeat op opening chatie wonjae paranoid grapes examination yumeno himiko radar hip hop hip-hop pop rap
BeatmapID:2943796
BeatmapSetID:1284565

[Difficulty]
HPDrainRate:4
CircleSize:3
OverallDifficulty:7
ApproachRate:7
SliderMultiplier:1.6
SliderTickRate:1

[Events]
//Background and Video events
0,0,"1146643_sallystarchaser_strange-girls-from-keep-your-hands-off-eizouken.jpg",0,0
//Break Periods
//Storyboard Layer 0 (Background)
//Storyboard Layer 1 (Fail)
//Storyboard Layer 2 (Pass)
//Storyboard Layer 3 (Foreground)
//Storyboard Layer 4 (Overlay)
//Storyboard Sound Samples

[TimingPoints]
338,322.58064516129,4,2,3,50,1,0
10660,-100,4,2,3,60,0,0
20983,-100,4,2,3,50,0,0
31305,-100,4,2,3,55,0,0
41628,-100,4,2,3,60,0,0
62273,-100,4,2,3,55,0,0
72596,-100,4,1,3,70,0,1
87757,-100,4,1,3,70,0,1
87918,-100,4,1,3,70,0,1
93241,-100,4,1,3,70,0,0

[Colours]
Combo1 : 59,100,171
Combo2 : 255,66,66
Combo3 : 65,255,151

[HitObjects]
129,248,338,6,0,P|82:147|174:54,1,240,0|0,1:0|0:0,0:0:0:0:
237,59,983,2,0,L|394:134,1,160,2|0,1:0|1:0,0:0:0:0:
109,279,1628,6,0,P|70:209|123:150,1,160,2|0,1:0|1:0,0:0:0:0:
194,145,2112,1,0,0:0:0:0:
274,153,2273,2,0,L|105:238,1,160,2|0,1:0|0:0,0:0:0:0:
387,257,2918,6,0,P|456:152|371:55,1,240,2|0,1:0|0:0,0:0:0:0:
322,68,3563,2,0,L|506:68,1,160,2|0,1:0|1:0,0:0:0:0:
210,178,4208,6,0,L|30:179,1,160,2|0,1:0|0:0,0:0:0:0:
130,178,4692,1,0,0:0:0:0:
210,177,4854,2,0,L|60:253,1,160,2|0,1:0|1:0,0:0:0:0:
323,294,5499,6,0,P|391:172|310:119,1,240,2|0,1:0|0:0,0:0:0:0:
253,125,6144,2,0,L|63:126,1,160,2|0,1:0|1:0,0:0:0:0:
366,202,6789,6,0,P|413:142|361:74,1,160,2|0,1:0|1:0,0:0:0:0:
294,79,7273,1,0,0:0:0:0:
214,79,7434,2,0,L|362:154,1,160,2|0,1:0|0:0,0:0:0:0:
101,261,8079,6,0,P|60:126|141:103,1,240,2|0,1:0|3:0,0:0:0:0:
203,104,8725,2,0,L|38:158,1,160,0|0,3:0|3:0,0:0:0:0:
123,102,9208,1,0,3:0:0:0:
304,222,9370,6,0,P|343:130|300:93,1,160,2|0,1:0|3:0,0:0:0:0:
150,96,10015,2,0,L|310:148,1,160,2|0,3:1|3:0,0:0:0:0:
38,228,10660,6,0,P|40:108|151:53,1,240,6|0,0:2|3:0,0:0:0:0:
215,58,11305,2,0,L|51:59,1,160,2|8,3:2|0:0,0:0:0:0:
135,58,11789,1,0,3:0:0:0:
315,196,11950,6,0,P|363:124|316:76,1,160,2|8,3:2|0:0,0:0:0:0:
162,190,12596,2,0,P|130:104|182:60,1,160,2|8,3:2|0:0,0:0:0:0:
443,217,13241,6,0,P|471:90|393:36,1,240,6|0,2:0|3:0,0:0:0:0:
312,36,13886,2,0,L|475:36,1,160,2|8,3:2|0:0,0:0:0:0:
392,37,14370,1,0,3:0:0:0:
212,231,14531,6,0,P|173:148|216:103,1,160,2|8,3:2|0:0,0:0:0:0:
372,104,15176,2,0,L|226:171,1,160,10|8,3:2|0:0,0:0:0:0:
483,224,15821,6,0,P|460:98|356:97,1,240,6|0,2:0|3:0,0:0:0:0:
286,106,16467,2,0,L|124:106,1,160,2|8,3:2|0:0,0:0:0:0:
215,219,16950,1,0,3:0:0:0:
396,220,17112,6,0,P|434:141|369:114,1,160,2|8,3:2|0:0,0:0:0:0:
226,111,17757,2,0,L|393:192,1,160,2|8,3:2|0:0,0:0:0:0:
114,232,18402,6,0,P|56:143|157:47,1,240,6|0,2:0|3:0,0:0:0:0:
209,52,19047,2,0,L|405:53,1,160,2|8,3:2|0:0,0:0:0:0:
288,53,19531,1,0,3:0:0:0:
108,206,19692,6,0,P|77:111|120:66,1,160,2|8,3:2|0:0,0:0:0:0:
270,59,20337,1,6,2:0:0:0:
110,64,20660,2,0,L|211:64,1,80
371,202,20983,6,0,P|413:128|363:72,1,160,4|0,2:0|0:0,0:0:0:0:
292,79,21467,1,0,0:0:0:0:
212,79,21628,2,0,L|187:177,1,80,2|0,0:0|0:0,0:0:0:0:
352,79,22112,1,0,3:0:0:0:
272,193,22273,6,0,P|234:106|284:61,1,160,2|0,3:2|3:2,0:0:0:0:
351,61,22757,1,0,3:2:0:0:
431,61,22918,2,0,L|393:150,1,80,2|2,3:2|3:2,0:0:0:0:
271,72,23402,1,2,3:2:0:0:
91,195,23563,6,0,P|46:121|104:62,1,160,4|2,3:0|3:2,0:0:0:0:
163,68,24047,1,0,0:0:0:0:
243,68,24208,2,0,L|156:68,1,80,2|0,3:2|0:0,0:0:0:0:
323,71,24692,1,0,3:0:0:0:
243,86,24854,6,0,L|163:86,2,80,2|0|0,3:2|3:0|3:2,0:0:0:0:
323,87,25337,1,0,3:2:0:0:
243,196,25499,2,0,L|83:108,1,160,2|0,3:2|3:2,0:0:0:0:
183,80,25983,1,0,0:0:0:0:
363,176,26144,6,0,P|398:95|344:36,1,160,4|0,3:0|3:0,0:0:0:0:
200,243,26789,2,0,P|224:152|287:138,1,160,0|2,3:2|3:2,0:0:0:0:
361,156,27273,1,0,1:0:0:0:
281,166,27434,6,0,L|281:263,1,80,2|0,3:2|1:0,0:0:0:0:
353,169,27757,1,8,3:0:0:0:
223,172,28079,1,0,3:2:0:0:
42,242,28241,2,0,P|17:142|77:107,1,160,0|0,1:0|1:0,0:0:0:0:
131,158,28725,6,0,P|181:78|131:37,1,160,4|8,3:0|3:0,0:0:0:0:
66,40,29208,1,0,0:0:0:0:
146,41,29370,2,0,L|314:42,1,160,8|2,3:0|3:2,0:0:0:0:
146,106,30015,6,0,L|39:105,2,80,2|0|8,3:2|3:0|3:0,0:0:0:0:
226,106,30499,1,0,3:2:0:0:
306,202,30660,2,0,L|395:67,1,160,2|2,3:2|3:2,0:0:0:0:
137,122,31305,6,0,L|137:212,1,80,10|0,3:2|0:0,0:0:0:0:
217,125,31628,1,8,0:0:0:0:
297,126,31789,1,0,0:0:0:0:
477,124,31950,1,0,3:0:0:0:
349,129,32273,1,2,3:2:0:0:
269,136,32434,1,0,3:0:0:0:
189,143,32596,6,0,L|125:71,1,80,2|2,3:2|3:0,0:0:0:0:
216,67,32918,1,8,3:0:0:0:
296,69,33079,1,8,3:0:0:0:
477,70,33241,1,2,3:0:0:0:
349,119,33563,2,0,L|267:119,1,80,2|0,1:3|0:0,0:0:0:0:
349,119,33886,6,0,L|428:119,2,80,10|0|8,3:2|0:0|0:0,0:0:0:0:
269,122,34369,1,0,0:0:0:0:
88,207,34531,2,0,P|61:110|113:91,1,160,0|8,3:0|3:3,0:0:0:0:
176,89,35015,1,0,3:0:0:0:
256,89,35176,6,0,L|151:89,1,80,8|2,3:3|3:0,0:0:0:0:
96,91,35499,1,8,3:0:0:0:
367,206,35821,2,0,P|406:127|361:72,1,160,2|0,3:0|3:0,0:0:0:0:
288,75,36305,1,0,0:0:0:0:
107,229,36467,6,0,P|82:140|130:84,1,160,10|8,3:2|0:0,0:0:0:0:
198,85,36950,2,0,L|32:85,1,160
118,86,37434,1,2,3:2:0:0:
299,87,37596,1,0,3:0:0:0:
171,96,37918,5,2,3:0:0:0:
91,142,38079,2,0,L|58:68,1,80,8|8,3:0|3:0,0:0:0:0:
139,86,38402,2,0,L|228:86,2,80,2|0|2,3:0|3:0|3:0,0:0:0:0:
411,169,39047,6,0,P|463:114|407:62,1,160,10|8,3:2|0:0,0:0:0:0:
336,61,39531,1,0,0:0:0:0:
256,118,39692,2,0,L|256:35,1,80,0|0,3:0|0:0,0:0:0:0:
336,61,40015,1,2,3:2:0:0:
416,62,40176,1,0,3:0:0:0:
236,122,40337,6,0,L|70:122,1,160,2|8,3:2|3:0,0:0:0:0:
236,122,40983,1,0,3:0:0:0:
156,122,41144,1,0,3:0:0:0:
76,122,41305,1,2,3:0:0:0:
348,230,41628,6,0,P|389:139|336:97,1,160,10|4,3:2|3:0,0:0:0:0:
196,103,42273,2,0,L|384:104,1,160,8|2,3:2|0:0,0:0:0:0:
356,103,42757,1,8,3:2:0:0:
196,123,43079,5,8,3:2:0:0:
116,199,43241,2,0,P|85:107|141:63,1,160,10|8,2:3|3:2,0:0:0:0:
202,66,43725,1,8,3:2:0:0:
282,66,43886,1,2,0:0:0:0:
34,197,44208,6,0,L|224:197,1,160,6|8,3:0|3:2,0:0:0:0:
274,194,44692,1,0,3:0:0:0:
194,274,44854,2,0,P|155:177|213:140,1,160,8|2,3:2|0:0,0:0:0:0:
264,146,45337,1,0,3:0:0:0:
445,212,45499,6,0,P|471:113|421:78,1,160,0|2,3:0|0:0,0:0:0:0:
276,81,46144,2,0,L|446:82,1,160,8|2,3:2|0:0,0:0:0:0:
356,82,46628,1,0,0:0:0:0:
176,109,46789,6,0,L|74:109,1,80,10|0,3:2|3:0,0:0:0:0:
16,226,47112,2,0,L|16:113,1,80,10|0,0:2|3:0,0:0:0:0:
96,109,47434,1,8,3:2:0:0:
240,136,47757,2,0,L|346:136,1,80,2|0,0:0|3:0,0:0:0:0:
400,136,48079,6,0,L|299:135,1,80,0|8,3:0|3:2,0:0:0:0:
138,242,48402,2,0,P|105:168|159:99,1,160,10|8,2:3|3:2,0:0:0:0:
304,100,49047,2,0,L|400:100,1,80,2|8,0:0|3:2,0:0:0:0:
203,256,49370,6,0,P|165:183|212:124,1,160,10|10,3:2|3:2,0:0:0:0:
286,123,49854,1,0,3:0:0:0:
205,126,50015,2,0,L|115:126,1,80,8|10,3:2|3:2,0:0:0:0:
205,126,50337,1,2,0:0:0:0:
365,206,50660,6,0,P|408:123|343:61,1,160,0|8,3:0|3:2,0:0:0:0:
296,71,51144,1,8,2:3:0:0:
116,224,51305,2,0,P|82:169|142:81,1,160,8|2,3:2|0:0,0:0:0:0:
393,105,51950,6,0,L|492:105,2,80,6|2|8,0:0|0:0|3:2,0:0:0:0:
233,125,52596,2,0,L|134:125,2,80,2|8|8,0:0|3:2|3:2,0:0:0:0:
313,206,53079,6,0,P|360:128|315:75,1,160,8|2,3:2|0:0,0:0:0:0:
165,113,53725,1,2,0:0:0:0:
85,113,53886,2,0,L|184:113,1,80,2|8,0:0|3:2,0:0:0:0:
345,108,54208,1,8,3:2:0:0:
217,106,54531,6,0,L|125:106,2,80,2|2|8,0:0|0:0|3:2,0:0:0:0:
345,108,55176,2,0,L|433:108,2,80,2|8|8,0:0|3:2|3:2,0:0:0:0:
265,108,55660,6,0,L|449:108,1,160,8|2,3:2|3:0,0:0:0:0:
345,109,56144,1,0,3:0:0:0:
265,108,56305,1,2,0:0:0:0:
84,244,56467,2,0,P|51:148|116:97,1,160,2|8,3:0|3:2,0:0:0:0:
354,119,57112,6,0,L|451:120,2,80,2|2|8,0:0|0:0|3:2,0:0:0:0:
274,120,57596,1,0,3:0:0:0:
194,119,57757,2,0,L|355:196,1,160,2|8,0:0|3:2,0:0:0:0:
178,190,58402,6,0,L|24:136,1,160,2|8,3:0|3:2,0:0:0:0:
107,106,58886,1,0,3:0:0:0:
187,112,59047,2,0,L|91:266,1,160,2|8,3:0|3:2,0:0:0:0:
359,240,59692,6,0,P|399:145|346:101,1,160,10|2,3:2|3:0,0:0:0:0:
290,116,60176,1,0,3:0:0:0:
210,110,60337,2,0,L|379:193,1,160,8|2,3:2|3:0,0:0:0:0:
193,263,60983,6,0,L|366:225,1,160,8|2,3:2|3:0,0:0:0:0:
269,227,61467,1,0,3:0:0:0:
89,152,61628,1,8,3:2:0:0:
249,143,61950,1,8,3:2:0:0:
256,192,62273,12,2,64854,0:0:0:0:
471,150,66144,6,0,L|332:58,1,160,10|10,0:0|0:0,0:0:0:0:
178,140,66789,2,0,L|334:39,1,160,10|10,0:0|0:0,0:0:0:0:
40,132,67434,5,2,1:2:0:0:
400,195,68725,6,0,L|215:195,1,160,10|10,0:0|0:0,0:0:0:0:
80,211,69370,2,0,P|39:127|90:85,1,160,10|10,0:0|0:0,0:0:0:0:
350,78,70015,1,2,0:0:0:0:
470,80,70257,1,2,3:0:0:0:
350,78,70499,1,2,3:0:0:0:
230,76,70741,1,2,3:0:0:0:
350,78,70983,1,2,3:0:0:0:
430,79,71144,1,2,3:0:0:0:
250,178,71305,6,0,P|211:90|265:47,1,160,10|0,3:0|0:0,0:0:0:0:
407,184,71950,2,0,P|455:119|386:72,1,160,0|2,3:0|3:0,0:0:0:0:
135,265,72596,6,0,P|111:143|219:75,1,240,12|0,0:2|3:0,0:0:0:0:
272,75,73241,2,0,L|116:141,1,160,10|8,3:3|0:2,0:0:0:0:
293,74,73725,1,8,3:0:0:0:
452,79,74047,1,0,3:0:0:0:
372,114,74208,2,0,L|372:30,1,80,8|0,0:2|3:0,0:0:0:0:
452,79,74531,2,0,L|258:79,1,160,10|8,3:3|0:2,0:0:0:0:
212,81,75015,1,0,3:0:0:0:
392,170,75176,6,0,P|441:89|398:53,1,160,2|8,3:2|0:2,0:0:0:0:
245,55,75821,2,0,L|405:109,1,160,10|8,3:3|0:2,0:0:0:0:
324,55,76305,1,8,3:0:0:0:
143,228,76467,6,0,P|102:165|155:96,1,160,2|8,3:2|0:2,0:0:0:0:
303,99,77112,1,10,3:3:0:0:
31,101,77434,1,8,0:2:0:0:
192,222,77757,6,0,P|248:95|160:43,1,240,2|0,3:2|3:0,0:0:0:0:
105,46,78402,1,10,3:3:0:0:
265,53,78725,1,8,0:2:0:0:
345,53,78886,1,8,3:0:0:0:
165,179,79047,6,0,P|126:97|179:54,1,160,2|8,3:2|0:2,0:0:0:0:
248,59,79531,1,0,3:0:0:0:
328,193,79692,2,0,P|370:107|305:63,1,160,10|8,3:3|0:2,0:0:0:0:
154,67,80176,1,8,3:0:0:0:
314,97,80499,5,0,3:0:0:0:
394,184,80660,2,0,P|423:85|373:40,1,160,8|10,0:2|3:3,0:0:0:0:
312,44,81144,1,0,3:0:0:0:
392,48,81305,1,8,0:2:0:0:
472,50,81467,1,0,3:0:0:0:
292,203,81628,6,0,P|258:119|311:62,1,160,2|8,3:2|0:2,0:0:0:0:
455,176,82273,2,0,P|494:112|426:47,1,160,10|8,3:3|0:2,0:0:0:0:
177,250,82918,6,0,P|133:122|209:73,1,240,2|0,0:0|0:0,0:0:0:0:
283,62,83563,2,0,L|474:62,1,160,2|2,0:0|0:0,0:0:0:0:
392,61,84047,1,0,0:0:0:0:
119,70,84370,5,8,0:2:0:0:
39,99,84531,2,0,L|39:183,1,80,8|8,0:2|0:2,0:0:0:0:
119,102,84854,1,8,0:2:0:0:
119,102,85015,2,0,L|39:102,1,80,8|8,0:2|0:2,0:0:0:0:
119,102,85337,1,8,0:2:0:0:
300,182,85499,6,0,P|332:112|290:48,1,160,4|8,3:1|0:2,0:0:0:0:
117,163,86144,2,0,L|277:85,1,160,10|8,3:3|0:2,0:0:0:0:
341,84,86628,1,0,3:0:0:0:
161,197,86789,6,0,P|121:114|172:62,1,160,8|8,3:0|0:2,0:0:0:0:
317,68,87434,1,10,3:3:0:0:
45,74,87757,1,8,0:2:0:0:
316,222,88079,6,0,P|306:71|214:14,1,240,2|0,3:2|3:0,0:0:0:0:
162,214,88725,2,0,P|127:122|182:71,1,160,10|8,3:3|0:2,0:0:0:0:
431,85,89370,6,0,L|481:16,2,80,2|0|8,3:2|3:0|0:2,0:0:0:0:
351,82,89854,1,0,3:0:0:0:
271,81,90015,2,0,L|197:227,1,160,10|8,3:3|0:2,0:0:0:0:
378,78,90498,1,0,3:0:0:0:
250,77,90821,5,0,3:0:0:0:
170,118,90983,2,0,L|171:17,1,80,8|0,0:2|3:0,0:0:0:0:
251,77,91305,2,0,L|96:152,1,160,10|8,3:3|0:2,0:0:0:0:
364,212,91950,6,0,P|398:135|354:80,1,160,2|2,3:2|3:2,0:0:0:0:
196,81,92596,2,0,L|363:135,1,160,2|2,3:2|3:2,0:0:0:0:
84,82,93241,5,14,0:2:0:0:
