osu file format v14

[General]
AudioFilename: eizouken.mp3
AudioLeadIn: 0
PreviewTime: 66180
Countdown: 0
SampleSet: Soft
StackLeniency: 0.7
Mode: 0
LetterboxInBreaks: 0
WidescreenStoryboard: 0

[Editor]
Bookmarks: 2954,5535,15857,26180,36503,46825,57148,67470,77928
DistanceSpacing: 1
BeatDivisor: 4
GridSize: 32
TimelineZoom: 1.9

[Metadata]
Title:Easy Breezy (TV Size)
TitleUnicode:Easy Breezy (TV Size)
Artist:chelmico
ArtistUnicode:chelmico
Creator:hypercyte
Version:Insane
Source:Eizouken ni wa Te o Dasu na!
Tags:keep your hands off the motion pictures club! wo 映像研には手を出すな! hypercute tomadoi shiinoha kotone dashyy- チェルミコ ryo takahashi 高橋諒 Rachel mamiko ANIME JAPANESE
BeatmapID:2291692
BeatmapSetID:1095606

[Difficulty]
HPDrainRate:5
CircleSize:4
OverallDifficulty:7
ApproachRate:8.8
SliderMultiplier:1.54
SliderTickRate:1

[Events]
//Background and Video events
Video,0,"ez breezy vid hb 4.mp4"
0,0,"asakusa shi.jpg",0,0
//Break Periods
//Storyboard Layer 0 (Background)
//Storyboard Layer 1 (Fail)
//Storyboard Layer 2 (Pass)
//Storyboard Layer 3 (Foreground)
//Storyboard Layer 4 (Overlay)
//Storyboard Sound Samples

[TimingPoints]
374,322.58064516129,4,2,4,34,1,0
374,-200,4,2,4,34,0,0
2954,-133.333333333333,4,2,4,44,0,0
5535,-100,4,2,4,55,0,0
46825,-111.111111111111,4,2,4,55,0,0
57148,-200,4,2,4,44,0,0
58438,-133.333333333333,4,2,4,44,0,0
59728,-200,4,2,4,44,0,0
61019,-133.333333333333,4,2,4,44,0,0
64890,-133.333333333333,4,2,4,54,0,0
66986,-133.333333333333,4,2,44,64,0,0
67309,-133.333333333333,4,2,4,54,0,0
67470,-90.9090909090909,4,2,4,74,0,1
77632,-90.9090909090909,4,2,4,74,0,0
77793,-90.9090909090909,4,2,4,74,0,1
87954,-90.9090909090909,4,2,4,74,0,0

[Colours]
Combo1 : 140,202,247
Combo2 : 129,228,162
Combo3 : 255,151,158

[HitObjects]
206,162,374,6,0,P|269:154|311:203,1,115.5,2|0,0:0|0:0,0:0:0:0:
179,174,1019,2,0,P|150:143|156:105,1,77,2|0,0:0|0:0,0:0:0:0:
241,314,1664,1,2,0:0:0:0:
241,314,1825,2,0,P|304:288|324:283,2,77,0|2|2,0:0|0:0|0:0,0:0:0:0:
66,301,2954,6,0,L|81:220,1,57.7500022029878,8|0,0:2|0:0,0:0:0:0:
181,147,3277,1,8,0:2:0:0:
177,121,3357,1,8,0:2:0:0:
155,106,3438,1,8,0:2:0:0:
128,104,3519,1,8,0:2:0:0:
106,118,3599,2,0,L|118:190,1,57.7500022029878,8|0,0:2|0:0,0:0:0:0:
250,315,3922,2,0,P|264:277|282:267,1,57.7500022029878,8|0,0:0|0:0,0:0:0:0:
379,205,4244,5,8,0:1:0:0:
463,253,4406,1,0,0:0:0:0:
365,185,4567,1,8,0:2:0:0:
362,159,4648,1,8,0:2:0:0:
372,135,4728,1,8,0:2:0:0:
391,118,4809,1,0,0:0:0:0:
417,116,4890,2,0,L|487:133,1,57.7500022029878,8|8,0:1|0:1,0:0:0:0:
304,57,5212,2,0,L|234:70,1,57.7500022029878,2|0,0:3|0:0,0:0:0:0:
72,132,5535,6,0,B|110:137|130:172|119:187|136:221|181:232,1,154,10|8,0:0|0:1,0:0:0:0:
249,175,6019,1,0,0:0:0:0:
47,123,6180,2,0,P|9:157|6:196,1,77,8|8,0:0|0:0,0:0:0:0:
81,326,6503,2,0,P|71:287|67:245,1,77,8|0,0:1|0:0,0:0:0:0:
249,175,6825,6,0,P|292:141|377:202,2,154,10|10|10,0:0|0:1|0:0,0:0:0:0:
282,279,7632,1,8,0:0:0:0:
388,188,7793,2,0,P|391:140|363:104,1,77,10|0,0:1|0:0,0:0:0:0:
161,84,8115,6,0,B|221:72|221:72|258:49|258:49|323:33,1,154,10|8,0:0|0:1,0:0:0:0:
388,188,8599,1,0,0:0:0:0:
484,136,8761,2,0,P|473:78|440:62,1,77,8|8,0:0|0:0,0:0:0:0:
368,210,9083,2,0,L|396:296,1,77,8|0,0:1|0:0,0:0:0:0:
177,146,9406,6,0,B|116:154|116:154|70:177|70:177|14:185,2,154,10|10|10,0:0|0:1|0:0,0:0:0:0:
269,252,10212,1,8,0:0:0:0:
355,138,10373,2,0,P|329:179|297:185,1,77,10|0,0:1|0:0,0:0:0:0:
150,292,10696,6,0,P|185:241|276:260,1,154,10|8,0:0|0:1,0:0:0:0:
353,364,11180,1,0,0:0:0:0:
418,292,11341,2,0,P|421:249|398:216,1,77,8|8,0:0|0:0,0:0:0:0:
293,118,11664,2,0,L|379:110,1,77,8|0,0:1|0:0,0:0:0:0:
182,27,11986,6,0,B|137:34|121:74|133:90|112:126|60:130,2,154,10|10|10,0:0|0:1|0:0,0:0:0:0:
293,118,12793,1,8,0:0:0:0:
380,32,12954,2,0,P|375:89|381:126,1,77,10|0,0:1|0:0,0:0:0:0:
482,256,13277,6,0,P|432:264|425:354,1,154,10|8,0:0|0:1,0:0:0:0:
497,253,13761,1,0,0:0:0:0:
435,111,13922,2,0,P|438:147|479:171,1,77,8|8,0:0|0:0,0:0:0:0:
276,205,14244,2,0,P|203:201|189:202,1,77,8|0,0:1|0:0,0:0:0:0:
50,286,14567,6,0,B|71:223|71:223|68:197|68:197|96:121,2,154,10|10|10,0:0|0:1|0:0,0:0:0:0:
208,323,15373,1,8,0:0:0:0:
213,202,15535,1,10,0:1:0:0:
293,130,15696,5,2,0:0:0:0:
293,130,15777,1,2,0:0:0:0:
293,130,15857,2,0,L|388:142,1,77,10|0,0:0|0:0,0:0:0:0:
460,155,16180,1,8,0:1:0:0:
386,270,16341,5,10,0:1:0:0:
386,270,16422,1,10,0:1:0:0:
386,270,16503,2,0,P|403:235|448:236,1,77,10|8,0:0|0:0,0:0:0:0:
485,312,16825,1,8,0:1:0:0:
348,374,16986,5,10,0:1:0:0:
386,270,17148,2,0,L|375:359,1,77,10|0,0:0|0:0,0:0:0:0:
221,285,17470,1,8,0:1:0:0:
253,201,17632,5,10,0:1:0:0:
220,304,17793,2,0,L|234:393,1,77,10|8,0:0|0:0,0:0:0:0:
348,374,18115,1,8,0:1:0:0:
377,258,18277,5,10,0:1:0:0:
377,258,18357,1,10,0:1:0:0:
377,258,18438,2,0,L|360:169,1,77,10|0,0:0|0:0,0:0:0:0:
343,87,18761,1,8,0:1:0:0:
228,172,18922,5,10,0:1:0:0:
228,172,19003,1,10,0:1:0:0:
228,172,19083,2,0,L|245:83,1,77,10|8,0:0|0:0,0:0:0:0:
262,1,19406,1,8,0:1:0:0:
70,102,19567,1,10,0:1:0:0:
27,38,19728,6,0,P|70:53|121:59,1,77,10|2,0:0|0:0,0:0:0:0:
228,172,20051,2,0,P|271:157|322:151,1,77,10|10,0:1|0:1,0:0:0:0:
438,212,20373,1,10,0:0:0:0:
438,212,20535,1,10,0:0:0:0:
415,113,20696,2,0,L|432:27,1,77,10|10,0:1|0:1,0:0:0:0:
441,234,21019,6,0,L|422:319,2,77,10|0|8,0:0|0:0|0:1,0:0:0:0:
313,330,21503,1,10,0:1:0:0:
237,264,21664,2,0,P|181:278|164:309,1,77,8|8,0:0|0:0,0:0:0:0:
81,330,21986,1,10,0:1:0:0:
16,259,22148,5,8,0:1:0:0:
16,259,22228,1,8,0:1:0:0:
16,259,22309,2,0,L|35:164,1,77,10|0,0:0|0:0,0:0:0:0:
118,80,22632,2,0,P|77:104|15:60,1,115.5,10|8,0:1|0:1,0:0:0:0:
135,62,22954,2,0,L|231:84,1,77,8|10,0:0|0:0,0:0:0:0:
306,174,23277,1,8,0:1:0:0:
392,105,23438,1,8,0:1:0:0:
377,225,23599,6,0,P|323:194|291:195,1,77,10|0,0:0|0:0,0:0:0:0:
175,319,23922,2,0,P|212:310|243:287,1,77,10|8,0:1|0:1,0:0:0:0:
177,156,24244,1,10,0:0:0:0:
100,203,24406,1,8,0:0:0:0:
14,162,24567,1,10,0:1:0:0:
208,144,24728,6,0,P|233:201|214:229,1,77,10|8,0:1|0:0,0:0:0:0:
115,64,25051,1,0,0:0:0:0:
115,64,25212,2,0,L|213:45,1,77,10|8,0:1|0:1,0:0:0:0:
384,143,25535,1,10,0:0:0:0:
452,76,25696,1,8,0:1:0:0:
452,76,25857,1,10,0:1:0:0:
369,161,26019,1,0,0:0:0:0:
230,70,26180,6,0,P|259:95|253:148,1,77,10|0,0:0|0:0,0:0:0:0:
196,277,26503,1,10,0:1:0:0:
119,221,26664,1,8,0:1:0:0:
38,323,26825,2,0,L|197:295,1,154,10|10,0:0|0:1,0:0:0:0:
301,276,27309,1,8,0:1:0:0:
446,358,27470,6,0,P|398:326|373:334,1,77,10|0,0:0|0:0,0:0:0:0:
321,201,27793,2,0,L|296:292,1,77,8|8,0:1|0:1,0:0:0:0:
183,117,28115,2,0,P|252:121|282:64,1,115.5,10|0,0:0|0:0,0:0:0:0:
160,110,28438,2,0,P|126:145|135:184,1,77,10|8,0:1|0:1,0:0:0:0:
295,78,28761,5,10,0:0:0:0:
377,129,28922,1,0,0:0:0:0:
465,3,29083,2,0,L|452:98,1,77,10|8,0:1|0:1,0:0:0:0:
452,100,29325,1,8,0:1:0:0:
452,100,29406,2,0,L|481:269,1,154,10|8,0:0|0:1,0:0:0:0:
325,312,29890,1,8,0:1:0:0:
267,240,30051,6,0,L|353:228,1,77,10|0,0:0|0:0,0:0:0:0:
452,100,30373,2,0,P|424:149|383:156,1,77,10|8,0:1|0:1,0:0:0:0:
320,44,30696,2,0,B|269:49|248:74|263:96|211:119|176:109,1,154,10|8,0:0|0:1,0:0:0:0:
80,58,31180,1,8,0:1:0:0:
18,244,31341,6,0,P|48:206|80:201,1,77,10|0,0:0|0:0,0:0:0:0:
243,308,31664,1,10,0:1:0:0:
320,262,31825,2,0,P|330:209|297:175,1,77,10|8,0:1|0:0,0:0:0:0:
224,323,32148,1,8,0:0:0:0:
324,278,32309,1,8,0:1:0:0:
406,334,32470,6,0,L|494:318,1,77,10|8,0:1|0:0,0:0:0:0:
428,141,32793,1,2,0:0:0:0:
375,196,32954,2,0,L|463:180,1,77,10|8,0:1|0:1,0:0:0:0:
372,11,33277,1,8,0:0:0:0:
318,100,33438,1,8,0:0:0:0:
202,35,33599,2,0,L|290:19,1,77,10|8,0:1|0:1,0:0:0:0:
157,156,33922,5,10,0:0:0:0:
157,156,34083,1,0,0:0:0:0:
72,96,34244,2,0,P|35:108|13:150,1,77,10|8,0:1|0:1,0:0:0:0:
174,165,34567,2,0,L|274:152,1,77,10|8,0:0|0:0,0:0:0:0:
110,282,34890,1,10,0:1:0:0:
110,282,35051,1,8,0:1:0:0:
197,316,35212,5,10,0:0:0:0:
272,258,35373,1,0,0:0:0:0:
356,372,35535,2,0,P|373:338|363:302,1,77,10|8,0:1|0:1,0:0:0:0:
258,241,35857,1,10,0:0:0:0:
367,132,36019,1,10,0:1:0:0:
367,132,36180,1,10,0:1:0:0:
261,34,36503,6,0,B|300:35|327:73|302:92|322:124|367:132,2,154,10|10|10,0:0|0:1|0:0,0:0:0:0:
122,118,37309,1,8,0:0:0:0:
68,51,37470,1,8,0:1:0:0:
140,137,37632,6,0,P|136:188|112:215,1,77,10|8,0:1|0:0,0:0:0:0:
235,279,37954,1,0,0:0:0:0:
235,279,38115,2,0,L|220:176,1,77,10|8,0:1|0:1,0:0:0:0:
326,113,38438,1,10,0:0:0:0:
326,113,38599,1,8,0:0:0:0:
424,150,38761,2,0,P|380:152|358:86,1,115.5,10|8,0:1|0:0,0:0:0:0:
447,148,39083,6,0,P|463:204|452:225,1,77,10|0,0:0|0:0,0:0:0:0:
360,312,39406,2,0,L|277:291,1,77,10|8,0:1|0:1,0:0:0:0:
153,258,39728,1,8,0:0:0:0:
76,304,39890,2,0,L|162:286,1,77,10|8,0:0|0:1,0:0:0:0:
282,208,40212,1,8,0:0:0:0:
239,90,40373,6,0,P|229:146|281:175,2,115.5,10|2|10,0:0|0:0|0:1,0:0:0:0:
265,81,40938,1,8,0:1:0:0:
265,81,41019,2,0,L|345:97,1,77,10|8,0:0|0:0,0:0:0:0:
192,155,41341,2,0,L|112:171,1,77,10|8,0:1|0:0,0:0:0:0:
308,284,41664,5,10,0:0:0:0:
308,284,41825,1,0,0:0:0:0:
382,233,41986,1,10,0:1:0:0:
294,293,42148,1,8,0:1:0:0:
204,244,42309,2,0,P|191:205|210:164,2,77,10|8|8,0:0|0:0|0:1,0:0:0:0:
390,248,42793,1,10,0:0:0:0:
471,308,42954,6,0,P|476:265|509:245,1,77,8|0,0:0|0:0,0:0:0:0:
401,113,43277,1,10,0:1:0:0:
453,47,43438,1,8,0:1:0:0:
386,123,43599,2,0,P|332:108|345:17,1,154,10|8,0:0|0:1,0:0:0:0:
233,135,44083,1,8,0:0:0:0:
233,135,44244,5,8,0:0:0:0:
113,68,44406,2,0,L|198:46,2,77,2|8|8,0:0|0:1|0:1,0:0:0:0:
14,150,44890,2,0,P|65:160|77:181,1,77,10|8,0:0|0:0,0:0:0:0:
205,321,45212,2,0,P|233:274|274:261,1,77,10|8,0:1|0:0,0:0:0:0:
373,312,45535,5,8,0:0:0:0:
373,312,45696,1,0,0:0:0:0:
405,173,45857,2,0,P|427:240|480:246,1,115.5,10|8,0:1|0:1,0:0:0:0:
386,140,46180,2,0,L|300:151,1,77,8|0,0:0|0:0,0:0:0:0:
172,174,46503,1,10,0:1:0:0:
172,174,46825,6,0,L|184:88,2,69.2999978851319,10|0|8,0:0|0:0|0:1,0:0:0:0:
180,306,47309,1,8,0:0:0:0:
112,262,47470,2,0,P|153:263|179:290,1,69.2999978851319,10|2,0:0|0:0,0:0:0:0:
311,259,47793,1,10,0:1:0:0:
409,338,47954,6,0,P|413:289|509:268,2,138.599995770264,10|8|10,0:0|0:0|0:0,0:0:0:0:
311,259,48761,2,0,P|295:204|275:174,1,69.2999978851319,10|10,0:0|0:1,0:0:0:0:
173,129,49083,1,10,0:1:0:0:
173,129,49406,6,0,P|189:85|218:68,2,69.2999978851319,10|0|8,0:0|0:0|0:1,0:0:0:0:
195,282,49890,1,8,0:0:0:0:
122,231,50051,2,0,L|44:248,1,69.2999978851319,10|2,0:0|0:0,0:0:0:0:
207,295,50373,1,10,0:1:0:0:
293,243,50535,6,0,P|307:183|233:127,1,138.599995770264,10|8,0:0|0:0,0:0:0:0:
84,56,51180,1,10,0:0:0:0:
84,56,51341,2,0,L|163:45,2,69.2999978851319,10|8|8,0:0|0:1|0:1,0:0:0:0:
314,202,51986,5,10,0:0:0:0:
314,202,52148,1,0,0:0:0:0:
400,93,52309,2,0,P|411:124|399:156,1,69.2999978851319,8|8,0:1|0:0,0:0:0:0:
285,213,52632,1,10,0:0:0:0:
194,178,52793,1,2,0:0:0:0:
135,295,52954,1,10,0:1:0:0:
221,272,53115,1,10,0:0:0:0:
116,301,53277,6,0,L|30:288,1,69.2999978851319,2|8,0:0|0:0,0:0:0:0:
189,378,53599,2,0,L|275:365,1,69.2999978851319,10|8,0:1|0:0,0:0:0:0:
393,307,53922,1,10,0:0:0:0:
487,351,54083,1,8,0:1:0:0:
487,351,54244,1,10,0:1:0:0:
512,151,54567,6,0,P|474:198|402:174,1,138.599995770264,10|8,0:0|0:1,0:0:0:0:
373,95,55051,1,8,0:0:0:0:
239,190,55212,2,0,P|259:146|257:119,1,69.2999978851319,10|0,0:0|0:0,0:0:0:0:
353,30,55535,2,0,P|355:64|372:94,1,69.2999978851319,10|8,0:1|0:0,0:0:0:0:
217,194,55857,6,0,P|171:156|101:189,1,138.599995770264,2|10,0:0|0:1,0:0:0:0:
238,210,56341,1,10,0:0:0:0:
238,210,56503,2,0,L|317:192,1,69.2999978851319,10|8,0:0|0:1,0:0:0:0:
409,160,56825,2,0,P|445:216|418:265,1,103.949996827698,10|0,0:1|0:0,0:0:0:0:
411,263,57148,6,0,B|348:256|348:256|317:238|317:238|250:228,1,154,10|2,0:0|0:0,0:0:0:0:
146,281,58115,1,0,0:0:0:0:
146,281,58438,2,0,P|110:235|133:183,1,115.500004405976,2|2,0:0|0:0,0:0:0:0:
217,40,59083,2,0,P|253:86|230:138,1,115.500004405976,2|2,0:0|0:0,0:0:0:0:
123,303,59728,6,0,P|138:359|230:369,1,154,2|2,0:0|0:0,0:0:0:0:
322,219,60696,1,0,0:0:0:0:
322,219,61019,2,0,L|206:208,1,115.500004405976,2|2,0:0|0:0,0:0:0:0:
27,115,61664,2,0,L|143:104,1,115.500004405976,2|2,0:0|0:0,0:0:0:0:
284,243,62309,6,0,B|339:232|339:232|362:233|362:233|416:220,1,115.500004405976,10|0,0:0|0:0,0:0:0:0:
500,202,62793,1,0,0:0:0:0:
500,202,62954,2,0,P|513:143|466:106,1,115.500004405976,2|0,0:0|0:0,0:0:0:0:
345,48,63599,6,0,P|318:85|300:91,1,57.7500022029878,10|0,0:0|0:0,0:0:0:0:
203,153,63922,2,0,L|123:141,1,57.7500022029878,2|0,0:0|0:0,0:0:0:0:
328,267,64244,2,0,L|383:251,1,57.7500022029878,2|0,0:0|0:0,0:0:0:0:
512,301,64567,2,0,P|488:317|481:344,1,57.7500022029878,2|0,0:0|0:0,0:0:0:0:
304,274,64890,2,0,B|262:266|262:266|222:268|222:268|188:261,1,115.500004405976,10|8,0:0|0:0,0:0:0:0:
83,242,65373,1,0,0:0:0:0:
15,295,65535,2,0,P|62:270|86:269,1,57.7500022029878,8|0,0:0|0:0,0:0:0:0:
164,163,65857,2,0,P|136:154|113:137,1,57.7500022029878,8|0,0:0|0:0,0:0:0:0:
295,107,66180,6,0,P|347:88|395:116,2,115.500004405976,10|2|2,0:0|0:0|0:0,0:0:0:0:
256,192,66986,1,8,0:0:0:0:
256,192,67148,1,10,0:0:0:0:
256,192,67470,6,0,P|198:177|202:73,1,169.400005169678,14|8,0:0|0:1,0:0:0:0:
363,125,67954,1,0,0:0:0:0:
413,50,68115,1,10,0:0:0:0:
413,50,68277,1,8,0:0:0:0:
327,12,68438,1,8,0:1:0:0:
367,144,68599,6,0,L|388:245,1,84.7000025848389,2|8,0:0|0:0,0:0:0:0:
322,358,68922,1,2,0:0:0:0:
243,302,69083,2,0,P|190:315|170:348,1,84.7000025848389,10|8,0:1|0:2,0:0:0:0:
160,354,69325,1,8,0:2:0:0:
160,354,69406,2,0,L|70:346,1,84.7000025848389,10|8,0:0|0:0,0:0:0:0:
0,237,69728,2,0,L|84:244,1,84.7000025848389,10|0,0:1|0:0,0:0:0:0:
312,262,70051,6,0,P|342:217|293:159,1,127.050003877258,10|0,0:0|0:0,0:0:0:0:
287,154,70373,2,0,P|231:167|199:171,1,84.7000025848389,8|0,0:1|0:0,0:0:0:0:
116,127,70696,1,10,0:0:0:0:
169,39,70857,1,8,0:0:0:0:
306,162,71019,2,0,P|358:134|367:99,1,84.7000025848389,8|0,0:1|0:0,0:0:0:0:
428,323,71341,6,0,P|402:260|312:261,2,169.400005169678,10|8|10,0:0|0:1|0:0,0:0:0:0:
297,284,72148,1,8,0:0:0:0:
406,155,72309,2,0,P|405:211|377:231,1,84.7000025848389,8|0,0:1|0:0,0:0:0:0:
197,285,72632,5,8,0:0:0:0:
128,214,72793,2,0,P|129:158|248:110,1,169.400005169678,2|2,0:0|0:0,0:0:0:0:
406,155,73277,1,10,0:0:0:0:
479,94,73438,1,8,0:0:0:0:
373,15,73599,2,0,L|284:29,1,84.7000025848389,10|0,0:1|0:0,0:0:0:0:
83,140,73922,5,10,0:0:0:0:
10,65,74083,1,10,0:1:0:0:
10,65,74164,1,10,0:1:0:0:
10,65,74244,2,0,L|116:45,1,84.7000025848389,10|8,0:1|0:1,0:0:0:0:
233,148,74567,1,10,0:1:0:0:
307,75,74728,2,0,P|269:42|220:51,1,84.7000025848389,10|8,0:0|0:1,0:0:0:0:
179,202,75051,6,0,P|214:151|248:149,1,84.7000025848389,2|8,0:0|0:0,0:0:0:0:
373,276,75373,1,2,0:0:0:0:
434,220,75535,1,10,0:1:0:0:
359,292,75696,1,2,0:0:0:0:
457,204,75857,2,0,P|465:159|424:121,1,84.7000025848389,10|8,0:0|0:0,0:0:0:0:
343,310,76180,2,0,L|257:295,1,84.7000025848389,10|2,0:1|0:0,0:0:0:0:
134,366,76503,5,10,0:0:0:0:
36,269,76664,1,8,0:1:0:0:
36,269,76825,1,10,0:1:0:0:
104,213,76986,1,8,0:0:0:0:
104,213,77067,1,8,0:0:0:0:
104,213,77148,2,0,L|199:224,1,84.7000025848389,10|8,0:0|0:1,0:0:0:0:
331,205,77470,2,0,P|349:161|313:127,1,84.7000025848389,10|8,0:1|0:1,0:0:0:0:
104,213,77793,6,0,B|143:215|171:172|153:146|173:112|227:107,1,169.400005169678,14|8,0:0|0:1,0:0:0:0:
331,205,78277,1,0,0:0:0:0:
412,157,78438,2,0,P|426:111|393:69,1,84.7000025848389,10|8,0:0|0:0,0:0:0:0:
237,138,78761,1,8,0:1:0:0:
138,122,78922,2,0,L|231:105,1,84.7000025848389,2|8,0:0|0:0,0:0:0:0:
418,273,79244,5,2,0:0:0:0:
418,273,79406,1,10,0:1:0:0:
352,346,79567,1,8,0:2:0:0:
261,292,79728,2,0,P|213:295|189:331,1,84.7000025848389,10|8,0:0|0:0,0:0:0:0:
35,384,80051,2,0,P|26:342|14:301,1,84.7000025848389,10|0,0:1|0:0,0:0:0:0:
32,146,80373,6,0,P|71:200|164:158,1,169.400005169678,10|8,0:0|0:1,0:0:0:0:
265,152,80857,1,2,0:0:0:0:
324,254,81019,2,0,P|254:238|224:260,1,84.7000025848389,10|8,0:0|0:0,0:0:0:0:
357,358,81341,2,0,L|459:334,1,84.7000025848389,10|0,0:1|0:0,0:0:0:0:
227,372,81664,6,0,L|121:355,1,84.7000025848389,8|0,0:0|0:0,0:0:0:0:
7,378,81986,2,0,P|28:332|12:285,1,84.7000025848389,10|8,0:1|0:1,0:0:0:0:
13,284,82228,1,8,0:1:0:0:
13,284,82309,2,0,L|28:186,1,84.7000025848389,8|8,0:0|0:0,0:0:0:0:
89,30,82632,2,0,L|101:113,1,84.7000025848389,10|0,0:1|0:0,0:0:0:0:
229,198,82954,5,8,0:0:0:0:
294,133,83115,1,2,0:0:0:0:
294,133,83196,1,2,0:0:0:0:
294,133,83277,2,0,P|358:167|361:186,1,84.7000025848389,10|2,0:1|0:0,0:0:0:0:
377,328,83599,1,10,0:0:0:0:
445,269,83761,1,8,0:0:0:0:
348,332,83922,2,0,L|261:316,1,84.7000025848389,10|2,0:1|0:0,0:0:0:0:
136,277,84244,5,10,0:0:0:0:
71,378,84406,1,2,0:0:0:0:
71,378,84486,1,2,0:0:0:0:
71,378,84567,2,0,P|45:327|71:285,1,84.7000025848389,10|10,0:1|0:1,0:0:0:0:
225,168,84890,1,10,0:1:0:0:
294,215,85051,1,10,0:0:0:0:
207,156,85212,1,8,0:1:0:0:
110,197,85373,6,0,L|14:188,1,84.7000025848389,2|8,0:0|0:0,0:0:0:0:
207,156,85696,1,2,0:0:0:0:
305,220,85857,2,0,L|411:199,1,84.7000025848389,10|2,0:1|0:0,0:0:0:0:
234,297,86180,1,10,0:0:0:0:
312,349,86341,1,8,0:0:0:0:
180,368,86503,2,0,L|89:355,1,84.7000025848389,10|2,0:1|0:0,0:0:0:0:
35,235,86825,5,10,0:0:0:0:
132,162,86986,1,8,0:1:0:0:
132,162,87148,1,10,0:1:0:0:
74,65,87309,1,8,0:0:0:0:
74,65,87390,1,8,0:0:0:0:
74,65,87470,2,0,P|16:62|0:78,1,84.7000025848389,10|8,0:0|0:1,0:0:0:0:
158,167,87793,2,0,L|258:146,1,84.7000025848389,10|0,0:1|0:0,0:0:0:0:
