osu file format v14

[General]
AudioFilename: eizouken.mp3
AudioLeadIn: 0
PreviewTime: 66180
Countdown: 0
SampleSet: Soft
StackLeniency: 0.7
Mode: 0
LetterboxInBreaks: 0
WidescreenStoryboard: 0

[Editor]
DistanceSpacing: 0.9
BeatDivisor: 4
GridSize: 32
TimelineZoom: 2.4

[Metadata]
Title:Easy Breezy (TV Size)
TitleUnicode:Easy Breezy (TV Size)
Artist:chelmico
ArtistUnicode:chelmico
Creator:hypercyte
Version:Hands off tomadoi!
Source:Eizouken ni wa Te o Dasu na!
Tags:keep your hands off the motion pictures club! wo 映像研には手を出すな! hypercute tomadoi shiinoha kotone dashyy- チェルミコ ryo takahashi 高橋諒 Rachel mamiko ANIME JAPANESE
BeatmapID:2292925
BeatmapSetID:1095606

[Difficulty]
HPDrainRate:6
CircleSize:4
OverallDifficulty:7.5
ApproachRate:9.2
SliderMultiplier:1.5
SliderTickRate:1

[Events]
//Background and Video events
0,0,"79024337_p0.jpg",0,0
Video,0,"ez breezy vid hb 4.mp4"
//Break Periods
//Storyboard Layer 0 (Background)
//Storyboard Layer 1 (Fail)
//Storyboard Layer 2 (Pass)
//Storyboard Layer 3 (Foreground)
//Storyboard Layer 4 (Overlay)
//Storyboard Sound Samples

[TimingPoints]
374,322.58064516129,4,2,4,34,1,0
2954,-100,4,2,4,44,0,0
4890,-76.9230769230769,4,2,4,44,0,0
5212,-62.5,4,2,4,44,0,0
5535,-90.9090909090909,4,2,4,55,0,0
15857,-100,4,2,4,55,0,0
57148,-100,4,2,4,44,0,0
57309,-250,4,2,4,44,0,0
57632,-200,4,2,4,44,0,0
57954,-166.666666666667,4,2,4,44,0,0
58438,-100,4,2,4,44,0,0
59890,-142.857142857143,4,2,4,44,0,0
60212,-125,4,2,4,44,0,0
60535,-111.111111111111,4,2,4,44,0,0
61019,-100,4,2,4,44,0,0
62470,-100,4,2,4,44,0,0
64890,-100,4,2,4,54,0,0
65051,-83.3333333333333,4,2,4,54,0,0
65373,-71.4285714285714,4,2,4,54,0,0
65696,-58.8235294117647,4,2,4,54,0,0
66019,-50,4,2,4,54,0,0
66180,-200,4,2,4,54,0,0
66986,-1000,4,2,44,64,0,0
67309,-1000,4,2,4,54,0,0
67470,-76.9230769230769,4,2,4,74,0,0

[Colours]
Combo1 : 140,202,247
Combo2 : 129,228,162
Combo3 : 255,151,158

[HitObjects]
52,369,374,6,0,B|35:284|84:301|56:218,1,150,2|0,0:0|0:0,0:0:0:0:
25,76,857,2,0,P|15:97|13:119,1,37.5,0|0,0:0|0:0,0:0:0:0:
84,149,1019,2,0,L|230:182,1,150,2|0,0:0|0:0,0:0:0:0:
430,251,1664,5,2,0:0:0:0:
472,133,1825,2,0,P|427:129|361:210,1,150,0|2,0:0|0:0,0:0:0:0:
357,282,2309,2,0,B|440:305|417:264|504:288,1,150,0|0,0:0|0:0,0:0:0:0:
253,334,2954,5,8,0:2:0:0:
180,248,3115,1,0,0:0:0:0:
288,218,3277,2,0,P|272:237|260:258,1,37.5,8|8,0:2|0:2,0:0:0:0:
149,363,3438,2,0,P|165:344|177:323,1,37.5,8|8,0:2|0:2,0:0:0:0:
180,248,3599,2,0,L|167:167,1,75,8|0,0:2|0:0,0:0:0:0:
85,11,3922,6,0,P|98:25|122:35,1,37.5,8|0,0:0|0:0,0:0:0:0:
160,98,4083,2,0,P|176:89|189:75,1,37.5,0|0,0:0|0:0,0:0:0:0:
363,53,4244,5,8,0:1:0:0:
258,10,4406,1,0,0:0:0:0:
334,151,4567,6,0,L|377:135,1,37.5,8|8,0:2|0:2,0:0:0:0:
441,159,4728,2,0,L|484:143,1,37.5,8|0,0:2|0:0,0:0:0:0:
263,248,4890,6,0,L|158:220,1,97.4999955368044,8|8,0:1|0:1,0:0:0:0:
351,347,5212,6,0,B|405:345|434:307|434:307|485:297|521:336,1,180,2|0,0:3|0:0,0:0:0:0:
512,327,5535,1,10,0:0:0:0:
352,232,5696,1,0,0:0:0:0:
476,145,5857,2,0,P|468:182|461:233,1,82.5000025177003,8|0,0:1|0:0,0:0:0:0:
461,226,6099,1,0,0:0:0:0:
461,226,6180,1,8,0:0:0:0:
254,98,6341,6,0,L|298:87,1,41.2500012588501,8|0,0:0|0:0,0:0:0:0:
403,40,6503,2,0,P|395:77|388:128,1,82.5000025177003,8|0,0:1|0:0,0:0:0:0:
164,280,6825,5,10,0:0:0:0:
89,190,6986,1,0,0:0:0:0:
203,167,7148,1,10,0:1:0:0:
277,256,7309,1,8,0:1:0:0:
277,256,7390,1,8,0:1:0:0:
277,256,7470,1,10,0:0:0:0:
164,280,7632,1,8,0:0:0:0:
277,256,7793,2,0,P|315:267|360:278,1,82.5000025177003,10|0,0:1|0:0,0:0:0:0:
132,120,8115,6,0,P|121:82|110:37,1,82.5000025177003,10|0,0:0|0:0,0:0:0:0:
208,58,8438,1,8,0:1:0:0:
13,190,8599,5,0,0:0:0:0:
13,190,8680,1,0,0:0:0:0:
13,190,8761,1,8,0:0:0:0:
125,214,8922,1,8,0:0:0:0:
51,302,9083,1,8,0:1:0:0:
93,105,9244,2,0,L|138:122,1,41.2500012588501,0|0,0:0|0:0,0:0:0:0:
245,250,9406,6,0,P|226:213|219:171,1,82.5000025177003,10|0,0:0|0:0,0:0:0:0:
51,302,9728,2,0,P|43:342|25:379,1,82.5000025177003,10|8,0:1|0:1,0:0:0:0:
25,379,9970,1,8,0:1:0:0:
25,379,10051,1,10,0:0:0:0:
171,297,10212,1,8,0:0:0:0:
6,167,10373,2,0,L|91:195,1,82.5000025177003,10|0,0:1|0:0,0:0:0:0:
337,17,10696,5,10,0:0:0:0:
319,89,10857,1,0,0:0:0:0:
302,161,11019,1,8,0:1:0:0:
253,32,11180,6,0,L|214:50,1,41.2500012588501,0|0,0:0|0:0,0:0:0:0:
384,161,11341,2,0,P|421:180|468:198,1,82.5000025177003,8|8,0:0|0:0,0:0:0:0:
463,109,11664,1,8,0:1:0:0:
316,286,11825,5,0,0:0:0:0:
316,286,11906,1,0,0:0:0:0:
316,286,11986,1,10,0:0:0:0:
419,354,12148,1,0,0:0:0:0:
316,286,12309,2,0,L|234:312,1,82.5000025177003,10|8,0:1|0:1,0:0:0:0:
237,310,12551,1,8,0:1:0:0:
237,310,12632,1,10,0:0:0:0:
361,182,12793,1,8,0:0:0:0:
179,144,12954,1,10,0:1:0:0:
260,213,13115,5,0,0:0:0:0:
260,213,13196,1,0,0:0:0:0:
260,213,13277,2,0,P|269:165|271:122,1,82.5000025177003,10|0,0:0|0:0,0:0:0:0:
68,187,13599,2,0,P|59:235|57:278,1,82.5000025177003,8|0,0:1|0:0,0:0:0:0:
56,268,13841,1,0,0:0:0:0:
56,268,13922,1,8,0:0:0:0:
165,240,14083,1,8,0:0:0:0:
0,129,14244,1,8,0:1:0:0:
182,16,14406,2,0,P|186:39|187:66,1,41.2500012588501,0|0,0:0|0:0,0:0:0:0:
117,106,14567,5,10,0:0:0:0:
117,106,14728,1,0,0:0:0:0:
286,195,14890,2,0,P|255:169|210:158,1,82.5000025177003,10|8,0:1|0:1,0:0:0:0:
215,158,15132,1,8,0:1:0:0:
215,158,15212,1,10,0:0:0:0:
308,87,15373,1,8,0:0:0:0:
264,332,15535,1,10,0:1:0:0:
214,258,15696,5,2,0:0:0:0:
214,258,15777,1,2,0:0:0:0:
214,258,15857,2,0,P|174:268|144:293,1,75,10|0,0:0|0:0,0:0:0:0:
443,351,16180,1,8,0:1:0:0:
507,155,16341,5,10,0:1:0:0:
507,155,16422,1,10,0:1:0:0:
507,155,16503,2,0,P|496:115|475:88,1,75,10|8,0:0|0:0,0:0:0:0:
443,351,16825,1,8,0:1:0:0:
323,221,16986,5,10,0:1:0:0:
323,221,17067,1,10,0:1:0:0:
323,221,17148,2,0,L|399:237,1,75,10|0,0:0|0:0,0:0:0:0:
443,351,17470,1,8,0:1:0:0:
372,142,17632,6,0,L|365:106,1,37.5,10|10,0:1|0:1,0:0:0:0:
287,137,17793,2,0,L|211:153,1,75,10|8,0:0|0:0,0:0:0:0:
443,351,18115,1,8,0:1:0:0:
281,362,18277,5,10,0:1:0:0:
281,362,18357,1,10,0:1:0:0:
281,362,18438,1,10,0:0:0:0:
484,243,18599,1,0,0:0:0:0:
443,351,18761,5,8,0:1:0:0:
294,63,18922,5,10,0:1:0:0:
294,63,19003,1,10,0:1:0:0:
294,63,19083,2,0,P|292:95|286:140,1,75,10|8,0:0|0:0,0:0:0:0:
443,351,19406,1,8,0:1:0:0:
401,172,19567,5,10,0:1:0:0:
401,172,19648,1,10,0:1:0:0:
401,172,19728,1,10,0:0:0:0:
247,273,19890,1,2,0:0:0:0:
286,137,20051,1,10,0:1:0:0:
371,310,20212,1,10,0:1:0:0:
371,310,20293,1,8,0:1:0:0:
371,310,20373,1,10,0:0:0:0:
286,137,20535,2,0,P|296:100|302:61,1,75,10|10,0:0|0:1,0:0:0:0:
328,221,20857,5,10,0:1:0:0:
328,221,20938,1,8,0:1:0:0:
328,221,21019,1,10,0:0:0:0:
121,96,21180,2,0,L|203:72,1,75,0|8,0:0|0:1,0:0:0:0:
127,226,21503,1,10,0:1:0:0:
127,226,21583,1,8,0:1:0:0:
127,226,21664,2,0,L|209:202,1,75,8|8,0:0|0:0,0:0:0:0:
42,141,21986,1,10,0:1:0:0:
232,293,22148,5,8,0:1:0:0:
232,293,22228,1,8,0:1:0:0:
232,293,22309,2,0,P|225:327|219:368,1,75,10|0,0:0|0:0,0:0:0:0:
0,331,22632,2,0,B|68:311|54:347|124:325,1,112.5,10|8,0:1|0:1,0:0:0:0:
110,329,22954,2,0,P|103:295|97:254,1,75,8|10,0:0|0:0,0:0:0:0:
209,156,23277,1,8,0:1:0:0:
49,62,23438,5,8,0:1:0:0:
49,62,23519,1,8,0:1:0:0:
49,62,23599,2,0,P|83:69|121:82,1,75,10|0,0:0|0:0,0:0:0:0:
209,156,23922,1,10,0:1:0:0:
308,46,24083,6,0,P|288:52|269:64,1,37.5,8|8,0:1|0:1,0:0:0:0:
209,156,24244,2,0,L|225:234,1,75,10|8,0:0|0:0,0:0:0:0:
413,284,24567,1,10,0:1:0:0:
286,355,24728,1,10,0:1:0:0:
286,355,24809,1,8,0:1:0:0:
286,355,24890,2,0,L|301:281,1,75,8|0,0:0|0:0,0:0:0:0:
507,168,25212,6,0,L|462:180,1,37.5,10|0,0:1|0:0,0:0:0:0:
404,116,25373,2,0,L|359:128,1,37.5,8|8,0:1|0:1,0:0:0:0:
311,199,25535,1,10,0:0:0:0:
169,54,25696,2,0,L|243:69,1,75,8|10,0:1|0:1,0:0:0:0:
198,154,26019,5,0,0:0:0:0:
198,154,26099,1,0,0:0:0:0:
198,154,26180,1,10,0:0:0:0:
302,11,26341,1,0,0:0:0:0:
100,98,26503,1,10,0:1:0:0:
266,227,26664,1,8,0:1:0:0:
242,68,26825,5,10,0:0:0:0:
242,68,26986,2,0,B|160:59|183:92|91:82,1,150,8|8,0:0|0:1,0:0:0:0:
94,82,27390,1,8,0:1:0:0:
94,82,27470,1,10,0:0:0:0:
247,209,27632,1,0,0:0:0:0:
59,342,27793,2,0,P|74:305|85:267,1,75,8|8,0:1|0:1,0:0:0:0:
83,271,28035,1,8,0:1:0:0:
83,271,28115,1,10,0:0:0:0:
183,327,28277,5,8,0:0:0:0:
0,196,28438,2,0,L|71:175,1,75,10|8,0:1|0:1,0:0:0:0:
71,174,28680,1,8,0:1:0:0:
71,174,28761,1,10,0:0:0:0:
181,219,28922,1,0,0:0:0:0:
292,110,29083,1,10,0:1:0:0:
407,289,29244,5,8,0:1:0:0:
407,289,29325,1,8,0:1:0:0:
407,289,29406,1,10,0:0:0:0:
272,215,29567,1,8,0:0:0:0:
450,81,29728,2,0,P|421:102|386:117,1,75,8|8,0:1|0:1,0:0:0:0:
385,117,29970,1,8,0:1:0:0:
385,117,30051,1,10,0:0:0:0:
340,37,30212,5,0,0:0:0:0:
457,202,30373,1,10,0:1:0:0:
254,303,30535,1,8,0:1:0:0:
254,303,30615,1,8,0:1:0:0:
254,303,30696,1,10,0:0:0:0:
340,215,30857,1,8,0:0:0:0:
340,215,31019,2,0,P|353:250|356:288,1,75,8|8,0:1|0:1,0:0:0:0:
356,287,31261,1,8,0:1:0:0:
356,287,31341,1,10,0:0:0:0:
210,224,31503,5,0,0:0:0:0:
407,97,31664,2,0,L|332:79,1,75,10|10,0:1|0:1,0:0:0:0:
334,79,31906,1,8,0:1:0:0:
334,79,31986,1,8,0:0:0:0:
340,215,32148,1,8,0:0:0:0:
393,0,32309,1,8,0:1:0:0:
214,80,32470,5,10,0:1:0:0:
214,80,32551,1,8,0:1:0:0:
214,80,32632,1,8,0:0:0:0:
278,151,32793,1,2,0:0:0:0:
214,80,32954,2,0,P|189:112|162:139,1,75,10|8,0:1|0:1,0:0:0:0:
293,248,33196,5,8,0:1:0:0:
293,248,33277,2,0,P|277:210|267:173,1,75,8|8,0:0|0:0,0:0:0:0:
101,238,33599,2,0,P|141:243|178:253,1,75,10|8,0:1|0:1,0:0:0:0:
174,252,33841,1,8,0:1:0:0:
174,252,33922,2,0,L|188:331,1,75,10|0,0:0|0:0,0:0:0:0:
99,336,34244,1,10,0:1:0:0:
276,182,34406,5,8,0:1:0:0:
276,182,34486,1,8,0:1:0:0:
276,182,34567,1,10,0:0:0:0:
126,80,34728,1,8,0:0:0:0:
245,49,34890,1,10,0:1:0:0:
178,160,35051,2,0,P|187:144|198:128,1,37.5,8|8,0:1|0:1,0:0:0:0:
331,44,35212,5,10,0:0:0:0:
401,69,35373,1,0,0:0:0:0:
471,94,35535,1,10,0:1:0:0:
275,215,35696,5,8,0:1:0:0:
275,215,35777,1,8,0:1:0:0:
275,215,35857,1,10,0:0:0:0:
205,240,36019,1,10,0:1:0:0:
135,265,36180,2,0,P|126:304|124:345,1,75,10|0,0:1|0:0,0:0:0:0:
197,381,36422,5,0,0:0:0:0:
197,381,36503,2,0,B|113:350|130:395|37:369,1,150,10|10,0:0|0:1,0:0:0:0:
284,360,36986,1,8,0:1:0:0:
284,360,37067,1,8,0:1:0:0:
284,360,37148,2,0,L|294:280,1,75,10|8,0:0|0:0,0:0:0:0:
205,240,37470,1,8,0:1:0:0:
370,335,37632,6,0,L|409:324,1,37.5,10|8,0:1|0:1,0:0:0:0:
468,277,37793,2,0,L|458:197,1,75,8|0,0:0|0:0,0:0:0:0:
315,113,38115,1,10,0:1:0:0:
481,35,38277,1,8,0:1:0:0:
481,35,38357,1,8,0:1:0:0:
481,35,38438,2,0,P|452:56|428:88,2,75,10|8|10,0:0|0:0|0:1,0:0:0:0:
279,196,38922,2,0,P|260:187|245:174,1,37.5,8|8,0:0|0:0,0:0:0:0:
241,68,39083,5,10,0:0:0:0:
374,201,39244,1,0,0:0:0:0:
211,285,39406,1,10,0:1:0:0:
78,152,39567,5,8,0:1:0:0:
78,152,39648,1,8,0:1:0:0:
78,152,39728,2,0,P|112:163|156:169,1,75,8|10,0:0|0:0,0:0:0:0:
241,68,40051,1,8,0:1:0:0:
98,256,40212,5,8,0:0:0:0:
98,256,40293,1,8,0:0:0:0:
98,256,40373,1,10,0:0:0:0:
140,79,40535,1,0,0:0:0:0:
98,256,40696,2,0,L|106:338,1,75,8|8,0:1|0:1,0:0:0:0:
105,330,40938,1,8,0:1:0:0:
105,330,41019,1,10,0:0:0:0:
9,311,41180,5,8,0:0:0:0:
195,276,41341,1,10,0:1:0:0:
9,311,41503,2,0,L|14:353,1,37.5,8|8,0:0|0:0,0:0:0:0:
268,216,41664,5,10,0:0:0:0:
347,235,41825,1,0,0:0:0:0:
392,303,41986,1,10,0:1:0:0:
197,153,42148,5,8,0:1:0:0:
197,153,42228,1,8,0:1:0:0:
197,153,42309,1,10,0:0:0:0:
173,75,42470,1,8,0:0:0:0:
210,2,42632,1,8,0:1:0:0:
195,276,42793,2,0,P|175:290|155:299,1,37.5,10|8,0:0|0:0,0:0:0:0:
73,338,42954,5,8,0:0:0:0:
97,214,43115,1,0,0:0:0:0:
73,338,43277,1,10,0:1:0:0:
204,157,43438,5,8,0:1:0:0:
204,157,43519,1,8,0:1:0:0:
204,157,43599,1,10,0:0:0:0:
240,360,43761,1,8,0:0:0:0:
204,157,43922,1,8,0:1:0:0:
202,260,44083,2,0,P|222:246|242:237,1,37.5,8|8,0:0|0:0,0:0:0:0:
455,298,44244,5,8,0:0:0:0:
298,300,44406,2,0,P|327:319|371:325,1,75,2|8,0:0|0:1,0:0:0:0:
509,216,44728,1,8,0:1:0:0:
509,216,44809,1,8,0:1:0:0:
509,216,44890,2,0,L|491:139,1,75,10|8,0:0|0:0,0:0:0:0:
359,86,45212,1,10,0:1:0:0:
446,28,45373,5,8,0:0:0:0:
446,28,45454,1,8,0:0:0:0:
446,28,45535,1,8,0:0:0:0:
391,205,45696,1,0,0:0:0:0:
326,159,45857,2,0,L|248:176,1,75,10|8,0:1|0:1,0:0:0:0:
252,174,46099,1,8,0:1:0:0:
252,174,46180,1,8,0:0:0:0:
132,107,46341,1,0,0:0:0:0:
164,202,46503,1,10,0:1:0:0:
226,88,46664,5,0,0:0:0:0:
226,88,46744,1,0,0:0:0:0:
226,88,46825,2,0,P|215:47|210:12,1,75,10|0,0:0|0:0,0:0:0:0:
20,235,47148,2,0,B|109:239|70:201|163:201,1,150,10|10,0:1|0:0,0:0:0:0:
222,260,47632,2,0,L|209:338,1,75,2|10,0:0|0:1,0:0:0:0:
436,245,47954,6,0,B|346:249|385:211|292:211,2,150,10|8|10,0:0|0:0|0:0,0:0:0:0:
369,135,48761,1,10,0:0:0:0:
477,25,48922,2,0,P|473:62|465:98,1,75,10|10,0:1|0:1,0:0:0:0:
385,47,49244,5,0,0:0:0:0:
385,47,49325,1,0,0:0:0:0:
385,47,49406,1,10,0:0:0:0:
512,171,49567,1,0,0:0:0:0:
385,47,49728,2,0,L|309:65,1,75,8|8,0:1|0:0,0:0:0:0:
146,200,50051,5,10,0:0:0:0:
196,80,50212,1,2,0:0:0:0:
239,170,50373,1,10,0:1:0:0:
105,112,50535,2,0,P|69:122|12:215,1,150,10|8,0:0|0:0,0:0:0:0:
240,331,51019,2,0,P|218:302|212:261,1,75,8|10,0:1|0:0,0:0:0:0:
113,348,51341,5,10,0:0:0:0:
316,241,51503,1,8,0:1:0:0:
105,112,51664,2,0,L|185:138,1,75,8|0,0:1|0:0,0:0:0:0:
247,187,51986,5,10,0:0:0:0:
247,187,52148,1,0,0:0:0:0:
134,241,52309,1,8,0:1:0:0:
231,56,52470,1,8,0:0:0:0:
355,165,52632,1,10,0:0:0:0:
247,187,52793,2,0,L|173:166,2,75,2|10|10,0:0|0:1|0:0,0:0:0:0:
384,288,53277,5,2,0:0:0:0:
260,348,53438,1,8,0:0:0:0:
384,288,53599,1,10,0:1:0:0:
293,263,53761,5,8,0:0:0:0:
479,353,53922,1,10,0:0:0:0:
293,263,54083,1,8,0:1:0:0:
469,124,54244,2,0,P|476:161|488:197,1,75,10|0,0:1|0:0,0:0:0:0:
353,147,54567,6,0,B|274:145|301:109|206:113,1,150,10|8,0:0|0:1,0:0:0:0:
353,147,55051,1,8,0:0:0:0:
131,73,55212,2,0,P|122:35|120:-1,1,75,10|0,0:0|0:0,0:0:0:0:
249,196,55535,5,10,0:1:0:0:
34,359,55696,2,0,P|60:316|157:301,1,150,8|8,0:0|0:0,0:0:0:0:
248,310,56180,2,0,L|233:384,1,75,10|10,0:1|0:0,0:0:0:0:
152,299,56503,5,10,0:0:0:0:
378,198,56664,1,8,0:1:0:0:
218,7,56825,2,0,P|210:43|201:80,1,75,10|0,0:1|0:0,0:0:0:0:
251,174,57148,5,10,0:0:0:0:
117,113,57309,6,0,L|93:125,2,15
24,170,57632,6,0,L|51:182,2,18.75,0|0|2,0:0|0:0|0:0,0:0:0:0:
119,240,57954,6,0,L|90:253,2,22.4999993133545,0|0|0,0:0|0:0|0:0,0:0:0:0:
0,354,58277,5,0,0:0:0:0:
0,354,58357,1,0,0:0:0:0:
0,354,58438,2,0,P|15:320|27:269,1,75,2|0,0:0|0:0,0:0:0:0:
177,331,58761,2,0,B|267:333|231:363|329:365,2,150,2|2|2,0:0|0:0|0:0,0:0:0:0:
376,161,59728,5,2,0:0:0:0:
448,334,59890,6,0,L|457:306,2,26.2499991989136,0|0|0,0:0|0:0|0:0,0:0:0:0:
498,200,60212,6,0,L|508:232,2,30,0|0|2,0:0|0:0|0:0,0:0:0:0:
321,275,60535,6,0,L|288:266,2,33.7499989700318,0|0|0,0:0|0:0|0:0,0:0:0:0:
459,111,60857,5,0,0:0:0:0:
459,111,60938,1,0,0:0:0:0:
459,111,61019,2,0,L|384:140,1,75,2|0,0:0|0:0,0:0:0:0:
298,13,61341,2,0,L|373:42,1,75,2|0,0:0|0:0,0:0:0:0:
160,217,61664,6,0,P|156:176|146:139,1,75,2|0,0:0|0:0,0:0:0:0:
232,85,61986,2,0,P|241:121|244:158,1,75,2|0,0:0|0:0,0:0:0:0:
65,306,62309,5,10,0:0:0:0:
152,352,62470,5,0,0:0:0:0:
155,345,62551,1,0,0:0:0:0:
156,337,62632,1,0,0:0:0:0:
260,322,62793,5,0,0:0:0:0:
258,307,62873,1,0,0:0:0:0:
253,292,62954,1,2,0:0:0:0:
353,217,63115,5,0,0:0:0:0:
339,198,63196,1,0,0:0:0:0:
320,185,63277,1,0,0:0:0:0:
272,35,63438,5,0,0:0:0:0:
235,42,63519,1,0,0:0:0:0:
204,63,63599,1,10,0:0:0:0:
119,85,63761,5,0,0:0:0:0:
119,85,63841,1,0,0:0:0:0:
119,85,63922,2,0,L|133:8,1,75,2|0,0:0|0:0,0:0:0:0:
187,161,64244,1,2,0:0:0:0:
87,266,64406,1,0,0:0:0:0:
87,266,64486,1,0,0:0:0:0:
87,266,64567,2,0,L|101:189,1,75,2|0,0:0|0:0,0:0:0:0:
359,95,64890,5,10,0:0:0:0:
217,39,65051,6,0,P|228:62|235:87,1,44.999998626709,0|0,0:0|0:0,0:0:0:0:
187,161,65212,1,8,0:0:0:0:
330,255,65373,6,0,P|305:246|282:233,1,52.4999983978272
182,154,65535,1,8,0:0:0:0:
73,299,65696,6,0,P|93:284|121:249,1,63.7500012159348
195,155,65857,1,8,0:0:0:0:
220,341,66019,5,0,0:0:0:0:
220,341,66099,1,0,0:0:0:0:
220,341,66180,1,10,0:0:0:0:
256,219,66341,6,0,L|256:241,2,18.75,0|0|2,0:0|0:0|0:0,0:0:0:0:
256,42,66664,6,0,L|256:61,2,18.75,0|0|2,0:0|0:0|0:0,0:0:0:0:
256,354,66986,5,8,0:0:0:0:
256,354,67148,1,10,0:0:0:0:
255,136,67309,5,0,0:0:0:0:
256,219,67470,6,0,B|371:195|343:266|451:232,1,194.999991073609,14|8,0:0|0:1,0:0:0:0:
186,279,67954,1,0,0:0:0:0:
186,279,68035,1,0,0:0:0:0:
186,279,68115,2,0,L|162:377,1,97.4999955368044,10|8,0:0|0:0,0:0:0:0:
14,118,68438,2,0,P|43:149|96:166,1,97.4999955368044,8|2,0:1|0:0,0:0:0:0:
294,100,68761,5,8,0:0:0:0:
177,3,68922,2,0,L|164:58,1,48.7499977684022,2|0,0:0|0:0,0:0:0:0:
334,183,69083,5,10,0:1:0:0:
409,163,69244,1,8,0:1:0:0:
409,163,69325,1,8,0:1:0:0:
409,163,69406,1,10,0:1:0:0:
484,143,69567,1,8,0:0:0:0:
219,335,69728,2,0,P|216:283|208:236,1,97.4999955368044,10|0,0:1|0:0,0:0:0:0:
208,238,69970,5,0,0:0:0:0:
208,238,70051,2,0,L|308:255,1,97.4999955368044,10|0,0:0|0:0,0:0:0:0:
396,297,70373,1,8,0:1:0:0:
252,32,70535,1,0,0:0:0:0:
252,32,70615,1,0,0:0:0:0:
252,32,70696,1,10,0:0:0:0:
365,86,70857,1,8,0:0:0:0:
262,157,71019,1,8,0:1:0:0:
252,32,71180,5,0,0:0:0:0:
252,32,71261,1,0,0:0:0:0:
252,32,71341,1,10,0:0:0:0:
145,102,71503,1,0,0:0:0:0:
262,157,71664,1,8,0:1:0:0:
252,32,71825,5,8,0:1:0:0:
252,32,71906,1,8,0:1:0:0:
252,32,71986,1,10,0:0:0:0:
421,151,72148,1,8,0:0:0:0:
249,281,72309,1,8,0:1:0:0:
80,162,72470,2,0,P|109:154|140:153,1,48.7499977684022,0|0,0:0|0:0,0:0:0:0:
262,157,72632,5,8,0:0:0:0:
120,285,72793,1,2,0:0:0:0:
313,351,72954,2,0,P|291:314|247:280,1,97.4999955368044,8|2,0:1|0:0,0:0:0:0:
249,281,73196,1,0,0:0:0:0:
249,281,73277,1,10,0:0:0:0:
364,252,73438,5,8,0:0:0:0:
202,367,73599,1,10,0:1:0:0:
364,252,73761,1,0,0:0:0:0:
364,252,73841,1,0,0:0:0:0:
364,252,73922,2,0,L|464:267,1,97.4999955368044,10|10,0:0|0:1,0:0:0:0:
475,252,74164,2,0,B|486:272|486:272|469:296,1,48.7499977684022,10|10,0:1|0:1,0:0:0:0:
248,280,74406,2,0,B|236:259|236:259|253:235,1,48.7499977684022,8|8,0:1|0:1,0:0:0:0:
310,175,74567,5,10,0:1:0:0:
285,370,74728,1,10,0:0:0:0:
310,175,74890,2,0,B|326:125|326:125|311:79,1,97.4999955368044,8|2,0:1|0:0,0:0:0:0:
236,35,75212,5,8,0:0:0:0:
402,192,75373,1,2,0:0:0:0:
402,192,75454,1,2,0:0:0:0:
402,192,75535,1,10,0:1:0:0:
236,35,75696,1,2,0:0:0:0:
103,216,75857,2,0,L|10:252,1,97.4999955368044,10|8,0:0|0:0,0:0:0:0:
139,51,76180,6,0,P|148:74|153:102,1,48.7499977684022,10|0,0:1|0:0,0:0:0:0:
103,216,76341,2,0,P|94:193|89:165,1,48.7499977684022,2|0,0:0|0:0,0:0:0:0:
310,161,76503,5,10,0:0:0:0:
402,192,76664,1,8,0:1:0:0:
494,223,76825,1,10,0:1:0:0:
187,289,76986,5,8,0:0:0:0:
187,289,77067,1,8,0:0:0:0:
187,289,77148,1,10,0:0:0:0:
95,320,77309,1,8,0:1:0:0:
3,351,77470,1,10,0:1:0:0:
298,364,77632,5,8,0:1:0:0:
298,364,77712,1,8,0:1:0:0:
298,364,77793,2,0,P|308:315|307:265,1,97.4999955368044,14|0,0:0|0:0,0:0:0:0:
210,123,78115,1,8,0:1:0:0:
379,129,78277,2,0,P|354:140|334:156,1,48.7499977684022,0|0,0:0|0:0,0:0:0:0:
242,212,78438,5,10,0:0:0:0:
333,46,78599,1,8,0:0:0:0:
488,139,78761,1,8,0:1:0:0:
333,46,78922,5,2,0:0:0:0:
333,46,79003,1,0,0:0:0:0:
333,46,79083,2,0,L|231:31,1,97.4999955368044,8|2,0:0|0:0,0:0:0:0:
37,256,79406,5,10,0:1:0:0:
168,290,79567,1,8,0:2:0:0:
168,290,79648,1,8,0:2:0:0:
168,290,79728,1,10,0:0:0:0:
260,190,79890,1,8,0:0:0:0:
129,155,80051,1,10,0:1:0:0:
87,27,80212,2,0,L|102:75,1,48.7499977684022,0|0,0:0|0:0,0:0:0:0:
281,297,80373,6,0,B|334:304|367:261|367:261|426:252|457:287,1,194.999991073609,10|8,0:0|0:1,0:0:0:0:
260,190,80857,1,2,0:0:0:0:
260,190,80938,1,0,0:0:0:0:
260,190,81019,2,0,P|271:141|276:94,1,97.4999955368044,10|8,0:0|0:0,0:0:0:0:
37,256,81341,2,0,P|73:289|126:295,1,97.4999955368044,10|0,0:1|0:0,0:0:0:0:
206,267,81664,5,8,0:0:0:0:
2,356,81825,1,0,0:0:0:0:
94,119,81986,2,0,P|107:168|112:217,1,97.4999955368044,10|8,0:1|0:1,0:0:0:0:
111,214,82228,1,8,0:1:0:0:
111,214,82309,1,8,0:0:0:0:
37,256,82470,5,8,0:0:0:0:
224,66,82632,2,0,P|200:40|136:31,1,97.4999955368044,10|0,0:1|0:0,0:0:0:0:
289,304,82954,5,8,0:0:0:0:
241,172,83115,1,2,0:0:0:0:
241,172,83196,1,2,0:0:0:0:
241,172,83277,2,0,P|265:146|329:137,1,97.4999955368044,10|2,0:1|0:0,0:0:0:0:
496,227,83599,6,0,P|478:212|453:201,1,48.7499977684022,10|0,0:0|0:0,0:0:0:0:
393,309,83761,2,0,P|411:294|436:283,1,48.7499977684022,8|0,0:0|0:0,0:0:0:0:
500,358,83922,5,10,0:1:0:0:
356,228,84083,1,2,0:0:0:0:
512,74,84244,5,10,0:0:0:0:
356,228,84406,2,0,L|304:212,1,48.7499977684022,2|2,0:0|0:0,0:0:0:0:
106,60,84567,5,10,0:1:0:0:
221,176,84728,1,10,0:1:0:0:
221,176,84809,1,10,0:1:0:0:
221,176,84890,1,10,0:1:0:0:
258,63,85051,5,10,0:0:0:0:
52,188,85212,1,8,0:1:0:0:
0,89,85373,6,0,P|23:95|44:113,1,48.7499977684022,2|0,0:0|0:0,0:0:0:0:
28,316,85535,5,8,0:0:0:0:
52,188,85696,2,0,P|29:194|8:212,1,48.7499977684022,2|2,0:0|0:0,0:0:0:0:
194,304,85857,5,10,0:1:0:0:
271,346,86019,1,2,0:0:0:0:
438,183,86180,5,10,0:0:0:0:
265,262,86341,1,8,0:0:0:0:
249,115,86503,5,10,0:1:0:0:
346,175,86664,1,2,0:0:0:0:
142,232,86825,5,10,0:0:0:0:
387,103,86986,2,0,P|373:50|366:3,1,97.4999955368044,8|10,0:1|0:1,0:0:0:0:
283,15,87309,5,8,0:0:0:0:
283,15,87390,1,8,0:0:0:0:
283,15,87470,1,10,0:0:0:0:
463,165,87632,1,8,0:1:0:0:
237,249,87793,2,0,L|133:230,1,97.4999955368044,10|0,0:1|0:0,0:0:0:0:
