osu file format v14

[General]
AudioFilename: audio.mp3
AudioLeadIn: 0
PreviewTime: 170164
Countdown: 0
SampleSet: Soft
StackLeniency: 0.5
Mode: 0
LetterboxInBreaks: 0
WidescreenStoryboard: 0

[Editor]
DistanceSpacing: 2
BeatDivisor: 4
GridSize: 16
TimelineZoom: 1.4

[Metadata]
Title:Melt 10th ANNIVERSARY MIX
TitleUnicode:メルト 10th ANNIVERSARY MIX
Artist:chelly x yanaginagi
ArtistUnicode:chelly × やなぎなぎ
Creator:jimmy55555
Version:Melted Heart
Source:
Tags:EGOIST ryo supercell 初音 ミク
BeatmapID:1587703
BeatmapSetID:754110

[Difficulty]
HPDrainRate:4
CircleSize:4
OverallDifficulty:8.5
ApproachRate:9.2
SliderMultiplier:1.6
SliderTickRate:1

[Events]
//Background and Video events
0,0,"chelly & yanaginagi.jpg",0,0
//Break Periods
//Storyboard Layer 0 (Background)
//Storyboard Layer 1 (Fail)
//Storyboard Layer 2 (Pass)
//Storyboard Layer 3 (Foreground)
//Storyboard Sound Samples

[TimingPoints]
3060,480,4,2,3,30,1,0
3060,-166.666666666667,4,2,3,30,0,0
4102,545.454545454546,4,2,3,40,1,0
5247,594.059405940594,4,2,3,40,1,0
7571,612.244897959184,4,2,3,40,1,0
7571,-111.111111111111,4,2,3,40,0,0
8486,-125,4,2,3,40,0,0
10810,461.538461538462,4,2,3,40,1,0
12654,576.923076923077,4,2,3,40,1,0
13252,750,4,2,3,40,1,0
13252,-125,4,2,3,40,0,0
13963,833.333333333333,4,2,3,40,1,0
13963,-125,4,2,3,40,0,0
14820,1132.07547169811,4,2,3,40,1,0
14820,-120.481927710843,4,2,3,40,0,0
15952,1428.57142857142,4,2,3,40,1,0
17371,631.578947368421,4,2,3,40,1,0
17371,-111.111111111111,4,2,3,40,0,0
19840,681.818181818182,4,2,3,40,1,0
19840,-111.111111111111,4,2,3,40,0,0
21958,759.493670886076,4,2,3,40,1,0
21958,-111.111111111111,4,2,3,40,0,0
22720,666.666666666667,4,2,3,40,1,0
22720,-125,4,2,3,40,0,0
25386,659.340659340659,4,2,3,40,1,0
28053,618.556701030928,4,2,3,40,1,0
30527,689.655172413794,4,2,3,40,1,0
30527,-111.111111111111,4,2,3,40,0,0
32010,606.060606060606,4,2,3,40,1,0
32010,-111.111111111111,4,2,3,40,0,0
33234,652.173913043478,4,2,3,40,1,0
33234,-111.111111111111,4,2,3,40,0,0
34578,652.173913043478,4,2,3,40,1,0
34578,-125,4,2,3,40,0,0
35922,697.674418604651,4,2,3,40,1,0
35922,-111.111111111111,4,2,3,40,0,0
37277,800,4,2,3,40,1,0
37277,-125,4,2,3,40,0,0
39079,916.030534351145,4,2,3,40,1,0
40908,1304.34782608696,4,2,3,40,1,0
40908,-50,4,2,3,40,0,0
43516,500,4,2,3,40,1,0
44517,352.941176470588,4,2,3,40,1,0
44869,-83.3333333333333,4,1,1,75,0,0
48840,-83.3333333333333,4,1,1,50,0,0
49458,-83.3333333333333,4,1,1,65,0,0
50164,-83.3333333333333,4,1,1,85,0,0
50869,-83.3333333333333,4,1,1,75,0,0
51575,-83.3333333333333,4,1,1,65,0,0
54399,-83.3333333333333,4,1,1,75,0,0
57222,-100,4,2,2,60,0,0
68516,-90.9090909090909,4,3,2,60,0,0
91105,-83.3333333333333,4,1,1,60,0,0
93928,-71.4285714285714,4,2,1,85,0,1
105222,-71.4285714285714,4,3,2,70,0,1
116516,-68.9655172413793,4,1,1,60,0,1
117928,-66.6666666666667,4,1,1,67,0,1
119340,-66.6666666666667,4,1,1,74,0,1
120046,-66.6666666666667,4,1,1,81,0,1
120752,-66.6666666666667,4,1,1,95,0,1
122164,-83.3333333333333,4,1,1,75,0,0
125075,-83.3333333333333,4,1,1,50,0,0
125693,-83.3333333333333,4,1,1,65,0,0
126399,-83.3333333333333,4,1,1,85,0,0
127105,-83.3333333333333,4,1,1,75,0,0
127811,-83.3333333333333,4,1,1,65,0,0
130634,-83.3333333333333,4,1,1,75,0,0
133458,-100,4,2,2,60,0,0
141928,-100,4,2,2,65,0,0
143340,-100,4,2,2,70,0,0
144752,-90.9090909090909,4,3,2,70,0,0
167340,-83.3333333333333,4,1,1,60,0,0
169458,-83.3333333333333,4,1,0,60,0,0
170164,-71.4285714285714,4,2,1,85,0,1
181458,-71.4285714285714,4,3,2,70,0,1
192752,-68.9655172413793,4,1,1,60,0,1
194164,-66.6666666666667,4,1,1,67,0,1
195575,-66.6666666666667,4,1,1,74,0,1
196281,-66.6666666666667,4,1,1,81,0,1
196987,-66.6666666666667,4,1,1,95,0,1
198399,-125,4,2,2,55,0,0
204046,-111.111111111111,4,2,2,60,0,0
206869,-83.3333333333333,4,3,2,70,0,0
209693,-90.9090909090909,4,3,2,70,0,0
232281,-111.111111111111,4,2,2,60,0,0
243575,-100,4,2,2,70,0,0
249222,-90.9090909090909,4,3,2,70,0,0
252134,-83.3333333333333,4,2,1,75,0,0
253369,-83.3333333333333,4,2,1,5,0,0
253458,-76.9230769230769,4,2,1,80,0,0
254693,-76.9230769230769,4,2,1,5,0,0
254869,-71.4285714285714,4,2,1,85,0,1
266164,-71.4285714285714,4,3,2,70,0,1
277458,-68.9655172413793,4,1,1,65,0,1
278869,-66.6666666666667,4,1,1,72,0,1
280281,-66.6666666666667,4,1,1,79,0,1
280987,-66.6666666666667,4,1,1,86,0,1
281693,-66.6666666666667,4,1,1,100,0,1
283105,-83.3333333333333,4,1,1,75,0,0
286016,-83.3333333333333,4,1,1,50,0,0
286634,-83.3333333333333,4,1,1,65,0,0
287340,-83.3333333333333,4,1,1,85,0,0
288046,-83.3333333333333,4,1,1,75,0,0
288752,-83.3333333333333,4,1,1,65,0,0
291575,408.163265306122,4,2,1,70,1,0
292375,454.545454545455,4,2,1,70,1,0
293170,-100,4,2,1,5,0,0
293284,500,4,2,1,70,1,0
294284,545.454545454546,4,2,1,70,1,0
295374,750,4,2,1,5,1,0
296119,405.405405405405,4,2,2,70,1,0
296119,-100,4,2,2,70,0,0
297740,394.736842105263,4,2,3,70,1,0
299318,526.315789473684,4,2,3,70,1,0
301661,434.782608695652,4,2,3,70,1,0
301661,-71.4285714285714,4,2,3,70,0,0
302531,-58.8235294117647,4,2,1,20,0,0
302695,517.241379310345,4,2,1,70,1,0
302695,-58.8235294117647,4,2,1,70,0,0
303733,625,4,2,1,40,1,0

[Colours]
Combo1 : 170,170,170
Combo2 : 128,0,128
Combo3 : 255,64,159
Combo4 : 0,128,192
Combo5 : 0,0,160

[HitObjects]
464,208,3060,54,0,P|384:191|325:216,1,143.999995605469
256,272,4102,1,0,0:0:0:0:
336,304,4647,1,0,0:0:0:0:
176,240,5247,21,0,0:0:0:0:
256,272,5841,1,0,0:0:0:0:
176,320,6435,1,0,0:0:0:0:
256,352,7029,1,0,0:0:0:0:
376,249,7571,38,0,B|393:214|376:179|376:179|358:145|376:110,1,143.999995605469
452,74,8489,2,0,P|295:120|456:141,1,448
72,232,13252,22,0,L|142:241,1,64
139,142,13963,2,0,L|203:151,1,64
205,54,14820,2,0,L|281:65,1,66.4000009625244
269,207,17371,38,0,P|337:179|414:193,1,143.999995605469
396,299,18318,2,0,P|319:329|368:262,1,215.999993408203
211,236,19840,22,0,P|145:208|75:221,1,143.999995605469
67,340,20862,2,0,P|102:336|135:322,1,71.9999978027344,0|2,0:0|0:0,0:0:0:0:
289,214,21958,1,0,0:0:0:0:
289,214,22720,38,0,P|401:233|477:181,1,192
410,116,24053,2,0,P|357:42|356:146,1,256,2|0,0:0|0:0,0:0:0:0:
365,76,26704,1,2,0:0:0:0:
102,286,30527,22,0,P|92:246|102:203,1,71.9999978027344
125,126,31216,2,0,P|128:88|119:52,1,71.9999978027344
352,338,32313,2,0,L|280:334,2,71.9999978027344
460,319,33234,38,0,P|471:274|460:230,1,71.9999978027344
421,152,33886,2,0,P|418:116|428:82,2,71.9999978027344,0|0|2,0:0|0:0|0:0,0:0:0:0:
289,76,35230,2,0,L|225:72,1,64
134,136,35922,22,0,P|127:173|134:208,2,71.9999978027344
226,73,36968,1,0,0:0:0:0:
364,163,37677,38,0,L|443:166,2,64
256,192,39079,1,0,0:0:0:0:
229,190,40908,22,0,L|258:192,1,26.6666666666667,0|2,0:0|0:0,0:0:0:0:
175,91,45399,38,0,L|128:97,1,47.9999985351563,0|0,3:0|3:0,3:0:0:0:
261,82,45575,1,4,0:2:0:0:
487,148,45928,54,0,P|515:42|432:114,1,287.999991210938,2|0,0:2|0:2,0:2:0:0:
512,229,46634,2,0,B|423:260|411:181|314:214,1,191.999994140625,2|0,0:2|0:2,0:2:0:0:
485,92,47340,5,2,0:2:0:0:
359,347,47693,1,0,0:2:0:0:
512,229,48046,2,0,B|423:260|411:181|314:214,1,191.999994140625,2|0,0:2|0:2,0:2:0:0:
156,321,48575,1,0,0:0:0:0:
156,321,48664,1,0,0:0:0:0:
156,321,48752,54,0,L|63:294,1,95.9999970703126,4|0,0:0|0:0,0:0:0:0:
233,184,49105,2,0,L|340:214,1,95.9999970703126
156,321,49458,5,0,0:0:0:0:
156,321,49634,1,0,0:0:0:0:
269,311,49811,53,0,0:0:0:0:
251,261,49987,1,0,0:0:0:0:
383,302,50164,5,0,0:0:0:0:
346,201,50340,1,0,0:0:0:0:
497,292,50517,53,0,0:0:0:0:
441,142,50693,1,0,0:0:0:0:
383,302,50869,5,8,0:0:0:0:
296,90,51046,1,8,0:0:0:0:
441,142,51222,1,0,0:0:0:0:
251,261,51399,1,8,0:0:0:0:
296,90,51575,54,0,B|250:69|205:95|205:95|160:119|111:98,1,191.999994140625,4|0,0:1|0:2,0:2:0:0:
251,261,52105,1,0,0:0:0:0:
251,261,52281,2,0,P|295:269|358:245,1,95.9999970703126,8|0,0:0|0:0,0:0:0:0:
184,163,52634,1,0,0:0:0:0:
199,368,52811,1,8,0:0:0:0:
251,261,52987,5,0,0:0:0:0:
80,377,53164,1,8,0:0:0:0:
199,368,53340,1,0,0:0:0:0:
199,368,53428,1,0,0:0:0:0:
199,368,53516,1,0,0:0:0:0:
65,171,53693,1,8,0:0:0:0:
65,171,54046,2,0,P|40:124|44:63,1,95.9999970703126
163,204,54398,53,2,0:2:0:0:
146,99,54574,1,0,0:0:0:0:
235,246,54752,5,2,0:2:0:0:
216,140,54928,1,0,0:0:0:0:
306,286,55105,53,2,0:2:0:0:
289,181,55281,1,0,0:0:0:0:
379,328,55458,5,2,0:2:0:0:
360,221,55634,1,0,0:0:0:0:
463,362,55810,54,0,L|501:259,1,95.9999970703126
306,286,56164,1,0,0:0:0:0:
282,276,56251,1,0,0:0:0:0:
260,276,56339,1,0,0:0:0:0:
234,282,56427,1,0,0:0:0:0:
212,288,56516,1,0,0:0:0:0:
189,288,56604,1,0,0:0:0:0:
164,279,56692,1,0,0:0:0:0:
145,263,56782,1,0,0:0:0:0:
130,245,56869,2,0,L|102:179,1,47.9999985351563
180,126,57046,2,0,L|207:191,1,47.9999985351563
306,180,57222,6,0,P|381:151|482:190,2,160,4|0|0,0:1|0:0|0:0,0:0:0:0:
97,217,58281,2,0,L|88:304,1,80
161,162,58634,1,0,0:0:0:0:
177,245,58811,1,0,0:0:0:0:
193,328,58987,1,0,0:0:0:0:
453,162,59693,21,0,0:0:0:0:
453,162,60046,1,0,0:0:0:0:
330,57,60399,2,0,L|238:64,1,80
119,57,60752,2,0,P|107:143|147:210,1,160
321,303,61458,37,0,0:2:0:0:
399,329,61811,1,0,0:2:0:0:
165,251,62164,1,0,0:2:0:0:
243,277,62517,1,0,0:0:0:0:
108,153,62869,22,0,L|49:153,2,53.3333333333333
112,251,63222,2,0,L|170:251,2,53.3333333333333,2|0|0,0:0|0:0|0:0,0:0:0:0:
192,170,63575,38,0,P|193:138|183:108,2,53.3333333333333
165,251,63928,2,0,P|163:277|169:303,2,53.3333333333333,2|0|0,0:0|0:0|0:0,0:0:0:0:
192,170,64281,22,0,L|264:170,2,53.3333333333333
165,251,64634,2,0,L|96:251,2,53.3333333333333,2|0|0,0:0|0:0|0:0,0:0:0:0:
192,170,64987,38,0,P|193:137|184:107,2,53.3333333333333
165,251,65340,2,0,P|163:277|169:303,2,53.3333333333333,2|0|0,0:0|0:0|0:0,0:0:0:0:
192,170,65693,22,0,L|185:91,1,80
247,234,66046,2,0,L|254:313,1,80,2|0,0:0|0:0,0:0:0:0:
192,170,66399,38,0,P|229:151|270:152,1,80
165,251,66752,2,0,P|128:270|87:269,1,80,2|0,0:0|0:0,0:0:0:0:
247,234,67105,2,0,L|427:267,2,160,0|0|2,0:0|0:0|0:2,0:0:0:0:
123,151,67987,2,0,L|166:158,1,40,0|0,3:0|0:0,0:0:0:0:
165,251,68164,2,0,L|75:267,1,80,2|0,0:0|0:0,0:0:0:0:
163,158,68516,5,2,0:0:0:0:
163,158,68693,1,0,0:0:0:0:
299,209,68869,2,0,P|353:214|397:197,1,88.000002685547,2|0,0:0|0:0,0:0:0:0:
202,53,69222,2,0,P|147:47|103:64,1,88.000002685547,10|0,0:0|0:0,0:0:0:0:
336,105,69575,1,2,0:0:0:0:
163,158,69752,1,8,0:0:0:0:
299,209,69928,21,2,0:0:0:0:
126,262,70105,1,8,0:0:0:0:
262,313,70281,2,0,P|313:320|357:304,1,88.000002685547,2|0,0:0|0:0,0:0:0:0:
299,209,70634,1,10,0:0:0:0:
299,209,70987,1,2,0:0:0:0:
210,143,71164,1,8,0:0:0:0:
311,99,71340,38,0,P|357:114|394:154,1,88.000002685547,2|0,0:0|0:0,0:0:0:0:
210,143,71693,1,2,0:0:0:0:
299,209,71869,1,8,0:0:0:0:
109,187,72046,2,0,B|138:250|196:259|196:259|182:284|178:317,1,176.000005371094,10|2,0:0|0:0,0:0:0:0:
210,143,72575,1,8,0:0:0:0:
305,316,72752,22,0,P|350:305|386:274,1,88.000002685547,2|0,0:0|0:0,0:0:0:0:
414,243,73016,1,0,0:0:0:0:
414,243,73105,2,0,L|412:141,1,88.000002685547,10|0,0:0|0:0,0:0:0:0:
305,316,73458,1,2,0:0:0:0:
211,202,73634,1,0,0:0:0:0:
211,202,73722,1,0,0:0:0:0:
211,202,73811,2,0,L|299:209,1,88.000002685547,10|0,0:0|0:0,0:0:0:0:
158,113,74164,38,0,P|110:197|146:282,1,176.000005371094,4|10,0:1|0:0,0:2:0:0:
257,107,74693,1,2,0:2:0:0:
342,156,74869,2,0,P|357:112|349:70,1,88.000002685547,2|2,0:0|0:2,0:2:0:0:
257,205,75222,1,10,0:0:0:0:
427,206,75399,1,2,0:2:0:0:
342,255,75575,22,0,P|372:289|412:304,1,88.000002685547,2|2,0:0|0:2,0:2:0:0:
342,156,75928,1,10,0:0:0:0:
257,304,76105,1,2,0:2:0:0:
257,205,76281,2,0,P|211:214|179:241,1,88.000002685547,2|2,0:0|0:2,0:2:0:0:
342,255,76634,1,10,0:0:0:0:
257,107,76811,1,2,0:2:0:0:
342,156,76987,37,4,0:1:0:0:
342,58,77164,1,2,0:2:0:0:
257,205,77340,1,10,0:0:0:0:
257,107,77516,1,2,0:2:0:0:
173,254,77693,1,2,0:0:0:0:
173,156,77869,1,2,0:2:0:0:
173,156,77958,1,0,0:2:0:0:
173,156,78046,1,10,0:0:0:0:
257,303,78222,1,2,0:2:0:0:
427,206,78399,22,0,P|439:244|432:295,1,88.000002685547,2|2,0:0|0:2,0:2:0:0:
257,303,78752,2,0,B|234:291|234:291|169:305,1,88.000002685547,10|2,0:0|0:2,0:2:0:0:
342,255,79105,1,2,0:0:0:0:
105,252,79281,1,2,0:2:0:0:
105,252,79369,1,0,0:2:0:0:
105,252,79458,2,0,B|137:269|137:269|231:249,1,132.00000402832,10|0,0:0|0:2,0:2:0:0:
260,233,79811,54,0,P|307:256|349:252,1,88.000002685547,4|0,0:1|0:0,0:0:0:0:
176,140,80164,2,0,P|130:118|88:122,1,88.000002685547,10|0,0:0|0:0,0:0:0:0:
323,159,80516,2,0,L|318:71,1,88.000002685547,2|0,0:0|0:0,0:0:0:0:
260,233,80869,2,0,L|265:321,1,88.000002685547,10|0,0:0|0:0,0:0:0:0:
323,159,81222,37,2,0:0:0:0:
176,140,81399,1,0,0:0:0:0:
176,140,81487,1,0,0:0:0:0:
176,140,81575,2,0,P|130:118|88:122,1,88.000002685547,10|0,0:0|0:0,0:0:0:0:
260,233,81928,1,2,0:0:0:0:
260,233,82281,1,10,0:0:0:0:
260,233,82458,1,0,0:0:0:0:
148,64,82634,22,0,L|60:69,1,88.000002685547,2|0,0:0|0:0,0:0:0:0:
222,127,82987,2,0,L|310:122,1,88.000002685547,10|0,0:0|0:0,0:0:0:0:
114,223,83340,2,0,P|90:269|93:311,1,88.000002685547,2|0,0:0|0:0,0:0:0:0:
222,127,83693,2,0,P|244:81|241:39,1,88.000002685547,10|0,0:0|0:0,0:0:0:0:
60,69,84046,38,0,L|148:64,2,88.000002685547,2|0|10,0:0|0:0|0:0,0:0:0:0:
122,231,84575,1,2,0:0:0:0:
122,231,84664,1,0,1:0:0:0:
122,231,84752,1,8,0:0:0:0:
276,268,84928,1,2,0:0:0:0:
276,268,85016,1,0,1:0:0:0:
276,268,85105,1,8,0:0:0:0:
234,115,85281,1,0,0:0:0:0:
234,115,85369,1,0,1:0:0:0:
234,115,85458,54,0,L|148:137,1,88.000002685547,4|0,0:1|0:0,0:0:0:0:
276,268,85811,2,0,L|361:245,1,88.000002685547,10|0,0:0|0:0,0:0:0:0:
95,224,86164,2,0,L|202:252,1,88.000002685547,2|0,0:2|0:0,0:0:0:0:
417,160,86516,2,0,L|310:132,1,88.000002685547,10|0,0:0|0:0,0:0:0:0:
276,268,86869,6,0,B|288:225|252:192|252:192|259:192|259:192|223:158|235:115,1,176.000005371094,2|10,0:2|0:0,0:0:0:0:
180,246,87399,1,0,0:0:0:0:
331,137,87575,1,2,0:2:0:0:
41,94,87928,2,0,L|43:184,1,88.000002685547,10|0,0:0|0:0,0:0:0:0:
32,318,88281,54,0,P|102:254|198:250,1,176.000005371094,4|10,0:1|0:0,0:0:0:0:
170,111,88811,1,0,0:0:0:0:
372,153,88987,2,0,P|332:172|285:171,1,88.000002685547,2|0,0:2|0:0,0:0:0:0:
431,230,89340,1,10,0:0:0:0:
313,76,89516,1,0,0:0:0:0:
240,260,89693,21,2,0:2:0:0:
372,153,89869,1,0,0:0:0:0:
214,93,90046,1,10,0:0:0:0:
240,260,90222,1,0,0:0:0:0:
313,76,90399,1,2,0:2:0:0:
181,183,90575,1,0,0:0:0:0:
372,153,90752,1,10,0:0:0:0:
214,93,90928,1,0,0:0:0:0:
339,243,91105,22,0,P|391:248|433:228,1,95.9999970703126,4|0,0:1|0:0,0:0:0:0:
214,93,91458,1,8,0:0:0:0:
190,87,91546,1,0,0:0:0:0:
166,87,91634,1,0,0:0:0:0:
143,93,91722,1,0,0:0:0:0:
123,105,91810,1,0,0:0:0:0:
339,243,91987,1,0,0:0:0:0:
362,248,92075,1,0,0:0:0:0:
386,248,92163,1,8,0:0:0:0:
181,183,92340,1,0,0:0:0:0:
388,120,92515,37,0,0:0:0:0:
400,138,92605,1,0,0:0:0:0:
408,160,92693,1,0,0:0:0:0:
410,184,92781,1,0,0:0:0:0:
407,207,92869,1,0,0:0:0:0:
398,229,92958,1,0,0:0:0:0:
386,248,93046,1,0,0:0:0:0:
373,266,93134,1,0,0:0:0:0:
364,288,93222,1,0,0:0:0:0:
361,311,93311,1,0,0:0:0:0:
363,335,93399,1,0,0:0:0:0:
371,357,93487,1,0,0:0:0:0:
383,375,93575,1,8,0:0:0:0:
179,150,93928,54,0,P|160:202|169:256,1,111.999996582031,4|2,0:0|0:0,0:0:0:0:
278,102,94281,1,0,1:0:0:0:
256,330,94458,1,2,0:0:0:0:
256,330,94546,1,0,1:0:0:0:
256,330,94634,1,2,0:0:0:0:
67,300,94811,1,2,0:0:0:0:
271,212,94987,2,0,P|331:235|365:281,1,111.999996582031,0|2,1:0|0:0,0:0:0:0:
169,256,95340,37,2,0:0:0:0:
256,330,95516,1,2,0:0:0:0:
278,102,95693,1,0,1:0:0:0:
82,182,95869,1,0,1:0:0:0:
271,212,96046,1,2,0:0:0:0:
271,212,96134,1,0,1:0:0:0:
271,212,96222,1,2,0:0:0:0:
184,31,96399,1,0,1:0:0:0:
177,141,96575,1,2,0:0:0:0:
379,63,96752,21,2,0:0:0:0:
372,173,96928,1,2,0:0:0:0:
177,141,97105,1,0,1:0:0:0:
379,63,97281,1,2,0:0:0:0:
379,63,97369,1,0,1:0:0:0:
379,63,97458,2,0,P|437:84|474:133,1,111.999996582031,2|2,0:0|0:0,0:0:0:0:
366,279,97811,2,0,P|382:226|371:172,1,111.999996582031,0|2,1:0|0:0,0:0:0:0:
228,75,98164,5,0,1:0:0:0:
264,222,98340,1,2,0:2:0:0:
276,218,98428,1,0,1:0:0:0:
289,214,98516,1,0,1:0:0:0:
228,75,98693,1,2,0:2:0:0:
203,66,98781,1,0,1:0:0:0:
178,58,98869,1,0,1:0:0:0:
289,214,99046,1,2,0:2:0:0:
231,314,99222,1,2,0:0:0:0:
347,114,99399,1,0,1:2:0:0:
128,155,99575,21,6,0:0:0:0:
289,214,99752,1,2,0:0:0:0:
70,255,99928,1,0,1:0:0:0:
231,314,100105,1,2,0:0:0:0:
231,314,100193,1,0,1:0:0:0:
231,314,100281,1,2,0:0:0:0:
128,155,100458,1,2,0:0:0:0:
346,315,100634,2,0,P|384:282|404:224,1,111.999996582031,0|2,1:0|0:0,0:0:0:0:
231,314,100987,37,2,0:0:0:0:
289,214,101164,1,2,0:0:0:0:
70,255,101340,1,0,1:0:0:0:
143,44,101516,1,0,1:0:0:0:
179,234,101693,1,2,0:0:0:0:
179,234,101781,1,0,1:0:0:0:
179,234,101869,1,2,0:0:0:0:
306,103,102046,2,0,P|366:86|423:103,1,111.999996582031,0|2,1:0|0:0,0:0:0:0:
289,214,102399,21,2,0:0:0:0:
306,103,102575,1,2,0:0:0:0:
346,315,102752,2,0,P|287:331|233:315,1,111.999996582031,0|2,1:0|0:0,0:0:0:0:
405,216,103105,1,2,0:0:0:0:
182,203,103281,1,2,0:2:0:0:
182,203,103369,1,0,1:0:0:0:
182,203,103458,2,0,P|138:236|118:288,1,111.999996582031,0|2,1:0|0:0,0:0:0:0:
127,109,103811,37,2,0:2:0:0:
127,109,103899,1,0,1:0:0:0:
127,109,103987,1,0,1:0:0:0:
118,288,104164,1,0,0:2:0:0:
246,107,104340,1,2,0:2:0:0:
246,107,104428,1,0,1:0:0:0:
246,107,104516,2,0,P|237:54|202:7,1,111.999996582031,0|0,1:0|0:0,0:0:0:0:
182,203,104869,1,2,0:2:0:0:
182,203,104958,1,0,1:0:0:0:
182,203,105046,1,0,1:0:0:0:
359,92,105222,54,0,B|371:146|327:190|327:190|336:190|336:190|294:234|306:290,1,223.999993164063,12|8,0:2|0:2,0:2:0:0:
246,107,105752,1,0,0:2:0:0:
417,268,105928,2,0,P|413:326|380:374,1,111.999996582031,8|0,0:2|0:2,0:2:0:0:
194,294,106281,2,0,L|315:288,1,111.999996582031,8|0,0:2|0:2,0:2:0:0:
107,196,106634,38,0,P|48:170|18:111,1,111.999996582031,8|0,0:2|0:2,0:2:0:0:
194,294,106987,2,0,P|141:332|75:328,1,111.999996582031,8|0,0:2|0:2,0:2:0:0:
244,160,107340,2,0,P|304:181|337:238,1,111.999996582031,8|0,0:2|0:2,0:2:0:0:
150,67,107693,2,0,P|198:24|264:24,1,111.999996582031,8|0,0:2|0:2,0:2:0:0:
36,21,108046,22,0,B|36:113|36:113|54:169|54:169|54:242,1,223.999993164063,12|8,0:2|0:2,0:2:0:0:
150,67,108575,1,0,0:2:0:0:
250,254,108752,2,0,P|310:271|362:257,1,111.999996582031,8|0,0:2|0:2,0:2:0:0:
149,182,109105,2,0,P|210:167|248:129,1,111.999996582031,8|0,0:2|0:2,0:2:0:0:
49,124,109458,22,0,L|55:237,1,111.999996582031,8|2,0:2|0:2,0:2:0:0:
150,67,109811,1,8,0:2:0:0:
149,182,109987,1,2,0:2:0:0:
251,10,110164,1,8,0:2:0:0:
49,124,110340,1,2,0:2:0:0:
249,240,110516,1,8,0:2:0:0:
251,10,110693,1,2,0:2:0:0:
49,124,110869,38,0,P|32:178|45:235,1,111.999996582031,12|0,0:2|0:2,0:2:0:0:
150,67,111222,1,8,0:2:0:0:
249,240,111399,2,0,L|359:227,2,111.999996582031,0|8|0,0:2|0:2|0:2,0:2:0:0:
414,326,111928,1,8,0:2:0:0:
438,142,112105,1,0,0:2:0:0:
249,240,112281,22,0,B|205:226|205:226|167:250|167:250|103:218|30:251,1,223.999993164063,12|8,0:2|0:2,0:2:0:0:
249,240,112811,2,0,L|359:227,2,111.999996582031,0|8|0,0:2|0:2|0:2,0:2:0:0:
459,280,113340,2,0,P|472:220|457:164,1,111.999996582031,8|0,0:2|0:2,0:2:0:0:
251,286,113693,38,0,B|182:332|112:287|112:287|78:312|30:318,1,223.999993164063,12|8,0:2|0:2,0:2:0:0:
181,194,114222,1,0,0:2:0:0:
2,88,114399,2,0,P|56:75|110:91,1,111.999996582031,8|0,0:2|0:2,0:2:0:0:
41,315,114752,2,0,P|32:255|54:204,1,111.999996582031,8|0,0:2|0:2,0:2:0:0:
251,286,115105,22,0,L|139:272,1,111.999996582031,8|2,0:2|0:2,0:2:0:0:
293,181,115458,1,8,0:2:0:0:
318,373,115634,1,2,0:2:0:0:
181,194,115811,1,8,0:2:0:0:
360,269,115987,1,2,0:2:0:0:
138,298,116164,1,8,0:2:0:0:
360,269,116340,1,2,0:2:0:0:
360,269,116428,1,0,0:2:0:0:
360,269,116516,6,0,P|399:217|402:145,1,116.000003540039,12|0,0:0|0:0,0:0:0:0:
181,194,116869,1,0,1:0:0:0:
360,269,117046,1,0,1:0:0:0:
138,298,117222,2,0,P|88:262|65:194,1,116.000003540039,8|0,0:0|0:0,0:0:0:0:
251,286,117575,1,0,0:0:0:0:
224,93,117752,1,0,0:0:0:0:
360,269,117928,21,4,1:0:0:0:
181,194,118105,1,0,1:0:0:0:
334,78,118281,1,0,0:0:0:0:
251,286,118458,1,0,0:0:0:0:
114,107,118634,2,0,P|76:157|74:226,1,120.000004577637,8|0,0:0|0:0,0:0:0:0:
224,93,118987,1,0,0:0:0:0:
46,18,119164,1,0,1:0:0:0:
181,194,119340,37,12,0:0:0:0:
351,68,119516,1,0,1:0:0:0:
251,286,119693,1,8,0:0:0:0:
39,196,119869,1,0,1:0:0:0:
293,181,120046,21,8,0:0:0:0:
92,334,120222,1,0,1:0:0:0:
224,93,120399,1,8,1:0:0:0:
318,375,120575,1,0,0:0:0:0:
114,107,120752,37,8,1:0:0:0:
420,175,120928,1,8,0:0:0:0:
92,334,121105,1,8,1:0:0:0:
351,68,121281,1,8,1:0:0:0:
25,148,122164,22,0,P|-3:42|80:114,1,287.999991210938,4|0,0:0|0:0,0:0:0:0:
0,229,122870,2,0,B|89:260|101:181|198:214,1,191.999994140625,2|0,0:2|0:0,0:0:0:0:
27,92,123576,53,2,0:2:0:0:
153,347,123929,1,0,0:0:0:0:
0,229,124282,2,0,B|89:260|101:181|198:214,1,191.999994140625,2|0,0:2|0:0,0:0:0:0:
356,321,124811,1,0,0:0:0:0:
356,321,124900,1,0,0:0:0:0:
356,321,124988,6,0,L|449:294,1,95.9999970703126,4|0,0:0|0:0,0:0:0:0:
279,184,125341,2,0,L|172:214,1,95.9999970703126
356,321,125694,53,0,0:0:0:0:
356,321,125870,1,0,0:0:0:0:
243,311,126047,5,0,0:0:0:0:
261,261,126223,1,0,0:0:0:0:
129,302,126400,53,0,0:0:0:0:
166,201,126576,1,0,0:0:0:0:
15,292,126753,5,0,0:0:0:0:
71,142,126929,1,0,0:0:0:0:
129,302,127105,53,8,0:0:0:0:
216,90,127282,1,8,0:0:0:0:
71,142,127458,1,0,0:0:0:0:
261,261,127635,1,8,0:0:0:0:
216,90,127811,6,0,B|262:69|307:95|307:95|352:119|401:98,1,191.999994140625,4|0,0:1|0:2,0:2:0:0:
261,261,128341,1,0,0:0:0:0:
261,261,128517,2,0,P|217:269|154:245,1,95.9999970703126,8|0,0:0|0:0,0:0:0:0:
328,163,128870,1,0,0:0:0:0:
313,368,129047,1,8,0:0:0:0:
261,261,129223,53,0,0:0:0:0:
432,377,129400,1,8,0:0:0:0:
313,368,129576,1,0,0:0:0:0:
313,368,129664,1,0,0:0:0:0:
313,368,129752,1,0,0:0:0:0:
447,171,129929,1,8,0:0:0:0:
447,171,130282,2,0,P|472:124|468:63,1,95.9999970703126
349,204,130634,5,2,0:2:0:0:
366,99,130810,1,0,0:0:0:0:
277,246,130988,53,2,0:2:0:0:
296,140,131164,1,0,0:0:0:0:
206,286,131341,5,2,0:2:0:0:
223,181,131517,1,0,0:0:0:0:
133,328,131694,53,2,0:2:0:0:
152,221,131870,1,0,0:0:0:0:
49,362,132046,6,0,L|11:259,1,95.9999970703126
206,286,132399,1,0,0:0:0:0:
230,276,132486,1,0,0:0:0:0:
252,276,132574,1,0,0:0:0:0:
278,282,132664,1,0,0:0:0:0:
300,288,132751,1,0,0:0:0:0:
323,288,132839,1,0,0:0:0:0:
348,279,132927,1,0,0:0:0:0:
367,263,133017,1,0,0:0:0:0:
382,245,133104,2,0,L|410:179,1,47.9999985351563
332,126,133281,2,0,L|305:191,1,47.9999985351563
206,180,133458,6,0,P|131:151|30:190,2,160,4|0|0,0:1|0:0|0:0,0:0:0:0:
406,259,134516,2,0,L|415:346,1,80
342,204,134869,1,0,0:0:0:0:
326,287,135046,1,0,0:0:0:0:
310,370,135222,1,0,0:0:0:0:
39,184,135928,22,0,P|24:222|22:266,2,80
182,57,136635,2,0,L|274:64,1,80
393,57,136988,2,0,P|405:143|365:210,1,160
190,303,137693,37,0,0:2:0:0:
112,329,138046,1,0,0:2:0:0:
346,251,138399,1,0,0:2:0:0:
268,277,138752,1,0,0:0:0:0:
404,153,139105,22,0,L|463:153,2,53.3333333333333
400,251,139458,2,0,L|342:251,2,53.3333333333333,2|0|0,0:0|0:0|0:0,0:0:0:0:
320,170,139811,38,0,P|319:138|329:108,2,53.3333333333333
347,251,140164,2,0,P|349:277|343:303,2,53.3333333333333,2|0|0,0:0|0:0|0:0,0:0:0:0:
404,153,140516,22,0,L|463:153,2,53.3333333333333
347,251,140869,2,0,L|289:251,2,53.3333333333333,2|0|0,0:0|0:0|0:0,0:0:0:0:
320,170,141223,38,0,P|319:137|328:107,2,53.3333333333333
347,251,141576,2,0,P|349:277|343:303,2,53.3333333333333,2|0|0,0:0|0:0|0:0,0:0:0:0:
320,170,141928,22,0,L|378:145,2,53.3333333333333,2|0|0,0:0|0:0|0:0,0:0:0:0:
342,303,142281,2,0,L|292:323,2,53.3333333333333,2|0|0,0:0|0:0|0:0,0:0:0:0:
249,216,142634,38,0,P|236:176|241:142,2,53.3333333333333,2|0|0,0:0|0:0|0:0,0:0:0:0:
413,257,142987,2,0,P|425:296|420:330,2,53.3333333333333,2|0|0,0:0|0:0|0:0,0:0:0:0:
249,216,143340,22,0,L|199:236,2,53.3333333333333,2|0|0,0:0|0:0|0:0,0:0:0:0:
413,257,143693,2,0,L|471:232,2,53.3333333333333,2|0|0,0:0|0:0|0:0,0:0:0:0:
320,170,144046,37,2,0:0:0:0:
342,303,144222,2,2,P|358:322|378:335,2,40,0|0|2,3:0|0:0|0:0,0:0:0:0:
448,63,144752,53,4,0:1:0:0:
448,63,145105,2,0,L|445:162,1,88.000002685547,2|0,0:0|0:0,0:0:0:0:
316,256,145458,2,0,L|319:157,1,88.000002685547,10|0,0:0|0:0,0:0:0:0:
426,302,145811,1,2,0:0:0:0:
231,343,145987,1,8,0:0:0:0:
316,256,146164,21,2,0:0:0:0:
316,256,146340,1,8,0:0:0:0:
154,263,146516,2,0,P|130:298|122:346,1,88.000002685547,2|0,0:0|0:0,0:0:0:0:
231,343,146869,1,10,0:0:0:0:
64,143,147222,1,2,0:0:0:0:
64,143,147399,1,0,0:0:0:0:
159,55,147575,37,2,0:0:0:0:
134,182,147752,1,0,0:0:0:0:
80,66,147928,1,2,0:0:0:0:
192,127,148105,1,0,0:0:0:0:
64,143,148281,2,0,P|37:177|29:220,1,88.000002685547,10|0,0:0|0:0,0:0:0:0:
117,218,148634,2,0,P|141:255|143:299,1,88.000002685547,2|8,0:0|0:0,0:0:0:0:
310,245,148987,22,0,P|336:206|336:144,1,88.000002685547,2|8,0:0|0:0,0:0:0:0:
250,316,149340,2,0,P|224:277|224:215,1,88.000002685547,2|0,0:0|0:0,0:0:0:0:
346,332,149693,1,10,0:0:0:0:
437,198,149869,1,0,1:0:0:0:
442,176,149957,1,0,1:0:0:0:
442,154,150046,1,2,1:3:0:0:
437,132,150134,1,0,1:0:0:0:
430,111,150222,1,0,1:0:0:0:
417,93,150310,1,0,1:0:0:0:
401,77,150399,37,2,1:3:0:0:
341,166,150575,1,0,0:0:0:0:
341,166,150664,1,0,1:0:0:0:
341,166,150752,2,0,L|233:191,1,88.000002685547,10|0,0:0|0:0,0:0:0:0:
401,77,151105,21,2,0:0:0:0:
457,217,151281,1,0,0:0:0:0:
457,217,151369,1,0,1:0:0:0:
457,217,151458,2,0,L|425:314,1,88.000002685547,10|0,0:0|0:2,0:2:0:0:
255,185,151811,38,0,P|253:138|276:99,1,88.000002685547,2|0,0:0|0:0,0:0:0:0:
379,24,152164,1,10,0:0:0:0:
341,166,152340,1,0,0:3:0:0:
341,166,152428,1,0,1:3:0:0:
341,166,152516,21,10,0:0:0:0:
484,140,152693,1,0,0:0:0:0:
484,140,152781,1,0,1:0:0:0:
484,140,152869,2,0,L|452:237,1,88.000002685547,10|0,0:0|0:2,0:2:0:0:
447,266,153134,1,0,1:0:0:0:
447,266,153222,38,0,L|479:363,1,88.000002685547,4|2,0:1|0:2,0:2:0:0:
346,278,153575,2,0,P|301:262|250:271,1,88.000002685547,10|2,0:0|0:2,0:2:0:0:
373,142,153928,2,0,P|403:114|450:101,1,88.000002685547,2|2,0:0|0:2,0:2:0:0:
447,266,154281,2,0,L|474:349,1,88.000002685547,10|2,0:0|0:2,0:2:0:0:
291,345,154634,54,0,B|256:368|256:368|216:353|216:353|177:379|117:369,1,176.000005371094,2|10,0:0|0:0,0:2:0:0:
261,266,155164,1,0,0:2:0:0:
108,197,155340,2,0,L|20:185,1,88.000002685547,2|0,0:0|0:0,0:0:0:0:
49,18,155693,2,0,B|125:37|141:112,1,132.00000402832,10|0,0:0|0:0,0:0:0:0:
108,197,156046,22,0,L|20:185,1,88.000002685547,4|0,0:1|0:0,0:0:0:0:
115,333,156399,2,0,L|202:344,1,88.000002685547,10|0,0:0|0:0,0:0:0:0:
209,169,156752,2,0,P|211:212|194:252,1,88.000002685547,2|0,0:0|0:0,0:0:0:0:
306,117,157105,2,0,P|303:73|320:33,1,88.000002685547,10|0,0:0|0:0,0:0:0:0:
274,223,157458,22,0,P|247:188|208:168,1,88.000002685547,2|0,0:0|0:0,0:0:0:0:
240,62,157811,2,0,P|266:96|305:116,1,88.000002685547,10|0,0:0|0:0,0:0:0:0:
194,252,158164,2,0,P|230:227|273:222,1,88.000002685547,2|0,0:0|0:0,0:0:0:0:
319,32,158516,2,0,P|282:56|239:61,1,88.000002685547,10|0,0:0|0:0,0:0:0:0:
277,115,158781,1,0,0:0:0:0:
277,115,158869,38,0,L|368:146,1,88.000002685547,2|0,0:0|0:0,0:0:0:0:
194,252,159222,2,0,L|103:221,1,88.000002685547,10|0,0:0|0:0,0:0:0:0:
294,248,159575,2,0,P|288:291|262:327,1,88.000002685547,2|0,0:0|0:0,0:0:0:0:
181,124,159928,2,0,P|186:80|210:44,1,88.000002685547,10|0,0:0|0:0,0:0:0:0:
360,143,160281,22,0,L|276:114,2,88.000002685547,2|0|10,0:0|0:0|0:0,0:0:0:0:
294,248,160811,1,2,0:0:0:0:
294,248,160899,1,0,1:0:0:0:
294,248,160987,1,8,0:0:0:0:
416,260,161164,1,2,0:0:0:0:
416,260,161252,1,0,1:0:0:0:
416,260,161340,1,8,0:0:0:0:
360,143,161516,1,2,0:0:0:0:
360,143,161605,1,0,1:0:0:0:
360,143,161693,54,0,L|276:114,1,88.000002685547,4|0,0:1|0:0,0:0:0:0:
152,239,162046,2,0,L|235:267,1,88.000002685547,10|0,0:0|0:0,0:0:0:0:
417,224,162399,2,0,L|310:252,1,88.000002685547,2|0,0:2|0:0,0:0:0:0:
95,160,162751,2,0,L|202:132,1,88.000002685547,10|0,0:0|0:0,0:0:0:0:
236,268,163105,38,0,B|224:225|260:192|260:192|253:192|253:192|289:158|277:115,1,176.000005371094,2|10,0:2|0:0,0:0:0:0:
332,246,163634,1,0,0:0:0:0:
181,137,163811,1,2,0:2:0:0:
236,268,163987,1,0,0:0:0:0:
256,192,164164,1,10,0:0:0:0:
277,115,164340,1,0,0:0:0:0:
332,246,164516,22,0,P|332:296|311:335,1,88.000002685547,4|0,0:1|0:0,0:0:0:0:
219,351,164869,2,0,P|219:301|240:262,1,88.000002685547,10|0,0:0|0:0,0:0:0:0:
396,301,165222,2,0,P|370:265|331:245,1,88.000002685547,2|0,0:2|0:0,0:0:0:0:
154,295,165575,2,0,P|179:330|218:350,1,88.000002685547,10|0,0:0|0:0,0:0:0:0:
277,115,165928,37,2,0:2:0:0:
235,267,166105,1,0,0:0:0:0:
388,228,166281,1,10,0:0:0:0:
256,192,166458,1,0,0:0:0:0:
367,303,166634,1,2,0:2:0:0:
409,151,166811,1,0,0:0:0:0:
235,267,166987,1,10,0:0:0:0:
423,360,167164,1,0,0:0:0:0:
277,117,167340,21,4,0:1:0:0:
235,267,167516,1,0,0:0:0:0:
387,125,167693,1,8,0:0:0:0:
381,95,167781,1,0,0:0:0:0:
371,66,167869,1,0,0:0:0:0:
351,43,167957,1,0,0:0:0:0:
324,24,168046,1,0,0:0:0:0:
293,12,168134,1,0,0:0:0:0:
260,13,168222,1,0,0:0:0:0:
230,26,168310,1,0,0:0:0:0:
205,48,168399,1,0,0:0:0:0:
183,72,168487,1,0,0:0:0:0:
154,87,168575,1,0,0:0:0:0:
122,96,168664,1,0,0:0:0:0:
89,97,168752,38,0,P|64:92|45:79,2,47.9999985351563
153,185,169105,1,0,0:0:0:0:
110,0,169281,1,0,0:0:0:0:
277,117,169458,1,2,3:2:0:0:
376,177,170164,38,0,P|390:234|375:290,1,111.999996582031,4|2,0:0|0:0,0:0:0:0:
277,117,170516,1,0,1:0:0:0:
272,349,170694,1,2,0:0:0:0:
272,349,170782,1,0,1:0:0:0:
272,349,170870,1,2,0:0:0:0:
377,284,171046,1,2,0:0:0:0:
172,182,171222,1,0,1:0:0:0:
376,177,171399,1,2,0:0:0:0:
376,177,171487,1,0,1:0:0:0:
376,177,171575,21,2,0:0:0:0:
277,117,171752,1,2,0:0:0:0:
272,349,171929,1,0,1:0:0:0:
476,237,172105,1,0,1:0:0:0:
274,233,172282,1,2,0:0:0:0:
274,233,172370,1,0,1:0:0:0:
274,233,172458,1,2,0:0:0:0:
379,61,172635,1,0,1:0:0:0:
376,177,172811,1,2,0:0:0:0:
178,57,172988,37,2,0:0:0:0:
176,173,173164,1,2,0:0:0:0:
379,61,173341,1,0,1:0:0:0:
274,233,173517,1,2,0:0:0:0:
274,233,173605,1,0,1:0:0:0:
274,233,173693,2,0,P|316:278|382:296,1,111.999996582031,2|2,0:0|0:0,0:0:0:0:
272,106,174046,2,0,P|231:68|177:56,1,111.999996582031,0|2,1:0|0:0,0:0:0:0:
274,233,174399,21,0,1:0:0:0:
54,187,174576,1,2,0:2:0:0:
66,184,174664,1,0,1:0:0:0:
79,181,174752,1,0,1:0:0:0:
204,337,174928,1,2,0:2:0:0:
178,331,175016,1,0,1:0:0:0:
152,325,175104,1,0,1:0:0:0:
11,294,175281,1,2,0:2:0:0:
54,187,175457,1,2,0:0:0:0:
178,331,175635,1,0,1:2:0:0:
54,187,175811,21,6,0:0:0:0:
222,227,175988,1,2,0:0:0:0:
11,294,176164,1,0,1:0:0:0:
178,331,176341,1,2,0:0:0:0:
178,331,176429,1,0,1:0:0:0:
178,331,176517,1,2,0:0:0:0:
54,187,176694,1,2,0:0:0:0:
293,316,176870,2,0,P|327:279|338:218,1,111.999996582031,0|2,1:0|0:0,0:0:0:0:
178,331,177223,37,2,0:0:0:0:
222,227,177400,1,2,0:0:0:0:
11,294,177576,1,0,1:0:0:0:
93,89,177752,1,0,1:0:0:0:
222,227,177929,1,2,0:0:0:0:
222,227,178017,1,0,1:0:0:0:
222,227,178105,1,2,0:0:0:0:
54,187,178282,2,0,P|10:155|-12:98,1,111.999996582031,0|2,1:0|0:0,0:0:0:0:
208,73,178635,21,2,0:0:0:0:
93,89,178811,1,2,0:0:0:0:
279,164,178987,2,0,P|313:123|324:66,1,111.999996582031,0|2,1:0|0:0,0:0:0:0:
164,179,179341,1,2,0:0:0:0:
344,258,179516,1,2,0:2:0:0:
344,258,179606,1,0,1:0:0:0:
344,258,179693,2,0,P|381:298|392:352,1,111.999996582031,0|2,1:0|0:0,0:0:0:0:
229,268,180046,5,2,0:2:0:0:
229,268,180135,1,0,1:0:0:0:
229,268,180222,1,0,1:0:0:0:
392,352,180399,1,0,0:2:0:0:
279,164,180575,1,2,0:2:0:0:
279,164,180664,1,0,1:0:0:0:
279,164,180752,2,0,P|339:142|404:160,1,111.999996582031,0|0,1:0|0:0,0:0:0:0:
229,268,181105,1,2,0:2:0:0:
229,268,181194,1,0,1:0:0:0:
229,268,181282,1,0,1:0:0:0:
145,97,181458,22,0,B|164:150|127:198|127:198|136:197|136:197|100:246|118:302,1,223.999993164063,12|8,0:2|0:2,0:2:0:0:
229,268,181988,1,0,0:2:0:0:
37,132,182164,2,0,P|32:74|58:21,1,111.999996582031,8|0,0:2|0:2,0:2:0:0:
254,75,182517,2,0,L|135:97,1,111.999996582031,8|0,0:2|0:2,0:2:0:0:
353,160,182869,38,0,P|415:177|452:231,1,111.999996582031,8|0,0:2|0:2,0:2:0:0:
254,75,183222,2,0,P|304:32|370:32,1,111.999996582031,8|0,0:2|0:2,0:2:0:0:
196,270,183575,2,0,P|141:246|105:193,1,111.999996582031,8|0,0:2|0:2,0:2:0:0:
370,304,183928,2,0,P|325:350|263:363,1,111.999996582031,8|0,0:2|0:2,0:2:0:0:
489,334,184282,22,0,B|485:272|485:272|460:225|460:225|480:173|474:114,1,223.999993164063,12|8,0:2|0:2,0:2:0:0:
370,304,184811,1,0,0:2:0:0:
256,123,184987,2,0,P|193:113|143:134,1,111.999996582031,8|0,0:2|0:2,0:2:0:0:
355,190,185341,2,0,P|296:213|264:256,1,111.999996582031,8|0,0:2|0:2,0:2:0:0:
463,234,185694,38,0,L|457:116,1,111.999996582031,8|2,0:2|0:2,0:2:0:0:
370,304,186047,1,8,0:2:0:0:
355,190,186222,1,2,0:2:0:0:
277,374,186400,1,8,0:2:0:0:
463,234,186576,1,2,0:2:0:0:
247,146,186752,1,8,0:2:0:0:
277,374,186929,1,2,0:2:0:0:
463,234,187105,38,0,P|473:180|454:124,1,111.999996582031,12|0,0:2|0:2,0:2:0:0:
370,304,187458,1,8,0:2:0:0:
247,146,187634,2,0,L|134:159,2,111.999996582031,0|8|0,0:2|0:2|0:2,0:2:0:0:
90,253,188164,1,8,0:2:0:0:
38,66,188341,1,0,0:2:0:0:
247,146,188517,22,0,B|286:125|286:125|327:145|327:145|385:108|463:128,1,223.999993164063,12|8,0:2|0:2,0:2:0:0:
247,146,189047,2,0,L|134:133,2,111.999996582031,0|8|0,0:2|0:2|0:2,0:2:0:0:
49,64,189576,2,0,P|25:113|27:168,1,111.999996582031,8|0,0:2|0:2,0:2:0:0:
260,107,189929,38,0,B|324:56|396:96|396:96|429:70|476:61,1,223.999993164063,12|8,0:2|0:2,0:2:0:0:
334,191,190458,1,0,0:2:0:0:
508,289,190634,2,0,P|461:304|406:291,1,111.999996582031,8|0,0:2|0:2,0:2:0:0:
466,63,190988,2,0,P|476:118|445:182,1,111.999996582031,8|0,0:2|0:2,0:2:0:0:
252,110,191340,22,0,L|363:106,1,111.999996582031,8|2,0:2|0:2,0:2:0:0:
225,219,191694,1,8,0:2:0:0:
173,32,191870,1,2,0:2:0:0:
334,191,192047,1,8,0:2:0:0:
143,141,192223,1,2,0:2:0:0:
363,82,192400,1,8,0:2:0:0:
143,141,192576,1,2,0:2:0:0:
143,141,192664,1,0,0:2:0:0:
143,141,192752,22,0,P|112:193|123:275,1,116.000003540039,12|0,0:0|0:0,0:0:0:0:
334,191,193105,1,0,1:0:0:0:
143,141,193282,1,0,1:0:0:0:
363,82,193458,2,0,P|416:114|446:171,1,116.000003540039,8|0,0:0|0:0,0:0:0:0:
252,110,193811,1,0,0:0:0:0:
305,297,193988,1,0,0:0:0:0:
143,141,194164,37,4,1:0:0:0:
334,191,194341,1,0,1:0:0:0:
198,325,194517,1,0,0:0:0:0:
252,110,194694,1,0,0:0:0:0:
410,267,194870,2,0,P|440:210|433:145,1,120.000004577637,8|0,0:0|0:0,0:0:0:0:
305,297,195223,1,0,0:0:0:0:
493,345,195400,1,0,1:0:0:0:
334,191,195576,21,12,0:0:0:0:
198,325,195752,1,0,1:0:0:0:
242,98,195929,1,8,0:0:0:0:
410,267,196105,1,0,1:0:0:0:
118,245,196282,37,8,0:0:0:0:
334,191,196458,1,0,1:0:0:0:
89,354,196635,1,8,1:0:0:0:
101,76,196811,1,0,0:0:0:0:
305,297,196988,21,8,1:0:0:0:
17,170,197164,1,8,0:0:0:0:
357,64,197340,1,8,1:0:0:0:
89,354,197517,1,8,1:0:0:0:
167,193,198399,38,0,P|174:229|195:257,1,64
214,116,198752,2,0,P|178:104|144:108,1,64
258,195,199105,2,0,P|286:170|299:138,1,64,2|0,0:0|0:0,0:0:0:0:
256,71,199458,2,0,P|226:93|213:126,1,64
361,148,199811,38,0,L|296:146,1,64
404,74,200164,2,0,P|427:94|442:122,1,64
297,146,200516,2,0,L|361:148,1,64,2|0,0:0|0:0,0:0:0:0:
335,224,200869,2,0,L|271:222,1,64
393,286,201222,22,0,P|411:258|418:228,1,64
335,224,201575,2,0,P|314:248|307:279,1,64
393,286,201928,53,2,0:0:0:0:
411,260,202281,1,2,0:0:0:0:
419,229,202634,2,0,B|422:168|384:114|384:114|419:115|455:143,1,192,2|0,0:0|0:0,0:0:0:0:
448,137,203340,1,0,0:0:0:0:
130,212,203869,37,0,0:0:0:0:
130,212,204046,2,0,P|172:269|170:339,1,143.999995605469,0|2,0:1|0:3,0:0:0:0:
24,200,204575,1,2,0:3:0:0:
192,127,204752,2,0,P|263:119|322:155,1,143.999995605469,8|0,0:3|0:0,0:0:0:0:
130,212,205281,1,0,0:0:0:0:
192,127,205458,53,2,0:3:0:0:
235,225,205634,1,2,0:3:0:0:
235,225,205811,2,0,P|204:290|140:318,2,143.999995605469,2|8|2,0:3|0:3|0:3,0:0:0:0:
130,212,206693,1,2,0:3:0:0:
284,127,206869,6,0,P|238:115|192:126,1,95.9999970703126,8|0,0:0|0:0,0:0:0:0:
344,218,207222,2,0,P|377:183|390:138,1,95.9999970703126,8|0,0:0|0:0,0:0:0:0:
235,225,207575,2,0,P|248:270|280:305,1,95.9999970703126,8|0,0:0|0:0,0:0:0:0:
284,127,207928,1,2,0:0:0:0:
130,212,208105,1,8,0:0:0:0:
133,36,208281,53,8,0:0:0:0:
297,103,208458,1,0,0:0:0:0:
290,115,208546,1,8,0:0:0:0:
284,127,208634,1,8,0:0:0:0:
130,212,208811,1,8,0:0:0:0:
133,36,208988,1,0,0:0:0:0:
145,52,209076,1,8,0:0:0:0:
157,70,209164,1,8,0:0:0:0:
235,211,209340,2,0,P|224:258|196:296,1,95.9999970703126,8|0,0:0|0:0,0:0:0:0:
257,297,209605,1,0,1:0:0:0:
257,297,209693,6,0,L|273:411,1,88.000002685547,6|0,0:2|0:2,0:2:0:0:
377,204,210046,1,0,1:2:0:0:
220,117,210222,1,2,0:2:0:0:
220,117,210311,1,0,1:2:0:0:
220,117,210399,2,0,P|170:100|122:112,1,88.000002685547,0|0,0:2|0:2,0:2:0:0:
294,193,210752,2,0,P|344:210|392:198,1,88.000002685547,2|0,1:2|0:2,0:2:0:0:
409,249,211016,1,0,1:2:0:0:
409,249,211105,54,0,L|395:354,1,88.000002685547,0|2,0:2|0:2,0:2:0:0:
506,198,211458,1,0,1:2:0:0:
347,91,211634,1,0,0:2:0:0:
327,80,211722,1,0,1:2:0:0:
306,74,211810,1,2,0:2:0:0:
284,74,211898,1,0,1:2:0:0:
263,79,211986,1,0,0:2:0:0:
326,239,212164,2,0,P|366:255|409:250,1,88.000002685547,2|0,1:2|0:2,0:2:0:0:
214,253,212516,6,0,L|201:343,1,88.000002685547,2|0,0:2|0:2,0:2:0:0:
175,141,212869,1,0,1:2:0:0:
326,239,213046,1,0,0:2:0:0:
326,239,213134,1,0,1:2:0:0:
326,239,213222,2,0,P|366:255|409:250,1,88.000002685547,2|0,0:2|0:2,0:2:0:0:
175,141,213575,2,0,P|134:124|91:129,1,88.000002685547,0|0,1:2|0:2,0:2:0:0:
44,117,213839,1,0,1:2:0:0:
44,117,213928,54,0,L|25:28,1,88.000002685547,2|0,0:2|0:2,0:2:0:0:
4,230,214281,1,0,1:2:0:0:
175,141,214458,1,2,0:2:0:0:
24,250,214634,1,2,0:2:0:0:
148,128,214811,1,2,0:2:0:0:
50,264,214987,1,2,1:2:0:0:
119,124,215164,1,2,0:2:0:0:
173,257,215340,6,0,P|220:249|257:223,1,88.000002685547,2|0,0:2|0:2,0:2:0:0:
91,129,215693,1,0,1:2:0:0:
50,264,215869,1,0,0:2:0:0:
50,264,215958,1,0,1:2:0:0:
50,264,216046,2,0,P|61:318|90:352,1,88.000002685547,0|0,0:2|0:2,0:2:0:0:
91,129,216399,1,0,1:2:0:0:
173,257,216575,1,2,0:2:0:0:
173,257,216752,53,2,0:2:0:0:
119,124,216928,1,2,0:2:0:0:
145,263,217105,1,2,1:2:0:0:
147,119,217281,1,2,0:2:0:0:
26,189,217458,2,0,P|2:231|1:282,1,88.000002685547,2|0,0:2|0:2,0:2:0:0:
145,263,217811,2,0,P|168:305|169:356,1,88.000002685547,2|0,1:2|0:2,0:2:0:0:
290,314,218164,6,0,L|382:326,1,88.000002685547,2|0,0:2|0:2,0:2:0:0:
450,205,218516,2,0,B|461:118,1,88.000002685547,2|0,1:2|0:2,0:2:0:0:
320,30,218869,2,0,B|309:117,1,88.000002685547,2|0,0:2|0:2,0:2:0:0:
260,128,219134,1,0,0:2:0:0:
260,128,219222,2,0,P|223:97|185:86,1,88.000002685547,2|0,1:2|0:2,0:2:0:0:
71,195,219575,54,0,L|127:203,1,44.0000013427735,2|0,1:2|0:2,0:2:0:0:
152,305,219752,2,0,L|64:312,1,88.000002685547,0|0,1:2|0:2,0:2:0:0:
241,228,220105,2,0,P|254:245|263:267,1,44.0000013427735,0|0,1:2|0:2,0:2:0:0:
255,356,220281,1,2,1:2:0:0:
64,312,220458,2,0,L|152:305,1,88.000002685547,0|0,1:2|0:2,0:2:0:0:
71,195,220811,1,0,1:2:0:0:
71,195,220987,5,6,0:2:0:0:
152,305,221164,1,2,0:2:0:0:
95,182,221340,1,2,1:2:0:0:
126,314,221516,1,2,0:2:0:0:
122,178,221693,1,2,0:2:0:0:
96,310,221869,1,2,0:2:0:0:
150,185,222046,2,0,P|191:152|234:136,2,88.000002685547,0|0|0,1:2|0:2|0:2,0:2:0:0:
126,314,222575,53,2,0:2:0:0:
122,178,222752,1,2,1:2:0:0:
96,310,222928,1,2,0:2:0:0:
94,171,223105,1,2,0:2:0:0:
66,306,223281,1,2,0:2:0:0:
66,164,223458,1,2,1:2:0:0:
36,302,223634,1,2,0:2:0:0:
189,230,223811,6,0,P|200:277|181:327,1,88.000002685547,2|0,0:2|0:2,0:2:0:0:
66,164,224164,2,8,P|55:117|74:67,1,88.000002685547,2|0,1:2|0:2,1:2:0:0:
113,55,224428,1,0,1:2:0:0:
113,55,224516,2,0,L|208:71,1,88.000002685547,2|0,0:2|0:2,0:2:0:0:
189,230,224869,2,0,P|200:277|181:327,1,88.000002685547,2|0,1:2|0:2,0:2:0:0:
239,334,225134,1,0,1:2:0:0:
239,334,225222,54,0,L|334:318,1,88.000002685547,2|0,0:2|0:2,0:2:0:0:
189,230,225575,1,0,1:2:0:0:
348,220,225752,1,0,0:2:0:0:
348,220,225840,1,0,1:2:0:0:
348,220,225928,2,0,L|391:224,2,44.0000013427735,2|0|0,0:2|1:2|0:2,0:2:0:0:
472,177,226281,2,0,P|484:221|476:262,1,88.000002685547,0|0,1:2|0:2,0:2:0:0:
384,110,226634,5,4,0:2:0:0:
348,220,226811,1,0,0:2:0:0:
306,23,226987,1,2,1:2:0:0:
270,135,227164,53,0,0:2:0:0:
384,110,227340,1,0,0:2:0:0:
234,245,227516,1,2,0:2:0:0:
348,220,227693,6,0,P|392:244|419:282,1,88.000002685547,0|0,1:2|0:2,0:2:0:0:
234,245,228046,1,2,0:2:0:0:
313,332,228222,54,0,P|270:358|223:362,1,88.000002685547,0|0,0:2|1:2,0:2:0:0:
348,220,228575,1,2,0:2:0:0:
234,245,228752,6,0,P|232:194|252:152,1,88.000002685547,0|0,0:2|0:2,0:2:0:0:
313,332,229105,1,2,1:2:0:0:
348,220,229281,1,2,0:2:0:0:
234,245,229458,53,10,1:2:0:0:
280,351,229634,1,0,1:2:0:0:
280,351,229722,1,0,1:2:0:0:
280,351,229811,1,0,1:2:0:0:
202,246,229987,5,10,1:2:0:0:
207,381,230163,1,0,1:2:0:0:
207,381,230251,1,0,1:2:0:0:
207,381,230340,1,0,1:2:0:0:
171,241,230516,53,10,1:2:0:0:
126,382,230692,1,0,1:2:0:0:
126,382,230780,1,0,1:2:0:0:
126,382,230869,1,0,1:2:0:0:
140,230,231046,5,10,1:2:0:0:
34,369,231222,1,0,1:2:0:0:
34,369,231310,1,0,1:2:0:0:
34,369,231399,1,0,1:2:0:0:
109,209,231575,53,14,1:2:0:0:
339,216,232281,6,0,P|369:284|303:224,1,215.999993408203
228,168,232987,2,0,B|164:138|150:194|77:158,1,143.999995605469,2|0,0:0|0:0,0:0:0:0:
193,260,233693,53,0,0:0:0:0:
129,74,234046,1,0,0:0:0:0:
246,18,234399,2,0,P|255:88|229:154,1,143.999995605469,2|0,0:0|0:0,0:0:0:0:
122,117,235105,6,0,P|90:48|156:108,1,215.999993408203
229,154,235811,2,0,B|294:180|305:123|379:155,1,143.999995605469,2|0,0:0|0:0,0:0:0:0:
258,59,236516,53,0,0:0:0:0:
331,242,236869,1,0,0:0:0:0:
229,154,237222,2,0,B|194:143|194:143|157:162|157:162|102:117|25:152,1,215.999993408203,2|0,0:0|0:0,0:0:0:0:
84,215,237928,6,0,P|10:255|35:175,1,215.999993408203
150,138,238634,2,0,B|216:114|225:171|300:141,1,143.999995605469,2|0,0:0|0:0,0:0:0:0:
176,232,239340,53,0,0:0:0:0:
256,52,239693,1,0,0:0:0:0:
150,138,240046,2,0,B|216:114|225:171|300:141,1,143.999995605469,2|0,0:0|0:0,0:0:0:0:
296,345,240752,6,0,P|369:363|299:306,1,215.999993408203
212,277,241458,2,0,B|180:278|149:263|149:263|106:263|60:289,1,143.999995605469,2|0,0:0|0:0,0:0:0:0:
250,163,242164,54,0,P|214:158|179:164,1,71.9999978027344
113,244,242516,2,0,P|77:238|41:243,1,71.9999978027344
112,346,242869,2,0,B|144:349|170:334|170:334|181:345|181:345|216:329|255:348,1,143.999995605469,2|0,0:0|0:0,0:0:0:0:
413,181,243575,6,0,P|450:249|376:192,1,240,4|0,0:1|0:0,0:0:0:0:
355,101,244281,2,0,B|264:76|287:130|198:104,1,160,2|0,0:0|0:0,0:0:0:0:
8,245,244987,2,0,B|99:270|76:216|165:242,1,160
43,141,245693,1,2,0:0:0:0:
132,343,246046,1,0,0:0:0:0:
43,141,246399,54,0,B|43:89|43:89|32:59|32:59|32:8,1,120
112,40,246752,2,0,L|195:49,1,80
288,135,247105,2,0,B|288:197|288:197|274:234|274:234|274:295,1,160,2|0,0:0|0:0,0:0:0:0:
83,98,247811,6,0,L|89:177,1,80
192,47,248164,2,0,L|185:126,1,80
288,135,248516,2,0,B|277:215|277:215|311:250|306:296,1,160,2|0,0:0|0:0,0:0:0:0:
103,219,249222,54,0,P|84:144|67:241,1,264.000008056641,0|4,0:1|0:0,0:0:0:0:
187,302,249928,2,0,L|276:292,1,88.000002685547,8|0,0:0|0:0,0:0:0:0:
103,219,250281,1,4,0:0:0:0:
104,384,250458,1,8,0:0:0:0:
20,301,250634,5,4,0:0:0:0:
187,302,250811,1,8,0:0:0:0:
103,219,250987,2,0,L|108:114,1,88.000002685547,0|4,0:0|0:0,0:0:0:0:
187,302,251340,54,0,L|252:305,2,58.6666684570313,0|0|0,1:0|1:0|1:0,1:0:0:0:
161,217,251693,2,4,L|96:219,2,58.6666684570313
217,141,252046,1,4,0:0:0:0:
256,192,252134,12,0,253369,0:0:0:0:
256,192,253458,12,0,254693,0:0:0:0:
235,117,254869,6,0,P|252:172|240:227,1,111.999996582031,4|2,0:0|0:0,0:0:0:0:
133,61,255221,1,0,1:0:0:0:
36,237,255399,1,2,0:0:0:0:
36,237,255487,1,0,1:0:0:0:
36,237,255575,1,2,0:0:0:0:
35,121,255751,1,2,0:0:0:0:
238,233,255928,2,0,P|294:217|332:178,1,111.999996582031,0|2,1:0|0:0,0:0:0:0:
136,177,256281,37,2,0:0:0:0:
235,117,256457,1,2,0:0:0:0:
240,349,256634,1,0,1:0:0:0:
36,237,256810,1,0,1:0:0:0:
238,233,256987,1,2,0:0:0:0:
238,233,257075,1,0,1:0:0:0:
238,233,257163,1,2,0:0:0:0:
133,61,257340,1,0,1:0:0:0:
136,177,257516,1,2,0:0:0:0:
334,57,257693,21,2,0:0:0:0:
336,173,257869,1,2,0:0:0:0:
133,61,258046,1,0,1:0:0:0:
238,233,258222,1,2,0:0:0:0:
238,233,258310,1,0,1:0:0:0:
238,233,258399,2,0,P|199:275|141:296,1,111.999996582031,2|2,0:0|0:0,0:0:0:0:
246,115,258752,2,0,P|299:131|336:173,1,111.999996582031,0|2,1:0|0:0,0:0:0:0:
136,177,259105,37,0,1:0:0:0:
175,308,259281,1,2,0:2:0:0:
162,301,259369,1,0,1:2:0:0:
149,294,259458,1,0,1:2:0:0:
294,290,259634,1,2,0:2:0:0:
320,276,259722,1,0,1:2:0:0:
346,263,259811,1,0,1:2:0:0:
312,125,259987,1,2,0:2:0:0:
268,304,260163,1,2,0:0:0:0:
210,100,260340,1,0,1:2:0:0:
414,150,260516,37,6,0:0:0:0:
239,202,260693,1,2,0:0:0:0:
385,48,260869,1,0,1:0:0:0:
210,100,261046,1,2,0:0:0:0:
210,100,261134,1,0,1:0:0:0:
210,100,261222,1,2,0:0:0:0:
341,227,261399,1,2,0:0:0:0:
135,177,261575,2,0,P|108:133|106:74,1,111.999996582031,0|2,1:0|0:0,0:0:0:0:
239,202,261928,21,2,0:0:0:0:
210,100,262105,1,2,0:0:0:0:
62,254,262281,1,0,1:0:0:0:
270,306,262457,1,0,1:0:0:0:
135,177,262634,1,2,0:0:0:0:
135,177,262722,1,0,1:0:0:0:
135,177,262810,1,2,0:0:0:0:
345,228,262987,2,0,P|376:284|370:344,1,111.999996582031,0|2,1:0|0:0,0:0:0:0:
239,202,263340,37,2,0:0:0:0:
270,306,263516,1,2,0:0:0:0:
418,151,263693,2,0,P|410:96|375:53,1,111.999996582031,0|2,1:0|0:0,0:0:0:0:
345,228,264046,1,2,0:0:0:0:
210,100,264222,1,2,0:2:0:0:
210,100,264310,1,0,1:0:0:0:
210,100,264399,2,0,P|162:130|135:184,1,111.999996582031,0|2,1:0|0:0,0:0:0:0:
345,228,264752,21,2,0:2:0:0:
345,228,264840,1,0,1:0:0:0:
345,228,264928,1,0,1:0:0:0:
327,46,265105,1,0,0:2:0:0:
229,235,265281,1,2,0:2:0:0:
229,235,265369,1,0,1:0:0:0:
229,235,265457,2,0,P|244:286|284:328,1,111.999996582031,0|0,1:0|0:0,0:0:0:0:
280,132,265810,1,2,0:2:0:0:
280,132,265899,1,0,1:0:0:0:
280,132,265987,1,0,1:0:0:0:
123,77,266163,22,0,B|148:128|119:179|119:179|128:177|128:177|99:233|125:284,1,223.999993164063,12|8,0:2|0:2,0:2:0:0:
229,235,266693,1,0,0:2:0:0:
20,127,266869,2,0,P|6:70|25:14,1,111.999996582031,8|0,0:2|0:2,0:2:0:0:
233,59,267222,2,0,L|111:78,1,111.999996582031,8|0,0:2|0:2,0:2:0:0:
366,144,267575,22,0,P|422:172|451:222,1,111.999996582031,8|0,0:2|0:2,0:2:0:0:
233,59,267928,2,0,P|275:13|340:1,1,111.999996582031,8|0,0:2|0:2,0:2:0:0:
147,244,268281,2,0,P|96:211|73:142,1,111.999996582031,8|0,0:2|0:2,0:2:0:0:
362,317,268634,2,0,B|331:353|278:358|278:358|285:343,1,111.999996582031,8|0,0:2|0:2,0:2:0:0:
476,363,268987,38,0,B|497:294|459:245|459:245|453:194|485:148,1,223.999993164063,12|8,0:2|0:2,0:2:0:0:
362,317,269516,1,0,0:2:0:0:
276,117,269693,2,0,P|215:99|163:113,1,111.999996582031,8|0,0:2|0:2,0:2:0:0:
363,202,270046,2,0,P|302:217|264:255,1,111.999996582031,8|0,0:2|0:2,0:2:0:0:
463,260,270399,38,0,L|457:147,1,111.999996582031,8|2,0:2|0:2,0:2:0:0:
362,317,270752,1,8,0:2:0:0:
363,202,270928,1,2,0:2:0:0:
261,374,271105,1,8,0:2:0:0:
463,260,271281,1,2,0:2:0:0:
263,144,271458,1,8,0:2:0:0:
261,374,271634,1,2,0:2:0:0:
463,260,271810,22,0,P|481:209|470:149,1,111.999996582031,12|0,0:2|0:2,0:2:0:0:
362,317,272163,1,8,0:2:0:0:
263,144,272340,2,0,L|152:159,2,111.999996582031,0|8|0,0:2|0:2|0:2,0:2:0:0:
70,84,272869,2,0,P|43:135|49:203,1,111.999996582031,8|0,0:2|0:0,0:0:0:0:
263,144,273222,38,0,B|305:127|305:127|345:148|345:148|405:115|481:140,1,223.999993164063,12|8,0:2|0:2,0:2:0:0:
263,144,273752,2,0,L|153:125,2,111.999996582031,0|8|0,0:2|0:2|0:2,0:2:0:0:
89,214,274281,1,8,0:2:0:0:
37,35,274458,1,0,0:0:0:0:
246,107,274634,22,0,B|309:55|383:93|383:93|415:66|462:55,1,223.999993164063,12|8,0:2|0:2,0:2:0:0:
322,191,275163,1,0,0:2:0:0:
512,291,275340,2,0,P|460:305|406:292,1,111.999996582031,8|0,0:2|0:2,0:2:0:0:
450,57,275693,2,0,P|466:113|444:174,1,111.999996582031,8|0,0:2|0:2,0:2:0:0:
246,107,276046,38,0,L|358:110,1,111.999996582031,8|2,0:2|0:2,0:2:0:0:
212,214,276399,1,8,0:2:0:0:
170,25,276575,1,2,0:2:0:0:
322,191,276752,1,8,0:2:0:0:
136,132,276928,1,2,0:2:0:0:
356,84,277105,1,8,0:2:0:0:
136,132,277281,1,2,0:2:0:0:
136,132,277369,1,0,0:2:0:0:
136,132,277458,22,0,P|104:183|107:257,1,116.000003540039,12|0,0:0|0:0,0:0:0:0:
322,191,277810,1,0,1:0:0:0:
136,132,277987,1,0,1:0:0:0:
356,84,278163,2,0,P|405:115|434:181,1,116.000003540039,8|0,0:0|0:0,0:0:0:0:
246,107,278516,1,0,0:0:0:0:
288,296,278693,1,0,0:0:0:0:
136,132,278869,37,4,1:0:0:0:
322,191,279046,1,0,1:0:0:0:
180,320,279222,1,0,0:0:0:0:
246,107,279399,1,0,0:0:0:0:
396,272,279575,2,0,P|428:217|426:149,1,120.000004577637,8|0,0:0|0:0,0:0:0:0:
288,296,279928,1,0,0:0:0:0:
472,356,280105,1,0,1:0:0:0:
322,191,280281,21,12,0:0:0:0:
170,326,280458,1,0,1:0:0:0:
246,107,280634,1,8,0:0:0:0:
396,272,280810,1,0,1:0:0:0:
160,332,280987,37,8,1:0:0:0:
246,107,281163,1,0,0:0:0:0:
366,378,281340,1,8,1:0:0:0:
85,249,281516,1,0,0:0:0:0:
396,272,281693,21,8,1:0:0:0:
50,355,281869,1,8,0:0:0:0:
172,24,282046,1,8,1:0:0:0:
366,378,282222,1,8,1:0:0:0:
68,133,283105,54,0,P|40:27|123:99,1,287.999991210938,4|0,0:0|0:0,0:0:0:0:
43,214,283811,2,0,B|132:245|144:166|241:199,1,191.999994140625,2|0,0:2|0:0,0:0:0:0:
70,77,284517,5,2,0:2:0:0:
196,332,284870,1,0,0:0:0:0:
43,214,285223,2,0,B|132:245|144:166|241:199,1,191.999994140625,2|0,0:2|0:0,0:0:0:0:
388,71,285752,1,0,0:0:0:0:
388,71,285841,1,0,0:0:0:0:
388,71,285929,54,0,L|482:89,1,95.9999970703126,4|0,0:0|0:0,0:0:0:0:
323,214,286282,2,0,L|213:193,1,95.9999970703126
388,71,286635,5,0,0:0:0:0:
388,71,286811,1,0,0:0:0:0:
276,91,286988,53,0,0:0:0:0:
299,139,287164,1,0,0:0:0:0:
164,110,287341,5,0,0:0:0:0:
209,207,287517,1,0,0:0:0:0:
51,130,287694,53,0,0:0:0:0:
120,274,287870,1,0,0:0:0:0:
164,110,288046,5,8,0:0:0:0:
269,314,288223,1,8,0:0:0:0:
120,274,288399,1,0,0:0:0:0:
299,139,288576,1,8,0:0:0:0:
269,314,288752,54,0,B|312:338|360:316|360:316|407:296|453:322,1,191.999994140625,4|0,0:1|0:2,0:2:0:0:
299,139,289282,1,0,0:0:0:0:
299,139,289458,2,0,P|255:127|191:145,1,95.9999970703126,8|0,0:0|0:0,0:0:0:0:
357,244,289811,1,0,0:0:0:0:
360,37,289988,1,8,0:0:0:0:
299,139,290164,5,0,0:0:0:0:
479,40,290341,1,8,0:0:0:0:
360,37,290517,1,0,0:0:0:0:
360,37,290605,1,0,0:0:0:0:
360,37,290693,1,0,0:0:0:0:
476,246,290870,1,8,0:0:0:0:
476,246,291222,53,0,0:0:0:0:
418,143,291399,1,0,0:0:0:0:
299,139,291575,1,0,1:2:0:0:
256,192,291677,12,0,293170,0:0:0:0:
256,192,293284,12,0,295374,0:0:0:0:
256,192,296119,5,2,0:2:0:0:
256,192,296321,12,4,301423,0:0:0:0:
238,116,301661,54,0,P|256:268|272:116,1,447.999986328125
256,192,302695,1,4,0:0:0:0:
256,192,302824,12,0,303733,0:0:0:0:
