osu file format v14

[General]
AudioFilename: 14 - RPG.mp3
AudioLeadIn: 0
PreviewTime: 8212
Countdown: 0
SampleSet: Soft
StackLeniency: 0.5
Mode: 0
LetterboxInBreaks: 0
WidescreenStoryboard: 1

[Editor]
DistanceSpacing: 0.9
BeatDivisor: 2
GridSize: 4
TimelineZoom: 1.399999

[Metadata]
Title:Seventeen RPG
TitleUnicode:セブンティーンRPG
Artist:charon
ArtistUnicode:カロン
Creator:Zero__wind
Version:Normal
Source:
Tags:Vocaloid 星奏P 17 Gumi rui pishifat pkk pkmnyab LOST GIRL IN MY HEAD
BeatmapID:1035933
BeatmapSetID:304888

[Difficulty]
HPDrainRate:3
CircleSize:3
OverallDifficulty:3
ApproachRate:4
SliderMultiplier:0.6
SliderTickRate:1

[Events]
//Background and Video events
0,0,"bg.jpg",0,0
//Break Periods
2,39257,43151
2,104220,109467
2,160376,166074
2,203684,207126
//Storyboard Layer 0 (Background)
//Storyboard Layer 1 (Fail)
//Storyboard Layer 2 (Pass)
//Storyboard Layer 3 (Foreground)
//Storyboard Sound Samples

[TimingPoints]
1163,225.563909774436,4,2,1,40,1,0
6576,-100,4,1,1,80,0,0
22817,-100,4,2,1,70,0,0
37253,-100,4,1,1,80,0,0
44471,-100,4,2,1,70,0,0
75260,-100,4,2,1,80,0,0
76952,-100,4,2,1,80,0,1
95899,-100,4,2,1,80,0,0
96350,-100,4,2,1,60,0,0
96802,-100,4,1,1,80,0,0
103569,-100,4,1,1,65,0,0
103794,-100,4,1,1,80,0,0
104020,-100,4,2,1,70,0,0
110787,-100,4,2,1,90,0,0
111463,-100,4,1,1,80,0,0
118907,225.563909774436,6,2,1,60,1,0
120260,225.563909774436,4,2,1,60,1,0
120485,-100,4,2,1,70,0,0
121162,225.563909774436,7,2,1,80,1,0
122740,225.563909774436,4,2,1,80,1,0
123642,225.563909774436,6,2,1,80,1,0
124544,-100,3,2,1,70,0,0
124995,225.563909774436,4,2,1,70,1,0
125897,225.563909774436,6,2,1,70,1,0
132663,225.563909774436,5,2,1,70,1,0
133790,225.563909774436,4,1,1,70,1,0
134692,225.563909774436,3,1,1,70,1,0
135368,225.563909774436,5,2,1,70,1,0
136495,225.563909774436,4,1,1,70,1,0
138299,225.563909774436,5,2,1,70,1,0
139426,225.563909774436,4,1,1,70,1,0
140328,225.563909774436,3,1,1,70,1,0
141004,225.563909774436,5,2,1,70,1,0
142131,225.563909774436,4,1,1,70,1,0
145740,-100,4,1,1,80,0,0
160176,-100,4,2,1,60,0,0
167394,-100,4,2,1,40,0,0
168296,-100,4,2,1,50,0,0
169198,-100,4,2,1,60,0,0
170100,-100,4,2,1,70,0,0
171003,-100,4,1,1,80,0,0
174386,-100,4,2,1,70,0,0
174612,-100,4,2,1,80,0,1
200777,-100,4,2,1,80,0,0
201228,-100,4,2,1,60,0,0
208897,-100,4,1,1,80,0,0
221529,225.563909774436,7,1,1,80,1,0
224686,-100,7,2,1,60,0,0
226040,-100,7,1,1,80,0,0
227844,-100,7,1,1,60,0,0
229198,-100,7,1,1,50,0,0
229423,-100,7,1,1,40,0,0

[Colours]
Combo1 : 172,101,203
Combo2 : 158,182,118
Combo3 : 248,106,64
Combo4 : 21,178,255

[HitObjects]
120,340,1162,6,0,L|28:348,2,90,0|2|2,0:0|0:0|0:0,0:0:0:0:
219,383,2290,2,0,P|229:324|203:270,1,120,0|0,0:0|0:0,0:0:0:0:
184,220,2967,6,0,L|92:228,2,90,0|2|2,0:0|0:0|0:0,0:0:0:0:
283,263,4095,2,0,P|292:204|266:150,1,120,0|0,0:0|0:0,0:0:0:0:
247,99,4772,6,0,L|155:107,2,90,0|2|2,0:0|0:0|0:0,0:0:0:0:
346,142,5899,2,0,P|355:83|329:29,1,120,2|0,0:0|0:0,0:0:0:0:
384,16,6576,6,0,L|449:21,1,60,2|2,0:0|0:0,0:0:0:0:
496,28,7027,1,2,0:0:0:0:
504,136,7478,2,0,L|439:141,1,60,6|2,0:0|0:0,0:0:0:0:
392,148,7929,1,2,0:0:0:0:
284,164,8381,5,4,0:0:0:0:
216,248,8832,2,0,P|232:300|268:324,2,90,0|4|8,0:0|0:2|0:0,0:0:0:0:
208,196,9734,1,2,0:0:0:0:
256,100,10185,5,0,0:0:0:0:
364,100,10636,2,0,L|472:104,2,90,0|4|8,0:0|0:2|0:0,0:0:0:0:
312,192,11764,1,8,0:0:0:0:
312,192,11990,5,4,0:0:0:0:
328,300,12441,2,0,P|377:329|428:326,2,90,0|4|8,0:0|0:2|0:0,0:0:0:0:
280,280,13343,1,2,0:0:0:0:
172,276,13794,6,0,L|112:284,1,60,0|10,0:0|0:0,0:0:0:0:
60,288,14245,1,0,0:0:0:0:
20,216,14584,2,2,P|9:172|21:130,1,90,4|8,0:2|0:0,0:0:0:0:
40,80,15147,2,0,P|61:53|87:41,1,60,2|2,0:0|0:0,0:0:0:0:
136,32,15599,5,4,0:0:0:0:
244,32,16050,2,0,L|348:24,2,90,0|4|8,0:0|0:2|0:0,0:0:0:0:
216,76,16952,1,2,0:0:0:0:
204,184,17403,5,0,0:0:0:0:
312,200,17854,2,0,P|340:164|392:148,2,90,0|4|8,0:0|0:2|0:0,0:0:0:0:
296,308,18982,1,10,0:0:0:0:
296,308,19208,5,4,0:0:0:0:
396,344,19659,2,0,P|445:354|491:330,2,90,0|4|8,0:0|0:2|0:0,0:0:0:0:
388,292,20561,2,0,P|399:253|394:232,1,60,2|8,0:0|0:0,0:0:0:0:
376,184,21012,5,2,0:0:0:0:
272,152,21463,1,0,0:0:0:0:
196,118,21802,2,2,B|192:158|192:158|196:186|196:186|192:226,1,90,4|8,0:2|0:0,0:0:0:0:
192,260,22366,2,0,L|184:324,1,60,2|2,0:0|0:0,0:0:0:0:
172,372,22817,5,2,0:0:0:0:
64,376,23268,1,2,0:0:0:0:
16,312,23606,2,0,P|3:265|17:224,1,90,0|8,1:0|0:0,0:0:0:0:
44,124,24396,1,8,0:0:0:0:
44,124,24621,6,0,L|40:64,2,60,0|8|2,1:0|0:0|0:0,0:0:0:0:
104,180,25411,2,0,L|204:172,1,90,0|8,1:0|0:0,0:0:0:0:
300,172,26200,1,8,0:0:0:0:
300,172,26426,5,0,1:0:0:0:
276,276,26877,1,2,0:0:0:0:
316,348,27215,2,0,P|361:356|404:336,1,90,0|8,1:0|0:0,0:0:0:0:
476,263,28005,1,8,0:0:0:0:
476,263,28230,6,0,P|482:234|478:205,2,60,0|8|2,1:0|0:0|0:0,0:0:0:0:
399,231,29020,2,0,P|397:187|418:148,1,90,0|8,1:0|0:0,0:0:0:0:
460,112,29584,1,0,1:0:0:0:
504,12,30035,5,0,1:0:0:0:
404,52,30486,1,2,0:0:0:0:
328,24,30824,2,0,P|280:16|240:32,1,90,0|8,1:0|0:0,0:0:0:0:
164,104,31614,1,8,0:0:0:0:
164,104,31839,6,0,L|156:216,2,90,0|2|8,1:0|0:0|0:0,0:0:0:0:
60,88,32967,2,0,L|54:166,2,60,8|0|8,0:0|1:0|0:0,0:0:0:0:
68,36,33644,6,0,P|100:12|132:8,1,60,0|8,1:0|0:0,0:0:0:0:
228,20,34320,2,0,L|356:32,1,120,8|8,0:0|0:0,0:0:0:0:
428,104,35223,1,12,0:0:0:0:
428,104,35448,6,0,L|420:164,2,60,0|8|0,1:0|0:0|1:0,0:0:0:0:
508,104,36238,2,0,L|496:194,1,90,2|8,0:0|0:0,0:0:0:0:
428,276,37027,1,12,0:0:0:0:
256,192,37253,12,4,39057,0:0:0:0:
300,272,44471,6,0,P|268:288|236:288,1,60,0|8,1:0|0:0,0:0:0:0:
192,268,44922,1,0,1:0:0:0:
196,188,45260,2,0,L|208:88,1,90,0|8,1:0|0:0,0:0:0:0:
312,116,46050,2,0,L|303:187,1,60,8|0,0:0|1:0,0:0:0:0:
316,284,46726,6,0,P|366:297|399:327,2,90,0|0|8,1:0|1:0|0:0,0:0:0:0:
212,312,47854,1,8,0:0:0:0:
212,312,48080,6,0,L|84:300,1,120,0|0,1:0|1:0,0:0:0:0:
28,352,48869,2,0,P|11:310|18:266,1,90,0|8,1:0|0:0,0:0:0:0:
112,212,49659,1,8,0:0:0:0:
112,212,49884,6,0,L|171:217,1,60,0|8,1:0|0:0,0:0:0:0:
272,256,50561,2,0,L|391:244,1,120,8|8,0:0|0:0,0:0:0:0:
444,232,51238,2,0,L|469:173,1,60,6|10,0:0|0:0,0:0:0:0:
479,67,51914,5,8,0:0:0:0:
479,67,52140,2,0,P|451:32|409:18,2,90,2|2|8,1:0|1:0|0:0,0:0:0:0:
388,124,53268,1,8,0:0:0:0:
388,124,53493,6,0,L|276:112,2,90,0|2|8,1:0|0:0|0:0,0:0:0:0:
432,224,54621,1,8,0:0:0:0:
432,224,54847,2,0,L|436:296,2,60,2|8|0,1:0|0:0|1:0,0:0:0:0:
324,240,55749,6,0,L|212:228,2,90,2|2|8,1:0|1:0|0:0,0:0:0:0:
356,284,56651,2,0,P|356:316|346:341,1,60,2|8,1:0|0:0,0:0:0:0:
304,376,57102,5,0,1:0:0:0:
204,336,57553,2,0,P|156:340|116:372,2,90,2|2|12,1:0|1:0|0:0,0:0:0:0:
252,308,58456,2,0,P|268:283|268:252,1,60,0|8,1:0|3:0,0:0:0:0:
256,200,58907,5,0,1:0:0:0:
168,136,59358,2,0,L|96:148,1,60,2|8,0:0|0:0,0:0:0:0:
56,156,59809,2,0,P|32:208|36:256,2,90,0|2|8,0:0|0:0|0:0,0:0:0:0:
104,60,60937,6,0,L|163:50,1,60,2|2,0:0|0:0,0:0:0:0:
244,44,61501,2,0,L|360:64,1,90,0|2,1:0|1:2,0:0:0:0:
384,80,62065,2,0,L|436:116,1,60,2|0,0:0|1:0,0:0:0:0:
464,160,62516,5,0,1:0:0:0:
468,268,62967,2,0,L|472:372,2,90,2|0|2,0:0|1:0|0:0,0:0:0:0:
372,216,64095,2,0,L|312:216,1,60,8|0,0:0|1:0,0:0:0:0:
260,200,64546,6,0,L|176:164,1,90,8|8,0:0|0:0,0:0:0:0:
136,236,65223,2,0,L|218:271,2,90,8|8|8,0:0|0:0|3:0,0:0:0:0:
87,216,66125,5,0,1:0:0:0:
18,295,66576,2,0,P|0:335|3:379,2,90,8|2|10,0:0|0:0|0:0,0:0:0:0:
112,356,67704,6,0,P|172:372|224:344,1,120,8|8,0:0|0:0,0:0:0:0:
260,308,68381,1,8,0:0:0:0:
276,228,68719,2,0,L|272:128,1,90,2|8,0:0|0:0,0:0:0:0:
260,84,69283,2,0,P|244:56|222:41,1,60,0|8,1:0|0:0,0:0:0:0:
168,32,69734,5,4,1:2:0:0:
60,52,70185,2,0,P|30:86|23:130,2,90,0|2|8,1:0|1:2|0:0,0:0:0:0:
132,133,71313,1,8,0:0:0:0:
132,133,71538,6,0,L|252:181,1,120,4|0,1:2|1:0,0:0:0:0:
316,212,72328,2,0,P|332:268|320:304,1,90,2|8,1:2|0:0,0:0:0:0:
304,348,72892,2,0,P|280:368|248:372,1,60,0|8,1:0|0:0,0:0:0:0:
200,364,73343,5,4,1:2:0:0:
128,284,73794,1,0,1:0:0:0:
128,284,74020,2,0,L|132:152,1,120,8|8,0:0|0:0,0:0:0:0:
136,112,74696,2,0,P|155:84|183:74,1,60,2|8,1:2|0:0,0:0:0:0:
260,76,75260,6,0,L|376:88,1,90,12|12,0:0|0:0,0:0:0:0:
340,168,75937,2,0,L|250:158,1,90,12|12,0:0|0:0,0:0:0:0:
88,148,76952,6,0,P|52:196|52:240,2,90,4|2|8,1:0|1:2|1:0,0:0:0:0:
140,132,77854,1,2,1:2:0:0:
228,196,78305,2,0,P|240:232|235:261,1,60,0|8,1:0|1:0,0:0:0:0:
224,307,78756,6,0,P|176:323|132:307,2,90,2|0|8,1:2|1:0|1:0,0:0:0:0:
277,292,79659,1,2,1:2:0:0:
384,272,80110,2,0,P|416:260|450:264,1,60,0|8,1:0|1:0,0:0:0:0:
488,288,80561,6,0,L|504:376,2,90,4|2|8,1:0|1:2|1:0,0:0:0:0:
487,235,81463,2,0,L|503:147,2,90,2|0|8,1:2|1:0|1:0,0:0:0:0:
441,261,82366,6,0,L|332:240,1,90,4|4,1:2|1:2,0:0:0:0:
276,264,83042,2,0,L|166:242,1,90,4|4,1:2|1:2,0:0:0:0:
110,266,83719,2,0,L|33:251,1,60,8|8,1:0|1:0,0:0:0:0:
12,216,84170,6,0,P|4:160|24:120,1,90,4|2,1:0|1:2,0:0:0:0:
80,80,84847,1,8,1:0:0:0:
80,80,85072,2,0,L|197:103,1,120,2|0,1:2|1:0,0:0:0:0:
284,172,85975,6,0,L|288:280,1,90,2|0,1:2|1:0,0:0:0:0:
284,344,86651,1,8,1:0:0:0:
284,344,86877,2,0,P|253:360|224:360,1,60,2|12,1:2|1:2,0:0:0:0:
124,340,87553,1,8,1:0:0:0:
124,340,87779,6,0,L|16:356,2,90,4|2|8,1:0|1:2|1:0,0:0:0:0:
188,252,88907,2,0,P|196:220|192:192,1,60,8|0,1:0|1:0,0:0:0:0:
176,140,89358,1,8,1:0:0:0:
135,105,89584,6,0,L|71:89,2,60,2|8|0,1:2|1:0|1:0,0:0:0:0:
205,66,90373,2,0,P|248:40|296:44,1,90,8|12,1:0|1:2,0:0:0:0:
336,64,90937,2,0,L|385:97,1,60,2|8,1:2|1:0,0:0:0:0:
416,144,91388,6,0,L|424:256,2,90,4|2|12,1:0|1:2|1:2,0:0:0:0:
460,44,92516,2,0,L|508:7,2,60,8|0|8,1:0|1:0|1:0,0:0:0:0:
408,56,93193,6,0,P|362:47|332:12,2,90,4|2|12,1:2|1:2|1:2,0:0:0:0:
484,132,94320,1,8,1:0:0:0:
484,132,94546,2,0,P|497:168|490:199,1,60,0|8,1:0|1:0,0:0:0:0:
492,244,94997,6,0,L|512:352,2,90,2|2|8,1:2|1:2|1:0,0:0:0:0:
440,228,95899,1,4,1:2:0:0:
332,224,96350,2,0,L|268:228,1,60,2|2,0:0|0:0,0:0:0:0:
216,228,96802,6,2,B|184:232|184:232|160:228|160:228|120:232,1,90
64,180,97478,2,2,B|48:224|48:224|52:252|52:252|48:280|48:280|48:304,1,120,2|10,0:0|0:0,0:0:0:0:
148,340,98381,1,8,0:0:0:0:
148,340,98606,6,2,B|180:344|180:344|204:340|204:340|244:344,1,90,2|2,1:0|0:0,0:0:0:0:
320,340,99283,2,2,B|360:320|360:320|364:304|364:304|392:296|392:296|416:276,1,120,2|10,0:0|0:0,0:0:0:0:
468,184,100185,1,8,0:0:0:0:
468,184,100411,6,2,B|472:140|472:140|468:112|468:112|472:88,1,90
396,68,101087,2,2,B|388:104|388:104|391:139|391:139|389:166|389:166|385:194,1,120,2|10,0:0|0:0,0:0:0:0:
376,296,101990,1,8,0:0:0:0:
376,296,102215,6,2,B|332:292|332:292|304:296|304:296|280:292,1,90
204,296,102892,2,2,B|156:304|156:304|88:276,1,120,2|8,0:0|0:0,0:0:0:0:
68,228,103569,2,0,L|76:156,1,60,4|8,1:2|0:0,0:0:0:0:
84,116,104020,1,0,1:0:0:0:
320,76,110787,6,0,B|368:88|368:88|416:80,2,90,12|12|8,1:2|1:2|0:0,0:0:0:0:
268,64,111689,2,0,L|168:76,1,90,8|10,0:0|0:2,0:0:0:0:
96,80,112366,2,0,L|36:64,2,60,8|2|8,0:0|0:2|0:0,0:0:0:0:
120,128,113042,6,0,P|124:188|112:216,1,90,2|0,0:2|1:0,0:0:0:0:
52,268,113719,2,0,P|48:328|60:356,1,90,2|0,0:2|0:0,0:0:0:0:
140,372,114396,2,0,L|204:376,1,60,2|8,0:2|0:0,0:0:0:0:
308,356,115072,5,8,0:0:0:0:
308,356,115298,2,0,P|356:328|372:288,1,90,8|10,0:0|0:2,0:0:0:0:
388,220,115975,2,0,P|386:189|396:156,2,60,8|2|10,0:0|0:2|0:2,0:0:0:0:
436,244,116651,5,2,0:2:0:0:
496,155,117102,2,0,P|486:112|456:79,1,90,0|8,0:0|0:0,0:0:0:0:
376,68,117779,2,0,L|272:80,1,90,8|8,0:0|0:0,0:0:0:0:
100,112,118907,6,0,P|76:172|84:228,1,120,2|2,0:0|0:0,0:0:0:0:
124,324,119809,2,0,P|160:340|188:340,1,60,2|0,0:0|0:0,0:0:0:0:
232,328,120260,2,0,P|288:328|324:348,2,90,0|2|14,0:0|0:0|0:0,0:0:0:0:
194,289,121162,6,0,P|180:248|189:204,2,90,4|8|10,1:2|0:0|0:0,0:0:0:0:
264,243,122177,2,0,L|368:251,1,90,10|8,0:0|0:0,0:0:0:0:
408,256,122740,6,0,P|444:288|456:328,2,90,4|8|10,1:2|0:0|0:0,0:0:0:0:
368,156,123867,2,0,L|372:92,2,60,10|2|12,0:0|0:0|0:0,0:0:0:0:
300,240,124769,1,0,1:0:0:0:
300,240,124995,6,0,L|208:248,2,90,10|8|8,1:2|0:0|0:0,0:0:0:0:
348,264,125897,2,0,P|368:328|344:372,1,120,2|10,1:2|0:0,0:0:0:0:
264,376,126686,2,0,L|172:368,1,90,8|8,0:0|1:0,0:0:0:0:
120,356,127250,6,0,P|68:364|32:348,2,90,2|0|2,1:2|1:0|0:0,0:0:0:0:
120,247,128378,1,8,0:0:0:0:
120,247,128603,2,0,P|68:239|32:255,2,90,10|8|10,1:2|3:0|0:0,0:0:0:0:
212,302,129731,1,8,0:0:0:0:
212,302,129957,6,0,L|304:302,2,90,2|0|2,1:2|1:0|1:2,0:0:0:0:
136,224,131084,1,10,0:0:0:0:
136,224,131310,2,0,L|46:224,2,90,2|0|2,1:2|0:0|1:2,0:0:0:0:
212,146,132438,1,12,1:2:0:0:
212,146,132664,6,0,L|284:146,1,60,4|8,1:2|0:0,0:0:0:0:
380,156,133339,1,8,0:0:0:0:
380,156,133565,1,8,0:0:0:0:
380,264,134015,6,0,L|360:356,1,90,10|2,0:0|0:0,0:0:0:0:
312,372,134579,2,2,B|276:380|276:380|212:360,1,90,2|10,0:0|0:0,0:0:0:0:
184,328,135143,2,2,L|140:284,1,60,10|4,0:0|1:0,0:0:0:0:
124,180,135819,6,0,P|123:144|144:116,2,60,0|8|8,1:0|0:0|0:0,0:0:0:0:
172,208,136495,1,4,0:0:0:0:
172,208,136720,2,0,L|280:212,2,90,10|2|0,0:0|0:0|2:0,0:0:0:0:
68,236,137848,2,2,L|60:320,1,60,2|8,0:0|0:0,0:0:0:0:
60,348,138299,5,4,1:0:0:0:
164,376,138750,2,0,P|200:376|223:366,1,60,0|8,1:0|0:0,0:0:0:0:
260,328,139201,1,8,0:0:0:0:
280,224,139651,6,0,L|286:119,1,90,10|2,0:0|0:0,0:0:0:0:
276,80,140215,2,2,B|248:64|248:64|172:52,1,90,2|10,0:0|0:0,0:0:0:0:
136,56,140779,2,2,L|76:68,1,60,10|4,0:0|1:0,0:0:0:0:
12,156,141455,6,0,P|-2:192|4:220,1,60,0|8,1:0|0:0,0:0:0:0:
28,260,141906,1,8,0:0:0:0:
28,260,142131,2,0,L|96:268,1,60,4|8,0:0|0:0,0:0:0:0:
196,260,142807,1,10,0:0:0:0:
196,260,143033,2,0,P|224:204|212:144,1,120,2|4,0:0|0:2,0:0:0:0:
156,60,143935,5,4,0:0:0:0:
500,216,145514,1,8,0:0:0:0:
500,216,145740,6,2,B|512:256|512:256|496:320,1,90,6|0,0:0|0:0,0:0:0:0:
440,360,146416,2,2,B|380:368|380:368|312:340,1,120,10|8,0:0|0:0,0:0:0:0:
296,300,147093,2,0,L|300:232,1,60,2|8,0:0|0:0,0:0:0:0:
304,188,147544,6,0,B|318:131|318:131|338:96,1,90,2|2,0:0|0:0,0:0:0:0:
262,63,148221,2,0,B|246:90|246:90|204:131,1,90,10|2,0:0|0:0,0:0:0:0:
128,160,148897,2,0,L|64:156,1,60,2|8,0:0|0:0,0:0:0:0:
16,172,149349,6,2,B|10:213|10:213|12:243|12:243|8:276,1,90,6|0,0:0|0:0,0:0:0:0:
56,328,150025,2,2,B|74:330|74:330|104:328|104:328|135:336|135:336|176:328,1,120,10|8,0:0|0:0,0:0:0:0:
224,312,150702,2,0,L|284:288,1,60,2|10,0:0|0:0,0:0:0:0:
320,252,151153,6,0,B|328:216|328:216|328:188|328:188|336:148,1,90,14|8,0:0|3:0,0:0:0:0:
416,164,151830,2,0,B|408:200|408:200|408:228|408:228|400:268,1,90,8|10,0:3|0:0,0:0:0:0:
384,332,152506,2,0,L|328:354,1,60,2|10,0:0|0:0,0:0:0:0:
276,364,152958,6,2,B|232:372|232:372|176:356,1,90,6|2,0:0|0:0,0:0:0:0:
196,280,153634,2,2,B|240:272|240:272|296:288,1,90,10|2,0:0|0:0,0:0:0:0:
364,296,154311,2,0,L|432:276,1,60,2|10,0:0|0:0,0:0:0:0:
452,236,154762,6,0,B|456:204|456:204|452:172|452:172|460:144,1,90,2|2,0:0|0:0,0:0:0:0:
488,72,155439,2,0,B|463:64|463:64|431:68|431:68|399:64,1,90,10|2,0:0|0:0,0:0:0:0:
324,36,156115,2,0,L|264:44,1,60,2|10,0:0|0:0,0:0:0:0:
212,60,156567,6,0,B|192:120|192:120|204:184,1,120,6|0,0:0|0:0,0:0:0:0:
232,220,157243,1,8,0:0:0:0:
232,220,157469,6,0,B|252:280|252:280|240:344,1,120,2|0,0:0|0:0,0:0:0:0:
212,380,158145,1,10,0:0:0:0:
256,192,158371,12,4,160176,0:0:0:0:
444,320,167394,6,0,L|464:200,1,120,2|2,0:0|0:0,0:0:0:0:
360,168,168296,2,0,L|340:286,1,120,2|2,0:0|0:0,0:0:0:0:
236,252,169198,2,0,L|256:134,1,120,2|2,0:0|0:0,0:0:0:0:
152,100,170100,2,0,L|132:218,1,120,2|2,0:0|1:2,0:0:0:0:
148,324,171003,6,0,P|170:343|199:348,1,60,4|4,0:0|0:2,0:0:0:0:
254,344,171454,2,0,L|358:332,2,90,8|8|8,0:0|0:0|0:0,0:0:0:0:
216,244,172582,1,10,0:0:0:0:
216,244,172807,6,0,B|220:208|220:208|216:192|216:192|221:154,2,90,4|4|4,0:2|0:2|0:2,0:0:0:0:
432,268,174386,1,8,1:0:0:0:
432,268,174612,6,0,P|456:228|456:176,2,90,4|2|8,1:0|1:2|1:0,0:0:0:0:
380,284,175514,1,2,1:2:0:0:
276,260,175965,2,0,P|241:257|208:268,1,60,0|8,1:0|1:0,0:0:0:0:
168,288,176416,6,0,P|148:348|155:382,2,90,2|2|8,1:2|1:2|1:0,0:0:0:0:
172,233,177318,1,2,1:2:0:0:
200,128,177770,2,0,P|203:96|192:70,1,60,0|8,1:0|1:0,0:0:0:0:
140,56,178221,6,0,L|48:44,2,90,4|2|8,1:0|1:2|1:0,0:0:0:0:
179,18,179123,2,0,L|271:6,2,90,2|0|8,1:2|1:0|1:0,0:0:0:0:
192,70,180025,6,0,L|224:156,1,90,4|4,1:2|1:2,0:0:0:0:
272,220,180702,2,0,L|330:150,1,90,4|4,1:2|1:2,0:0:0:0:
361,76,181379,2,0,L|289:63,1,60,8|8,1:0|1:0,0:0:0:0:
248,56,181830,6,0,P|200:68|152:56,1,90,4|2,1:0|1:2,0:0:0:0:
93,13,182506,1,8,1:0:0:0:
93,13,182732,2,0,L|65:133,1,120,2|0,1:2|1:0,0:0:0:0:
62,236,183634,6,0,P|92:272|136:284,1,90,2|0,1:2|1:0,0:0:0:0:
213,277,184311,1,8,1:0:0:0:
213,277,184537,2,0,L|273:285,1,60,2|12,1:2|1:2,0:0:0:0:
376,304,185213,1,8,1:0:0:0:
376,304,185439,6,0,P|428:300|464:268,2,90,4|0|8,1:0|1:0|1:0,0:0:0:0:
341,203,186567,2,0,P|340:160|348:144,1,60,8|0,0:0|1:0,0:0:0:0:
364,92,187018,1,8,1:0:0:0:
400,52,187243,6,0,L|460:64,2,60,2|8|0,1:2|1:0|1:0,0:0:0:0:
324,24,188033,2,0,L|234:42,1,90,8|12,1:0|1:2,0:0:0:0:
184,56,188597,2,0,L|136:92,1,60,2|8,1:2|1:0,0:0:0:0:
100,132,189048,5,4,1:0:0:0:
84,236,189499,2,0,P|80:296|96:332,2,90,0|2|8,1:0|1:2|1:0,0:0:0:0:
124,200,190401,2,0,P|152:188|184:192,1,60,2|8,1:2|1:0,0:0:0:0:
232,204,190852,5,2,1:2:0:0:
303,286,191303,2,0,L|295:380,2,90,0|2|12,1:0|1:2|1:2,0:0:0:0:
316,232,192206,2,0,P|334:208|362:198,1,60,0|12,1:0|1:2,0:0:0:0:
416,204,192657,6,0,L|478:222,2,60,4|8|0,1:0|1:0|1:0,0:0:0:0:
396,127,193446,2,0,P|394:85|418:41,1,90,2|8,1:2|1:0,0:0:0:0:
472,39,194010,2,0,P|493:77|493:119,1,60,2|8,1:2|1:0,0:0:0:0:
496,146,194461,5,2,1:2:0:0:
444,240,194912,1,0,0:0:0:0:
368,208,195251,2,0,P|316:204|280:220,1,90,2|12,1:2|1:2,0:0:0:0:
248,260,195815,2,0,P|237:295|240:319,1,60,0|8,1:0|1:0,0:0:0:0:
268,364,196266,6,0,L|336:376,2,60,4|8|0,1:0|1:0|0:0,0:0:0:0:
185,373,197055,2,0,P|128:380|97:363,1,90,2|8,1:2|1:0,0:0:0:0:
76,320,197619,2,0,P|72:283|80:256,1,60,2|8,1:2|1:0,0:0:0:0:
112,220,198070,5,4,1:0:0:0:
192,228,198409,2,0,L|264:240,1,60,8|8,1:3|1:0,0:0:0:0:
304,248,198860,2,0,L|396:228,1,90,4|8,1:2|1:0,0:0:0:0:
468,149,199649,1,8,1:0:0:0:
468,149,199875,6,0,P|484:105|472:57,2,90,2|2|8,1:2|1:2|1:0,0:0:0:0:
442,196,200777,1,4,1:2:0:0:
336,188,201228,2,0,L|276:188,1,60,8|8,0:0|0:0,0:0:0:0:
256,192,201679,12,4,203484,1:2:0:0:
464,200,208446,5,12,1:2:0:0:
440,308,208897,5,4,1:0:0:0:
348,372,209349,2,0,P|297:377|256:360,2,90,0|4|8,1:0|1:2|0:0,0:0:0:0:
360,320,210251,1,2,1:0:0:0:
344,212,210702,5,0,1:0:0:0:
236,196,211153,2,0,L|144:212,2,90,0|4|8,0:0|0:2|0:0,0:0:0:0:
304,112,212281,1,8,0:0:0:0:
304,112,212506,5,4,0:0:0:0:
384,40,212958,2,0,P|428:24|472:36,2,90,0|4|8,0:0|0:2|0:0,0:0:0:0:
380,92,213860,1,2,0:0:0:0:
400,200,214311,6,0,P|404:237|396:264,1,60,0|10,0:0|0:0,0:0:0:0:
376,308,214762,1,0,0:0:0:0:
300,332,215100,2,2,L|208:320,1,90,4|8,1:2|0:0,0:0:0:0:
156,316,215664,2,0,L|96:328,1,60,2|2,0:0|0:0,0:0:0:0:
44,340,216115,5,4,0:0:0:0:
84,240,216567,1,0,0:0:0:0:
36,176,216905,2,2,P|28:120|44:92,1,90,4|10,0:2|0:0,0:0:0:0:
80,52,217469,2,0,P|108:36|137:36,1,60,0|10,0:0|0:0,0:0:0:0:
188,48,217920,5,2,0:0:0:0:
264,80,218258,2,0,L|324:108,1,60,2|2,0:0|0:0,0:0:0:0:
360,140,218709,2,2,L|356:244,1,90,4|8,0:2|0:0,0:0:0:0:
340,336,219499,1,8,0:0:0:0:
340,336,219724,6,0,P|296:357|256:356,2,90,6|2|8,0:0|0:0|0:0,0:0:0:0:
394,336,220627,2,0,P|438:357|478:356,2,90,0|2|8,0:0|0:0|0:0,0:0:0:0:
367,288,221529,6,0,L|367:196,1,90,8|8,0:0|0:0,0:0:0:0:
288,172,222205,2,0,L|288:262,1,90,8|8,0:0|0:0,0:0:0:0:
208,272,222882,1,8,0:0:0:0:
208,272,223107,6,0,L|121:295,1,90,8|8,0:0|0:0,0:0:0:0:
117,378,223783,2,0,L|203:354,1,90,8|8,0:0|0:0,0:0:0:0:
284,344,224461,1,8,0:0:0:0:
284,344,224686,5,2,0:0:0:0:
180,36,226040,1,8,0:0:0:0:
180,36,226265,6,0,L|120:28,2,60,10|10|10,0:0|0:0|0:0,0:0:0:0:
228,56,226942,1,10,0:0:0:0:
228,56,227168,2,0,L|264:108,1,60,10|10,0:0|0:0,0:0:0:0:
292,152,227619,1,10,0:0:0:0:
256,192,227844,12,0,229423,2:0:0:0:
